osu file format v14

[General]
AudioFilename: audio.mp3
AudioLeadIn: 0
PreviewTime: 59981
Countdown: 0
SampleSet: Normal
StackLeniency: 0.7
Mode: 3
LetterboxInBreaks: 0
SpecialStyle: 0
WidescreenStoryboard: 1

[Editor]
Bookmarks: 29157,35750,40530,64596,114376,123937
DistanceSpacing: 1.2
BeatDivisor: 4
GridSize: 16
TimelineZoom: 1.9

[Metadata]
Title:DESTINY
TitleUnicode:DESTINY
Artist:orgt
ArtistUnicode:orgt
Creator:Baio
Version:Insane
Source:THE BMS OF FIGHTERS 2011 - Intersection of conflict -
Tags:destiny salmon bms hybrid electric fusion デスティニーサーモン orangentle fall red & yellow 2004-2011 bof2011 instrumental video game electronic
BeatmapID:4106765
BeatmapSetID:1946260

[Difficulty]
HPDrainRate:8
CircleSize:7
OverallDifficulty:7.5
ApproachRate:5
SliderMultiplier:1.4
SliderTickRate:1

[Events]
//Background and Video events
0,0,"destiny salmon.png",0,0
//Break Periods
//Storyboard Layer 0 (Background)
//Storyboard Layer 1 (Fail)
//Storyboard Layer 2 (Pass)
//Storyboard Layer 3 (Foreground)
//Storyboard Layer 4 (Overlay)
//Storyboard Sound Samples

[TimingPoints]
1300,329.67032967033,4,1,1,35,1,0

[HitObjects]
329,192,1300,5,0,0:0:0:0:
256,192,1464,1,0,0:0:0:0:
182,192,1629,1,0,0:0:0:0:
475,192,1629,1,0,0:0:0:0:
402,192,1794,1,0,0:0:0:0:
109,192,1794,1,0,0:0:0:0:
36,192,1794,1,0,0:0:0:0:
329,192,1959,1,0,0:0:0:0:
256,192,2041,1,0,0:0:0:0:
36,192,2124,1,0,0:0:0:0:
182,192,2124,1,0,0:0:0:0:
475,192,2289,1,0,0:0:0:0:
329,192,2289,1,0,0:0:0:0:
36,192,2453,1,0,0:0:0:0:
109,192,2453,1,0,0:0:0:0:
182,192,2453,1,0,0:0:0:0:
402,192,2618,1,0,0:0:0:0:
329,192,2783,1,0,0:0:0:0:
36,192,2783,1,0,0:0:0:0:
109,192,2783,1,0,0:0:0:0:
256,192,2948,1,0,0:0:0:0:
475,192,3113,1,0,0:0:0:0:
402,192,3113,1,0,0:0:0:0:
182,192,3113,1,0,0:0:0:0:
256,192,3278,1,0,0:0:0:0:
36,192,3442,1,0,0:0:0:0:
109,192,3442,1,0,0:0:0:0:
256,192,3525,1,0,0:0:0:0:
475,192,3607,1,0,0:0:0:0:
402,192,3607,1,0,0:0:0:0:
256,192,3772,128,0,5256:0:0:0:0:
182,192,3772,128,0,5256:0:0:0:0:
329,192,5420,1,0,0:0:0:0:
402,192,5420,1,0,0:0:0:0:
329,192,5585,1,0,0:0:0:0:
402,192,5585,1,0,0:0:0:0:
256,192,5750,1,0,0:0:0:0:
182,192,5832,1,0,0:0:0:0:
36,192,5915,1,0,0:0:0:0:
109,192,5915,1,0,0:0:0:0:
36,192,6080,1,0,0:0:0:0:
109,192,6080,1,0,0:0:0:0:
256,192,6162,1,0,0:0:0:0:
402,192,6245,1,0,0:0:0:0:
475,192,6245,1,0,0:0:0:0:
36,192,6409,1,0,0:0:0:0:
109,192,6409,1,0,0:0:0:0:
182,192,6409,1,0,0:0:0:0:
329,192,6739,1,0,0:0:0:0:
182,192,6821,1,0,0:0:0:0:
475,192,6904,1,0,0:0:0:0:
402,192,6904,1,0,0:0:0:0:
36,192,6904,1,0,0:0:0:0:
182,192,6986,1,0,0:0:0:0:
329,192,7069,1,0,0:0:0:0:
182,192,7151,1,0,0:0:0:0:
402,192,7234,1,0,0:0:0:0:
475,192,7234,1,0,0:0:0:0:
36,192,7234,1,0,0:0:0:0:
256,192,7316,1,0,0:0:0:0:
256,192,7481,1,0,0:0:0:0:
475,192,7563,1,0,0:0:0:0:
402,192,7563,1,0,0:0:0:0:
36,192,7728,1,0,0:0:0:0:
329,192,7728,1,0,0:0:0:0:
182,192,7728,1,0,0:0:0:0:
256,192,8058,1,0,0:0:0:0:
475,192,8223,1,0,0:0:0:0:
36,192,8223,1,0,0:0:0:0:
256,192,8387,1,0,0:0:0:0:
36,192,8552,1,0,0:0:0:0:
475,192,8552,1,0,0:0:0:0:
182,192,8635,1,0,0:0:0:0:
329,192,8717,1,0,0:0:0:0:
402,192,8717,1,0,0:0:0:0:
182,192,8800,1,0,0:0:0:0:
36,192,8882,1,0,0:0:0:0:
109,192,8882,1,0,0:0:0:0:
329,192,9047,1,0,0:0:0:0:
402,192,9047,1,0,0:0:0:0:
182,192,9212,1,0,0:0:0:0:
182,192,9376,1,0,0:0:0:0:
402,192,9541,1,0,0:0:0:0:
475,192,9541,1,0,0:0:0:0:
256,192,9706,1,0,0:0:0:0:
475,192,9871,1,0,0:0:0:0:
402,192,9871,1,0,0:0:0:0:
256,192,9953,1,0,0:0:0:0:
36,192,10036,1,0,0:0:0:0:
109,192,10036,1,0,0:0:0:0:
256,192,10118,1,0,0:0:0:0:
402,192,10201,1,0,0:0:0:0:
475,192,10201,1,0,0:0:0:0:
36,192,10365,1,0,0:0:0:0:
109,192,10365,1,0,0:0:0:0:
182,192,10365,1,0,0:0:0:0:
36,192,10695,1,0,0:0:0:0:
329,192,10695,1,0,0:0:0:0:
475,192,10695,1,0,0:0:0:0:
109,192,10778,1,0,0:0:0:0:
182,192,10860,1,0,0:0:0:0:
329,192,10860,1,0,0:0:0:0:
475,192,10860,1,0,0:0:0:0:
182,192,11025,1,0,0:0:0:0:
329,192,11190,1,0,0:0:0:0:
475,192,11190,1,0,0:0:0:0:
182,192,11354,1,0,0:0:0:0:
36,192,11354,1,0,0:0:0:0:
256,192,11437,1,0,0:0:0:0:
329,192,11519,1,0,0:0:0:0:
475,192,11519,1,0,0:0:0:0:
36,192,11684,1,0,0:0:0:0:
182,192,11684,1,0,0:0:0:0:
109,192,11684,1,0,0:0:0:0:
402,192,11849,1,0,0:0:0:0:
402,192,12014,1,0,0:0:0:0:
329,192,12179,1,0,0:0:0:0:
182,192,12179,1,0,0:0:0:0:
109,192,12179,1,0,0:0:0:0:
256,192,12343,1,0,0:0:0:0:
182,192,12508,1,0,0:0:0:0:
329,192,12508,1,0,0:0:0:0:
402,192,12508,1,0,0:0:0:0:
36,192,12591,1,0,0:0:0:0:
475,192,12673,1,0,0:0:0:0:
402,192,12756,1,0,0:0:0:0:
329,192,12838,1,0,0:0:0:0:
109,192,12838,1,0,0:0:0:0:
256,192,12920,1,0,0:0:0:0:
182,192,13003,1,0,0:0:0:0:
475,192,13003,1,0,0:0:0:0:
36,192,13003,1,0,0:0:0:0:
402,192,13085,1,0,0:0:0:0:
329,192,13168,1,0,0:0:0:0:
109,192,13332,1,0,0:0:0:0:
182,192,13332,1,0,0:0:0:0:
329,192,13497,1,0,0:0:0:0:
402,192,13497,1,0,0:0:0:0:
475,192,13497,1,0,0:0:0:0:
182,192,13662,1,0,0:0:0:0:
109,192,13662,1,0,0:0:0:0:
475,192,13827,1,0,0:0:0:0:
402,192,13909,1,0,0:0:0:0:
329,192,13992,1,0,0:0:0:0:
109,192,13992,1,0,0:0:0:0:
182,192,14074,1,0,0:0:0:0:
256,192,14157,1,0,0:0:0:0:
402,192,14239,1,0,0:0:0:0:
329,192,14239,1,0,0:0:0:0:
36,192,14321,1,0,0:0:0:0:
109,192,14321,1,0,0:0:0:0:
475,192,14486,1,0,0:0:0:0:
329,192,14486,1,0,0:0:0:0:
475,192,14651,1,0,0:0:0:0:
329,192,14651,1,0,0:0:0:0:
36,192,14816,1,0,0:0:0:0:
109,192,14816,1,0,0:0:0:0:
256,192,14981,1,0,0:0:0:0:
402,192,14981,1,0,0:0:0:0:
256,192,15146,1,0,0:0:0:0:
402,192,15146,1,0,0:0:0:0:
36,192,15310,1,0,0:0:0:0:
109,192,15310,1,0,0:0:0:0:
329,192,15475,1,0,0:0:0:0:
182,192,15475,1,0,0:0:0:0:
329,192,15640,1,0,0:0:0:0:
182,192,15640,1,0,0:0:0:0:
109,192,15805,1,0,0:0:0:0:
36,192,15805,1,0,0:0:0:0:
402,192,15970,1,0,0:0:0:0:
329,192,16052,1,0,0:0:0:0:
36,192,16135,1,0,0:0:0:0:
256,192,16135,1,0,0:0:0:0:
109,192,16217,1,0,0:0:0:0:
402,192,16300,1,0,0:0:0:0:
475,192,16300,1,0,0:0:0:0:
182,192,16300,1,0,0:0:0:0:
329,192,16464,1,0,0:0:0:0:
182,192,16547,1,0,0:0:0:0:
36,192,16629,1,0,0:0:0:0:
182,192,16712,1,0,0:0:0:0:
329,192,16794,1,0,0:0:0:0:
402,192,16794,1,0,0:0:0:0:
475,192,16794,1,0,0:0:0:0:
109,192,16959,128,0,18278:0:0:0:0:
182,192,16959,128,0,18278:0:0:0:0:
402,192,17289,1,0,0:0:0:0:
402,192,17618,1,0,0:0:0:0:
402,192,17948,1,0,0:0:0:0:
329,192,18113,1,0,0:0:0:0:
475,192,18113,1,0,0:0:0:0:
329,192,18278,1,0,0:0:0:0:
475,192,18278,1,0,0:0:0:0:
109,192,18607,1,0,0:0:0:0:
182,192,18690,1,0,0:0:0:0:
109,192,18772,1,0,0:0:0:0:
182,192,18854,1,0,0:0:0:0:
109,192,18937,1,0,0:0:0:0:
402,192,19102,1,0,0:0:0:0:
329,192,19184,1,0,0:0:0:0:
402,192,19267,1,0,0:0:0:0:
329,192,19349,1,0,0:0:0:0:
402,192,19431,1,0,0:0:0:0:
109,192,19431,1,0,0:0:0:0:
36,192,19596,1,0,0:0:0:0:
256,192,19596,1,0,0:0:0:0:
475,192,19596,1,0,0:0:0:0:
36,192,19926,128,0,20091:0:0:0:0:
182,192,20091,128,0,20256:0:0:0:0:
329,192,20256,128,0,20420:0:0:0:0:
109,192,20420,128,0,20585:0:0:0:0:
256,192,20585,128,0,20750:0:0:0:0:
402,192,20750,128,0,20915:0:0:0:0:
182,192,20915,128,0,21245:0:0:0:0:
36,192,20915,128,0,21245:0:0:0:0:
329,192,21245,128,0,21409:0:0:0:0:
182,192,21409,128,0,21574:0:0:0:0:
329,192,21574,128,0,21904:0:0:0:0:
475,192,21574,128,0,21904:0:0:0:0:
256,192,21904,128,0,22069:0:0:0:0:
182,192,22069,128,0,22234:0:0:0:0:
329,192,22234,128,0,22563:0:0:0:0:
475,192,22234,128,0,22563:0:0:0:0:
182,192,22563,128,0,22728:0:0:0:0:
109,192,22728,128,0,22893:0:0:0:0:
402,192,22893,128,0,23223:0:0:0:0:
256,192,22893,128,0,23223:0:0:0:0:
109,192,23223,128,0,23387:0:0:0:0:
36,192,23387,128,0,23552:0:0:0:0:
182,192,23552,128,0,24376:0:0:0:0:
329,192,23552,128,0,24376:0:0:0:0:
109,192,24541,128,0,24706:0:0:0:0:
256,192,24706,128,0,24871:0:0:0:0:
109,192,24871,128,0,25201:0:0:0:0:
402,192,24871,128,0,25201:0:0:0:0:
475,192,24871,1,0,0:0:0:0:
256,192,25201,128,0,25365:0:0:0:0:
402,192,25365,128,0,25530:0:0:0:0:
182,192,25530,128,0,25860:0:0:0:0:
36,192,25530,128,0,25860:0:0:0:0:
329,192,25860,128,0,26025:0:0:0:0:
475,192,26025,128,0,26190:0:0:0:0:
109,192,26190,128,0,26519:0:0:0:0:
256,192,26190,128,0,26519:0:0:0:0:
36,192,26190,1,0,0:0:0:0:
402,192,26519,128,0,26684:0:0:0:0:
256,192,26684,128,0,26849:0:0:0:0:
475,192,26849,1,0,0:0:0:0:
402,192,26849,128,0,27179:0:0:0:0:
109,192,26849,128,0,27179:0:0:0:0:
182,192,27179,128,0,27343:0:0:0:0:
329,192,27343,128,0,27508:0:0:0:0:
475,192,27508,1,0,0:0:0:0:
402,192,27508,128,0,27838:0:0:0:0:
182,192,27508,128,0,27838:0:0:0:0:
36,192,27838,128,0,28003:0:0:0:0:
182,192,28003,128,0,28168:0:0:0:0:
475,192,28168,128,0,28497:0:0:0:0:
329,192,28168,128,0,28497:0:0:0:0:
182,192,28497,128,0,28662:0:0:0:0:
36,192,28662,128,0,28827:0:0:0:0:
256,192,28827,128,0,29074:0:0:0:0:
475,192,28827,128,0,29486:0:0:0:0:
109,192,29157,1,0,0:0:0:0:
402,192,29157,128,0,29486:0:0:0:0:
182,192,29239,1,0,0:0:0:0:
36,192,29321,1,0,0:0:0:0:
329,192,29321,128,0,29486:0:0:0:0:
109,192,29404,1,0,0:0:0:0:
256,192,29486,1,0,0:0:0:0:
182,192,29486,1,0,0:0:0:0:
256,192,29816,128,0,30310:0:0:0:0:
329,192,29816,1,0,0:0:0:0:
36,192,29981,1,0,0:0:0:0:
109,192,29981,1,0,0:0:0:0:
402,192,30063,1,0,0:0:0:0:
475,192,30063,1,0,0:0:0:0:
36,192,30146,1,0,0:0:0:0:
109,192,30146,1,0,0:0:0:0:
402,192,30228,1,0,0:0:0:0:
475,192,30228,1,0,0:0:0:0:
182,192,30310,1,0,0:0:0:0:
329,192,30475,128,0,30640:0:0:0:0:
182,192,30640,128,0,30805:0:0:0:0:
109,192,30640,1,0,0:0:0:0:
36,192,30640,1,0,0:0:0:0:
402,192,30805,128,0,30970:0:0:0:0:
256,192,30970,128,0,31135:0:0:0:0:
36,192,30970,1,0,0:0:0:0:
475,192,31135,128,0,31300:0:0:0:0:
109,192,31135,1,0,0:0:0:0:
329,192,31300,128,0,31464:0:0:0:0:
256,192,31300,1,0,0:0:0:0:
109,192,31464,1,0,0:0:0:0:
182,192,31464,128,0,31794:0:0:0:0:
329,192,31794,128,0,31959:0:0:0:0:
402,192,31794,1,0,0:0:0:0:
109,192,31959,128,0,32124:0:0:0:0:
36,192,31959,1,0,0:0:0:0:
256,192,32124,128,0,32453:0:0:0:0:
475,192,32289,1,0,0:0:0:0:
402,192,32371,1,0,0:0:0:0:
329,192,32453,1,0,0:0:0:0:
36,192,32453,128,0,32618:0:0:0:0:
475,192,32618,1,0,0:0:0:0:
402,192,32618,1,0,0:0:0:0:
182,192,32618,128,0,32783:0:0:0:0:
329,192,32783,128,0,33113:0:0:0:0:
36,192,32783,1,0,0:0:0:0:
36,192,33113,128,0,33278:0:0:0:0:
256,192,33113,1,0,0:0:0:0:
182,192,33278,128,0,33442:0:0:0:0:
402,192,33278,1,0,0:0:0:0:
475,192,33278,1,0,0:0:0:0:
329,192,33442,128,0,33772:0:0:0:0:
36,192,33442,1,0,0:0:0:0:
182,192,33772,128,0,33937:0:0:0:0:
475,192,33772,1,0,0:0:0:0:
329,192,33937,128,0,34102:0:0:0:0:
109,192,33937,1,0,0:0:0:0:
36,192,33937,1,0,0:0:0:0:
182,192,34102,128,0,34926:0:0:0:0:
475,192,34102,1,0,0:0:0:0:
256,192,34431,1,0,0:0:0:0:
475,192,34431,1,0,0:0:0:0:
36,192,34596,1,0,0:0:0:0:
402,192,34596,1,0,0:0:0:0:
109,192,34596,1,0,0:0:0:0:
402,192,34926,128,0,35091:0:0:0:0:
36,192,34926,1,0,0:0:0:0:
256,192,35091,128,0,35256:0:0:0:0:
109,192,35256,128,0,35420:0:0:0:0:
36,192,35256,1,0,0:0:0:0:
475,192,35256,1,0,0:0:0:0:
329,192,35420,128,0,35750:0:0:0:0:
402,192,35420,1,0,0:0:0:0:
182,192,35750,1,0,0:0:0:0:
182,192,35915,1,0,0:0:0:0:
402,192,35915,1,0,0:0:0:0:
475,192,35915,1,0,0:0:0:0:
182,192,36080,1,0,0:0:0:0:
329,192,36245,1,0,0:0:0:0:
36,192,36245,1,0,0:0:0:0:
329,192,36409,1,0,0:0:0:0:
109,192,36409,1,0,0:0:0:0:
329,192,36574,1,0,0:0:0:0:
182,192,36574,1,0,0:0:0:0:
475,192,36574,1,0,0:0:0:0:
256,192,36739,128,0,37069:0:0:0:0:
36,192,36739,1,0,0:0:0:0:
475,192,37069,128,0,37234:0:0:0:0:
182,192,37069,1,0,0:0:0:0:
36,192,37234,1,0,0:0:0:0:
329,192,37234,128,0,37398:0:0:0:0:
109,192,37234,1,0,0:0:0:0:
182,192,37398,128,0,37728:0:0:0:0:
475,192,37398,1,0,0:0:0:0:
475,192,37646,1,0,0:0:0:0:
329,192,37728,128,0,37893:0:0:0:0:
256,192,37893,128,0,38058:0:0:0:0:
36,192,37893,1,0,0:0:0:0:
109,192,37893,1,0,0:0:0:0:
182,192,38058,128,0,38387:0:0:0:0:
402,192,38058,1,0,0:0:0:0:
475,192,38058,1,0,0:0:0:0:
329,192,38387,1,0,0:0:0:0:
36,192,38387,128,0,38552:0:0:0:0:
402,192,38470,1,0,0:0:0:0:
475,192,38552,1,0,0:0:0:0:
182,192,38552,128,0,38717:0:0:0:0:
329,192,38717,128,0,39047:0:0:0:0:
402,192,38717,1,0,0:0:0:0:
36,192,38717,1,0,0:0:0:0:
182,192,38964,1,0,0:0:0:0:
475,192,39047,128,0,39212:0:0:0:0:
36,192,39047,1,0,0:0:0:0:
329,192,39212,128,0,39376:0:0:0:0:
256,192,39212,1,0,0:0:0:0:
182,192,39376,128,0,40530:0:0:0:0:
475,192,39376,1,0,0:0:0:0:
109,192,39376,1,0,0:0:0:0:
402,192,39706,1,0,0:0:0:0:
329,192,39789,1,0,0:0:0:0:
256,192,39871,1,0,0:0:0:0:
36,192,39871,1,0,0:0:0:0:
475,192,40036,1,0,0:0:0:0:
402,192,40118,1,0,0:0:0:0:
36,192,40201,1,0,0:0:0:0:
329,192,40201,1,0,0:0:0:0:
36,192,40365,1,0,0:0:0:0:
329,192,40365,1,0,0:0:0:0:
475,192,40530,1,0,0:0:0:0:
402,192,40613,1,0,0:0:0:0:
329,192,40695,1,0,0:0:0:0:
109,192,40695,1,0,0:0:0:0:
182,192,40778,1,0,0:0:0:0:
402,192,40860,1,0,0:0:0:0:
475,192,40860,1,0,0:0:0:0:
256,192,40860,1,0,0:0:0:0:
475,192,41190,128,0,41849:0:0:0:0:
182,192,41354,1,0,0:0:0:0:
109,192,41519,1,0,0:0:0:0:
36,192,41519,1,0,0:0:0:0:
256,192,41519,128,0,41849:0:0:0:0:
402,192,41849,128,0,42508:0:0:0:0:
182,192,42179,128,0,42508:0:0:0:0:
36,192,42179,1,0,0:0:0:0:
329,192,42508,128,0,42838:0:0:0:0:
109,192,42673,128,0,42838:0:0:0:0:
475,192,42673,1,0,0:0:0:0:
402,192,42756,1,0,0:0:0:0:
256,192,42838,1,0,0:0:0:0:
36,192,42838,1,0,0:0:0:0:
109,192,43003,128,0,43332:0:0:0:0:
182,192,43003,128,0,43332:0:0:0:0:
402,192,43332,128,0,44157:0:0:0:0:
475,192,43332,128,0,44157:0:0:0:0:
256,192,43992,1,0,0:0:0:0:
182,192,43992,1,0,0:0:0:0:
329,192,44157,1,0,0:0:0:0:
109,192,44157,128,0,44321:0:0:0:0:
36,192,44157,1,0,0:0:0:0:
256,192,44321,128,0,44486:0:0:0:0:
475,192,44404,1,0,0:0:0:0:
402,192,44486,128,0,44651:0:0:0:0:
36,192,44486,1,0,0:0:0:0:
109,192,44651,128,0,44981:0:0:0:0:
182,192,44651,1,0,0:0:0:0:
256,192,44981,1,0,0:0:0:0:
402,192,44981,1,0,0:0:0:0:
329,192,45146,128,0,45310:0:0:0:0:
36,192,45310,1,0,0:0:0:0:
182,192,45310,1,0,0:0:0:0:
256,192,45475,128,0,45805:0:0:0:0:
402,192,45475,128,0,45805:0:0:0:0:
475,192,45475,1,0,0:0:0:0:
182,192,45805,128,0,46135:0:0:0:0:
329,192,45805,128,0,46135:0:0:0:0:
109,192,46135,128,0,46464:0:0:0:0:
256,192,46135,128,0,46464:0:0:0:0:
475,192,46464,128,0,46629:0:0:0:0:
329,192,46629,128,0,46794:0:0:0:0:
36,192,46794,1,0,0:0:0:0:
109,192,46794,1,0,0:0:0:0:
182,192,46794,1,0,0:0:0:0:
402,192,46959,128,0,47453:0:0:0:0:
256,192,47124,128,0,47453:0:0:0:0:
109,192,47289,128,0,47453:0:0:0:0:
36,192,47289,1,0,0:0:0:0:
182,192,47618,128,0,47783:0:0:0:0:
402,192,47618,1,0,0:0:0:0:
256,192,47783,128,0,47948:0:0:0:0:
36,192,47783,1,0,0:0:0:0:
475,192,47783,1,0,0:0:0:0:
329,192,47948,128,0,48113:0:0:0:0:
475,192,48113,128,0,48278:0:0:0:0:
109,192,48113,1,0,0:0:0:0:
182,192,48195,1,0,0:0:0:0:
402,192,48278,128,0,48442:0:0:0:0:
256,192,48278,1,0,0:0:0:0:
36,192,48360,1,0,0:0:0:0:
329,192,48442,128,0,48607:0:0:0:0:
109,192,48442,1,0,0:0:0:0:
182,192,48525,1,0,0:0:0:0:
256,192,48607,1,0,0:0:0:0:
475,192,48607,1,0,0:0:0:0:
36,192,48607,128,0,50091:0:0:0:0:
329,192,48937,1,0,0:0:0:0:
182,192,48937,1,0,0:0:0:0:
256,192,49102,1,0,0:0:0:0:
402,192,49102,1,0,0:0:0:0:
475,192,49102,1,0,0:0:0:0:
182,192,49267,1,0,0:0:0:0:
109,192,49267,1,0,0:0:0:0:
329,192,49267,1,0,0:0:0:0:
475,192,49514,1,0,0:0:0:0:
256,192,49514,1,0,0:0:0:0:
182,192,49596,1,0,0:0:0:0:
402,192,49596,1,0,0:0:0:0:
109,192,49679,1,0,0:0:0:0:
329,192,49679,1,0,0:0:0:0:
256,192,49761,1,0,0:0:0:0:
475,192,49761,1,0,0:0:0:0:
402,192,49926,1,0,0:0:0:0:
256,192,50091,1,0,0:0:0:0:
182,192,50091,1,0,0:0:0:0:
329,192,50091,1,0,0:0:0:0:
475,192,50256,1,0,0:0:0:0:
329,192,50338,1,0,0:0:0:0:
109,192,50420,1,0,0:0:0:0:
182,192,50420,1,0,0:0:0:0:
36,192,50420,1,0,0:0:0:0:
329,192,50585,1,0,0:0:0:0:
109,192,50750,1,0,0:0:0:0:
36,192,50750,1,0,0:0:0:0:
182,192,50750,1,0,0:0:0:0:
329,192,50915,1,0,0:0:0:0:
475,192,51080,1,0,0:0:0:0:
256,192,51080,1,0,0:0:0:0:
402,192,51162,1,0,0:0:0:0:
182,192,51162,1,0,0:0:0:0:
329,192,51245,1,0,0:0:0:0:
109,192,51245,1,0,0:0:0:0:
256,192,51327,1,0,0:0:0:0:
36,192,51327,1,0,0:0:0:0:
109,192,51409,1,0,0:0:0:0:
329,192,51409,1,0,0:0:0:0:
182,192,51492,1,0,0:0:0:0:
402,192,51492,1,0,0:0:0:0:
256,192,51574,1,0,0:0:0:0:
475,192,51574,1,0,0:0:0:0:
329,192,51657,1,0,0:0:0:0:
109,192,51739,128,0,52069:0:0:0:0:
36,192,51739,128,0,52069:0:0:0:0:
182,192,51739,128,0,52069:0:0:0:0:
402,192,52069,1,0,0:0:0:0:
329,192,52069,1,0,0:0:0:0:
329,192,52234,1,0,0:0:0:0:
402,192,52234,1,0,0:0:0:0:
182,192,52398,1,0,0:0:0:0:
256,192,52398,1,0,0:0:0:0:
329,192,52398,1,0,0:0:0:0:
475,192,52563,128,0,53387:0:0:0:0:
36,192,52563,128,0,53387:0:0:0:0:
256,192,52893,1,0,0:0:0:0:
402,192,52893,1,0,0:0:0:0:
329,192,53058,1,0,0:0:0:0:
182,192,53058,1,0,0:0:0:0:
109,192,53058,1,0,0:0:0:0:
256,192,53223,1,0,0:0:0:0:
36,192,53552,128,0,53717:0:0:0:0:
256,192,53552,1,0,0:0:0:0:
329,192,53635,1,0,0:0:0:0:
475,192,53717,1,0,0:0:0:0:
402,192,53717,1,0,0:0:0:0:
182,192,53717,128,0,53882:0:0:0:0:
329,192,53882,1,0,0:0:0:0:
109,192,54047,128,0,54376:0:0:0:0:
36,192,54047,128,0,54376:0:0:0:0:
329,192,54212,1,0,0:0:0:0:
402,192,54376,128,0,54706:0:0:0:0:
256,192,54376,1,0,0:0:0:0:
475,192,54376,128,0,54706:0:0:0:0:
182,192,54706,128,0,54871:0:0:0:0:
329,192,54871,128,0,55036:0:0:0:0:
36,192,55036,1,0,0:0:0:0:
475,192,55036,1,0,0:0:0:0:
109,192,55036,1,0,0:0:0:0:
256,192,55201,128,0,56190:0:0:0:0:
402,192,55201,128,0,55860:0:0:0:0:
329,192,55530,1,0,0:0:0:0:
36,192,55695,1,0,0:0:0:0:
109,192,55695,1,0,0:0:0:0:
182,192,55695,1,0,0:0:0:0:
182,192,56025,1,0,0:0:0:0:
109,192,56025,1,0,0:0:0:0:
402,192,56190,128,0,56354:0:0:0:0:
329,192,56190,128,0,56354:0:0:0:0:
109,192,56354,128,0,56519:0:0:0:0:
182,192,56354,128,0,56519:0:0:0:0:
36,192,56354,1,0,0:0:0:0:
329,192,56519,128,0,56684:0:0:0:0:
402,192,56519,128,0,56684:0:0:0:0:
182,192,56684,128,0,57014:0:0:0:0:
109,192,56684,1,0,0:0:0:0:
475,192,56931,1,0,0:0:0:0:
36,192,57014,1,0,0:0:0:0:
329,192,57014,128,0,57343:0:0:0:0:
109,192,57014,1,0,0:0:0:0:
182,192,57343,128,0,57508:0:0:0:0:
475,192,57343,1,0,0:0:0:0:
36,192,57508,128,0,57838:0:0:0:0:
402,192,57508,1,0,0:0:0:0:
475,192,57673,1,0,0:0:0:0:
329,192,57673,1,0,0:0:0:0:
256,192,57673,1,0,0:0:0:0:
402,192,57838,128,0,58332:0:0:0:0:
109,192,57838,1,0,0:0:0:0:
256,192,58168,1,0,0:0:0:0:
182,192,58250,1,0,0:0:0:0:
109,192,58332,1,0,0:0:0:0:
36,192,58332,1,0,0:0:0:0:
329,192,58332,128,0,58497:0:0:0:0:
182,192,58497,128,0,58662:0:0:0:0:
475,192,58497,1,0,0:0:0:0:
402,192,58662,1,0,0:0:0:0:
36,192,58662,1,0,0:0:0:0:
329,192,58827,128,0,58992:0:0:0:0:
109,192,58827,1,0,0:0:0:0:
256,192,58992,128,0,59157:0:0:0:0:
36,192,58992,1,0,0:0:0:0:
475,192,58992,1,0,0:0:0:0:
182,192,59157,128,0,59321:0:0:0:0:
402,192,59157,1,0,0:0:0:0:
36,192,59321,1,0,0:0:0:0:
109,192,59321,1,0,0:0:0:0:
329,192,59321,128,0,59569:0:0:0:0:
402,192,59651,1,0,0:0:0:0:
475,192,59651,1,0,0:0:0:0:
109,192,59651,1,0,0:0:0:0:
182,192,59734,1,0,0:0:0:0:
329,192,59816,1,0,0:0:0:0:
402,192,59898,1,0,0:0:0:0:
109,192,59981,1,0,0:0:0:0:
36,192,59981,1,0,0:0:0:0:
182,192,60063,1,0,0:0:0:0:
256,192,60063,1,0,0:0:0:0:
475,192,60146,1,0,0:0:0:0:
402,192,60146,1,0,0:0:0:0:
329,192,60228,1,0,0:0:0:0:
36,192,60310,1,0,0:0:0:0:
182,192,60310,1,0,0:0:0:0:
109,192,60310,1,0,0:0:0:0:
256,192,60393,1,0,0:0:0:0:
329,192,60475,1,0,0:0:0:0:
402,192,60475,1,0,0:0:0:0:
109,192,60558,1,0,0:0:0:0:
182,192,60640,1,0,0:0:0:0:
256,192,60723,1,0,0:0:0:0:
329,192,60805,1,0,0:0:0:0:
402,192,60805,1,0,0:0:0:0:
109,192,60887,1,0,0:0:0:0:
402,192,60970,1,0,0:0:0:0:
475,192,60970,1,0,0:0:0:0:
256,192,60970,1,0,0:0:0:0:
182,192,61052,1,0,0:0:0:0:
109,192,61135,1,0,0:0:0:0:
329,192,61217,1,0,0:0:0:0:
256,192,61300,1,0,0:0:0:0:
475,192,61300,1,0,0:0:0:0:
182,192,61382,1,0,0:0:0:0:
109,192,61464,1,0,0:0:0:0:
329,192,61464,1,0,0:0:0:0:
36,192,61547,1,0,0:0:0:0:
182,192,61629,1,0,0:0:0:0:
402,192,61629,1,0,0:0:0:0:
475,192,61629,1,0,0:0:0:0:
256,192,61712,1,0,0:0:0:0:
329,192,61794,1,0,0:0:0:0:
402,192,61876,1,0,0:0:0:0:
109,192,61959,1,0,0:0:0:0:
36,192,61959,1,0,0:0:0:0:
475,192,61959,1,0,0:0:0:0:
182,192,61959,1,0,0:0:0:0:
329,192,62124,1,0,0:0:0:0:
475,192,62289,1,0,0:0:0:0:
402,192,62289,1,0,0:0:0:0:
109,192,62289,1,0,0:0:0:0:
182,192,62371,1,0,0:0:0:0:
256,192,62453,1,0,0:0:0:0:
182,192,62536,1,0,0:0:0:0:
36,192,62618,1,0,0:0:0:0:
402,192,62618,1,0,0:0:0:0:
329,192,62701,1,0,0:0:0:0:
256,192,62783,1,0,0:0:0:0:
36,192,62783,1,0,0:0:0:0:
109,192,62865,1,0,0:0:0:0:
475,192,62948,1,0,0:0:0:0:
402,192,62948,1,0,0:0:0:0:
182,192,62948,1,0,0:0:0:0:
329,192,63030,1,0,0:0:0:0:
256,192,63113,1,0,0:0:0:0:
36,192,63113,1,0,0:0:0:0:
182,192,63195,1,0,0:0:0:0:
402,192,63278,1,0,0:0:0:0:
329,192,63360,1,0,0:0:0:0:
256,192,63442,1,0,0:0:0:0:
36,192,63442,1,0,0:0:0:0:
109,192,63525,1,0,0:0:0:0:
329,192,63525,1,0,0:0:0:0:
475,192,63607,1,0,0:0:0:0:
402,192,63607,1,0,0:0:0:0:
182,192,63607,1,0,0:0:0:0:
256,192,63690,1,0,0:0:0:0:
109,192,63772,1,0,0:0:0:0:
36,192,63772,1,0,0:0:0:0:
402,192,63854,1,0,0:0:0:0:
329,192,63937,1,0,0:0:0:0:
256,192,64019,1,0,0:0:0:0:
182,192,64102,1,0,0:0:0:0:
329,192,64102,1,0,0:0:0:0:
256,192,64184,1,0,0:0:0:0:
36,192,64267,1,0,0:0:0:0:
475,192,64267,1,0,0:0:0:0:
109,192,64267,1,0,0:0:0:0:
402,192,64267,1,0,0:0:0:0:
109,192,64596,1,0,0:0:0:0:
36,192,64596,1,0,0:0:0:0:
329,192,64596,1,0,0:0:0:0:
329,192,64761,1,0,0:0:0:0:
402,192,64926,1,0,0:0:0:0:
329,192,64926,1,0,0:0:0:0:
182,192,65091,1,0,0:0:0:0:
109,192,65091,1,0,0:0:0:0:
182,192,65256,1,0,0:0:0:0:
182,192,65420,1,0,0:0:0:0:
402,192,65420,1,0,0:0:0:0:
475,192,65420,1,0,0:0:0:0:
36,192,65585,1,0,0:0:0:0:
109,192,65585,1,0,0:0:0:0:
329,192,65585,1,0,0:0:0:0:
329,192,65750,1,0,0:0:0:0:
329,192,65915,1,0,0:0:0:0:
402,192,65915,1,0,0:0:0:0:
36,192,66080,1,0,0:0:0:0:
109,192,66080,1,0,0:0:0:0:
402,192,66162,1,0,0:0:0:0:
475,192,66162,1,0,0:0:0:0:
109,192,66245,1,0,0:0:0:0:
36,192,66245,1,0,0:0:0:0:
182,192,66409,1,0,0:0:0:0:
256,192,66409,1,0,0:0:0:0:
475,192,66574,1,0,0:0:0:0:
402,192,66574,1,0,0:0:0:0:
329,192,66574,1,0,0:0:0:0:
36,192,66739,1,0,0:0:0:0:
182,192,66739,1,0,0:0:0:0:
109,192,66904,1,0,0:0:0:0:
256,192,66904,1,0,0:0:0:0:
182,192,67069,1,0,0:0:0:0:
329,192,67069,1,0,0:0:0:0:
256,192,67069,1,0,0:0:0:0:
36,192,67234,1,0,0:0:0:0:
109,192,67234,1,0,0:0:0:0:
475,192,67234,1,0,0:0:0:0:
402,192,67234,1,0,0:0:0:0:
329,192,67398,1,0,0:0:0:0:
182,192,67398,1,0,0:0:0:0:
182,192,67563,1,0,0:0:0:0:
329,192,67563,1,0,0:0:0:0:
36,192,67728,1,0,0:0:0:0:
109,192,67728,1,0,0:0:0:0:
475,192,67728,1,0,0:0:0:0:
402,192,67728,1,0,0:0:0:0:
256,192,67893,1,0,0:0:0:0:
182,192,67975,1,0,0:0:0:0:
329,192,67975,1,0,0:0:0:0:
109,192,68058,1,0,0:0:0:0:
402,192,68058,1,0,0:0:0:0:
36,192,68140,1,0,0:0:0:0:
475,192,68140,1,0,0:0:0:0:
182,192,68223,1,0,0:0:0:0:
256,192,68223,1,0,0:0:0:0:
329,192,68223,1,0,0:0:0:0:
109,192,68717,1,0,0:0:0:0:
256,192,68717,1,0,0:0:0:0:
402,192,68717,1,0,0:0:0:0:
109,192,68882,1,0,0:0:0:0:
256,192,68882,1,0,0:0:0:0:
402,192,68882,1,0,0:0:0:0:
109,192,69047,1,0,0:0:0:0:
256,192,69047,1,0,0:0:0:0:
402,192,69047,1,0,0:0:0:0:
182,192,69212,1,0,0:0:0:0:
329,192,69212,1,0,0:0:0:0:
475,192,69212,1,0,0:0:0:0:
36,192,69376,1,0,0:0:0:0:
109,192,69459,1,0,0:0:0:0:
475,192,69541,1,0,0:0:0:0:
402,192,69541,1,0,0:0:0:0:
182,192,69541,1,0,0:0:0:0:
256,192,69541,1,0,0:0:0:0:
182,192,69871,128,0,70036:0:0:0:0:
36,192,69871,128,0,70036:0:0:0:0:
329,192,69871,128,0,70036:0:0:0:0:
36,192,70201,128,0,70365:0:0:0:0:
182,192,70201,128,0,70365:0:0:0:0:
329,192,70201,128,0,70365:0:0:0:0:
109,192,70530,128,0,70695:0:0:0:0:
402,192,70530,128,0,70695:0:0:0:0:
256,192,70530,128,0,70695:0:0:0:0:
402,192,70860,128,0,71025:0:0:0:0:
256,192,70860,128,0,71025:0:0:0:0:
109,192,70860,128,0,71025:0:0:0:0:
256,192,71190,1,0,0:0:0:0:
329,192,71190,1,0,0:0:0:0:
256,192,71354,1,0,0:0:0:0:
182,192,71354,1,0,0:0:0:0:
402,192,71519,1,0,0:0:0:0:
475,192,71519,1,0,0:0:0:0:
109,192,71519,1,0,0:0:0:0:
36,192,71519,1,0,0:0:0:0:
329,192,71684,128,0,72179:0:0:0:0:
256,192,71684,128,0,72014:0:0:0:0:
109,192,72014,128,0,72179:0:0:0:0:
402,192,72179,1,0,0:0:0:0:
475,192,72179,1,0,0:0:0:0:
182,192,72179,128,0,72343:0:0:0:0:
256,192,72343,128,0,72508:0:0:0:0:
329,192,72508,128,0,72838:0:0:0:0:
36,192,72508,128,0,72838:0:0:0:0:
182,192,72838,1,0,0:0:0:0:
402,192,73003,1,0,0:0:0:0:
36,192,73003,128,0,73662:0:0:0:0:
329,192,73003,1,0,0:0:0:0:
256,192,73250,1,0,0:0:0:0:
475,192,73332,1,0,0:0:0:0:
402,192,73332,1,0,0:0:0:0:
109,192,73332,128,0,73662:0:0:0:0:
402,192,73497,1,0,0:0:0:0:
475,192,73497,1,0,0:0:0:0:
329,192,73662,1,0,0:0:0:0:
256,192,73662,128,0,73827:0:0:0:0:
256,192,73992,1,0,0:0:0:0:
182,192,73992,128,0,74157:0:0:0:0:
329,192,74157,1,0,0:0:0:0:
402,192,74157,1,0,0:0:0:0:
182,192,74321,1,0,0:0:0:0:
109,192,74321,128,0,74651:0:0:0:0:
256,192,74486,1,0,0:0:0:0:
329,192,74486,1,0,0:0:0:0:
475,192,74651,128,0,75146:0:0:0:0:
402,192,74816,128,0,75146:0:0:0:0:
36,192,74816,1,0,0:0:0:0:
109,192,74898,1,0,0:0:0:0:
329,192,74981,128,0,75146:0:0:0:0:
182,192,74981,1,0,0:0:0:0:
109,192,75146,1,0,0:0:0:0:
256,192,75146,1,0,0:0:0:0:
36,192,75146,1,0,0:0:0:0:
182,192,75310,1,0,0:0:0:0:
329,192,75310,1,0,0:0:0:0:
256,192,75475,1,0,0:0:0:0:
402,192,75475,1,0,0:0:0:0:
475,192,75475,1,0,0:0:0:0:
109,192,75640,128,0,75970:0:0:0:0:
329,192,75640,128,0,75970:0:0:0:0:
182,192,75970,1,0,0:0:0:0:
402,192,75970,1,0,0:0:0:0:
36,192,76135,1,0,0:0:0:0:
109,192,76135,1,0,0:0:0:0:
256,192,76135,1,0,0:0:0:0:
329,192,76300,128,0,76464:0:0:0:0:
475,192,76300,1,0,0:0:0:0:
329,192,76629,128,0,76794:0:0:0:0:
475,192,76629,1,0,0:0:0:0:
36,192,76794,1,0,0:0:0:0:
109,192,76794,1,0,0:0:0:0:
182,192,76794,1,0,0:0:0:0:
256,192,76959,128,0,77289:0:0:0:0:
475,192,76959,128,0,77289:0:0:0:0:
36,192,77289,1,0,0:0:0:0:
109,192,77371,1,0,0:0:0:0:
182,192,77453,1,0,0:0:0:0:
475,192,77453,1,0,0:0:0:0:
402,192,77453,1,0,0:0:0:0:
256,192,77618,1,0,0:0:0:0:
329,192,77618,1,0,0:0:0:0:
109,192,77783,1,0,0:0:0:0:
475,192,77783,1,0,0:0:0:0:
182,192,77783,1,0,0:0:0:0:
402,192,77865,1,0,0:0:0:0:
329,192,77948,1,0,0:0:0:0:
256,192,78030,1,0,0:0:0:0:
36,192,78113,1,0,0:0:0:0:
475,192,78113,1,0,0:0:0:0:
402,192,78113,1,0,0:0:0:0:
109,192,78195,1,0,0:0:0:0:
182,192,78278,1,0,0:0:0:0:
256,192,78360,1,0,0:0:0:0:
36,192,78442,1,0,0:0:0:0:
109,192,78442,1,0,0:0:0:0:
402,192,78442,1,0,0:0:0:0:
329,192,78525,1,0,0:0:0:0:
182,192,78607,1,0,0:0:0:0:
256,192,78690,1,0,0:0:0:0:
402,192,78772,1,0,0:0:0:0:
475,192,78772,1,0,0:0:0:0:
36,192,78772,1,0,0:0:0:0:
329,192,78772,1,0,0:0:0:0:
109,192,78854,1,0,0:0:0:0:
182,192,78937,1,0,0:0:0:0:
256,192,78937,1,0,0:0:0:0:
402,192,79102,1,0,0:0:0:0:
475,192,79102,1,0,0:0:0:0:
109,192,79267,1,0,0:0:0:0:
36,192,79267,1,0,0:0:0:0:
256,192,79267,1,0,0:0:0:0:
475,192,79431,1,0,0:0:0:0:
182,192,79431,1,0,0:0:0:0:
402,192,79514,1,0,0:0:0:0:
109,192,79514,1,0,0:0:0:0:
329,192,79596,1,0,0:0:0:0:
36,192,79596,1,0,0:0:0:0:
256,192,79679,1,0,0:0:0:0:
402,192,79761,1,0,0:0:0:0:
475,192,79761,1,0,0:0:0:0:
182,192,79761,1,0,0:0:0:0:
256,192,79926,1,0,0:0:0:0:
182,192,80008,1,0,0:0:0:0:
329,192,80008,1,0,0:0:0:0:
109,192,80091,1,0,0:0:0:0:
402,192,80091,1,0,0:0:0:0:
475,192,80091,1,0,0:0:0:0:
36,192,80091,1,0,0:0:0:0:
402,192,80420,1,0,0:0:0:0:
109,192,80420,1,0,0:0:0:0:
256,192,80420,1,0,0:0:0:0:
109,192,80750,1,0,0:0:0:0:
256,192,80750,1,0,0:0:0:0:
402,192,80750,1,0,0:0:0:0:
36,192,81245,1,0,0:0:0:0:
182,192,81245,1,0,0:0:0:0:
329,192,81327,1,0,0:0:0:0:
475,192,81327,1,0,0:0:0:0:
182,192,81409,1,0,0:0:0:0:
36,192,81409,1,0,0:0:0:0:
256,192,81739,1,0,0:0:0:0:
329,192,81739,1,0,0:0:0:0:
182,192,81904,1,0,0:0:0:0:
256,192,81904,1,0,0:0:0:0:
182,192,82069,1,0,0:0:0:0:
109,192,82069,1,0,0:0:0:0:
475,192,82069,1,0,0:0:0:0:
402,192,82151,1,0,0:0:0:0:
329,192,82234,128,0,82563:0:0:0:0:
256,192,82234,128,0,82563:0:0:0:0:
36,192,82563,1,0,0:0:0:0:
109,192,82646,1,0,0:0:0:0:
182,192,82728,128,0,82893:0:0:0:0:
329,192,82893,128,0,83058:0:0:0:0:
182,192,83058,128,0,83223:0:0:0:0:
109,192,83058,128,0,83223:0:0:0:0:
182,192,83387,1,0,0:0:0:0:
109,192,83387,1,0,0:0:0:0:
329,192,83387,128,0,83552:0:0:0:0:
402,192,83387,128,0,83552:0:0:0:0:
402,192,83717,1,0,0:0:0:0:
329,192,83717,1,0,0:0:0:0:
182,192,83717,128,0,83882:0:0:0:0:
109,192,83717,128,0,83882:0:0:0:0:
329,192,83882,128,0,84047:0:0:0:0:
402,192,83882,128,0,84047:0:0:0:0:
182,192,84047,1,0,0:0:0:0:
109,192,84047,1,0,0:0:0:0:
36,192,84047,1,0,0:0:0:0:
256,192,84212,128,0,84541:0:0:0:0:
475,192,84212,128,0,84541:0:0:0:0:
402,192,84212,128,0,84541:0:0:0:0:
36,192,84541,128,0,84706:0:0:0:0:
182,192,84706,128,0,84871:0:0:0:0:
402,192,84706,1,0,0:0:0:0:
475,192,84706,1,0,0:0:0:0:
329,192,84871,128,0,85036:0:0:0:0:
256,192,85201,128,0,85695:0:0:0:0:
36,192,85365,1,0,0:0:0:0:
109,192,85365,1,0,0:0:0:0:
402,192,85448,1,0,0:0:0:0:
475,192,85448,1,0,0:0:0:0:
36,192,85530,1,0,0:0:0:0:
109,192,85530,1,0,0:0:0:0:
402,192,85613,1,0,0:0:0:0:
475,192,85613,1,0,0:0:0:0:
36,192,85695,1,0,0:0:0:0:
109,192,85695,1,0,0:0:0:0:
182,192,85695,1,0,0:0:0:0:
182,192,85942,1,0,0:0:0:0:
109,192,85942,1,0,0:0:0:0:
256,192,85942,1,0,0:0:0:0:
182,192,86190,1,0,0:0:0:0:
256,192,86190,1,0,0:0:0:0:
329,192,86190,1,0,0:0:0:0:
402,192,86354,1,0,0:0:0:0:
475,192,86354,1,0,0:0:0:0:
36,192,86354,1,0,0:0:0:0:
109,192,86354,1,0,0:0:0:0:
36,192,86602,1,0,0:0:0:0:
109,192,86602,1,0,0:0:0:0:
402,192,86602,1,0,0:0:0:0:
475,192,86602,1,0,0:0:0:0:
182,192,86849,1,0,0:0:0:0:
329,192,86849,1,0,0:0:0:0:
256,192,86849,128,0,87343:0:0:0:0:
36,192,87179,1,0,0:0:0:0:
402,192,87343,1,0,0:0:0:0:
475,192,87343,1,0,0:0:0:0:
109,192,87343,1,0,0:0:0:0:
256,192,87508,128,0,87756:0:0:0:0:
36,192,87673,1,0,0:0:0:0:
329,192,87673,1,0,0:0:0:0:
109,192,87756,1,0,0:0:0:0:
402,192,87756,1,0,0:0:0:0:
182,192,87838,1,0,0:0:0:0:
475,192,87838,1,0,0:0:0:0:
256,192,87920,1,0,0:0:0:0:
109,192,88003,1,0,0:0:0:0:
36,192,88003,1,0,0:0:0:0:
402,192,88003,1,0,0:0:0:0:
475,192,88003,1,0,0:0:0:0:
329,192,88168,1,0,0:0:0:0:
182,192,88168,1,0,0:0:0:0:
256,192,88332,1,0,0:0:0:0:
256,192,88497,1,0,0:0:0:0:
36,192,88662,1,0,0:0:0:0:
109,192,88662,1,0,0:0:0:0:
182,192,88662,1,0,0:0:0:0:
329,192,88827,1,0,0:0:0:0:
475,192,88992,1,0,0:0:0:0:
182,192,88992,1,0,0:0:0:0:
402,192,89074,1,0,0:0:0:0:
109,192,89074,1,0,0:0:0:0:
329,192,89157,1,0,0:0:0:0:
36,192,89157,1,0,0:0:0:0:
256,192,89321,1,0,0:0:0:0:
475,192,89321,1,0,0:0:0:0:
402,192,89321,1,0,0:0:0:0:
36,192,89486,128,0,90310:0:0:0:0:
109,192,89486,128,0,90310:0:0:0:0:
402,192,89651,1,0,0:0:0:0:
475,192,89651,1,0,0:0:0:0:
182,192,89816,1,0,0:0:0:0:
256,192,89898,1,0,0:0:0:0:
329,192,89981,1,0,0:0:0:0:
475,192,89981,1,0,0:0:0:0:
256,192,90146,1,0,0:0:0:0:
402,192,90310,1,0,0:0:0:0:
475,192,90310,1,0,0:0:0:0:
182,192,90310,1,0,0:0:0:0:
329,192,90475,1,0,0:0:0:0:
36,192,90475,1,0,0:0:0:0:
402,192,90558,1,0,0:0:0:0:
109,192,90558,1,0,0:0:0:0:
475,192,90640,1,0,0:0:0:0:
182,192,90640,1,0,0:0:0:0:
256,192,90723,1,0,0:0:0:0:
329,192,90723,1,0,0:0:0:0:
36,192,90805,1,0,0:0:0:0:
109,192,90805,1,0,0:0:0:0:
475,192,90970,1,0,0:0:0:0:
402,192,90970,128,0,91300:0:0:0:0:
329,192,90970,128,0,91300:0:0:0:0:
36,192,91300,128,0,91464:0:0:0:0:
109,192,91300,128,0,91464:0:0:0:0:
182,192,91300,1,0,0:0:0:0:
475,192,91464,1,0,0:0:0:0:
402,192,91547,1,0,0:0:0:0:
256,192,91629,1,0,0:0:0:0:
182,192,91629,1,0,0:0:0:0:
329,192,91794,128,0,91959:0:0:0:0:
402,192,91794,128,0,91959:0:0:0:0:
36,192,91959,1,0,0:0:0:0:
109,192,91959,1,0,0:0:0:0:
182,192,91959,1,0,0:0:0:0:
256,192,92124,128,0,92948:0:0:0:0:
475,192,92289,1,0,0:0:0:0:
109,192,92453,1,0,0:0:0:0:
475,192,92618,1,0,0:0:0:0:
402,192,92618,1,0,0:0:0:0:
109,192,92783,1,0,0:0:0:0:
329,192,92948,1,0,0:0:0:0:
36,192,92948,128,0,93113:0:0:0:0:
402,192,93030,1,0,0:0:0:0:
475,192,93113,1,0,0:0:0:0:
182,192,93113,128,0,93278:0:0:0:0:
329,192,93278,128,0,93607:0:0:0:0:
402,192,93278,1,0,0:0:0:0:
109,192,93442,1,0,0:0:0:0:
109,192,93607,1,0,0:0:0:0:
475,192,93607,128,0,93937:0:0:0:0:
109,192,93937,128,0,94102:0:0:0:0:
182,192,93937,1,0,0:0:0:0:
402,192,93937,1,0,0:0:0:0:
256,192,94102,128,0,94431:0:0:0:0:
329,192,94102,1,0,0:0:0:0:
475,192,94102,1,0,0:0:0:0:
36,192,94431,1,0,0:0:0:0:
109,192,94431,1,0,0:0:0:0:
109,192,94596,1,0,0:0:0:0:
182,192,94596,1,0,0:0:0:0:
256,192,94761,128,0,95750:0:0:0:0:
182,192,94761,128,0,95750:0:0:0:0:
36,192,95091,1,0,0:0:0:0:
402,192,95256,1,0,0:0:0:0:
475,192,95256,1,0,0:0:0:0:
402,192,95503,1,0,0:0:0:0:
36,192,95585,1,0,0:0:0:0:
36,192,95750,1,0,0:0:0:0:
475,192,95915,1,0,0:0:0:0:
182,192,95915,1,0,0:0:0:0:
402,192,95997,1,0,0:0:0:0:
109,192,95997,1,0,0:0:0:0:
329,192,96080,1,0,0:0:0:0:
36,192,96080,1,0,0:0:0:0:
256,192,96162,1,0,0:0:0:0:
36,192,96245,1,0,0:0:0:0:
109,192,96245,1,0,0:0:0:0:
182,192,96245,1,0,0:0:0:0:
36,192,96409,1,0,0:0:0:0:
109,192,96409,1,0,0:0:0:0:
256,192,96492,1,0,0:0:0:0:
402,192,96574,1,0,0:0:0:0:
475,192,96574,1,0,0:0:0:0:
329,192,96739,1,0,0:0:0:0:
475,192,96739,1,0,0:0:0:0:
402,192,96739,1,0,0:0:0:0:
109,192,96904,1,0,0:0:0:0:
36,192,96904,1,0,0:0:0:0:
256,192,96986,1,0,0:0:0:0:
475,192,97069,1,0,0:0:0:0:
402,192,97069,1,0,0:0:0:0:
36,192,97234,1,0,0:0:0:0:
109,192,97234,1,0,0:0:0:0:
182,192,97234,1,0,0:0:0:0:
256,192,97398,1,0,0:0:0:0:
329,192,97398,1,0,0:0:0:0:
475,192,97563,1,0,0:0:0:0:
402,192,97563,1,0,0:0:0:0:
256,192,97646,1,0,0:0:0:0:
36,192,97728,1,0,0:0:0:0:
109,192,97728,1,0,0:0:0:0:
402,192,97893,1,0,0:0:0:0:
475,192,97893,1,0,0:0:0:0:
402,192,98058,1,0,0:0:0:0:
329,192,98058,1,0,0:0:0:0:
256,192,98223,1,0,0:0:0:0:
329,192,98223,1,0,0:0:0:0:
36,192,98387,1,0,0:0:0:0:
109,192,98387,1,0,0:0:0:0:
329,192,98470,1,0,0:0:0:0:
402,192,98470,1,0,0:0:0:0:
36,192,98552,1,0,0:0:0:0:
109,192,98552,1,0,0:0:0:0:
329,192,98635,1,0,0:0:0:0:
402,192,98635,1,0,0:0:0:0:
36,192,98717,1,0,0:0:0:0:
109,192,98717,1,0,0:0:0:0:
329,192,98800,1,0,0:0:0:0:
402,192,98800,1,0,0:0:0:0:
109,192,98882,1,0,0:0:0:0:
36,192,98882,1,0,0:0:0:0:
402,192,99047,1,0,0:0:0:0:
475,192,99047,1,0,0:0:0:0:
109,192,99129,1,0,0:0:0:0:
182,192,99129,1,0,0:0:0:0:
402,192,99212,1,0,0:0:0:0:
475,192,99212,1,0,0:0:0:0:
36,192,99376,1,0,0:0:0:0:
329,192,99376,1,0,0:0:0:0:
109,192,99459,1,0,0:0:0:0:
402,192,99459,1,0,0:0:0:0:
182,192,99541,1,0,0:0:0:0:
475,192,99541,1,0,0:0:0:0:
256,192,99624,1,0,0:0:0:0:
182,192,99706,1,0,0:0:0:0:
475,192,99706,1,0,0:0:0:0:
109,192,99789,1,0,0:0:0:0:
402,192,99789,1,0,0:0:0:0:
36,192,99871,1,0,0:0:0:0:
329,192,99871,1,0,0:0:0:0:
256,192,99953,1,0,0:0:0:0:
329,192,100036,1,0,0:0:0:0:
36,192,100036,1,0,0:0:0:0:
109,192,100118,1,0,0:0:0:0:
402,192,100118,1,0,0:0:0:0:
182,192,100201,1,0,0:0:0:0:
475,192,100201,1,0,0:0:0:0:
109,192,100283,1,0,0:0:0:0:
402,192,100283,1,0,0:0:0:0:
36,192,100365,1,0,0:0:0:0:
329,192,100365,1,0,0:0:0:0:
256,192,100448,1,0,0:0:0:0:
402,192,100530,1,0,0:0:0:0:
475,192,100530,1,0,0:0:0:0:
182,192,100530,128,0,100860:0:0:0:0:
109,192,100695,128,0,100860:0:0:0:0:
402,192,100860,128,0,101190:0:0:0:0:
36,192,100860,1,0,0:0:0:0:
329,192,101025,128,0,101190:0:0:0:0:
109,192,101025,1,0,0:0:0:0:
475,192,101190,1,0,0:0:0:0:
36,192,101190,1,0,0:0:0:0:
109,192,101190,128,0,101849:0:0:0:0:
182,192,101354,128,0,101849:0:0:0:0:
402,192,101354,1,0,0:0:0:0:
402,192,101684,1,0,0:0:0:0:
329,192,101849,128,0,102508:0:0:0:0:
36,192,101849,1,0,0:0:0:0:
475,192,101849,1,0,0:0:0:0:
402,192,102014,128,0,102508:0:0:0:0:
36,192,102179,1,0,0:0:0:0:
109,192,102261,1,0,0:0:0:0:
182,192,102343,1,0,0:0:0:0:
36,192,102508,1,0,0:0:0:0:
109,192,102508,128,0,102673:0:0:0:0:
475,192,102508,1,0,0:0:0:0:
256,192,102673,128,0,102838:0:0:0:0:
329,192,102673,1,0,0:0:0:0:
402,192,102838,128,0,103168:0:0:0:0:
475,192,102838,1,0,0:0:0:0:
109,192,103003,1,0,0:0:0:0:
36,192,103168,1,0,0:0:0:0:
182,192,103168,1,0,0:0:0:0:
256,192,103168,1,0,0:0:0:0:
475,192,103332,1,0,0:0:0:0:
402,192,103415,1,0,0:0:0:0:
329,192,103497,1,0,0:0:0:0:
36,192,103497,1,0,0:0:0:0:
109,192,103497,1,0,0:0:0:0:
109,192,103662,1,0,0:0:0:0:
182,192,103662,1,0,0:0:0:0:
256,192,103827,1,0,0:0:0:0:
182,192,103827,1,0,0:0:0:0:
329,192,103827,1,0,0:0:0:0:
109,192,103992,128,0,104074:0:0:0:0:
402,192,103992,128,0,104074:0:0:0:0:
109,192,104321,128,0,104404:0:0:0:0:
402,192,104321,128,0,104404:0:0:0:0:
256,192,104651,128,0,104981:0:0:0:0:
475,192,104651,128,0,104981:0:0:0:0:
36,192,104651,128,0,104981:0:0:0:0:
402,192,104981,1,0,0:0:0:0:
109,192,105063,1,0,0:0:0:0:
402,192,105146,1,0,0:0:0:0:
109,192,105228,1,0,0:0:0:0:
402,192,105310,1,0,0:0:0:0:
109,192,105393,1,0,0:0:0:0:
256,192,105475,1,0,0:0:0:0:
475,192,105475,128,0,105640:0:0:0:0:
329,192,105475,1,0,0:0:0:0:
402,192,105640,128,0,105805:0:0:0:0:
329,192,105805,128,0,105970:0:0:0:0:
109,192,105805,1,0,0:0:0:0:
182,192,105805,1,0,0:0:0:0:
36,192,105970,128,0,106300:0:0:0:0:
475,192,106052,1,0,0:0:0:0:
402,192,106135,1,0,0:0:0:0:
109,192,106300,128,0,106629:0:0:0:0:
329,192,106300,1,0,0:0:0:0:
402,192,106464,1,0,0:0:0:0:
475,192,106464,1,0,0:0:0:0:
256,192,106464,1,0,0:0:0:0:
329,192,106629,128,0,107124:0:0:0:0:
182,192,106629,128,0,107124:0:0:0:0:
256,192,106959,1,0,0:0:0:0:
36,192,107124,1,0,0:0:0:0:
475,192,107124,1,0,0:0:0:0:
402,192,107124,1,0,0:0:0:0:
109,192,107289,128,0,107618:0:0:0:0:
256,192,107289,1,0,0:0:0:0:
402,192,107453,1,0,0:0:0:0:
329,192,107536,1,0,0:0:0:0:
475,192,107618,128,0,107783:0:0:0:0:
256,192,107618,1,0,0:0:0:0:
402,192,107701,128,0,107865:0:0:0:0:
329,192,107783,128,0,107948:0:0:0:0:
36,192,107783,1,0,0:0:0:0:
109,192,107783,1,0,0:0:0:0:
256,192,107865,128,0,108030:0:0:0:0:
182,192,107948,128,0,108113:0:0:0:0:
109,192,108030,128,0,108195:0:0:0:0:
36,192,108113,128,0,108442:0:0:0:0:
475,192,108113,1,0,0:0:0:0:
329,192,108278,1,0,0:0:0:0:
402,192,108442,1,0,0:0:0:0:
475,192,108442,1,0,0:0:0:0:
182,192,108442,1,0,0:0:0:0:
256,192,108607,1,0,0:0:0:0:
36,192,108690,1,0,0:0:0:0:
475,192,108690,1,0,0:0:0:0:
109,192,108772,1,0,0:0:0:0:
402,192,108772,1,0,0:0:0:0:
329,192,108937,1,0,0:0:0:0:
182,192,108937,1,0,0:0:0:0:
256,192,109102,1,0,0:0:0:0:
109,192,109102,1,0,0:0:0:0:
402,192,109102,1,0,0:0:0:0:
36,192,109267,128,0,109761:0:0:0:0:
475,192,109267,128,0,109761:0:0:0:0:
182,192,109267,1,0,0:0:0:0:
329,192,109267,1,0,0:0:0:0:
109,192,109596,1,0,0:0:0:0:
182,192,109679,1,0,0:0:0:0:
256,192,109761,128,0,110503:0:0:0:0:
402,192,110091,128,0,110338:0:0:0:0:
329,192,110201,128,0,110420:0:0:0:0:
182,192,110310,128,0,110585:0:0:0:0:
475,192,110420,1,0,0:0:0:0:
109,192,110420,128,0,110585:0:0:0:0:
402,192,110503,1,0,0:0:0:0:
329,192,110585,1,0,0:0:0:0:
256,192,110668,1,0,0:0:0:0:
36,192,110750,128,0,111904:0:0:0:0:
182,192,110750,1,0,0:0:0:0:
109,192,110750,128,0,111904:0:0:0:0:
256,192,111080,1,0,0:0:0:0:
402,192,111245,1,0,0:0:0:0:
475,192,111245,1,0,0:0:0:0:
256,192,111409,1,0,0:0:0:0:
402,192,111574,1,0,0:0:0:0:
475,192,111574,1,0,0:0:0:0:
256,192,111739,1,0,0:0:0:0:
402,192,111904,1,0,0:0:0:0:
475,192,111904,1,0,0:0:0:0:
256,192,112069,128,0,113223:0:0:0:0:
329,192,112069,1,0,0:0:0:0:
182,192,112069,128,0,113223:0:0:0:0:
402,192,112398,1,0,0:0:0:0:
36,192,112563,1,0,0:0:0:0:
109,192,112563,1,0,0:0:0:0:
402,192,112728,1,0,0:0:0:0:
109,192,112893,1,0,0:0:0:0:
36,192,112893,1,0,0:0:0:0:
402,192,113058,1,0,0:0:0:0:
109,192,113223,1,0,0:0:0:0:
36,192,113223,1,0,0:0:0:0:
475,192,113387,128,0,116025:0:0:0:0:
329,192,113387,128,0,116025:0:0:0:0:
402,192,113387,1,0,0:0:0:0:
182,192,113717,1,0,0:0:0:0:
36,192,113882,1,0,0:0:0:0:
109,192,113882,1,0,0:0:0:0:
182,192,114047,1,0,0:0:0:0:
36,192,114212,1,0,0:0:0:0:
109,192,114212,1,0,0:0:0:0:
182,192,114376,1,0,0:0:0:0:
36,192,114541,1,0,0:0:0:0:
109,192,114541,1,0,0:0:0:0:
182,192,114706,1,0,0:0:0:0:
109,192,114871,1,0,0:0:0:0:
402,192,114871,1,0,0:0:0:0:
256,192,115036,1,0,0:0:0:0:
109,192,115201,1,0,0:0:0:0:
402,192,115201,1,0,0:0:0:0:
256,192,115365,1,0,0:0:0:0:
109,192,115530,1,0,0:0:0:0:
182,192,115613,1,0,0:0:0:0:
256,192,115695,1,0,0:0:0:0:
402,192,115695,1,0,0:0:0:0:
109,192,115860,1,0,0:0:0:0:
36,192,115860,1,0,0:0:0:0:
256,192,116025,128,0,117179:0:0:0:0:
402,192,116025,128,0,117179:0:0:0:0:
182,192,116025,1,0,0:0:0:0:
329,192,116354,1,0,0:0:0:0:
36,192,116354,1,0,0:0:0:0:
182,192,116519,1,0,0:0:0:0:
36,192,116684,1,0,0:0:0:0:
329,192,116684,1,0,0:0:0:0:
182,192,116849,1,0,0:0:0:0:
36,192,117014,1,0,0:0:0:0:
329,192,117014,1,0,0:0:0:0:
182,192,117179,128,0,118497:0:0:0:0:
109,192,117179,128,0,118497:0:0:0:0:
475,192,117179,1,0,0:0:0:0:
329,192,117343,1,0,0:0:0:0:
475,192,117508,1,0,0:0:0:0:
402,192,117591,1,0,0:0:0:0:
329,192,117673,1,0,0:0:0:0:
256,192,117756,1,0,0:0:0:0:
475,192,117838,1,0,0:0:0:0:
402,192,117920,1,0,0:0:0:0:
329,192,118003,1,0,0:0:0:0:
402,192,118168,1,0,0:0:0:0:
36,192,118332,1,0,0:0:0:0:
475,192,118497,128,0,119816:0:0:0:0:
402,192,118497,128,0,119816:0:0:0:0:
256,192,118497,1,0,0:0:0:0:
182,192,118827,1,0,0:0:0:0:
36,192,118992,1,0,0:0:0:0:
109,192,118992,1,0,0:0:0:0:
329,192,119239,1,0,0:0:0:0:
256,192,119321,1,0,0:0:0:0:
182,192,119404,1,0,0:0:0:0:
109,192,119486,1,0,0:0:0:0:
36,192,119569,1,0,0:0:0:0:
329,192,119569,1,0,0:0:0:0:
256,192,119651,1,0,0:0:0:0:
182,192,119734,1,0,0:0:0:0:
109,192,119816,1,0,0:0:0:0:
329,192,119816,1,0,0:0:0:0:
36,192,119816,1,0,0:0:0:0:
402,192,120146,1,0,0:0:0:0:
475,192,120146,1,0,0:0:0:0:
256,192,120146,1,0,0:0:0:0:
182,192,120146,1,0,0:0:0:0:
182,192,120393,1,0,0:0:0:0:
109,192,120393,1,0,0:0:0:0:
402,192,120393,1,0,0:0:0:0:
475,192,120393,1,0,0:0:0:0:
36,192,120640,1,0,0:0:0:0:
109,192,120640,1,0,0:0:0:0:
402,192,120640,1,0,0:0:0:0:
475,192,120640,1,0,0:0:0:0:
36,192,120887,1,0,0:0:0:0:
109,192,120887,1,0,0:0:0:0:
329,192,120887,1,0,0:0:0:0:
402,192,120887,1,0,0:0:0:0:
36,192,121158,1,0,0:0:0:0:
109,192,121158,1,0,0:0:0:0:
329,192,121158,1,0,0:0:0:0:
256,192,121158,1,0,0:0:0:0:
109,192,121423,1,0,0:0:0:0:
182,192,121423,1,0,0:0:0:0:
329,192,121423,1,0,0:0:0:0:
402,192,121423,1,0,0:0:0:0:
402,192,121691,1,0,0:0:0:0:
329,192,121691,1,0,0:0:0:0:
182,192,121691,1,0,0:0:0:0:
109,192,121691,1,0,0:0:0:0:
402,192,121959,1,0,0:0:0:0:
475,192,121959,1,0,0:0:0:0:
109,192,121959,1,0,0:0:0:0:
36,192,121959,1,0,0:0:0:0:
475,192,122206,1,0,0:0:0:0:
36,192,122206,1,0,0:0:0:0:
109,192,122206,1,0,0:0:0:0:
402,192,122206,1,0,0:0:0:0:
109,192,122481,1,0,0:0:0:0:
182,192,122481,1,0,0:0:0:0:
329,192,122481,1,0,0:0:0:0:
402,192,122481,1,0,0:0:0:0:
329,192,122762,1,0,0:0:0:0:
256,192,122762,1,0,0:0:0:0:
182,192,122762,1,0,0:0:0:0:
109,192,122762,1,0,0:0:0:0:
402,192,123010,1,0,0:0:0:0:
329,192,123010,1,0,0:0:0:0:
256,192,123010,1,0,0:0:0:0:
182,192,123010,1,0,0:0:0:0:
256,192,123278,1,0,0:0:0:0:
329,192,123278,1,0,0:0:0:0:
402,192,123278,1,0,0:0:0:0:
475,192,123278,1,0,0:0:0:0:
182,192,123442,1,0,0:0:0:0:
256,192,123525,1,0,0:0:0:0:
329,192,123607,1,0,0:0:0:0:
36,192,123607,1,0,0:0:0:0:
402,192,123690,1,0,0:0:0:0:
109,192,123690,1,0,0:0:0:0:
475,192,123772,1,0,0:0:0:0:
182,192,123772,1,0,0:0:0:0:
256,192,123854,1,0,0:0:0:0:
402,192,123937,1,0,0:0:0:0:
36,192,123937,1,0,0:0:0:0:
109,192,123937,1,0,0:0:0:0:
475,192,123937,1,0,0:0:0:0:
329,192,124019,1,0,0:0:0:0:
256,192,124102,1,0,0:0:0:0:
182,192,124184,1,0,0:0:0:0:
402,192,124267,1,0,0:0:0:0:
329,192,124349,1,0,0:0:0:0:
256,192,124431,1,0,0:0:0:0:
182,192,124514,1,0,0:0:0:0:
109,192,124596,1,0,0:0:0:0:
36,192,125091,1,0,0:0:0:0:
256,192,125091,1,0,0:0:0:0:
475,192,125091,1,0,0:0:0:0:
36,192,126080,1,0,0:0:0:0:
256,192,126080,1,0,0:0:0:0:
475,192,126080,1,0,0:0:0:0:
256,192,126409,1,0,0:0:0:0:
36,192,126409,1,0,0:0:0:0:
475,192,126409,1,0,0:0:0:0:
402,192,126409,1,0,0:0:0:0:
36,192,126739,1,0,0:0:0:0:
109,192,126821,1,0,0:0:0:0:
182,192,126904,1,0,0:0:0:0:
256,192,126986,1,0,0:0:0:0:
329,192,127069,1,0,0:0:0:0:
36,192,127069,1,0,0:0:0:0:
402,192,127151,1,0,0:0:0:0:
109,192,127151,1,0,0:0:0:0:
475,192,127234,1,0,0:0:0:0:
182,192,127234,1,0,0:0:0:0:
256,192,127316,1,0,0:0:0:0:
36,192,127398,1,0,0:0:0:0:
329,192,127398,1,0,0:0:0:0:
402,192,127398,1,0,0:0:0:0:
109,192,127481,1,0,0:0:0:0:
182,192,127563,1,0,0:0:0:0:
402,192,127646,1,0,0:0:0:0:
36,192,127728,1,0,0:0:0:0:
109,192,127728,1,0,0:0:0:0:
329,192,127728,1,0,0:0:0:0:
256,192,127810,1,0,0:0:0:0:
475,192,127893,1,0,0:0:0:0:
402,192,127975,1,0,0:0:0:0:
329,192,128058,1,0,0:0:0:0:
109,192,128058,1,0,0:0:0:0:
36,192,128058,1,0,0:0:0:0:
256,192,128140,1,0,0:0:0:0:
402,192,128223,1,0,0:0:0:0:
475,192,128223,1,0,0:0:0:0:
182,192,128223,1,0,0:0:0:0:
329,192,128305,1,0,0:0:0:0:
256,192,128387,1,0,0:0:0:0:
36,192,128387,1,0,0:0:0:0:
109,192,128470,1,0,0:0:0:0:
182,192,128552,1,0,0:0:0:0:
402,192,128552,1,0,0:0:0:0:
475,192,128552,1,0,0:0:0:0:
402,192,128717,1,0,0:0:0:0:
329,192,128717,1,0,0:0:0:0:
329,192,128882,1,0,0:0:0:0:
256,192,128882,1,0,0:0:0:0:
256,192,129047,1,0,0:0:0:0:
182,192,129047,1,0,0:0:0:0:
109,192,129047,1,0,0:0:0:0:
36,192,129047,1,0,0:0:0:0:
329,192,129212,1,0,0:0:0:0:
475,192,129212,1,0,0:0:0:0:
329,192,129376,1,0,0:0:0:0:
475,192,129376,1,0,0:0:0:0:
109,192,129541,1,0,0:0:0:0:
36,192,129541,1,0,0:0:0:0:
256,192,129541,1,0,0:0:0:0:
182,192,129706,1,0,0:0:0:0:
329,192,129706,1,0,0:0:0:0:
475,192,129706,1,0,0:0:0:0:
36,192,129871,1,0,0:0:0:0:
109,192,129871,1,0,0:0:0:0:
402,192,129953,1,0,0:0:0:0:
329,192,129953,1,0,0:0:0:0:
329,192,130118,1,0,0:0:0:0:
402,192,130118,1,0,0:0:0:0:
109,192,130201,1,0,0:0:0:0:
36,192,130201,1,0,0:0:0:0:
256,192,130201,1,0,0:0:0:0:
475,192,130365,1,0,0:0:0:0:
329,192,130365,1,0,0:0:0:0:
182,192,130365,1,0,0:0:0:0:
109,192,130695,1,0,0:0:0:0:
36,192,130695,1,0,0:0:0:0:
256,192,130860,1,0,0:0:0:0:
402,192,130860,1,0,0:0:0:0:
475,192,130860,1,0,0:0:0:0:
109,192,131025,1,0,0:0:0:0:
36,192,131025,1,0,0:0:0:0:
329,192,131190,1,0,0:0:0:0:
256,192,131272,1,0,0:0:0:0:
475,192,131354,1,0,0:0:0:0:
402,192,131354,1,0,0:0:0:0:
182,192,131354,1,0,0:0:0:0:
109,192,131437,1,0,0:0:0:0:
329,192,131437,1,0,0:0:0:0:
36,192,131519,1,0,0:0:0:0:
256,192,131519,1,0,0:0:0:0:
475,192,131602,1,0,0:0:0:0:
402,192,131602,1,0,0:0:0:0:
182,192,131602,1,0,0:0:0:0:
109,192,131684,1,0,0:0:0:0:
36,192,131684,1,0,0:0:0:0:
402,192,131849,1,0,0:0:0:0:
329,192,131849,1,0,0:0:0:0:
182,192,131849,1,0,0:0:0:0:
329,192,132014,1,0,0:0:0:0:
402,192,132014,1,0,0:0:0:0:
329,192,132179,1,0,0:0:0:0:
402,192,132179,1,0,0:0:0:0:
475,192,132179,1,0,0:0:0:0:
109,192,132343,1,0,0:0:0:0:
182,192,132343,1,0,0:0:0:0:
109,192,132508,1,0,0:0:0:0:
182,192,132508,1,0,0:0:0:0:
36,192,132673,1,0,0:0:0:0:
109,192,132673,1,0,0:0:0:0:
182,192,132673,1,0,0:0:0:0:
402,192,132838,1,0,0:0:0:0:
329,192,132838,1,0,0:0:0:0:
402,192,133003,1,0,0:0:0:0:
329,192,133003,1,0,0:0:0:0:
256,192,133168,1,0,0:0:0:0:
329,192,133168,1,0,0:0:0:0:
402,192,133168,1,0,0:0:0:0:
36,192,133332,1,0,0:0:0:0:
475,192,133332,1,0,0:0:0:0:
109,192,133415,1,0,0:0:0:0:
402,192,133415,1,0,0:0:0:0:
182,192,133497,1,0,0:0:0:0:
329,192,133497,1,0,0:0:0:0:
256,192,133580,1,0,0:0:0:0:
36,192,133662,1,0,0:0:0:0:
109,192,133662,1,0,0:0:0:0:
475,192,133662,1,0,0:0:0:0:
402,192,133662,1,0,0:0:0:0:
182,192,133827,1,0,0:0:0:0:
256,192,133909,1,0,0:0:0:0:
36,192,133992,1,0,0:0:0:0:
329,192,133992,1,0,0:0:0:0:
109,192,134074,1,0,0:0:0:0:
475,192,134157,1,0,0:0:0:0:
182,192,134157,1,0,0:0:0:0:
402,192,134157,1,0,0:0:0:0:
329,192,134321,1,0,0:0:0:0:
36,192,134486,128,0,134816:0:0:0:0:
256,192,134486,1,0,0:0:0:0:
109,192,134651,128,0,134816:0:0:0:0:
329,192,134651,1,0,0:0:0:0:
402,192,134816,1,0,0:0:0:0:
475,192,134816,1,0,0:0:0:0:
182,192,134816,1,0,0:0:0:0:
475,192,134981,128,0,135310:0:0:0:0:
256,192,134981,1,0,0:0:0:0:
402,192,135146,128,0,135310:0:0:0:0:
182,192,135146,1,0,0:0:0:0:
109,192,135310,1,0,0:0:0:0:
36,192,135310,1,0,0:0:0:0:
329,192,135310,1,0,0:0:0:0:
36,192,135475,128,0,135805:0:0:0:0:
256,192,135475,1,0,0:0:0:0:
109,192,135640,128,0,135805:0:0:0:0:
329,192,135640,1,0,0:0:0:0:
402,192,135805,1,0,0:0:0:0:
475,192,135805,1,0,0:0:0:0:
182,192,135805,1,0,0:0:0:0:
256,192,135970,1,0,0:0:0:0:
475,192,135970,128,0,136300:0:0:0:0:
182,192,136052,1,0,0:0:0:0:
402,192,136135,128,0,136300:0:0:0:0:
36,192,136135,1,0,0:0:0:0:
109,192,136217,1,0,0:0:0:0:
329,192,136300,1,0,0:0:0:0:
182,192,136300,1,0,0:0:0:0:
36,192,136464,128,0,136794:0:0:0:0:
256,192,136464,1,0,0:0:0:0:
109,192,136629,128,0,136794:0:0:0:0:
256,192,136629,1,0,0:0:0:0:
329,192,136712,1,0,0:0:0:0:
475,192,136794,1,0,0:0:0:0:
402,192,136794,1,0,0:0:0:0:
182,192,136794,1,0,0:0:0:0:
256,192,136959,128,0,138442:0:0:0:0:
329,192,136959,128,0,138442:0:0:0:0:
182,192,136959,128,0,138442:0:0:0:0:
109,192,138607,1,0,0:0:0:0:
402,192,138607,1,0,0:0:0:0:
402,192,138937,1,0,0:0:0:0:
109,192,138937,1,0,0:0:0:0:
109,192,139267,1,0,0:0:0:0:
402,192,139267,1,0,0:0:0:0:
256,192,139431,1,0,0:0:0:0:
256,192,139596,1,0,0:0:0:0:
475,192,139926,1,0,0:0:0:0:
182,192,139926,1,0,0:0:0:0:
402,192,140008,1,0,0:0:0:0:
109,192,140008,1,0,0:0:0:0:
329,192,140091,1,0,0:0:0:0:
36,192,140091,1,0,0:0:0:0:
256,192,140173,1,0,0:0:0:0:
182,192,140256,1,0,0:0:0:0:
36,192,140420,1,0,0:0:0:0:
329,192,140420,1,0,0:0:0:0:
109,192,140503,1,0,0:0:0:0:
402,192,140503,1,0,0:0:0:0:
182,192,140585,1,0,0:0:0:0:
475,192,140585,1,0,0:0:0:0:
256,192,140668,1,0,0:0:0:0:
329,192,140750,1,0,0:0:0:0:
36,192,140750,1,0,0:0:0:0:
109,192,140750,1,0,0:0:0:0:
182,192,140915,1,0,0:0:0:0:
256,192,140935,1,0,0:0:0:0:
329,192,140956,1,0,0:0:0:0:
