osu file format v14

[General]
AudioFilename: audio.mp3
AudioLeadIn: 0
PreviewTime: 53035
Countdown: 0
SampleSet: Normal
StackLeniency: 0.7
Mode: 1
LetterboxInBreaks: 0
WidescreenStoryboard: 1

[Editor]
DistanceSpacing: 0.9
BeatDivisor: 4
GridSize: 32
TimelineZoom: 2.3

[Metadata]
Title:Papyrus (ARCADE SUITE)
TitleUnicode:Papyrus (ARCADE SUITE)
Artist:orangentle
ArtistUnicode:orangentle
Creator:duski
Version:Futsuu
Source:CHUNITHM AMAZON
Tags:featured artist fa mg mpg mappers' guild osu! yu_asahina music works 001 NEXT-005 electronic instrumental
BeatmapID:2759606
BeatmapSetID:1331746

[Difficulty]
HPDrainRate:6
CircleSize:6
OverallDifficulty:4
ApproachRate:6
SliderMultiplier:1.4
SliderTickRate:1

[Events]
//Background and Video events
0,0,"orangentle.jpg",0,0
//Break Periods
//Storyboard Layer 0 (Background)
//Storyboard Layer 1 (Fail)
//Storyboard Layer 2 (Pass)
//Storyboard Layer 3 (Foreground)
//Storyboard Layer 4 (Overlay)
//Storyboard Sound Samples

[TimingPoints]
235,400,4,1,0,80,1,0
53035,-100,4,1,0,80,0,1
67435,-100,4,1,0,80,0,0
93035,-100,4,1,0,80,0,1
102635,-100,4,1,0,80,0,0

[HitObjects]
256,192,235,5,8,0:0:0:0:
256,192,635,1,8,0:0:0:0:
256,192,1035,1,8,0:0:0:0:
256,192,1435,1,8,0:0:0:0:
256,192,1835,1,4,0:0:0:0:
256,192,2235,1,0,0:0:0:0:
256,192,2435,1,12,0:0:0:0:
256,192,2835,1,0,0:0:0:0:
256,192,3035,1,8,0:0:0:0:
256,192,3435,1,12,0:0:0:0:
256,192,3835,1,0,0:0:0:0:
256,192,4035,1,4,0:0:0:0:
256,192,4435,1,0,0:0:0:0:
256,192,4835,1,12,0:0:0:0:
256,192,5235,1,0,0:0:0:0:
256,192,5435,1,0,0:0:0:0:
256,192,5635,1,8,0:0:0:0:
256,192,6035,1,0,0:0:0:0:
256,192,6235,1,0,0:0:0:0:
256,192,6435,1,12,0:0:0:0:
256,192,6835,1,0,0:0:0:0:
256,192,7035,1,8,0:0:0:0:
256,192,7235,1,4,0:0:0:0:
256,192,7635,1,4,0:0:0:0:
256,192,8035,1,12,0:0:0:0:
256,192,8435,1,8,0:0:0:0:
256,192,8635,1,8,0:0:0:0:
256,192,8835,1,8,0:0:0:0:
256,192,9235,1,0,0:0:0:0:
256,192,9635,1,4,0:0:0:0:
256,192,10235,1,8,0:0:0:0:
256,192,10635,1,0,0:0:0:0:
256,192,11035,1,8,0:0:0:0:
256,192,11235,1,0,0:0:0:0:
256,192,11435,1,12,0:0:0:0:
256,192,11835,1,8,0:0:0:0:
256,192,12235,1,8,0:0:0:0:
256,192,12635,1,0,0:0:0:0:
256,192,13035,1,12,0:0:0:0:
256,192,13835,1,0,0:0:0:0:
256,192,14235,1,12,0:0:0:0:
256,192,14635,1,0,0:0:0:0:
256,192,15035,1,0,0:0:0:0:
256,192,15835,1,0,0:0:0:0:
256,192,16635,1,0,0:0:0:0:
256,192,17435,1,0,0:0:0:0:
256,192,18235,1,0,0:0:0:0:
256,192,19035,1,0,0:0:0:0:
256,192,19835,1,0,0:0:0:0:
256,192,20035,1,8,0:0:0:0:
256,192,20235,1,8,0:0:0:0:
256,192,20435,1,0,0:0:0:0:
256,192,20835,1,0,0:0:0:0:
256,192,21035,1,12,0:0:0:0:
256,192,21435,1,8,0:0:0:0:
256,192,21835,1,0,0:0:0:0:
256,192,22035,1,0,0:0:0:0:
256,192,22235,1,8,0:0:0:0:
256,192,22435,1,0,0:0:0:0:
256,192,22835,1,0,0:0:0:0:
256,192,23035,1,8,0:0:0:0:
256,192,23235,1,0,0:0:0:0:
256,192,23835,1,8,0:0:0:0:
256,192,24235,1,4,0:0:0:0:
256,192,24835,1,4,0:0:0:0:
256,192,25435,1,4,0:0:0:0:
256,192,25835,1,0,0:0:0:0:
256,192,26035,1,0,0:0:0:0:
256,192,26235,1,12,0:0:0:0:
256,192,26635,1,0,0:0:0:0:
256,192,27035,1,0,0:0:0:0:
256,192,27235,1,0,0:0:0:0:
256,192,27435,1,12,0:0:0:0:
256,192,28035,1,0,0:0:0:0:
256,192,28235,1,0,0:0:0:0:
256,192,28435,1,8,0:0:0:0:
256,192,28635,1,8,0:0:0:0:
256,192,28835,1,8,0:0:0:0:
256,192,29435,1,8,0:0:0:0:
256,192,29635,1,0,0:0:0:0:
256,192,30035,1,8,0:0:0:0:
256,192,30435,1,4,0:0:0:0:
256,192,30835,1,0,0:0:0:0:
256,192,31035,1,8,0:0:0:0:
256,192,31435,1,0,0:0:0:0:
256,192,31635,1,0,0:0:0:0:
256,192,31835,1,8,0:0:0:0:
256,192,32035,1,4,0:0:0:0:
256,192,32635,1,0,0:0:0:0:
256,192,32835,1,12,0:0:0:0:
256,192,33435,1,8,0:0:0:0:
256,192,33835,1,8,0:0:0:0:
256,192,34235,1,0,0:0:0:0:
256,192,34435,1,12,0:0:0:0:
256,192,34835,1,0,0:0:0:0:
256,192,35035,1,8,0:0:0:0:
256,192,35435,1,0,0:0:0:0:
256,192,35835,1,8,0:0:0:0:
256,192,36035,1,4,0:0:0:0:
256,192,36435,1,0,0:0:0:0:
256,192,36635,1,8,0:0:0:0:
256,192,36835,1,8,0:0:0:0:
256,192,37235,1,0,0:0:0:0:
256,192,37435,1,8,0:0:0:0:
256,192,37635,1,0,0:0:0:0:
256,192,38035,1,8,0:0:0:0:
256,192,38435,1,8,0:0:0:0:
256,192,38835,1,0,0:0:0:0:
256,192,39035,1,12,0:0:0:0:
256,192,39435,1,0,0:0:0:0:
256,192,40235,1,12,0:0:0:0:
256,192,40835,1,0,0:0:0:0:
256,192,41035,1,0,0:0:0:0:
256,192,41235,1,8,0:0:0:0:
256,192,41435,1,8,0:0:0:0:
256,192,41635,1,8,0:0:0:0:
256,192,42235,1,8,0:0:0:0:
256,192,42435,1,0,0:0:0:0:
256,192,42835,1,8,0:0:0:0:
256,192,43235,1,12,0:0:0:0:
256,192,43835,1,0,0:0:0:0:
256,192,44035,1,12,0:0:0:0:
256,192,44635,1,0,0:0:0:0:
256,192,44835,1,12,0:0:0:0:
256,192,45435,1,8,0:0:0:0:
256,192,45635,1,4,0:0:0:0:
256,192,46035,1,4,0:0:0:0:
256,192,46635,1,8,0:0:0:0:
256,192,46835,1,0,0:0:0:0:
256,192,47035,1,0,0:0:0:0:
256,192,47235,1,12,0:0:0:0:
256,192,47635,1,0,0:0:0:0:
256,192,47835,1,8,0:0:0:0:
256,192,48235,1,0,0:0:0:0:
256,192,48435,1,0,0:0:0:0:
256,192,48635,1,8,0:0:0:0:
256,192,48835,1,12,0:0:0:0:
256,192,49435,1,8,0:0:0:0:
256,192,49835,1,12,0:0:0:0:
256,192,50235,1,8,0:0:0:0:
256,192,50635,1,0,0:0:0:0:
256,192,50835,1,0,0:0:0:0:
256,192,51035,1,8,0:0:0:0:
256,192,51235,1,12,0:0:0:0:
256,192,51835,1,8,0:0:0:0:
256,192,52035,1,0,0:0:0:0:
256,192,52235,1,8,0:0:0:0:
256,192,52635,1,8,0:0:0:0:
256,192,53035,1,4,0:0:0:0:
256,192,53435,1,8,0:0:0:0:
256,192,53735,1,0,0:0:0:0:
256,192,54235,1,8,0:0:0:0:
256,192,54635,1,0,0:0:0:0:
256,192,55035,1,12,0:0:0:0:
256,192,55335,1,12,0:0:0:0:
256,192,55835,1,8,0:0:0:0:
256,192,56235,1,4,0:0:0:0:
256,192,56835,1,8,0:0:0:0:
256,192,57035,1,0,0:0:0:0:
256,192,57435,1,0,0:0:0:0:
256,192,57835,1,8,0:0:0:0:
256,192,58235,1,8,0:0:0:0:
256,192,58635,1,8,0:0:0:0:
256,192,59435,1,4,0:0:0:0:
256,192,59835,1,8,0:0:0:0:
256,192,60135,1,0,0:0:0:0:
256,192,60635,1,8,0:0:0:0:
256,192,61035,1,0,0:0:0:0:
256,192,61435,1,12,0:0:0:0:
256,192,61735,1,0,0:0:0:0:
256,192,62235,1,8,0:0:0:0:
256,192,62635,1,4,0:0:0:0:
256,192,63435,1,8,0:0:0:0:
256,192,63735,1,8,0:0:0:0:
256,192,64035,1,0,0:0:0:0:
256,192,64235,1,12,0:0:0:0:
256,192,64835,1,8,0:0:0:0:
256,192,65035,1,0,0:0:0:0:
256,192,65435,1,8,0:0:0:0:
256,192,65835,1,12,0:0:0:0:
256,192,66235,1,0,0:0:0:0:
256,192,66435,1,8,0:0:0:0:
256,192,66835,1,8,0:0:0:0:
256,192,67035,1,8,0:0:0:0:
256,192,67435,1,4,0:0:0:0:
256,192,68235,1,8,0:0:0:0:
256,192,68635,1,8,0:0:0:0:
256,192,68835,1,0,0:0:0:0:
256,192,69035,1,8,0:0:0:0:
256,192,69835,1,8,0:0:0:0:
256,192,70235,1,8,0:0:0:0:
256,192,70435,1,0,0:0:0:0:
256,192,70635,1,8,0:0:0:0:
256,192,71035,1,8,0:0:0:0:
256,192,71235,1,8,0:0:0:0:
256,192,71435,1,0,0:0:0:0:
256,192,71835,1,8,0:0:0:0:
256,192,72235,1,8,0:0:0:0:
256,192,72635,1,0,0:0:0:0:
256,192,73035,1,8,0:0:0:0:
256,192,73235,1,8,0:0:0:0:
256,192,73435,1,8,0:0:0:0:
256,192,73835,1,4,0:0:0:0:
256,192,74635,1,0,0:0:0:0:
256,192,74835,1,0,0:0:0:0:
256,192,75035,1,8,0:0:0:0:
256,192,75435,1,0,0:0:0:0:
256,192,75835,1,8,0:0:0:0:
256,192,76435,1,0,0:0:0:0:
256,192,76635,1,12,0:0:0:0:
256,192,77035,1,12,0:0:0:0:
256,192,77435,1,8,0:0:0:0:
256,192,77835,1,0,0:0:0:0:
256,192,78035,1,0,0:0:0:0:
256,192,78235,1,8,0:0:0:0:
256,192,78635,1,0,0:0:0:0:
256,192,78835,1,8,0:0:0:0:
256,192,79035,1,8,0:0:0:0:
256,192,79235,1,8,0:0:0:0:
256,192,79435,1,8,0:0:0:0:
256,192,79835,1,0,0:0:0:0:
256,192,80035,1,0,0:0:0:0:
256,192,80235,1,12,0:0:0:0:
256,192,80835,1,8,0:0:0:0:
256,192,81235,1,0,0:0:0:0:
256,192,81435,1,8,0:0:0:0:
256,192,81635,1,0,0:0:0:0:
256,192,81835,1,8,0:0:0:0:
256,192,82235,1,0,0:0:0:0:
256,192,82435,1,0,0:0:0:0:
256,192,83035,1,8,0:0:0:0:
256,192,83435,1,8,0:0:0:0:
256,192,83635,1,0,0:0:0:0:
256,192,83835,1,0,0:0:0:0:
256,192,84035,1,8,0:0:0:0:
256,192,84435,1,0,0:0:0:0:
256,192,84635,1,8,0:0:0:0:
256,192,84835,1,0,0:0:0:0:
256,192,85035,1,0,0:0:0:0:
256,192,85835,1,0,0:0:0:0:
256,192,86035,1,8,0:0:0:0:
256,192,86235,1,8,0:0:0:0:
256,192,86435,1,8,0:0:0:0:
256,192,86635,1,8,0:0:0:0:
256,192,87235,1,0,0:0:0:0:
256,192,87435,1,8,0:0:0:0:
256,192,87735,1,8,0:0:0:0:
256,192,88035,1,8,0:0:0:0:
256,192,88235,1,8,0:0:0:0:
256,192,88835,1,8,0:0:0:0:
256,192,89035,1,0,0:0:0:0:
256,192,89435,1,8,0:0:0:0:
256,192,89835,1,0,0:0:0:0:
256,192,90035,1,8,0:0:0:0:
256,192,90435,1,0,0:0:0:0:
256,192,90635,1,8,0:0:0:0:
256,192,91035,1,0,0:0:0:0:
256,192,91435,1,12,0:0:0:0:
256,192,91835,1,8,0:0:0:0:
256,192,92035,1,8,0:0:0:0:
256,192,92235,1,0,0:0:0:0:
256,192,92635,1,8,0:0:0:0:
256,192,92835,1,8,0:0:0:0:
256,192,93035,1,4,0:0:0:0:
256,192,93435,1,12,0:0:0:0:
256,192,93735,1,12,0:0:0:0:
256,192,94235,1,8,0:0:0:0:
256,192,94635,1,0,0:0:0:0:
256,192,95035,1,12,0:0:0:0:
256,192,95335,1,12,0:0:0:0:
256,192,95835,1,8,0:0:0:0:
256,192,96235,1,4,0:0:0:0:
256,192,96835,1,8,0:0:0:0:
256,192,97035,1,0,0:0:0:0:
256,192,97435,1,8,0:0:0:0:
256,192,97835,1,0,0:0:0:0:
256,192,98235,1,8,0:0:0:0:
256,192,98635,1,8,0:0:0:0:
256,192,99435,1,4,0:0:0:0:
256,192,99835,1,12,0:0:0:0:
256,192,100135,1,4,0:0:0:0:
256,192,100635,1,12,0:0:0:0:
256,192,101035,1,0,0:0:0:0:
256,192,101435,1,12,0:0:0:0:
256,192,101735,1,0,0:0:0:0:
256,192,102235,1,8,0:0:0:0:
256,192,102635,1,4,0:0:0:0:
256,192,102935,1,4,0:0:0:0:
256,192,103235,1,12,0:0:0:0:
256,192,103835,1,8,0:0:0:0:
256,192,104635,1,8,0:0:0:0:
256,192,105035,1,0,0:0:0:0:
256,192,105235,1,0,0:0:0:0:
256,192,105435,1,8,0:0:0:0:
256,192,105835,1,4,0:0:0:0:
256,192,106135,1,4,0:0:0:0:
256,192,106435,1,12,0:0:0:0:
256,192,107035,1,8,0:0:0:0:
256,192,107235,1,0,0:0:0:0:
256,192,107435,1,0,0:0:0:0:
256,192,107635,1,8,0:0:0:0:
256,192,107835,1,8,0:0:0:0:
256,192,108135,1,12,0:0:0:0:
256,192,108435,1,0,0:0:0:0:
256,192,109035,1,4,0:0:0:0:
256,192,109435,1,8,0:0:0:0:
256,192,109635,1,4,0:0:0:0:
256,192,110035,1,8,0:0:0:0:
256,192,110235,1,4,0:0:0:0:
256,192,110635,1,8,0:0:0:0:
256,192,110835,1,4,0:0:0:0:
256,192,111235,1,8,0:0:0:0:
256,192,111435,1,4,0:0:0:0:
256,192,111835,1,12,0:0:0:0:
256,192,112235,1,0,0:0:0:0:
256,192,112535,1,0,0:0:0:0:
256,192,112835,1,0,0:0:0:0:
256,192,113035,1,8,0:0:0:0:
256,192,113335,1,8,0:0:0:0:
256,192,113635,1,8,0:0:0:0:
256,192,113835,1,0,0:0:0:0:
256,192,114235,1,8,0:0:0:0:
256,192,114635,1,8,0:0:0:0:
256,192,114835,1,8,0:0:0:0:
256,192,115235,1,4,0:0:0:0:
256,192,115835,1,8,0:0:0:0:
256,192,116235,1,8,0:0:0:0:
256,192,116435,1,0,0:0:0:0:
256,192,116635,1,8,0:0:0:0:
256,192,117035,1,8,0:0:0:0:
256,192,117835,1,8,0:0:0:0:
256,192,118035,1,8,0:0:0:0:
256,192,118235,1,0,0:0:0:0:
256,192,118435,1,12,0:0:0:0:
256,192,118835,1,0,0:0:0:0:
256,192,119035,1,8,0:0:0:0:
256,192,119635,1,0,0:0:0:0:
256,192,119835,1,8,0:0:0:0:
256,192,120035,1,8,0:0:0:0:
256,192,120635,1,8,0:0:0:0:
256,192,120835,1,0,0:0:0:0:
256,192,121235,1,8,0:0:0:0:
256,192,121635,1,0,0:0:0:0:
256,192,122035,1,0,0:0:0:0:
256,192,122235,1,8,0:0:0:0:
256,192,122435,1,0,0:0:0:0:
256,192,123035,1,8,0:0:0:0:
256,192,123235,1,0,0:0:0:0:
256,192,123635,1,0,0:0:0:0:
256,192,123835,1,8,0:0:0:0:
256,192,124035,1,0,0:0:0:0:
256,192,124435,1,0,0:0:0:0:
256,192,124635,1,0,0:0:0:0:
256,192,124835,1,8,0:0:0:0:
256,192,125435,1,8,0:0:0:0:
256,192,125635,1,0,0:0:0:0:
256,192,126235,1,0,0:0:0:0:
256,192,126435,1,8,0:0:0:0:
256,192,127035,1,0,0:0:0:0:
256,192,127235,1,8,0:0:0:0:
256,192,127635,1,8,0:0:0:0:
256,192,128035,1,12,0:0:0:0:
256,192,128435,1,0,0:0:0:0:
256,192,129035,1,0,0:0:0:0:
256,192,129435,1,8,0:0:0:0:
256,192,129635,1,0,0:0:0:0:
256,192,130035,1,0,0:0:0:0:
256,192,130235,1,8,0:0:0:0:
256,192,130435,1,8,0:0:0:0:
256,192,130635,1,0,0:0:0:0:
256,192,130835,1,0,0:0:0:0:
256,192,131035,1,8,0:0:0:0:
256,192,131435,1,0,0:0:0:0:
256,192,131735,1,8,0:0:0:0:
256,192,132035,1,8,0:0:0:0:
256,192,132235,1,0,0:0:0:0:
256,192,132535,1,8,0:0:0:0:
256,192,132835,1,8,0:0:0:0:
256,192,133035,1,0,0:0:0:0:
256,192,133835,1,8,0:0:0:0:
256,192,134235,1,12,0:0:0:0:
256,192,134635,1,4,0:0:0:0:
256,192,136235,1,12,0:0:0:0:
256,192,137035,1,12,0:0:0:0:
256,192,137635,1,8,0:0:0:0:
256,192,137835,1,4,0:0:0:0:
256,192,138235,1,8,0:0:0:0:
256,192,139035,1,8,0:0:0:0:
256,192,139235,1,0,0:0:0:0:
256,192,139435,1,8,0:0:0:0:
256,192,139635,1,0,0:0:0:0:
256,192,139835,1,0,0:0:0:0:
256,192,140035,1,8,0:0:0:0:
256,192,140435,1,0,0:0:0:0:
256,192,140835,1,0,0:0:0:0:
256,192,141035,1,8,0:0:0:0:
256,192,141435,1,8,0:0:0:0:
256,192,141635,1,0,0:0:0:0:
256,192,142435,1,0,0:0:0:0:
256,192,142635,1,0,0:0:0:0:
256,192,142835,1,8,0:0:0:0:
256,192,143035,1,8,0:0:0:0:
256,192,143235,1,8,0:0:0:0:
256,192,143635,1,8,0:0:0:0:
256,192,144035,1,0,0:0:0:0:
256,192,144235,1,12,0:0:0:0:
256,192,144835,1,0,0:0:0:0:
256,192,145035,1,8,0:0:0:0:
256,192,145235,1,8,0:0:0:0:
256,192,145435,1,8,0:0:0:0:
256,192,145635,1,0,0:0:0:0:
256,192,146035,1,8,0:0:0:0:
256,192,146435,1,8,0:0:0:0:
256,192,146635,1,8,0:0:0:0:
256,192,146835,1,0,0:0:0:0:
256,192,147035,1,8,0:0:0:0:
256,192,147435,1,4,0:0:0:0:
256,192,147835,1,8,0:0:0:0:
256,192,148235,1,8,0:0:0:0:
256,192,148635,1,8,0:0:0:0:
256,192,149035,1,8,0:0:0:0:
256,192,149235,1,0,0:0:0:0:
256,192,149435,1,12,0:0:0:0:
256,192,149635,1,12,0:0:0:0:
256,192,150035,1,8,0:0:0:0:
256,192,150635,1,12,0:0:0:0:
256,192,152035,1,8,0:0:0:0:
256,192,153435,1,0,0:0:0:0:
256,192,153635,1,8,0:0:0:0:
256,192,153835,1,0,0:0:0:0:
256,192,154835,1,8,0:0:0:0:
256,192,155035,1,8,0:0:0:0:
256,192,155235,1,0,0:0:0:0:
256,192,156235,1,8,0:0:0:0:
256,192,156635,1,8,0:0:0:0:
256,192,156835,1,0,0:0:0:0:
256,192,157035,1,12,0:0:0:0:
256,192,157435,1,0,0:0:0:0:
256,192,157635,1,8,0:0:0:0:
256,192,158035,1,0,0:0:0:0:
256,192,158235,1,8,0:0:0:0:
256,192,158435,1,0,0:0:0:0:
256,192,158835,1,0,0:0:0:0:
256,192,159035,1,8,0:0:0:0:
256,192,159235,1,8,0:0:0:0:
256,192,159635,1,0,0:0:0:0:
256,192,159835,1,8,0:0:0:0:
256,192,160035,1,0,0:0:0:0:
256,192,160235,1,12,0:0:0:0:
256,192,160635,1,0,0:0:0:0:
256,192,160835,1,8,0:0:0:0:
256,192,161235,1,0,0:0:0:0:
256,192,161435,1,8,0:0:0:0:
256,192,161835,1,0,0:0:0:0:
256,192,162235,1,12,0:0:0:0:
256,192,162635,1,0,0:0:0:0:
256,192,163035,1,0,0:0:0:0:
256,192,163435,1,0,0:0:0:0:
256,192,163835,1,0,0:0:0:0:
256,192,164035,1,0,0:0:0:0:
256,192,164235,1,8,0:0:0:0:
256,192,164435,1,0,0:0:0:0:
256,192,164635,1,0,0:0:0:0:
256,192,164835,1,12,0:0:0:0:
256,192,165435,1,12,0:0:0:0:
256,192,165635,12,0,171435,0:0:0:0:
