osu file format v14

[General]
AudioFilename: ah.mp3
AudioLeadIn: 1000
PreviewTime: 103509
Countdown: 0
SampleSet: Soft
StackLeniency: 0.3
Mode: 0
LetterboxInBreaks: 0
WidescreenStoryboard: 0

[Editor]
Bookmarks: 1053,7221,14407,28778,40275,51772,63269,77640,89137,99018,123628,135485,139070,139077
DistanceSpacing: 0.7
BeatDivisor: 4
GridSize: 4
TimelineZoom: 2.4

[Metadata]
Title:HAELEQUIN
TitleUnicode:HAELEQUIN
Artist:orangentle
ArtistUnicode:orangentle
Creator:Gamu
Version:Extra
Source:BMS
Tags:toybot Asahina Momoko alacat bbj0920 SDVX BOF2012 THE OF FIGHTERS 2012 EIN NEUER HEILINGER KRIEG Dissociative Identity Disorder Memoirs Yu_Asahina deadblue238 Mokori m_o_k_o_r_i
BeatmapID:656337
BeatmapSetID:291495

[Difficulty]
HPDrainRate:7
CircleSize:4
OverallDifficulty:8
ApproachRate:9
SliderMultiplier:1.9
SliderTickRate:2

[Events]
//Background and Video events
Video,0,"video.avi"
0,0,"BG.jpg",0,0
//Break Periods
//Storyboard Layer 0 (Background)
//Storyboard Layer 1 (Fail)
//Storyboard Layer 2 (Pass)
//Storyboard Layer 3 (Foreground)
//Storyboard Sound Samples

[TimingPoints]
36,359.281437125748,4,2,1,30,1,0
1473,-100,4,2,1,60,0,0
7221,-100,4,2,1,70,0,0
11892,-100,4,2,1,60,0,0
12970,-100,4,2,1,55,0,0
13329,-100,4,2,1,50,0,0
13688,-100,4,2,1,45,0,0
14047,-100,4,2,2,60,0,0
14137,-100,4,2,1,40,0,0
14407,-100,4,2,1,60,0,0
23030,-83.3333333333333,4,2,1,60,0,0
23568,-125,4,2,1,60,0,0
24107,-100,4,2,1,60,0,0
24467,-83.3333333333333,4,2,1,60,0,0
25006,-125,4,2,1,60,0,0
25544,-100,4,2,1,60,0,0
27700,-125,4,2,1,60,0,0
28419,-100,4,2,1,60,0,0
31652,-83.3333333333333,4,2,1,60,0,0
33089,-125,4,2,1,60,0,0
34167,-100,4,2,1,60,0,0
37401,-83.3333333333333,4,2,1,60,0,0
38838,-100,4,2,1,60,0,0
44586,-83.3333333333333,4,2,1,60,0,0
46024,-100,4,2,1,60,0,0
48179,-83.3333333333333,4,2,1,70,0,0
48898,-83.3333333333333,4,2,1,60,0,0
51772,-100,4,2,1,50,0,0
53928,-100,4,2,1,40,0,0
54646,-100,4,2,1,50,0,0
55724,-100,4,2,1,55,0,0
56083,-100,4,2,1,60,0,0
56443,-100,4,2,1,55,0,0
56802,-100,4,2,1,50,0,0
57161,-100,4,2,1,45,0,0
57521,-100,4,2,1,50,0,0
58958,-100,4,2,1,60,0,0
60395,-100,4,2,1,70,0,0
63269,-100,4,2,1,50,0,0
68299,-83.3333333333333,4,2,1,60,0,0
69018,-100,4,2,1,60,0,0
72071,-90.9090909090909,4,2,1,60,0,0
72790,-83.3333333333333,4,2,1,65,0,0
73509,-76.9230769230769,4,2,1,70,0,0
74227,-71.4285714285714,4,2,1,75,0,0
74766,-100,4,2,1,60,0,0
75485,-100,4,2,1,50,0,0
75844,-100,4,2,1,40,0,0
76922,-100,4,2,1,50,0,0
77281,-100,4,2,1,60,0,0
77640,-100,4,2,1,70,0,0
86263,-100,4,2,1,50,0,0
88778,-100,4,2,1,45,0,0
88868,-100,4,2,1,40,0,0
88958,-100,4,2,1,35,0,0
89047,-100,4,2,1,30,0,0
89137,-83.3333333333333,4,2,1,70,0,0
94886,-100,4,2,1,50,0,0
96323,-100,4,2,1,53,0,0
97580,-100,4,2,1,56,0,0
98119,-90.9090909090909,4,2,1,59,0,0
98479,-83.3333333333333,4,2,1,62,0,0
98838,-76.9230769230769,4,2,1,65,0,0
99197,-71.4285714285714,4,2,1,68,0,0
99556,-66.6666666666667,4,2,1,71,0,0
99916,-62.5,4,2,1,74,0,0
100275,-58.8235294117647,4,2,1,77,0,0
100634,-100,4,2,1,80,0,0
100679,-100,4,2,1,50,0,0
102071,-100,4,2,1,50,0,0
102431,-100,4,2,1,55,0,0
102790,-100,4,2,1,60,0,0
103149,-100,4,2,1,65,0,0
103509,-100,4,2,1,70,0,1
123628,-100,4,2,1,60,0,0
134407,-100,4,2,1,70,0,0
135035,-200,4,2,1,70,0,0
135485,-100,4,2,1,80,0,0
135574,-100,4,2,1,60,0,0
139077,-100,4,2,1,5,0,0

[Colours]
Combo1 : 255,0,0
Combo2 : 181,255,255
Combo3 : 255,202,255
Combo4 : 166,210,255
Combo5 : 255,179,179
Combo6 : 70,163,255
Combo7 : 255,157,255

[HitObjects]
76,64,1053,6,0,L|44:60,6,31.6666666666667,2|0|0|0|0|0|0,0:0|0:0|0:0|0:0|0:0|0:0|0:0,0:0:0:0:
116,72,1473,6,0,B|128:120|128:120|120:176,1,95,4|0,1:2|0:0,0:0:0:0:
92,288,1832,1,0,0:0:0:0:
192,192,2012,2,0,L|208:92,1,95,4|0,1:2|0:0,0:0:0:0:
312,168,2371,1,0,0:0:0:0:
432,200,2550,5,4,1:2:0:0:
428,177,2640,1,0,0:0:0:0:
424,153,2730,1,0,0:0:0:0:
420,130,2820,1,0,0:0:0:0:
416,107,2910,1,0,0:0:0:0:
208,98,3089,1,4,1:2:0:0:
204,121,3179,1,0,0:0:0:0:
200,144,3269,1,0,0:0:0:0:
196,168,3359,1,0,0:0:0:0:
192,191,3449,1,0,0:0:0:0:
292,324,3628,5,4,1:2:0:0:
292,324,3718,1,0,0:0:0:0:
292,324,3808,1,0,0:0:0:0:
400,164,3988,1,4,1:2:0:0:
400,164,4077,1,0,0:0:0:0:
400,164,4167,1,0,0:0:0:0:
460,340,4347,5,4,1:2:0:0:
476,300,4437,1,0,0:0:0:0:
484,256,4527,1,0,0:0:0:0:
484,212,4616,1,0,0:0:0:0:
472,168,4706,2,0,L|456:120,1,47.5
364,24,4886,2,0,L|340:124,1,95,4|0,1:2|0:0,0:0:0:0:
308,240,5245,1,0,0:0:0:0:
192,192,5425,6,0,B|140:180|140:180|100:204|120:248|144:272|200:276,1,190,4|0,1:2|0:0,0:0:0:0:
80,120,5964,2,0,P|35:201|64:296,1,190,4|0,1:2|0:0,0:0:0:0:
308,240,6503,2,0,B|341:229|341:229|404:240|404:240|456:228,1,142.5,4|0,1:2|0:0,0:0:0:0:
484,208,6862,1,0,1:0:0:0:
504,168,6952,1,0,0:0:0:0:
508,124,7041,1,0,1:0:0:0:
496,84,7131,1,0,0:0:0:0:
460,60,7221,22,0,B|365:54,1,95,4|0,1:2|0:0,0:0:0:0:
116,36,7580,1,8,1:2:0:0:
116,36,7670,1,0,0:0:0:0:
116,36,7760,1,0,0:0:0:0:
248,100,7940,1,0,1:0:0:0:
20,140,8119,1,0,0:0:0:0:
256,192,8299,1,8,1:2:0:0:
296,178,8389,1,0,0:0:0:0:
327,149,8479,1,0,0:0:0:0:
340,108,8568,1,0,0:0:0:0:
330,62,8658,6,0,L|320:13,1,47.5,0|0,1:0|0:0,0:0:0:0:
160,32,8838,2,0,L|169:78,1,47.5
349,154,9018,6,0,L|339:105,1,47.5,8|0,1:2|0:0,0:0:0:0:
169,78,9197,2,0,L|178:124,1,47.5
359,200,9377,6,0,L|347:146,1,47.5,0|0,1:0|0:0,0:0:0:0:
178,125,9556,2,0,L|187:171,1,47.5
369,246,9736,6,0,L|359:197,1,47.5,8|0,1:2|0:0,0:0:0:0:
187,170,9916,2,0,L|196:216,1,47.5
212,256,10095,5,0,1:0:0:0:
235,293,10185,1,0,0:0:0:0:
269,318,10275,1,0,0:0:0:0:
311,323,10365,1,0,0:0:0:0:
351,307,10455,1,8,1:2:0:0:
379,275,10544,1,0,0:0:0:0:
387,233,10634,1,0,0:0:0:0:
375,191,10724,1,0,0:0:0:0:
339,166,10814,21,0,1:0:0:0:
321,126,10904,1,0,0:0:0:0:
325,83,10994,1,0,0:0:0:0:
350,49,11083,1,0,0:0:0:0:
389,31,11173,1,8,1:2:0:0:
431,36,11263,1,0,0:0:0:0:
465,61,11353,1,0,0:0:0:0:
482,100,11443,1,0,0:0:0:0:
401,112,11533,5,4,1:2:0:0:
401,112,11892,5,2,0:0:0:0:
352,84,11982,1,0,0:0:0:0:
296,76,12071,1,0,0:0:0:0:
244,96,12161,1,0,0:0:0:0:
208,140,12251,5,2,0:0:0:0:
200,84,12341,1,0,0:0:0:0:
160,44,12431,1,0,0:0:0:0:
104,28,12521,1,0,0:0:0:0:
48,36,12610,5,2,0:0:0:0:
28,64,12700,1,2,0:0:0:0:
16,96,12790,1,2,0:0:0:0:
16,128,12880,1,2,0:0:0:0:
48,176,12970,5,2,3:2:0:0:
68,204,13059,1,2,3:2:0:0:
80,236,13149,1,2,0:0:0:0:
80,268,13239,1,2,3:2:0:0:
56,320,13329,21,2,3:2:0:0:
88,316,13419,1,2,0:0:0:0:
120,312,13509,1,2,3:2:0:0:
152,308,13598,1,2,3:2:0:0:
200,340,13688,5,2,3:2:0:0:
232,336,13778,1,2,3:2:0:0:
264,332,13868,1,2,3:2:0:0:
296,328,13958,1,2,3:2:0:0:
344,360,14047,5,6,3:2:0:0:
400,352,14137,1,2,3:2:0:0:
444,316,14227,1,2,3:2:0:0:
468,264,14317,1,2,3:2:0:0:
460,208,14407,5,4,1:2:0:0:
304,176,14586,1,0,0:0:0:0:
476,104,14766,2,0,L|480:56,1,47.5,8|0,0:0|0:0,0:0:0:0:
372,111,14946,2,0,B|364:191|364:191|336:176|304:176,1,142.5,0|0,1:0|0:0,0:0:0:0:
316,260,15305,1,0,1:0:0:0:
192,128,15485,1,8,0:0:0:0:
72,148,15664,1,0,0:0:0:0:
139,332,15844,6,0,P|152:287|148:240,1,95,0|0,1:0|0:0,0:0:0:0:
16,272,16203,1,8,0:0:0:0:
248,352,16383,2,0,B|280:336|280:336|328:356|376:328|384:308,1,142.5,0|0,1:0|0:0,0:0:0:0:
316,260,16742,1,0,1:0:0:0:
304,228,16832,1,0,1:0:0:0:
304,196,16922,1,10,0:0:0:0:
324,144,17012,1,2,0:0:0:0:
376,120,17101,1,2,1:2:0:0:
432,128,17191,1,2,0:0:0:0:
472,168,17281,6,0,P|486:216|480:272,1,95,6|0,1:2|0:0,0:0:0:0:
248,352,17640,1,8,0:0:0:0:
240,320,17730,1,2,0:0:0:0:
184,336,17820,1,2,1:2:0:0:
128,332,17910,1,2,0:0:0:0:
84,296,18000,2,0,L|80:248,1,47.5,2|0,0:0|0:0,0:0:0:0:
120,104,18179,2,0,L|124:152,1,47.5,2|0,1:2|0:0,0:0:0:0:
0,180,18359,2,0,L|48:176,1,47.5,10|0,0:0|0:0,0:0:0:0:
204,220,18538,2,0,L|156:224,1,47.5,2|0,0:0|0:0,0:0:0:0:
68,40,18718,22,0,P|111:22|166:34,1,95,2|0,1:2|0:0,0:0:0:0:
208,100,18988,1,2,0:0:0:0:
208,100,19077,2,0,L|268:92,1,47.5,8|0,0:0|0:0,0:0:0:0:
372,76,19257,1,2,1:2:0:0:
204,220,19437,1,2,0:0:0:0:
196,252,19527,1,0,0:0:0:0:
200,284,19616,1,2,1:2:0:0:
216,312,19706,1,0,1:0:0:0:
248,328,19796,1,8,0:0:0:0:
280,332,19886,1,0,0:0:0:0:
312,324,19976,1,2,1:2:0:0:
276,280,20065,1,2,0:0:0:0:
220,268,20155,6,0,P|176:264|116:280,1,95,2|0,1:2|0:0,0:0:0:0:
32,356,20515,1,8,0:0:0:0:
20,176,20694,1,2,1:2:0:0:
28,120,20784,1,2,0:0:0:0:
48,68,20874,2,0,P|72:56|104:48,1,47.5,2|0,0:0|0:0,0:0:0:0:
180,96,21053,2,0,P|204:108|236:116,1,47.5,2|0,0:0|0:0,0:0:0:0:
320,84,21233,2,0,P|344:72|376:64,1,47.5,10|0,1:2|0:0,0:0:0:0:
452,112,21413,2,0,P|476:124|508:132,1,47.5,2|0,0:0|0:0,0:0:0:0:
482,311,21592,6,0,P|434:261|432:192,1,142.5,2|0,1:2|0:0,0:0:0:0:
452,112,21952,1,8,0:0:0:0:
180,96,22131,1,0,1:0:0:0:
320,84,22311,1,2,0:0:0:0:
48,68,22491,1,2,1:2:0:0:
48,68,22580,1,0,1:2:0:0:
48,68,22670,2,0,L|44:16,1,47.5,10|0,0:0|0:0,0:0:0:0:
96,199,22850,2,0,L|100:152,1,47.5,2|0,1:2|0:0,0:0:0:0:
47,331,23030,6,0,P|104:344|160:324,1,113.999996520996,6|0,1:2|0:0,0:0:0:0:
240,204,23299,1,6,1:2:0:0:
240,204,23568,6,0,L|264:360,1,152,6|0,1:2|0:0,0:0:0:0:
496,260,24107,1,2,1:2:0:0:
468,128,24287,1,2,0:0:0:0:
328,76,24467,6,0,P|272:84|212:64,1,113.999996520996,6|2,1:2|0:0,0:0:0:0:
156,24,24736,1,0,1:0:0:0:
104,76,24826,2,0,L|106:135,1,56.9999982604981,2|0,0:0|0:0,0:0:0:0:
16,40,25006,22,0,L|20:192,1,152,6|0,1:2|0:0,0:0:0:0:
24,328,25544,1,0,1:0:0:0:
232,260,25724,1,2,0:0:0:0:
288,248,25814,1,2,0:0:0:0:
344,268,25904,5,6,1:2:0:0:
280,356,26083,1,0,0:0:0:0:
256,164,26263,1,8,0:0:0:0:
424,240,26443,1,2,1:2:0:0:
180,348,26622,2,0,L|76:344,1,95,2|0,0:0|1:0,0:0:0:0:
4,268,26892,1,2,1:2:0:0:
36,256,26982,2,0,L|32:161,1,95,10|0,0:0|1:0,0:0:0:0:
232,260,27341,5,6,1:2:0:0:
232,260,27700,2,0,B|292:236|360:264|376:312|344:348|296:344|280:296|308:260|384:252|444:300,1,304,6|0,1:2|0:0,0:0:0:0:
496,252,28509,1,2,0:0:0:0:
512,196,28598,1,2,0:0:0:0:
512,140,28688,1,2,0:0:0:0:
496,84,28778,5,6,1:2:0:0:
301,202,28958,1,0,0:0:0:0:
360,12,29137,1,8,1:2:0:0:
392,16,29227,1,2,0:0:0:0:
416,68,29317,1,2,0:0:0:0:
420,124,29407,1,2,0:0:0:0:
408,180,29497,1,2,1:2:0:0:
290,108,29676,1,2,0:0:0:0:
496,84,29856,1,10,1:2:0:0:
368,256,30035,1,2,0:0:0:0:
164,184,30215,6,0,P|116:176|60:188,1,95,2|0,1:2|0:0,0:0:0:0:
16,260,30485,2,0,L|12:312,1,47.5,2|8,0:0|1:2,0:0:0:0:
301,202,30754,2,0,L|290:108,1,95,2|0,0:0|1:0,0:0:0:0:
280,24,31024,1,0,0:0:0:0:
312,36,31113,1,0,0:0:0:0:
344,40,31203,1,0,1:0:0:0:
376,40,31293,2,0,L|424:32,1,47.5,10|0,1:2|0:0,0:0:0:0:
506,160,31473,2,0,L|460:168,1,47.5,2|0,1:2|0:0,0:0:0:0:
301,202,31652,38,0,B|292:264|292:264|312:328,1,113.999996520996,6|0,1:2|0:0,0:0:0:0:
484,253,31922,2,0,P|429:239|376:256,1,113.999996520996,2|0,0:0|0:0,0:0:0:0:
176,348,32191,2,0,L|232:352,1,56.9999982604981,2|0,0:0|0:0,0:0:0:0:
301,202,32371,6,0,B|310:140|310:140|290:76,1,113.999996520996,6|0,1:2|0:0,0:0:0:0:
118,150,32640,2,0,P|172:163|226:147,1,113.999996520996,2|0,0:0|0:0,0:0:0:0:
426,56,32910,2,0,L|370:52,1,56.9999982604981,2|0,0:0|0:0,0:0:0:0:
64,68,33089,6,0,P|20:152|44:212,1,152,6|0,1:2|0:0,0:0:0:0:
301,202,33628,1,0,0:0:0:0:
301,202,33718,1,0,0:0:0:0:
301,202,33808,2,0,P|263:202|225:211,1,76,4|0,1:2|0:0,0:0:0:0:
360,284,34167,1,2,1:2:0:0:
395,239,34257,1,0,1:0:0:0:
399,182,34347,1,0,1:0:0:0:
372,131,34437,1,0,1:0:0:0:
321,104,34527,6,0,P|272:96|211:108,1,95,6|0,1:2|0:0,0:0:0:0:
124,184,34886,1,8,1:2:0:0:
232,24,35065,1,2,0:0:0:0:
301,202,35245,1,2,1:2:0:0:
132,72,35425,1,2,0:0:0:0:
320,104,35604,1,10,1:2:0:0:
205,259,35784,1,2,0:0:0:0:
60,124,35964,6,0,P|42:78|53:27,1,95,2|0,1:2|0:0,0:0:0:0:
132,72,36233,1,2,0:0:0:0:
132,72,36323,1,8,1:2:0:0:
301,202,36503,2,0,L|397:194,1,95,2|0,0:0|1:0,0:0:0:0:
412,164,36772,1,0,0:0:0:0:
424,132,36862,1,0,0:0:0:0:
400,304,37041,1,8,1:2:0:0:
205,259,37221,1,2,0:0:0:0:
205,259,37311,1,2,0:0:0:0:
205,259,37401,6,0,L|88:264,1,113.999996520996,6|0,1:2|0:0,0:0:0:0:
140,176,37670,2,0,L|23:181,1,113.999996520996,2|0,0:0|0:0,0:0:0:0:
75,93,37940,2,0,L|-25:97,1,56.9999982604981,2|0,0:0|0:0,0:0:0:0:
286,299,38119,22,0,L|400:304,1,113.999996520996,6|0,1:2|0:0,0:0:0:0:
350,216,38389,2,0,L|464:221,1,113.999996520996,2|0,0:0|0:0,0:0:0:0:
416,132,38658,2,0,L|473:135,1,56.9999982604981,2|0,0:0|0:0,0:0:0:0:
204,338,38838,5,6,1:2:0:0:
140,176,39018,1,0,1:0:0:0:
286,299,39197,1,6,1:2:0:0:
350,137,39377,1,0,1:0:0:0:
204,260,39556,1,0,1:0:0:0:
140,98,39736,1,0,1:0:0:0:
292,221,39916,5,0,1:0:0:0:
350,216,40006,1,0,1:0:0:0:
406,232,40095,1,0,1:0:0:0:
446,272,40185,1,0,1:0:0:0:
454,328,40275,1,4,1:2:0:0:
128,324,40455,5,2,0:0:0:0:
120,292,40544,1,0,0:0:0:0:
112,260,40634,1,10,0:0:0:0:
104,228,40724,1,0,0:0:0:0:
96,196,40814,1,2,0:0:0:0:
88,164,40904,1,0,0:0:0:0:
80,132,40994,1,2,0:0:0:0:
350,137,41173,5,2,0:0:0:0:
374,113,41263,1,0,0:0:0:0:
406,105,41353,1,10,0:0:0:0:
438,109,41443,1,0,0:0:0:0:
466,125,41533,1,2,0:0:0:0:
486,153,41622,1,0,0:0:0:0:
494,185,41712,1,2,0:0:0:0:
204,260,41892,5,2,0:0:0:0:
196,228,41982,1,0,0:0:0:0:
188,196,42071,1,10,0:0:0:0:
180,164,42161,1,0,0:0:0:0:
172,132,42251,1,2,0:0:0:0:
164,100,42341,1,0,0:0:0:0:
156,68,42431,1,2,0:0:0:0:
374,113,42610,21,2,0:0:0:0:
406,105,42700,1,0,0:0:0:0:
438,109,42790,1,10,0:0:0:0:
466,125,42880,1,0,0:0:0:0:
486,153,42970,1,2,0:0:0:0:
494,185,43059,1,0,0:0:0:0:
492,220,43149,1,6,1:2:0:0:
336,320,43329,5,2,0:0:0:0:
304,312,43419,1,0,0:0:0:0:
272,316,43509,1,10,0:0:0:0:
240,328,43598,1,0,0:0:0:0:
208,328,43688,1,2,0:0:0:0:
176,320,43778,1,0,0:0:0:0:
148,300,43868,2,0,L|136:252,1,47.5,2|0,0:0|0:0,0:0:0:0:
48,228,44047,2,0,L|73:185,1,47.5,2|0,0:0|0:0,0:0:0:0:
28,106,44227,2,0,L|76:93,1,47.5,10|0,0:0|0:0,0:0:0:0:
164,28,44407,1,2,1:2:0:0:
208,56,44497,1,0,1:0:0:0:
248,88,44586,6,0,B|308:96|308:96|360:68|424:88,1,170.999994781494,4|0,1:2|0:0,0:0:0:0:
368,332,44946,2,0,B|360:272|360:272|388:220|368:156,1,170.999994781494,4|0,1:2|0:0,0:0:0:0:
264,296,45305,2,0,B|204:288|204:288|152:316|88:296,1,170.999994781494,4|0,1:2|0:0,0:0:0:0:
144,52,45664,1,4,1:2:0:0:
149,91,45754,1,0,1:0:0:0:
144,129,45844,1,0,1:0:0:0:
135,168,45934,1,0,1:0:0:0:
138,208,46024,5,6,1:2:0:0:
164,180,46113,1,0,0:0:0:0:
200,164,46203,1,0,0:0:0:0:
240,156,46293,1,0,0:0:0:0:
280,164,46383,1,10,1:2:0:0:
320,160,46473,1,0,0:0:0:0:
348,132,46562,1,0,0:0:0:0:
360,92,46652,1,0,0:0:0:0:
352,52,46742,5,2,1:2:0:0:
392,64,46832,1,0,0:0:0:0:
432,64,46922,1,0,0:0:0:0:
468,52,47012,1,0,0:0:0:0:
500,32,47101,1,10,1:2:0:0:
488,72,47191,1,0,0:0:0:0:
480,112,47281,1,0,0:0:0:0:
484,152,47371,1,0,0:0:0:0:
496,192,47461,6,0,L|492:240,3,47.5,2|0|0|0,1:2|0:0|0:0|0:0,0:0:0:0:
396,344,47820,2,0,L|392:292,3,47.5,10|0|0|0,1:2|0:0|0:0|0:0,0:0:0:0:
280,212,48179,5,2,1:2:0:0:
268,208,48239,1,2,0:0:0:0:
256,204,48299,1,2,0:0:0:0:
244,200,48359,1,2,0:0:0:0:
232,196,48419,1,2,0:0:0:0:
220,192,48479,1,2,0:0:0:0:
208,188,48538,1,10,1:2:0:0:
208,188,48898,5,2,1:2:0:0:
216,228,48988,1,0,0:0:0:0:
212,268,49077,1,0,0:0:0:0:
196,304,49167,1,0,0:0:0:0:
168,332,49257,1,10,1:2:0:0:
132,312,49347,1,0,0:0:0:0:
92,304,49437,1,0,0:0:0:0:
52,312,49527,1,0,0:0:0:0:
16,332,49616,5,2,1:2:0:0:
32,296,49706,1,0,0:0:0:0:
36,256,49796,1,0,0:0:0:0:
32,216,49886,1,0,0:0:0:0:
16,180,49976,1,10,1:2:0:0:
4,144,50065,1,0,0:0:0:0:
8,104,50155,1,0,0:0:0:0:
24,68,50245,1,0,0:0:0:0:
56,44,50335,5,2,1:2:0:0:
208,188,50515,1,0,1:0:0:0:
4,144,50694,1,8,1:2:0:0:
200,72,50874,1,2,1:2:0:0:
200,72,50964,1,2,0:0:0:0:
200,72,51053,2,0,L|256:68,1,56.9999982604981,2|0,1:2|0:0,0:0:0:0:
388,164,51233,2,0,L|332:168,1,56.9999982604981,0|0,1:0|0:0,0:0:0:0:
420,60,51413,1,8,1:2:0:0:
468,89,51503,1,0,1:0:0:0:
495,138,51592,1,0,1:0:0:0:
492,195,51682,1,0,1:0:0:0:
463,244,51772,5,6,1:2:0:0:
320,336,51952,2,0,L|312:236,1,95,2|8,0:0|0:0,0:0:0:0:
388,164,52311,1,0,0:0:0:0:
224,324,52491,2,0,L|216:224,1,95,2|0,0:0|0:0,0:0:0:0:
292,152,52850,1,10,0:0:0:0:
200,64,53030,1,2,0:0:0:0:
84,104,53209,5,2,0:0:0:0:
72,124,53299,1,0,0:0:0:0:
64,148,53389,1,0,0:0:0:0:
60,172,53479,1,0,0:0:0:0:
64,196,53568,1,10,0:0:0:0:
72,220,53658,1,0,0:0:0:0:
84,240,53748,1,0,0:0:0:0:
100,256,53838,1,0,0:0:0:0:
168,280,53928,5,2,0:0:0:0:
188,268,54018,1,0,0:0:0:0:
208,260,54107,1,0,0:0:0:0:
232,256,54197,1,0,0:0:0:0:
256,256,54287,1,10,0:0:0:0:
280,260,54377,1,0,0:0:0:0:
304,268,54467,1,0,0:0:0:0:
324,280,54556,1,0,0:0:0:0:
368,336,54646,22,0,L|424:332,1,47.5,2|0,0:0|0:0,0:0:0:0:
412,240,54826,2,0,L|468:236,1,47.5,2|0,0:0|0:0,0:0:0:0:
328,176,55006,2,0,L|280:172,1,47.5,10|0,0:0|0:0,0:0:0:0:
284,80,55185,2,0,L|236:76,1,47.5,2|0,0:0|0:0,0:0:0:0:
412,144,55365,5,2,0:0:0:0:
436,148,55455,1,0,0:0:0:0:
460,140,55544,1,2,0:0:0:0:
476,120,55634,1,0,0:0:0:0:
480,96,55724,2,0,L|472:48,1,47.5,10|0,0:0|0:0,0:0:0:0:
360,24,55904,2,0,L|367:70,1,47.5,2|0,0:0|0:0,0:0:0:0:
328,176,56083,5,2,0:0:0:0:
296,184,56173,1,0,0:0:0:0:
264,184,56263,1,2,0:0:0:0:
232,176,56353,1,0,0:0:0:0:
204,160,56443,2,0,L|208:112,3,47.5,10|0|2|0,0:0|0:0|0:0|0:0,0:0:0:0:
116,48,56802,5,2,0:0:0:0:
112,80,56892,1,0,0:0:0:0:
108,112,56982,1,2,0:0:0:0:
104,144,57071,1,0,0:0:0:0:
100,176,57161,2,0,L|96:224,3,47.5,10|0|2|0,0:0|0:0|0:0|0:0,0:0:0:0:
144,296,57521,6,0,P|97:307|48:296,1,95,2|0,0:0|0:0,0:0:0:0:
180,112,57880,1,8,0:0:0:0:
180,112,57970,2,0,L|300:120,1,95,2|0,0:0|0:0,0:0:0:0:
360,124,58239,2,0,P|372:76|368:28,1,95,2|2,0:0|0:0,0:0:0:0:
240,196,58598,1,10,0:0:0:0:
244,220,58688,1,0,0:0:0:0:
248,244,58778,1,2,0:0:0:0:
252,268,58868,1,0,0:0:0:0:
256,292,58958,5,2,0:0:0:0:
276,320,59047,1,0,0:0:0:0:
308,332,59137,1,0,0:0:0:0:
340,336,59227,1,0,0:0:0:0:
372,328,59317,1,10,0:0:0:0:
396,308,59407,1,0,0:0:0:0:
408,276,59497,1,0,0:0:0:0:
408,244,59586,1,0,0:0:0:0:
392,216,59676,21,2,0:0:0:0:
372,188,59766,1,0,0:0:0:0:
364,156,59856,1,0,0:0:0:0:
368,124,59946,1,0,0:0:0:0:
388,96,60035,1,10,0:0:0:0:
416,80,60125,1,0,0:0:0:0:
448,76,60215,1,0,0:0:0:0:
480,84,60305,1,0,0:0:0:0:
504,108,60395,6,0,L|512:144,14,23.75,4|0|0|0|0|0|0|0|0|0|0|0|0|0|0,1:2|0:0|0:0|0:0|0:0|0:0|0:0|0:0|0:0|0:0|0:0|0:0|0:0|0:0|0:0,0:0:0:0:
480,212,61113,2,0,L|488:248,14,23.75,4|0|0|0|0|0|0|0|0|0|0|0|0|0|0,1:2|0:0|0:0|0:0|0:0|0:0|0:0|0:0|0:0|0:0|0:0|0:0|0:0|0:0|0:0,0:0:0:0:
456,316,61832,6,0,L|420:312,6,23.75,4|0|0|0|0|0|0,1:2|0:0|0:0|0:0|0:0|0:0|0:0,0:0:0:0:
352,272,62191,2,0,L|316:268,6,23.75,0|0|0|0|0|0|0,1:2|0:0|0:0|0:0|0:0|0:0|0:0,0:0:0:0:
56,316,62550,6,0,L|79:313,6,23.75,4|0|0|0|0|0|0,1:2|0:0|0:0|0:0|1:0|0:0|0:0,0:0:0:0:
160,272,62910,2,0,L|183:269,6,23.75,0|0|0|0|0|0|0,1:2|0:0|1:0|0:0|1:0|0:0|1:0,0:0:0:0:
256,188,63269,6,0,B|256:100,2,63.3333333333333,6|0|0,1:2|0:0|0:0,0:0:0:0:
256,308,63628,2,0,B|256:371,2,63.3333333333333,10|0|0,1:2|0:0|0:0,0:0:0:0:
152,100,63988,2,0,B|116:92|116:92|72:100,2,63.3333333333333,2|0|0,1:2|0:0|0:0,0:0:0:0:
360,100,64347,2,0,B|396:92|396:92|440:100,2,63.3333333333333,10|0|0,1:2|0:0|0:0,0:0:0:0:
156,200,64706,6,0,B|151:226|151:226|159:262,2,63.3333333333333,2|0|0,1:2|0:0|0:0,0:0:0:0:
356,200,65065,2,0,B|360:226|360:226|352:262,2,63.3333333333333,10|0|0,1:2|0:0|0:0,0:0:0:0:
176,344,65425,2,0,L|108:352,2,63.3333333333333,2|0|0,1:2|0:0|0:0,0:0:0:0:
336,344,65784,2,0,L|404:352,2,63.3333333333333,10|0|0,1:2|0:0|0:0,0:0:0:0:
156,200,66143,21,2,1:0:0:0:
160,168,66233,1,0,0:0:0:0:
164,136,66323,1,0,0:0:0:0:
168,104,66413,1,0,0:0:0:0:
172,72,66503,2,0,L|160:20,1,47.5,8|0,1:2|0:0,0:0:0:0:
57,137,66682,2,0,L|68:184,1,47.5
356,200,66862,5,0,1:0:0:0:
352,168,66952,1,0,0:0:0:0:
348,136,67041,1,0,0:0:0:0:
344,104,67131,1,0,0:0:0:0:
340,72,67221,2,0,L|352:20,1,47.5,8|0,1:2|0:0,0:0:0:0:
455,137,67401,2,0,L|444:184,1,47.5
192,340,67580,6,0,L|128:336,2,63.3333333333333,2|0|0,1:2|0:0|0:0,0:0:0:0:
320,340,67940,2,0,L|384:336,2,63.3333333333333,10|0|0,1:2|0:0|0:0,0:0:0:0:
132,236,68299,6,0,L|51:230,2,75.9999976806641,2|0|0,1:2|0:0|0:0,0:0:0:0:
380,236,68658,2,0,L|460:230,2,75.9999976806641,10|0|0,1:2|0:0|0:0,0:0:0:0:
72,132,69018,6,0,B|64:88|64:88|72:36,1,95,6|0,1:2|0:0,0:0:0:0:
288,84,69377,1,10,0:0:0:0:
288,84,69467,1,2,0:0:0:0:
288,84,69556,2,0,B|238:76|238:76|194:84,1,95,6|0,1:2|0:0,0:0:0:0:
132,236,69916,2,0,L|140:288,1,47.5,2|0,1:2|0:0,0:0:0:0:
229,310,70095,1,10,1:2:0:0:
224,276,70185,1,2,0:0:0:0:
219,242,70275,2,0,B|216:192|216:192|240:152,1,95,6|0,1:2|0:0,0:0:0:0:
380,236,70634,5,2,1:2:0:0:
380,236,70724,1,2,0:0:0:0:
380,236,70814,2,0,L|428:240,1,47.5,10|0,1:2|0:0,0:0:0:0:
496,156,70994,2,0,L|401:148,1,95,6|0,1:2|0:0,0:0:0:0:
125,49,71353,1,2,1:2:0:0:
156,44,71443,1,0,1:0:0:0:
188,40,71533,2,0,L|196:88,1,47.5,10|0,1:2|0:0,0:0:0:0:
59,157,71712,2,0,L|44:64,1,95,4|0,1:2|0:0,0:0:0:0:
228,276,72071,21,2,1:2:0:0:
269,124,72251,1,2,1:2:0:0:
380,236,72431,2,0,L|368:344,1,104.500003189087,6|0,1:2|0:0,0:0:0:0:
215,288,72790,5,2,1:2:0:0:
264,106,72970,1,2,1:2:0:0:
397,240,73149,2,0,L|383:370,1,113.999996520996,6|0,1:2|0:0,0:0:0:0:
200,302,73509,5,2,1:2:0:0:
259,86,73688,1,2,1:2:0:0:
416,246,73868,2,0,L|399:399,1,123.499994346619,6|0,1:2|0:0,0:0:0:0:
187,316,74227,5,2,1:2:0:0:
253,67,74407,1,6,1:2:0:0:
435,251,74586,1,2,1:2:0:0:
140,168,74766,2,0,L|32:176,1,95,6|0,1:2|0:0,0:0:0:0:
172,330,75125,5,10,1:2:0:0:
228,344,75215,1,2,0:0:0:0:
284,336,75305,1,2,0:0:0:0:
332,304,75395,1,2,0:0:0:0:
352,252,75485,5,2,1:2:0:0:
344,220,75574,1,2,0:0:0:0:
336,188,75664,1,2,0:0:0:0:
328,156,75754,1,2,0:0:0:0:
320,124,75844,21,10,1:2:0:0:
324,116,75934,1,2,0:0:0:0:
328,108,76024,1,2,0:0:0:0:
332,100,76113,1,2,0:0:0:0:
336,92,76203,6,0,L|392:84,3,47.5,6|2|2|2,1:2|0:0|0:0|0:0,0:0:0:0:
424,188,76562,2,0,L|480:180,3,47.5,2|2|2|2,0:2|0:0|0:0|0:0,0:0:0:0:
260,224,76922,5,2,0:0:0:0:
228,212,77012,1,2,0:0:0:0:
204,188,77101,1,2,0:0:0:0:
188,160,77191,1,2,0:0:0:0:
180,128,77281,5,2,0:0:0:0:
160,184,77371,1,2,0:0:0:0:
112,216,77461,1,2,0:0:0:0:
56,220,77550,1,2,0:0:0:0:
0,196,77640,6,0,B|-4:132|-4:132|16:108,1,95,6|0,1:2|0:0,0:0:0:0:
148,0,77910,2,0,B|152:64|152:64|132:88,1,95,2|0,0:0|0:0,0:0:0:0:
204,188,78179,2,0,P|252:192|304:184,1,95,2|0,0:0|0:0,0:0:0:0:
388,104,78538,1,2,0:0:0:0:
320,276,78718,1,2,0:0:0:0:
260,72,78898,1,2,0:0:0:0:
112,216,79077,6,0,B|108:264|108:264|120:320,1,95,2|2,0:0|0:0,0:0:0:0:
393,197,79437,2,0,B|397:149|397:149|388:104,1,95,2|2,0:0|0:0,0:0:0:0:
188,260,79796,1,2,0:0:0:0:
196,292,79886,1,2,0:0:0:0:
204,324,79976,2,0,L|256:316,1,47.5,0|2,1:0|0:0,0:0:0:0:
320,276,80155,1,0,0:0:0:0:
80,308,80335,1,2,1:2:0:0:
48,304,80425,1,0,1:0:0:0:
16,300,80515,22,0,B|4:228|4:228|16:204,1,95,6|0,1:2|0:0,0:0:0:0:
121,56,80784,2,0,B|133:128|133:128|124:148,1,95,2|0,0:0|0:0,0:0:0:0:
188,260,81053,2,0,B|260:248|260:248|288:260,1,95,2|0,0:0|0:0,0:0:0:0:
424,352,81413,1,2,0:0:0:0:
324,196,81592,1,2,0:0:0:0:
436,48,81772,2,0,L|480:44,2,31.6666666666667,2|0|0,1:2|1:0|1:0,0:0:0:0:
396,52,81952,6,0,L|296:40,1,95,6|2,1:2|0:0,0:0:0:0:
40,128,82311,1,2,0:0:0:0:
204,28,82491,1,2,0:0:0:0:
52,48,82670,1,2,1:2:0:0:
44,80,82760,2,0,L|40:136,1,47.5,2|0,0:0|0:0,0:0:0:0:
57,297,82940,2,0,B|68:248|68:248|60:204,1,95,2|0,1:2|0:0,0:0:0:0:
148,284,83209,2,0,L|136:340,1,47.5,2|0,1:2|1:0,0:0:0:0:
228,332,83389,6,0,P|276:324|328:328,1,95,6|0,1:2|0:0,0:0:0:0:
480,276,83658,2,0,P|432:278|385:270,1,95,2|0,0:0|0:0,0:0:0:0:
272,216,83928,2,0,L|264:120,1,95,2|0,0:0|0:0,0:0:0:0:
168,176,84287,1,2,0:0:0:0:
256,24,84467,1,2,0:0:0:0:
368,160,84646,1,2,0:0:0:0:
160,68,84826,5,2,0:0:0:0:
0,120,85006,1,2,0:0:0:0:
236,116,85185,1,2,0:0:0:0:
396,168,85365,1,2,0:0:0:0:
168,176,85544,1,2,0:0:0:0:
140,196,85634,2,0,L|84:188,1,47.5,2|0,0:0|0:0,0:0:0:0:
32,292,85814,2,0,B|80:268|80:268|128:276,1,95,2|0,0:0|0:0,0:0:0:0:
200,356,86083,2,0,L|192:300,1,47.5,2|0,0:0|0:0,0:0:0:0:
168,176,86263,6,0,P|204:29|327:110,1,332.5,2|0,1:2|0:0,0:0:0:0:
236,116,86982,2,0,P|296:180|392:156,1,190,2|0,1:2|0:0,0:0:0:0:
483,72,87521,1,2,0:0:0:0:
485,105,87610,1,2,0:0:0:0:
487,138,87700,6,0,B|488:184|488:184|479:244,1,95,2|0,1:2|0:0,0:0:0:0:
229,210,88059,2,0,B|228:164|228:164|236:116,1,95,0|0,1:0|0:0,0:0:0:0:
304,328,88419,1,0,1:0:0:0:
116,288,88598,1,0,1:0:0:0:
392,320,88778,1,0,1:0:0:0:
384,288,88868,1,0,1:0:0:0:
396,256,88958,1,0,1:0:0:0:
388,224,89047,1,0,1:0:0:0:
400,192,89137,22,0,B|388:148|388:148|400:104|400:104|388:68,1,113.999996520996,6|0,1:2|0:0,0:0:0:0:
308,188,89407,1,2,0:0:0:0:
308,188,89497,2,0,L|292:128,1,56.9999982604981,8|0,1:2|0:0,0:0:0:0:
216,184,89676,2,0,B|204:140|204:140|216:96|216:96|204:60,1,113.999996520996,2|0,0:0|1:0,0:0:0:0:
256,268,90035,1,2,0:0:0:0:
288,52,90215,1,10,1:2:0:0:
132,140,90395,1,2,0:0:0:0:
384,108,90574,6,0,L|448:112,1,56.9999982604981,2|0,1:2|0:0,0:0:0:0:
432,200,90754,2,0,L|496:204,1,56.9999982604981,2|0,0:0|0:0,0:0:0:0:
312,264,90934,2,0,L|256:268,1,56.9999982604981,10|0,1:2|0:0,0:0:0:0:
264,356,91113,2,0,L|208:360,1,56.9999982604981,2|0,0:0|0:0,0:0:0:0:
160,280,91293,1,2,1:2:0:0:
160,280,91383,1,2,0:0:0:0:
360,348,91562,1,2,0:0:0:0:
360,348,91652,2,0,P|392:340|416:324,1,56.9999982604981,10|0,1:2|0:0,0:0:0:0:
432,200,91832,2,0,P|424:168|408:144,1,56.9999982604981,2|0,1:2|1:0,0:0:0:0:
284,128,92012,6,0,P|217:144|184:176,1,113.999996520996,6|0,1:2|0:0,0:0:0:0:
160,280,92281,1,2,0:0:0:0:
160,280,92371,2,0,P|133:272|102:274,1,56.9999982604981,8|0,1:2|0:0,0:0:0:0:
208,348,92550,2,0,P|242:283|224:228,1,113.999996520996,2|0,0:0|1:0,0:0:0:0:
108,96,92910,1,2,0:0:0:0:
160,280,93089,1,10,1:2:0:0:
284,128,93269,1,2,0:0:0:0:
76,180,93449,6,0,L|12:172,1,56.9999982604981,2|0,1:2|0:0,0:0:0:0:
108,96,93628,2,0,L|172:88,1,56.9999982604981,2|0,0:0|0:0,0:0:0:0:
56,256,93808,2,0,L|-8:248,1,56.9999982604981,10|0,1:2|0:0,0:0:0:0:
87,18,93988,2,0,L|144:11,1,56.9999982604981,2|0,0:0|0:0,0:0:0:0:
240,48,94167,1,2,1:2:0:0:
240,48,94257,1,2,0:0:0:0:
384,208,94437,2,0,L|372:88,1,113.999996520996,2|0,1:2|0:0,0:0:0:0:
284,128,94706,2,0,L|289:184,1,56.9999982604981,2|0,1:2|0:0,0:0:0:0:
236,264,94886,6,0,B|204:260|204:260|164:276|164:276|124:272,1,95,6|0,1:2|0:0,0:0:0:0:
332,292,95245,1,10,1:2:0:0:
332,292,95335,1,2,0:0:0:0:
204,176,95515,1,2,0:0:0:0:
204,176,95604,1,2,1:2:0:0:
56,256,95784,1,2,0:0:0:0:
56,256,95874,1,2,0:0:0:0:
56,256,95964,2,0,L|44:196,1,47.5,10|0,1:2|0:0,0:0:0:0:
116,76,96143,2,0,L|106:122,1,47.5,2|0,1:2|0:0,0:0:0:0:
143,268,96323,6,0,P|190:275|236:264,1,95,6|0,1:2|0:0,0:0:0:0:
412,144,96682,1,10,1:2:0:0:
412,144,96772,1,2,0:0:0:0:
288,24,96952,1,2,0:0:0:0:
288,24,97041,1,2,1:2:0:0:
204,176,97221,1,2,0:0:0:0:
204,176,97311,1,2,0:0:0:0:
204,176,97401,2,0,L|264:188,1,47.5,10|0,1:2|0:0,0:0:0:0:
238,287,97580,2,0,L|144:268,1,95,6|0,1:2|0:0,0:0:0:0:
116,76,97940,21,2,0:0:0:0:
148,64,98030,1,2,0:0:0:0:
180,52,98119,2,0,L|232:56,1,52.2500015945435,4|0,1:2|0:0,0:0:0:0:
328,60,98299,5,2,0:0:0:0:
336,96,98389,1,2,0:0:0:0:
344,136,98479,2,0,L|401:131,1,56.9999982604981,4|0,1:2|0:0,0:0:0:0:
496,148,98658,5,2,0:0:0:0:
488,184,98748,1,2,0:0:0:0:
480,224,98838,2,0,L|416:219,1,61.7499971733095,4|0,1:2|0:0,0:0:0:0:
384,324,99018,5,2,0:0:0:0:
348,316,99107,1,2,0:0:0:0:
308,308,99197,2,0,L|314:218,1,66.4999979705811,4|0,1:2|0:0,0:0:0:0:
240,168,99377,5,2,0:0:0:0:
204,176,99467,1,2,0:0:0:0:
164,184,99556,2,0,L|170:273,1,71.2500027179719,4|0,1:2|0:0,0:0:0:0:
76,316,99736,5,2,0:0:0:0:
40,308,99826,1,2,0:0:0:0:
0,300,99916,2,0,L|6:210,1,76,4|0,1:2|0:0,0:0:0:0:
20,80,100095,21,2,0:0:0:0:
56,88,100185,1,2,0:0:0:0:
96,96,100275,2,0,L|89:185,1,80.750001540184,4|0,1:2|0:0,0:0:0:0:
180,292,100455,5,2,0:0:0:0:
236,288,100544,1,2,0:0:0:0:
292,284,100634,2,0,L|324:288,32,23.75,4|0|0|0|0|0|0|0|0|0|0|0|0|0|0|0|0|0|0|0|0|0|0|0|0|0|0|0|0|0|0|0|4,1:2|0:0|0:0|0:0|0:0|0:0|0:0|0:0|0:0|0:0|0:0|0:0|0:0|0:0|0:0|0:0|0:0|0:0|0:0|0:0|0:0|0:0|0:0|0:0|0:0|0:0|0:0|0:0|0:0|0:0|0:0|0:0|1:2,0:0:0:0:
292,284,102431,6,0,L|284:252,6,23.75,4|0|0|0|0|0|0,1:2|0:0|0:0|0:0|0:0|0:0|0:0,0:0:0:0:
200,192,102790,2,0,L|194:215,6,23.75,4|0|0|0|0|0|0,1:2|0:0|0:0|0:0|0:0|0:0|0:0,0:0:0:0:
108,284,103149,2,0,L|102:260,6,23.75,4|0|0|0|0|0|0,1:2|0:0|0:0|0:0|0:0|0:0|0:0,0:0:0:0:
16,192,103509,5,6,1:2:0:0:
8,152,103598,1,0,0:0:0:0:
12,108,103688,1,2,0:0:0:0:
36,72,103778,1,0,0:0:0:0:
72,48,103868,1,10,1:2:0:0:
100,80,103958,1,0,0:0:0:0:
140,88,104047,1,2,0:0:0:0:
184,80,104137,1,0,0:0:0:0:
212,48,104227,6,0,L|208:0,1,47.5,2|0,1:2|0:0,0:0:0:0:
296,152,104407,2,0,L|300:104,1,47.5,2|0,0:0|0:0,0:0:0:0:
212,256,104586,2,0,L|208:208,1,47.5,10|0,1:2|0:0,0:0:0:0:
296,360,104766,2,0,L|300:312,1,47.5,2|0,0:0|0:0,0:0:0:0:
108,284,104946,6,0,B|64:280|64:280|8:288,1,95,6|0,1:2|0:0,0:0:0:0:
296,360,105305,1,10,1:2:0:0:
340,364,105395,1,0,0:0:0:0:
380,351,105485,1,2,0:0:0:0:
410,321,105574,1,0,0:0:0:0:
426,281,105664,1,2,1:2:0:0:
422,238,105754,1,0,0:0:0:0:
400,201,105844,1,2,0:0:0:0:
364,177,105934,1,0,0:0:0:0:
321,171,106024,2,0,L|273:179,1,47.5,10|0,1:2|0:0,0:0:0:0:
281,275,106203,2,0,L|328:268,1,47.5,2|0,0:0|0:0,0:0:0:0:
424,120,106383,22,0,P|432:72|416:24,1,95,6|0,1:2|0:0,0:0:0:0:
93,28,106742,1,10,1:2:0:0:
79,68,106832,1,0,0:0:0:0:
91,108,106922,1,2,0:0:0:0:
124,135,107012,1,0,0:0:0:0:
166,138,107101,2,0,L|216:132,1,47.5,2|0,1:2|0:0,0:0:0:0:
256,32,107281,2,0,L|206:25,1,47.5,2|0,0:0|0:0,0:0:0:0:
56,184,107461,85,10,1:2:0:0:
52,204,107521,1,2,0:0:0:0:
52,224,107580,1,2,0:0:0:0:
56,244,107640,1,2,0:0:0:0:
64,260,107700,1,2,0:0:0:0:
76,276,107760,1,2,0:0:0:0:
92,288,107820,6,0,L|192:284,1,95,6|0,1:2|0:0,0:0:0:0:
248,204,108089,1,2,0:0:0:0:
272,240,108179,2,0,L|372:236,1,95,8|2,1:2|0:0,0:0:0:0:
184,368,108538,6,0,L|128:370,1,47.5,2|0,1:2|0:0,0:0:0:0:
44,289,108718,2,0,L|92:288,1,47.5,2|0,0:0|1:0,0:0:0:0:
248,204,108898,2,0,P|254:178|252:148,1,47.5,10|0,1:2|0:0,0:0:0:0:
140,112,109077,2,0,P|133:138|136:168,1,47.5,2|0,1:2|0:0,0:0:0:0:
272,308,109257,5,6,1:2:0:0:
312,320,109347,1,0,0:0:0:0:
356,320,109437,1,2,0:0:0:0:
396,308,109527,1,0,0:0:0:0:
432,284,109616,1,10,1:2:0:0:
400,252,109706,1,0,0:0:0:0:
388,212,109796,1,2,0:0:0:0:
392,168,109886,1,0,0:0:0:0:
420,136,109976,6,0,L|412:84,1,47.5,2|0,1:2|0:0,0:0:0:0:
312,44,110155,2,0,L|304:90,1,47.5,2|0,0:0|0:0,0:0:0:0:
248,204,110335,2,0,L|240:152,1,47.5,10|0,1:2|0:0,0:0:0:0:
140,112,110515,2,0,L|132:158,1,47.5,2|0,0:0|0:0,0:0:0:0:
76,272,110694,6,0,L|61:174,1,95,6|0,1:2|0:0,0:0:0:0:
312,152,111053,1,10,1:2:0:0:
330,190,111143,1,0,0:0:0:0:
326,232,111233,1,2,0:0:0:0:
302,267,111323,1,0,0:0:0:0:
263,286,111413,2,0,P|236:287|215:281,1,47.5,2|0,1:2|0:0,0:0:0:0:
312,152,111592,2,0,P|339:151|360:157,1,47.5,2|0,0:0|1:0,0:0:0:0:
464,192,111772,2,0,P|491:193|512:187,1,47.5,10|0,1:2|0:0,0:0:0:0:
415,58,111952,2,0,P|388:57|367:63,1,47.5,2|0,1:2|0:0,0:0:0:0:
248,204,112131,5,6,1:2:0:0:
140,112,112311,2,0,L|132:72,2,23.75,2|0|0,0:0|0:0|0:0,0:0:0:0:
96,200,112491,2,0,L|89:231,2,23.75,10|2|2,1:2|0:0|0:0,0:0:0:0:
44,116,112670,2,0,L|37:84,2,23.75,2|0|0,0:0|0:0|0:0,0:0:0:0:
0,200,112850,21,6,1:2:0:0:
248,204,113030,2,0,L|256:164,2,23.75,2|0|0,0:0|0:0|0:0,0:0:0:0:
292,292,113209,2,0,L|298:323,2,23.75,10|2|2,1:2|0:0|0:0,0:0:0:0:
344,212,113389,2,0,L|350:180,2,23.75,2|0|0,0:0|0:0|0:0,0:0:0:0:
388,296,113568,5,6,1:2:0:0:
39,293,113748,2,0,L|8:287,2,23.75,2|0|0,0:0|0:0|0:0,0:0:0:0:
127,249,113928,2,0,L|151:245,2,23.75,10|2|2,1:2|0:0|0:0,0:0:0:0:
48,196,114107,2,0,L|16:190,2,23.75,2|0|0,0:0|0:0|0:0,0:0:0:0:
132,152,114287,5,6,1:2:0:0:
120,344,114467,1,2,1:2:0:0:
52,96,114646,1,10,1:2:0:0:
83,66,114736,1,0,0:0:0:0:
123,52,114826,1,2,1:2:0:0:
165,58,114916,1,0,0:0:0:0:
201,80,115006,5,6,1:2:0:0:
236,104,115095,1,0,0:0:0:0:
280,112,115185,1,0,0:0:0:0:
324,104,115275,1,0,0:0:0:0:
360,80,115365,2,0,L|368:28,1,47.5,10|0,1:2|0:0,0:0:0:0:
472,132,115544,2,0,L|480:80,1,47.5,2|0,0:0|0:0,0:0:0:0:
360,184,115724,5,2,1:2:0:0:
348,224,115814,1,0,0:0:0:0:
348,268,115904,1,0,0:0:0:0:
368,308,115994,1,0,0:0:0:0:
408,324,116083,2,0,L|460:320,1,47.5,10|0,1:2|0:0,0:0:0:0:
460,212,116263,2,0,L|512:208,1,47.5,2|2,0:0|0:0,0:0:0:0:
360,184,116443,1,6,1:2:0:0:
288,328,116622,21,2,0:0:0:0:
268,324,116682,1,2,0:0:0:0:
248,320,116742,1,2,0:0:0:0:
228,316,116802,1,10,1:2:0:0:
68,268,116982,1,2,0:0:0:0:
88,264,117041,1,2,0:0:0:0:
108,260,117101,1,2,0:0:0:0:
128,256,117161,1,2,1:2:0:0:
288,208,117341,1,2,0:0:0:0:
268,204,117401,1,2,0:0:0:0:
248,200,117461,1,2,0:0:0:0:
228,196,117521,1,10,1:2:0:0:
68,148,117700,1,2,0:0:0:0:
88,144,117760,1,2,0:0:0:0:
108,140,117820,1,2,0:0:0:0:
128,136,117880,6,0,L|136:88,3,47.5,6|0|2|0,1:2|0:0|0:0|0:0,0:0:0:0:
200,32,118239,1,10,1:2:0:0:
240,52,118329,1,0,0:0:0:0:
284,60,118419,1,2,0:0:0:0:
328,56,118509,1,0,0:0:0:0:
364,36,118598,6,0,L|424:40,3,47.5,2|0|2|0,1:2|0:0|0:0|0:0,0:0:0:0:
480,96,118958,1,10,1:2:0:0:
456,132,119047,1,0,0:0:0:0:
448,176,119137,1,2,0:0:0:0:
452,220,119227,1,0,0:0:0:0:
468,260,119317,6,0,P|472:308|460:356,1,95,6|0,1:2|0:0,0:0:0:0:
332,296,119676,53,10,1:2:0:0:
312,292,119736,1,2,0:0:0:0:
292,292,119796,1,2,0:0:0:0:
273,294,119856,1,2,0:0:0:0:
254,299,119916,1,2,0:0:0:0:
236,306,119976,1,2,0:0:0:0:
220,316,120035,6,0,L|184:312,5,31.6666666666667,2|0|0|2|0|0,1:2|0:0|0:0|0:0|0:0|0:0,0:0:0:0:
116,352,120395,2,0,L|80:348,5,31.6666666666667,10|0|0|2|0|0,1:2|0:0|0:0|0:0|0:0|0:0,0:0:0:0:
28,288,120754,6,0,L|24:248,5,31.6666666666667,6|0|0|2|0|0,1:2|0:0|0:0|0:0|0:0|0:0,0:0:0:0:
64,184,121113,2,0,L|60:144,5,31.6666666666667,10|0|0|2|0|0,0:0|0:0|0:0|0:0|0:0|0:0,0:0:0:0:
100,80,121473,5,2,0:0:0:0:
136,56,121562,1,0,0:0:0:0:
180,48,121652,1,2,0:0:0:0:
220,56,121742,1,0,0:0:0:0:
256,80,121832,1,8,0:0:0:0:
292,104,121922,1,0,0:0:0:0:
328,124,122012,2,0,P|352:128|384:120,1,47.5,0|0,1:0|0:0,0:0:0:0:
440,64,122191,6,0,L|449:24,5,31.6666666666667,6|0|0|2|0|0,1:2|0:0|0:0|0:0|0:0|0:0,0:0:0:0:
480,172,122550,2,0,L|471:132,5,31.6666666666667,10|0|0|2|0|0,0:2|0:0|0:0|0:0|0:0|0:0,0:0:0:0:
412,272,122910,5,2,1:2:0:0:
464,249,123000,1,0,0:0:0:0:
501,292,123089,1,2,1:2:0:0:
472,341,123179,1,0,0:0:0:0:
416,328,123269,1,10,1:2:0:0:
392,276,123359,1,0,1:0:0:0:
340,248,123449,1,2,1:2:0:0:
284,244,123538,1,0,1:0:0:0:
232,268,123628,6,0,B|196:300|203:356|203:356|256:348,1,142.5,6|0,1:2|0:0,0:0:0:0:
328,328,123988,1,8,1:2:0:0:
76,328,124167,2,0,P|68:280|72:224,1,95,2|0,0:0|1:0,0:0:0:0:
136,92,124527,1,0,0:0:0:0:
278,149,124706,2,0,P|286:196|284:244,1,95,10|0,1:2|0:0,0:0:0:0:
56,72,125065,22,0,P|110:13|170:16,1,142.5,2|0,1:2|0:0,0:0:0:0:
136,92,125425,1,8,1:2:0:0:
278,149,125604,2,0,B|324:156|324:156|376:147,1,95,2|0,0:0|1:0,0:0:0:0:
460,48,125964,1,0,0:0:0:0:
380,232,126143,2,0,P|376:284|452:316,1,142.5,10|0,1:2|0:0,0:0:0:0:
320,340,126503,22,0,P|300:296|296:248,1,95,2|0,1:2|0:0,0:0:0:0:
328,72,126862,1,8,1:2:0:0:
216,216,127041,2,0,P|172:236|124:240,1,95,2|0,0:0|1:0,0:0:0:0:
140,112,127401,1,0,0:0:0:0:
196,312,127580,1,10,1:2:0:0:
52,244,127760,1,2,0:0:0:0:
278,148,127940,6,0,L|376:156,1,95,2|0,1:2|0:0,0:0:0:0:
484,168,128299,1,8,1:2:0:0:
328,72,128479,1,0,0:0:0:0:
424,232,128658,2,0,B|428:280|428:280|420:332,1,95,0|0,1:0|0:0,0:0:0:0:
196,312,129018,2,0,B|192:264|192:264|200:218,1,95,8|0,1:2|0:0,0:0:0:0:
328,72,129377,6,0,L|400:68,2,63.3333333333333,6|0|0,1:2|0:0|0:0,0:0:0:0:
184,120,129736,2,0,L|112:116,2,63.3333333333333,10|0|0,1:2|0:0|0:0,0:0:0:0:
328,168,130095,2,0,L|400:164,2,63.3333333333333,2|0|0,1:2|0:0|0:0,0:0:0:0:
184,244,130455,6,0,L|180:292,1,47.5,10|0,1:2|0:0,0:0:0:0:
88,292,130634,2,0,L|84:340,1,47.5,2|0,0:0|0:0,0:0:0:0:
76,184,130814,22,0,B|72:116,2,63.3333333333333,2|0|0,1:2|0:0|0:0,0:0:0:0:
180,291,131173,2,0,B|176:354,2,63.3333333333333,10|0|0,1:2|0:0|0:0,0:0:0:0:
246,156,131533,5,2,1:2:0:0:
278,156,131622,1,0,0:0:0:0:
310,160,131712,1,0,0:0:0:0:
342,164,131802,1,0,0:0:0:0:
374,168,131892,2,0,L|382:232,1,47.5,10|0,1:2|0:0,0:0:0:0:
416,304,132071,6,0,L|464:300,1,47.5,6|0,1:2|0:0,0:0:0:0:
504,220,132251,1,2,0:0:0:0:
464,204,132341,1,0,0:0:0:0:
420,200,132431,1,0,0:0:0:0:
380,216,132521,1,0,0:0:0:0:
348,244,132610,1,2,0:0:0:0:
304,252,132700,1,0,0:0:0:0:
268,232,132790,1,0,0:0:0:0:
248,196,132880,1,0,0:0:0:0:
256,152,132970,21,2,0:0:0:0:
252,108,133059,1,0,0:0:0:0:
231,70,133149,1,2,0:0:0:0:
194,47,133239,1,0,0:0:0:0:
151,41,133329,1,2,0:0:0:0:
109,52,133419,1,0,0:0:0:0:
76,79,133509,1,2,0:0:0:0:
59,118,133598,1,0,0:0:0:0:
58,159,133688,5,2,0:0:0:0:
74,198,133778,1,0,0:0:0:0:
105,226,133868,1,2,0:0:0:0:
145,240,133958,1,0,0:0:0:0:
187,238,134047,1,2,0:0:0:0:
223,216,134137,1,0,0:0:0:0:
248,181,134227,1,2,0:0:0:0:
256,140,134317,1,0,0:0:0:0:
248,100,134407,21,2,0:0:0:0:
276,52,134497,1,2,0:0:0:0:
328,36,134586,1,2,0:0:0:0:
384,52,134676,1,2,0:0:0:0:
416,100,134766,21,2,0:0:0:0:
372,156,134856,1,2,0:0:0:0:
368,228,134946,1,2,0:0:0:0:
404,288,135035,2,0,L|484:300,1,71.25,2|0,0:0|0:0,0:0:0:0:
292,268,135485,5,4,1:0:0:0:
256,192,135574,12,0,139077,0:0:0:0:
