osu file format v14

[General]
AudioFilename: 5.mp3
AudioLeadIn: 0
PreviewTime: 1019
Countdown: 0
SampleSet: Soft
StackLeniency: 0.7
Mode: 2
LetterboxInBreaks: 0
WidescreenStoryboard: 1

[Editor]
Bookmarks: 19053,30151
DistanceSpacing: 6
BeatDivisor: 4
GridSize: 4
TimelineZoom: 2

[Metadata]
Title:HAELEQUIN
TitleUnicode:HAELEQUIN
Artist:orangentle
ArtistUnicode:orangentle
Creator:Cipse
Version:5: N2
Source:
Tags:n0m
BeatmapID:1113635
BeatmapSetID:498581

[Difficulty]
HPDrainRate:0
CircleSize:7
OverallDifficulty:10
ApproachRate:10
SliderMultiplier:2.56999990463257
SliderTickRate:2

[Events]
//Background and Video events
0,0,"1.jpg",0,0
//Break Periods
//Storyboard Layer 0 (Background)
//Storyboard Layer 1 (Fail)
//Storyboard Layer 2 (Pass)
//Storyboard Layer 3 (Foreground)
//Storyboard Sound Samples

[TimingPoints]
1019.02800424113,346.820809248555,4,2,0,60,1,0

[HitObjects]
328,192,7261,5,0,0:0:0:0:
288,192,7377,1,0,0:0:0:0:
248,192,7493,1,0,0:0:0:0:
180,132,7608,5,0,0:0:0:0:
224,132,7695,1,0,0:0:0:0:
272,128,7782,1,0,0:0:0:0:
316,132,7868,1,0,0:0:0:0:
192,72,7955,5,0,0:0:0:0:
252,72,8128,1,0,0:0:0:0:
312,68,8302,1,0,0:0:0:0:
104,24,8475,6,0,B|-8:24|-16:24|0:116|112:200,1,256.999990463257
256,240,8995,1,0,0:0:0:0:
336,240,9169,1,0,0:0:0:0:
284,288,9342,1,0,0:0:0:0:
396,260,9516,2,0,B|160:104,1,256.999990463257
264,84,10036,1,0,0:0:0:0:
144,216,10209,5,0,0:0:0:0:
224,216,10383,1,0,0:0:0:0:
432,212,10556,1,0,0:0:0:0:
216,160,10730,2,0,L|128:36,1,128.499995231629
248,116,11076,5,0,0:0:0:0:
352,120,11250,1,0,0:0:0:0:
488,120,11423,1,0,0:0:0:0:
196,116,11597,1,0,0:0:0:0:
480,176,11943,1,0,0:0:0:0:
208,196,12290,6,0,L|84:104,1,128.499995231629
244,240,12637,1,0,0:0:0:0:
344,192,12810,2,0,L|428:80,1,128.499995231629
164,68,13157,2,0,B|68:72|68:72|24:76|32:112|124:136,1,192.749992847443
308,248,13504,6,0,L|448:220,1,128.499995231629
336,164,13851,1,0,0:0:0:0:
196,96,14024,2,0,P|120:200|208:292,1,256.999990463257
408,96,14545,5,0,0:0:0:0:
340,96,14718,1,0,0:0:0:0:
124,64,14891,1,0,0:0:0:0:
196,64,15065,2,0,P|320:200|168:292,1,385.499985694885
296,212,15758,5,0,0:0:0:0:
232,212,15932,1,0,0:0:0:0:
448,296,16105,2,0,P|340:284|168:80,1,385.499985694885
236,80,16799,5,0,0:0:0:0:
128,76,16972,1,0,0:0:0:0:
392,116,17146,2,0,L|516:24,1,128.499995231629
60,80,17493,1,0,0:0:0:0:
16,220,17839,5,0,0:0:0:0:
124,216,18013,1,0,0:0:0:0:
244,216,18186,1,0,0:0:0:0:
364,220,18360,1,0,0:0:0:0:
84,168,18533,1,0,0:0:0:0:
191,16,18706,5,0,0:0:0:0:
167,48,18735,1,0,0:0:0:0:
150,80,18764,1,0,0:0:0:0:
138,112,18793,1,0,0:0:0:0:
126,144,18822,1,0,0:0:0:0:
121,176,18851,1,0,0:0:0:0:
125,206,18880,1,0,0:0:0:0:
134,240,18909,1,0,0:0:0:0:
146,272,18938,1,0,0:0:0:0:
162,304,18967,1,0,0:0:0:0:
182,336,18995,1,0,0:0:0:0:
209,368,19024,1,0,0:0:0:0:
300,170,19053,1,0,0:0:0:0:
252,120,19227,5,0,0:0:0:0:
328,104,19400,1,0,0:0:0:0:
216,64,19573,1,0,0:0:0:0:
320,220,19747,2,0,P|372:250|392:328,1,128.499995231629
336,152,20094,1,0,0:0:0:0:
476,156,20267,1,0,0:0:0:0:
216,156,20614,5,0,0:0:0:0:
276,156,20787,1,0,0:0:0:0:
196,112,20961,1,0,0:0:0:0:
300,112,21134,1,0,0:0:0:0:
392,48,21308,1,0,0:0:0:0:
168,196,21481,1,0,0:0:0:0:
68,120,21654,1,0,0:0:0:0:
184,312,21828,6,0,L|128:152,1,128.499995231629
248,316,22175,2,0,L|220:168,1,128.499995231629
300,192,22521,2,0,B|300:112|300:112|60:112,1,256.999990463257
376,108,23042,5,0,0:0:0:0:
120,184,23388,1,0,0:0:0:0:
412,192,23735,1,0,0:0:0:0:
92,256,24082,1,0,0:0:0:0:
392,256,24256,1,0,0:0:0:0:
48,176,24776,5,0,0:0:0:0:
108,176,24949,1,0,0:0:0:0:
20,120,25123,1,0,0:0:0:0:
156,136,25296,6,0,L|284:92,1,128.499995231629
164,72,25643,1,0,0:0:0:0:
376,200,25816,6,0,L|548:128,1,128.499995231629
352,152,26163,1,0,0:0:0:0:
408,144,26336,5,0,0:0:0:0:
328,112,26510,1,0,0:0:0:0:
436,116,26683,1,0,0:0:0:0:
168,80,26857,1,0,0:0:0:0:
232,84,27030,1,0,0:0:0:0:
152,56,27203,1,0,0:0:0:0:
396,48,27377,5,0,0:0:0:0:
116,156,27724,1,0,0:0:0:0:
424,228,28071,1,0,0:0:0:0:
88,228,28244,1,0,0:0:0:0:
64,352,28591,6,0,L|16:160,1,192.749992847443
360,148,28938,1,0,0:0:0:0:
492,344,29284,2,0,L|448:144,1,192.749992847443
216,144,29631,1,0,0:0:0:0:
304,144,29805,1,0,0:0:0:0:
192,68,30151,5,0,0:0:0:0:
248,64,30325,1,0,0:0:0:0:
248,64,30498,1,0,0:0:0:0:
248,64,30672,1,0,0:0:0:0:
248,64,30845,1,0,0:0:0:0:
248,64,31192,1,0,0:0:0:0:
248,64,31365,1,0,0:0:0:0:
248,64,31712,1,0,0:0:0:0:
248,64,31886,1,0,0:0:0:0:
248,64,32059,1,0,0:0:0:0:
248,64,32232,1,0,0:0:0:0:
248,64,32406,1,0,0:0:0:0:
248,64,32579,1,0,0:0:0:0:
248,64,32753,1,0,0:0:0:0:
248,64,32926,1,0,0:0:0:0:
248,64,33273,1,0,0:0:0:0:
248,64,33620,1,0,0:0:0:0:
248,64,33793,1,0,0:0:0:0:
248,64,34140,1,0,0:0:0:0:
