osu file format v14

[General]
AudioFilename: 3.mp3
AudioLeadIn: 0
PreviewTime: 1187
Countdown: 0
SampleSet: None
StackLeniency: 0.7
Mode: 2
LetterboxInBreaks: 0
WidescreenStoryboard: 1

[Editor]
DistanceSpacing: 6
BeatDivisor: 4
GridSize: 4
TimelineZoom: 2

[Metadata]
Title:HAELEQUIN
TitleUnicode:HAELEQUIN
Artist:orangentle
ArtistUnicode:orangentle
Creator:Cipse
Version:3: T5
Source:
Tags:t1m
BeatmapID:1104338
BeatmapSetID:498581

[Difficulty]
HPDrainRate:0
CircleSize:7
OverallDifficulty:10
ApproachRate:10
SliderMultiplier:1.74
SliderTickRate:4

[Events]
//Background and Video events
0,0,"1.jpg",0,0
//Break Periods
//Storyboard Layer 0 (Background)
//Storyboard Layer 1 (Fail)
//Storyboard Layer 2 (Pass)
//Storyboard Layer 3 (Foreground)
//Storyboard Sound Samples

[TimingPoints]
4616,342.857142857143,4,2,0,100,1,0
4617,-50,4,2,0,100,0,0

[HitObjects]
120,80,3587,5,0,0:0:0:0:
121,80,3673,1,0,0:0:0:0:
120,80,3758,1,0,0:0:0:0:
120,80,3844,1,0,0:0:0:0:
392,80,3930,1,0,0:0:0:0:
391,80,4016,1,0,0:0:0:0:
392,80,4101,1,0,0:0:0:0:
392,80,4187,1,0,0:0:0:0:
120,80,4273,1,0,0:0:0:0:
120,80,4358,1,0,0:0:0:0:
120,80,4444,1,0,0:0:0:0:
120,80,4530,1,0,0:0:0:0:
392,80,4616,5,0,0:0:0:0:
392,80,4701,1,0,0:0:0:0:
392,80,4787,1,0,0:0:0:0:
392,80,4873,1,0,0:0:0:0:
120,80,4958,1,0,0:0:0:0:
120,80,5044,1,0,0:0:0:0:
120,80,5130,1,0,0:0:0:0:
120,80,5216,1,0,0:0:0:0:
392,80,5301,1,0,0:0:0:0:
392,80,5387,1,0,0:0:0:0:
392,80,5473,1,0,0:0:0:0:
392,80,5559,1,0,0:0:0:0:
120,80,5644,1,0,0:0:0:0:
120,80,5730,1,0,0:0:0:0:
120,80,5816,1,0,0:0:0:0:
120,80,5901,1,0,0:0:0:0:
392,80,5987,5,0,0:0:0:0:
392,80,6073,1,0,0:0:0:0:
392,80,6159,1,0,0:0:0:0:
392,80,6244,1,0,0:0:0:0:
120,80,6330,1,0,0:0:0:0:
121,80,6416,1,0,0:0:0:0:
120,80,6501,1,0,0:0:0:0:
120,80,6587,1,0,0:0:0:0:
392,80,6673,1,0,0:0:0:0:
391,80,6759,1,0,0:0:0:0:
392,80,6844,1,0,0:0:0:0:
392,80,6930,1,0,0:0:0:0:
120,80,7016,1,0,0:0:0:0:
120,80,7101,1,0,0:0:0:0:
120,80,7187,1,0,0:0:0:0:
120,80,7273,1,0,0:0:0:0:
392,80,7359,5,0,0:0:0:0:
392,80,7444,1,0,0:0:0:0:
392,80,7530,1,0,0:0:0:0:
392,80,7616,1,0,0:0:0:0:
120,80,7701,1,0,0:0:0:0:
120,80,7787,1,0,0:0:0:0:
120,80,7873,1,0,0:0:0:0:
120,80,7959,1,0,0:0:0:0:
392,80,8044,1,0,0:0:0:0:
392,80,8130,1,0,0:0:0:0:
392,80,8216,1,0,0:0:0:0:
392,80,8302,1,0,0:0:0:0:
120,80,8387,1,0,0:0:0:0:
120,80,8473,1,0,0:0:0:0:
120,80,8559,1,0,0:0:0:0:
120,80,8644,1,0,0:0:0:0:
392,80,8730,5,0,0:0:0:0:
392,80,8816,1,0,0:0:0:0:
392,80,8902,1,0,0:0:0:0:
392,80,8987,1,0,0:0:0:0:
120,80,9073,1,0,0:0:0:0:
121,80,9159,1,0,0:0:0:0:
120,80,9244,1,0,0:0:0:0:
120,80,9330,1,0,0:0:0:0:
392,80,9416,1,0,0:0:0:0:
391,80,9502,1,0,0:0:0:0:
392,80,9587,1,0,0:0:0:0:
392,80,9673,1,0,0:0:0:0:
120,80,9759,1,0,0:0:0:0:
120,80,9844,1,0,0:0:0:0:
120,80,9930,1,0,0:0:0:0:
120,80,10016,1,0,0:0:0:0:
392,80,10102,5,0,0:0:0:0:
392,80,10187,1,0,0:0:0:0:
392,80,10273,1,0,0:0:0:0:
392,80,10359,1,0,0:0:0:0:
120,80,10444,1,0,0:0:0:0:
120,80,10530,1,0,0:0:0:0:
120,80,10616,1,0,0:0:0:0:
120,80,10702,1,0,0:0:0:0:
392,80,10787,1,0,0:0:0:0:
392,80,10873,1,0,0:0:0:0:
392,80,10959,1,0,0:0:0:0:
392,80,11045,1,0,0:0:0:0:
120,80,11130,1,0,0:0:0:0:
120,80,11216,1,0,0:0:0:0:
120,80,11302,1,0,0:0:0:0:
120,80,11387,1,0,0:0:0:0:
392,80,11473,5,0,0:0:0:0:
392,80,11559,1,0,0:0:0:0:
392,80,11645,1,0,0:0:0:0:
392,80,11730,1,0,0:0:0:0:
120,80,11816,1,0,0:0:0:0:
121,80,11902,1,0,0:0:0:0:
120,80,11987,1,0,0:0:0:0:
120,80,12073,1,0,0:0:0:0:
392,80,12159,1,0,0:0:0:0:
391,80,12245,1,0,0:0:0:0:
392,80,12330,1,0,0:0:0:0:
392,80,12416,1,0,0:0:0:0:
120,80,12502,1,0,0:0:0:0:
120,80,12587,1,0,0:0:0:0:
120,80,12673,1,0,0:0:0:0:
120,80,12759,1,0,0:0:0:0:
392,80,12845,5,0,0:0:0:0:
392,80,12930,1,0,0:0:0:0:
392,80,13016,1,0,0:0:0:0:
392,80,13102,1,0,0:0:0:0:
120,80,13187,1,0,0:0:0:0:
120,80,13273,1,0,0:0:0:0:
120,80,13359,1,0,0:0:0:0:
120,80,13445,1,0,0:0:0:0:
392,80,13530,1,0,0:0:0:0:
392,80,13616,1,0,0:0:0:0:
392,80,13702,1,0,0:0:0:0:
392,80,13788,1,0,0:0:0:0:
120,80,13873,1,0,0:0:0:0:
120,80,13959,1,0,0:0:0:0:
120,80,14045,1,0,0:0:0:0:
120,80,14130,1,0,0:0:0:0:
392,80,14216,5,0,0:0:0:0:
392,80,14302,1,0,0:0:0:0:
392,80,14388,1,0,0:0:0:0:
392,80,14473,1,0,0:0:0:0:
120,80,14558,1,0,0:0:0:0:
121,80,14644,1,0,0:0:0:0:
120,80,14729,1,0,0:0:0:0:
120,80,14815,1,0,0:0:0:0:
392,80,14901,1,0,0:0:0:0:
391,80,14987,1,0,0:0:0:0:
392,80,15072,1,0,0:0:0:0:
392,80,15158,1,0,0:0:0:0:
120,80,15244,1,0,0:0:0:0:
120,80,15329,1,0,0:0:0:0:
120,80,15415,1,0,0:0:0:0:
120,80,15501,1,0,0:0:0:0:
392,80,15587,5,0,0:0:0:0:
392,80,15672,1,0,0:0:0:0:
392,80,15758,1,0,0:0:0:0:
392,80,15844,1,0,0:0:0:0:
120,80,15929,1,0,0:0:0:0:
120,80,16015,1,0,0:0:0:0:
120,80,16101,1,0,0:0:0:0:
120,80,16187,1,0,0:0:0:0:
392,80,16272,1,0,0:0:0:0:
392,80,16358,1,0,0:0:0:0:
392,80,16444,1,0,0:0:0:0:
392,80,16530,1,0,0:0:0:0:
120,80,16615,1,0,0:0:0:0:
120,80,16701,1,0,0:0:0:0:
120,80,16787,1,0,0:0:0:0:
120,80,16872,1,0,0:0:0:0:
392,80,16958,5,0,0:0:0:0:
392,80,17044,1,0,0:0:0:0:
392,80,17130,1,0,0:0:0:0:
392,80,17215,1,0,0:0:0:0:
120,80,17301,1,0,0:0:0:0:
121,80,17387,1,0,0:0:0:0:
120,80,17472,1,0,0:0:0:0:
120,80,17558,1,0,0:0:0:0:
392,80,17644,1,0,0:0:0:0:
391,80,17730,1,0,0:0:0:0:
392,80,17815,1,0,0:0:0:0:
392,80,17901,1,0,0:0:0:0:
120,80,17987,1,0,0:0:0:0:
120,80,18072,1,0,0:0:0:0:
120,80,18158,1,0,0:0:0:0:
120,80,18244,1,0,0:0:0:0:
392,80,18330,5,0,0:0:0:0:
392,80,18415,1,0,0:0:0:0:
392,80,18501,1,0,0:0:0:0:
392,80,18587,1,0,0:0:0:0:
120,80,18672,1,0,0:0:0:0:
120,80,18758,1,0,0:0:0:0:
120,80,18844,1,0,0:0:0:0:
120,80,18930,1,0,0:0:0:0:
392,80,19015,1,0,0:0:0:0:
392,80,19101,1,0,0:0:0:0:
392,80,19187,1,0,0:0:0:0:
392,80,19273,1,0,0:0:0:0:
120,80,19358,1,0,0:0:0:0:
120,80,19444,1,0,0:0:0:0:
120,80,19530,1,0,0:0:0:0:
120,80,19615,1,0,0:0:0:0:
392,80,19701,5,0,0:0:0:0:
392,80,19787,1,0,0:0:0:0:
392,80,19873,1,0,0:0:0:0:
392,80,19958,1,0,0:0:0:0:
120,80,20044,1,0,0:0:0:0:
121,80,20130,1,0,0:0:0:0:
120,80,20215,1,0,0:0:0:0:
120,80,20301,1,0,0:0:0:0:
392,80,20387,1,0,0:0:0:0:
391,80,20473,1,0,0:0:0:0:
392,80,20558,1,0,0:0:0:0:
392,80,20644,1,0,0:0:0:0:
120,80,20730,1,0,0:0:0:0:
120,80,20815,1,0,0:0:0:0:
120,80,20901,1,0,0:0:0:0:
120,80,20987,1,0,0:0:0:0:
392,80,21073,5,0,0:0:0:0:
