osu file format v14

[General]
AudioFilename: 3.mp3
AudioLeadIn: 0
PreviewTime: 1187
Countdown: 0
SampleSet: Soft
StackLeniency: 0.7
Mode: 2
LetterboxInBreaks: 0
WidescreenStoryboard: 1

[Editor]
DistanceSpacing: 6
BeatDivisor: 4
GridSize: 4
TimelineZoom: 2

[Metadata]
Title:HAELEQUIN
TitleUnicode:HAELEQUIN
Artist:orangentle
ArtistUnicode:orangentle
Creator:Cipse
Version:3: T3
Source:
Tags:t1m
BeatmapID:1104340
BeatmapSetID:498581

[Difficulty]
HPDrainRate:0
CircleSize:7
OverallDifficulty:10
ApproachRate:10
SliderMultiplier:1.74
SliderTickRate:4

[Events]
//Background and Video events
0,0,"1.jpg",0,0
//Break Periods
//Storyboard Layer 0 (Background)
//Storyboard Layer 1 (Fail)
//Storyboard Layer 2 (Pass)
//Storyboard Layer 3 (Foreground)
//Storyboard Sound Samples

[TimingPoints]
4616,342.857142857143,4,2,0,100,1,0
4617,-50,4,2,0,100,0,0

[HitObjects]
120,80,3587,5,0,0:0:0:0:
120,80,3758,1,0,0:0:0:0:
392,80,3930,1,0,0:0:0:0:
392,80,4101,1,0,0:0:0:0:
120,80,4273,1,0,0:0:0:0:
120,80,4444,1,0,0:0:0:0:
392,80,4616,5,0,0:0:0:0:
392,80,4787,1,0,0:0:0:0:
120,80,4958,1,0,0:0:0:0:
120,80,5130,1,0,0:0:0:0:
392,80,5301,1,0,0:0:0:0:
392,80,5473,1,0,0:0:0:0:
120,80,5644,1,0,0:0:0:0:
120,80,5816,1,0,0:0:0:0:
392,80,5987,5,0,0:0:0:0:
392,80,6159,1,0,0:0:0:0:
120,80,6330,1,0,0:0:0:0:
120,80,6501,1,0,0:0:0:0:
392,80,6673,1,0,0:0:0:0:
392,80,6844,1,0,0:0:0:0:
120,80,7016,1,0,0:0:0:0:
120,80,7187,1,0,0:0:0:0:
392,80,7359,5,0,0:0:0:0:
392,80,7530,1,0,0:0:0:0:
120,80,7701,1,0,0:0:0:0:
120,80,7873,1,0,0:0:0:0:
392,80,8044,1,0,0:0:0:0:
392,80,8216,1,0,0:0:0:0:
120,80,8387,1,0,0:0:0:0:
120,80,8559,1,0,0:0:0:0:
392,80,8730,5,0,0:0:0:0:
392,80,8902,1,0,0:0:0:0:
120,80,9073,1,0,0:0:0:0:
120,80,9244,1,0,0:0:0:0:
392,80,9416,1,0,0:0:0:0:
392,80,9587,1,0,0:0:0:0:
120,80,9759,1,0,0:0:0:0:
120,80,9930,1,0,0:0:0:0:
392,80,10101,5,0,0:0:0:0:
392,80,10272,1,0,0:0:0:0:
120,80,10443,1,0,0:0:0:0:
120,80,10615,1,0,0:0:0:0:
392,80,10786,1,0,0:0:0:0:
392,80,10958,1,0,0:0:0:0:
120,80,11129,1,0,0:0:0:0:
120,80,11301,1,0,0:0:0:0:
392,80,11472,5,0,0:0:0:0:
392,80,11644,1,0,0:0:0:0:
120,80,11815,1,0,0:0:0:0:
120,80,11986,1,0,0:0:0:0:
392,80,12158,1,0,0:0:0:0:
392,80,12329,1,0,0:0:0:0:
120,80,12501,1,0,0:0:0:0:
120,80,12672,1,0,0:0:0:0:
392,80,12844,5,0,0:0:0:0:
392,80,13015,1,0,0:0:0:0:
120,80,13186,1,0,0:0:0:0:
120,80,13358,1,0,0:0:0:0:
392,80,13529,1,0,0:0:0:0:
392,80,13701,1,0,0:0:0:0:
120,80,13872,1,0,0:0:0:0:
120,80,14044,1,0,0:0:0:0:
392,80,14215,5,0,0:0:0:0:
392,80,14387,1,0,0:0:0:0:
120,80,14558,1,0,0:0:0:0:
120,80,14729,1,0,0:0:0:0:
392,80,14901,1,0,0:0:0:0:
392,80,15072,1,0,0:0:0:0:
120,80,15244,1,0,0:0:0:0:
120,80,15415,1,0,0:0:0:0:
392,80,15587,5,0,0:0:0:0:
392,80,15758,1,0,0:0:0:0:
120,80,15929,1,0,0:0:0:0:
120,80,16101,1,0,0:0:0:0:
392,80,16272,1,0,0:0:0:0:
392,80,16444,1,0,0:0:0:0:
120,80,16615,1,0,0:0:0:0:
120,80,16787,1,0,0:0:0:0:
392,80,16958,5,0,0:0:0:0:
392,80,17130,1,0,0:0:0:0:
120,80,17301,1,0,0:0:0:0:
120,80,17472,1,0,0:0:0:0:
392,80,17644,1,0,0:0:0:0:
392,80,17815,1,0,0:0:0:0:
120,80,17987,1,0,0:0:0:0:
120,80,18158,1,0,0:0:0:0:
392,80,18330,5,0,0:0:0:0:
392,80,18501,1,0,0:0:0:0:
120,80,18672,1,0,0:0:0:0:
120,80,18844,1,0,0:0:0:0:
392,80,19015,1,0,0:0:0:0:
392,80,19187,1,0,0:0:0:0:
120,80,19358,1,0,0:0:0:0:
120,80,19530,1,0,0:0:0:0:
392,80,19701,5,0,0:0:0:0:
392,80,19873,1,0,0:0:0:0:
120,80,20044,1,0,0:0:0:0:
120,80,20215,1,0,0:0:0:0:
392,80,20387,1,0,0:0:0:0:
392,80,20558,1,0,0:0:0:0:
120,80,20730,1,0,0:0:0:0:
120,80,20901,1,0,0:0:0:0:
392,80,21073,5,0,0:0:0:0:
