osu file format v14

[General]
AudioFilename: 2.mp3
AudioLeadIn: 0
PreviewTime: 989
Countdown: 0
SampleSet: None
StackLeniency: 0.7
Mode: 2
LetterboxInBreaks: 0
WidescreenStoryboard: 1

[Editor]
DistanceSpacing: 6
BeatDivisor: 4
GridSize: 4
TimelineZoom: 2

[Metadata]
Title:HAELEQUIN
TitleUnicode:HAELEQUIN
Artist:orangentle
ArtistUnicode:orangentle
Creator:Cipse
Version:2: N4
Source:
Tags:n0m
BeatmapID:1080702
BeatmapSetID:498581

[Difficulty]
HPDrainRate:0
CircleSize:7
OverallDifficulty:10
ApproachRate:8.2
SliderMultiplier:1.99999990463257
SliderTickRate:4

[Events]
//Background and Video events
0,0,"1.jpg",0,0
//Break Periods
//Storyboard Layer 0 (Background)
//Storyboard Layer 1 (Fail)
//Storyboard Layer 2 (Pass)
//Storyboard Layer 3 (Foreground)
//Storyboard Sound Samples

[TimingPoints]
989.02800424113,300,4,2,0,100,1,0

[HitObjects]
256,64,989,5,0,0:0:0:0:
336,64,1214,1,0,0:0:0:0:
176,64,1439,1,0,0:0:0:0:
276,128,1589,2,0,L|184:232,1,99.9999952316285
276,192,1889,2,0,L|356:96,1,99.9999952316285
268,256,2189,5,0,0:0:0:0:
252,256,2339,1,0,0:0:0:0:
344,256,2489,1,0,0:0:0:0:
360,256,2639,1,0,0:0:0:0:
252,256,2789,1,0,0:0:0:0:
236,256,2939,1,0,0:0:0:0:
360,256,3089,1,0,0:0:0:0:
376,256,3239,1,0,0:0:0:0:
152,64,3389,5,0,0:0:0:0:
264,64,3614,1,0,0:0:0:0:
192,64,3839,1,0,0:0:0:0:
140,128,3989,2,0,L|232:236,1,99.9999952316285
276,128,4289,2,0,L|360:224,1,99.9999952316285
232,256,4589,1,0,0:0:0:0:
336,64,4739,5,0,0:0:0:0:
324,64,4814,1,0,0:0:0:0:
300,64,4889,1,0,0:0:0:0:
272,64,4964,1,0,0:0:0:0:
248,64,5039,1,0,0:0:0:0:
224,64,5114,1,0,0:0:0:0:
188,64,5189,1,0,0:0:0:0:
168,64,5264,1,0,0:0:0:0:
152,128,5339,1,0,0:0:0:0:
144,128,5414,1,0,0:0:0:0:
160,128,5489,1,0,0:0:0:0:
184,128,5564,1,0,0:0:0:0:
216,128,5639,1,0,0:0:0:0:
240,128,5714,1,0,0:0:0:0:
368,320,5789,5,0,0:0:0:0:
268,320,6014,1,0,0:0:0:0:
172,320,6239,1,0,0:0:0:0:
248,252,6389,2,0,L|324:180,1,99.9999952316285
190,192,6689,2,0,L|266:116,1,99.9999952316285
128,64,6989,5,0,0:0:0:0:
104,64,7139,1,0,0:0:0:0:
200,64,7289,1,0,0:0:0:0:
216,64,7439,1,0,0:0:0:0:
104,64,7589,1,0,0:0:0:0:
96,64,7739,1,0,0:0:0:0:
216,64,7889,1,0,0:0:0:0:
300,64,8039,1,0,0:0:0:0:
400,320,8189,5,0,0:0:0:0:
312,320,8414,1,0,0:0:0:0:
216,320,8639,1,0,0:0:0:0:
336,256,8789,2,0,L|256:184,1,99.9999952316285
164,256,9089,2,0,L|268:164,1,99.9999952316285
336,64,9389,5,0,0:0:0:0:
326,64,9464,1,0,0:0:0:0:
312,64,9539,1,0,0:0:0:0:
292,64,9614,1,0,0:0:0:0:
264,64,9689,1,0,0:0:0:0:
232,64,9764,1,0,0:0:0:0:
192,64,9839,1,0,0:0:0:0:
148,64,9914,1,0,0:0:0:0:
288,128,9989,5,0,0:0:0:0:
200,128,10289,1,0,0:0:0:0:
224,128,10364,1,0,0:0:0:0:
268,128,10439,1,0,0:0:0:0:
320,128,10514,1,0,0:0:0:0:
140,320,10589,5,0,0:0:0:0:
240,320,10814,1,0,0:0:0:0:
164,320,11039,1,0,0:0:0:0:
272,256,11189,2,0,L|328:148,1,99.9999952316285
272,352,11489,2,0,L|332:240,1,99.9999952316285
228,128,11789,5,0,0:0:0:0:
176,128,11939,1,0,0:0:0:0:
284,128,12089,1,0,0:0:0:0:
332,128,12239,1,0,0:0:0:0:
220,128,12389,1,0,0:0:0:0:
164,128,12539,1,0,0:0:0:0:
292,128,12689,1,0,0:0:0:0:
344,128,12839,1,0,0:0:0:0:
52,64,12989,5,0,0:0:0:0:
204,64,13214,1,0,0:0:0:0:
332,64,13439,1,0,0:0:0:0:
232,192,13589,2,0,L|296:296,1,99.9999952316285
384,192,13889,2,0,L|328:288,1,99.9999952316285
456,192,14189,1,0,0:0:0:0:
264,64,14339,5,0,0:0:0:0:
200,64,14414,1,0,0:0:0:0:
144,64,14489,1,0,0:0:0:0:
100,64,14564,1,0,0:0:0:0:
72,64,14639,1,0,0:0:0:0:
56,64,14714,1,0,0:0:0:0:
48,64,14789,1,0,0:0:0:0:
44,64,14864,1,0,0:0:0:0:
48,128,14939,1,0,0:0:0:0:
60,128,15014,1,0,0:0:0:0:
84,128,15089,1,0,0:0:0:0:
120,128,15164,1,0,0:0:0:0:
168,128,15239,1,0,0:0:0:0:
232,128,15314,1,0,0:0:0:0:
492,64,15389,5,0,0:0:0:0:
420,64,15614,1,0,0:0:0:0:
336,64,15839,1,0,0:0:0:0:
248,64,15989,2,0,L|360:156,1,99.9999952316285
408,192,16289,2,0,L|315:269,1,99.9999952316285
224,192,16589,5,0,0:0:0:0:
240,192,16739,1,0,0:0:0:0:
312,192,16889,1,0,0:0:0:0:
296,192,17039,1,0,0:0:0:0:
184,192,17189,1,0,0:0:0:0:
204,192,17339,1,0,0:0:0:0:
356,192,17489,1,0,0:0:0:0:
336,192,17639,1,0,0:0:0:0:
140,64,17789,5,0,0:0:0:0:
36,64,18014,1,0,0:0:0:0:
144,64,18239,1,0,0:0:0:0:
248,64,18389,1,0,0:0:0:0:
292,64,18539,1,0,0:0:0:0:
192,64,18689,1,0,0:0:0:0:
120,64,18839,1,0,0:0:0:0:
272,64,18989,5,0,0:0:0:0:
336,128,19139,1,0,0:0:0:0:
321,128,19214,1,0,0:0:0:0:
300,128,19289,1,0,0:0:0:0:
264,128,19364,1,0,0:0:0:0:
208,128,19439,1,0,0:0:0:0:
136,128,19514,1,0,0:0:0:0:
376,128,19589,5,0,0:0:0:0:
212,192,19889,1,0,0:0:0:0:
240,192,19964,1,0,0:0:0:0:
280,192,20039,1,0,0:0:0:0:
340,192,20114,1,0,0:0:0:0:
88,320,20189,6,0,B|100:272|100:272|128:232|128:232|192:184,1,149.999992847443
432,328,20639,2,0,B|412:280|412:280|384:240|384:240|312:192,1,149.999992847443
228,64,21089,1,0,0:0:0:0:
296,64,21239,1,0,0:0:0:0:
84,304,21389,6,0,B|112:260|112:260|152:232|152:232|208:216,1,149.999992847443
480,316,21839,2,0,B|460:268|460:268|424:236|424:236|356:200,1,149.999992847443
228,64,22289,1,0,0:0:0:0:
300,64,22439,1,0,0:0:0:0:
56,280,22589,6,0,B|76:236|76:236|108:196|108:196|180:160,1,149.999992847443
464,300,23039,2,0,B|432:264|432:264|388:236|388:236|316:228,1,149.999992847443
180,64,23489,1,0,0:0:0:0:
260,64,23639,1,0,0:0:0:0:
56,292,23789,6,0,B|76:248|76:248|116:216|116:216|176:188,1,149.999992847443
348,64,24239,1,0,0:0:0:0:
124,64,24389,1,0,0:0:0:0:
140,64,24464,1,0,0:0:0:0:
172,64,24539,1,0,0:0:0:0:
212,64,24614,1,0,0:0:0:0:
264,64,24689,1,0,0:0:0:0:
56,128,24839,1,0,0:0:0:0:
440,316,24989,6,0,B|388:316|388:316|352:280|352:280|316:200,1,149.999992847443
76,320,25439,2,0,B|124:320|124:320|156:280|156:280|168:192,1,149.999992847443
304,192,25889,1,0,0:0:0:0:
248,192,26039,1,0,0:0:0:0:
220,192,26114,1,0,0:0:0:0:
352,192,26189,6,0,B|352:140|352:140|384:104|384:104|448:88,1,149.999992847443
128,192,26639,2,0,B|124:144|124:144|92:104|92:104|16:72,1,149.999992847443
256,128,27089,1,0,0:0:0:0:
148,128,27239,1,0,0:0:0:0:
408,320,27389,6,0,B|408:268|408:268|444:236|444:236|512:216,1,149.999992847443
244,320,27839,2,0,B|196:304|196:304|168:264|168:264|148:180,1,149.999992847443
256,192,28289,1,0,0:0:0:0:
136,192,28439,1,0,0:0:0:0:
440,320,28589,6,0,B|428:272|428:272|400:232|400:232|360:200|360:200|320:172|320:172|248:152,1,249.999988079071
232,128,29039,1,0,0:0:0:0:
184,128,29114,1,0,0:0:0:0:
36,128,29189,1,0,0:0:0:0:
371,128,29489,1,0,0:0:0:0:
416,128,29564,1,0,0:0:0:0:
452,128,29639,1,0,0:0:0:0:
464,128,29714,1,0,0:0:0:0:
196,256,29789,6,0,L|184:68,1,149.999992847443
244,132,30089,1,0,0:0:0:0:
364,320,30239,2,0,L|344:156,1,149.999992847443
188,192,30689,1,0,0:0:0:0:
288,192,30839,1,0,0:0:0:0:
232,192,30914,1,0,0:0:0:0:
456,320,30989,6,0,L|444:152,1,149.999992847443
392,128,31289,1,0,0:0:0:0:
132,128,31439,1,0,0:0:0:0:
196,256,31589,1,0,0:0:0:0:
52,256,31739,1,0,0:0:0:0:
36,256,31757,1,0,0:0:0:0:
224,256,31889,1,0,0:0:0:0:
432,256,32039,1,0,0:0:0:0:
352,336,32189,6,0,L|392:172,1,149.999992847443
332,192,32489,1,0,0:0:0:0:
228,320,32639,2,0,L|264:160,1,149.999992847443
356,128,33089,1,0,0:0:0:0:
240,128,33239,1,0,0:0:0:0:
120,320,33389,6,0,L|168:156,1,149.999992847443
56,192,33839,1,0,0:0:0:0:
340,192,33989,1,0,0:0:0:0:
392,192,34064,1,0,0:0:0:0:
432,192,34139,1,0,0:0:0:0:
456,192,34214,1,0,0:0:0:0:
472,192,34289,1,0,0:0:0:0:
224,192,34439,1,0,0:0:0:0:
352,332,34589,6,0,B|340:180,1,149.999992847443
280,192,34889,1,0,0:0:0:0:
172,332,35039,2,0,L|188:148,1,149.999992847443
364,192,35489,1,0,0:0:0:0:
276,128,35639,1,0,0:0:0:0:
312,128,35714,1,0,0:0:0:0:
384,128,35789,6,0,L|344:292,1,149.999992847443
276,192,36089,1,0,0:0:0:0:
124,132,36239,2,0,L|156:296,1,149.999992847443
224,256,36539,1,0,0:0:0:0:
208,256,36614,1,0,0:0:0:0:
152,256,36689,1,0,0:0:0:0:
272,256,36839,1,0,0:0:0:0:
472,256,36989,6,0,L|488:96,1,149.999992847443
324,128,37289,1,0,0:0:0:0:
384,256,37439,2,0,L|340:104,1,149.999992847443
388,128,37889,1,0,0:0:0:0:
156,128,38039,1,0,0:0:0:0:
444,320,38189,6,0,B|408:284|408:284|364:260|364:260|316:248|316:248|184:248,1,249.999988079071
160,260,38639,1,0,0:0:0:0:
92,256,38714,1,0,0:0:0:0:
204,192,38789,1,0,0:0:0:0:
468,64,38939,5,0,0:0:0:0:
360,64,39089,1,0,0:0:0:0:
252,64,39239,1,0,0:0:0:0:
60,64,39389,1,0,0:0:0:0:
