osu file format v14

[General]
AudioFilename: 2.mp3
AudioLeadIn: 0
PreviewTime: 989
Countdown: 0
SampleSet: None
StackLeniency: 0.7
Mode: 2
LetterboxInBreaks: 0
WidescreenStoryboard: 1

[Editor]
DistanceSpacing: 6
BeatDivisor: 4
GridSize: 4
TimelineZoom: 2

[Metadata]
Title:HAELEQUIN
TitleUnicode:HAELEQUIN
Artist:orangentle
ArtistUnicode:orangentle
Creator:Cipse
Version:2: HD1
Source:
Tags:dt3 hd3
BeatmapID:1080699
BeatmapSetID:498581

[Difficulty]
HPDrainRate:0
CircleSize:4.7
OverallDifficulty:10
ApproachRate:10
SliderMultiplier:1.99999990463257
SliderTickRate:4

[Events]
//Background and Video events
0,0,"1.jpg",0,0
//Break Periods
//Storyboard Layer 0 (Background)
//Storyboard Layer 1 (Fail)
//Storyboard Layer 2 (Pass)
//Storyboard Layer 3 (Foreground)
//Storyboard Sound Samples

[TimingPoints]
989.02800424113,300,4,2,0,100,1,0

[HitObjects]
336,64,989,5,0,0:0:0:0:
272,64,1214,1,0,0:0:0:0:
208,64,1439,1,0,0:0:0:0:
144,128,1589,2,0,L|260:128,1,99.9999952316285
308,192,1889,2,0,L|420:192,1,99.9999952316285
356,256,2189,5,0,0:0:0:0:
324,256,2339,1,0,0:0:0:0:
248,256,2489,1,0,0:0:0:0:
280,256,2639,1,0,0:0:0:0:
312,320,2789,1,0,0:0:0:0:
280,320,2939,1,0,0:0:0:0:
208,320,3089,1,0,0:0:0:0:
240,320,3239,1,0,0:0:0:0:
208,64,3389,5,0,0:0:0:0:
260,64,3614,1,0,0:0:0:0:
208,64,3839,1,0,0:0:0:0:
132,128,3989,2,0,L|272:128,1,99.9999952316285
308,192,4289,2,0,L|436:192,1,99.9999952316285
304,256,4589,1,0,0:0:0:0:
364,64,4739,5,0,0:0:0:0:
352,64,4814,1,0,0:0:0:0:
328,64,4889,1,0,0:0:0:0:
300,64,4964,1,0,0:0:0:0:
276,64,5039,1,0,0:0:0:0:
252,64,5114,1,0,0:0:0:0:
216,64,5189,1,0,0:0:0:0:
196,64,5264,1,0,0:0:0:0:
180,128,5339,1,0,0:0:0:0:
172,128,5414,1,0,0:0:0:0:
188,128,5489,1,0,0:0:0:0:
212,128,5564,1,0,0:0:0:0:
244,128,5639,1,0,0:0:0:0:
268,128,5714,1,0,0:0:0:0:
396,320,5789,5,0,0:0:0:0:
344,320,6014,1,0,0:0:0:0:
292,320,6239,1,0,0:0:0:0:
232,252,6389,2,0,L|308:180,1,99.9999952316285
164,192,6689,2,0,L|240:116,1,99.9999952316285
292,64,6989,5,0,0:0:0:0:
220,64,7139,1,0,0:0:0:0:
292,64,7289,1,0,0:0:0:0:
220,64,7439,1,0,0:0:0:0:
308,64,7589,1,0,0:0:0:0:
204,64,7739,1,0,0:0:0:0:
308,64,7889,1,0,0:0:0:0:
204,64,8039,1,0,0:0:0:0:
316,320,8189,5,0,0:0:0:0:
208,320,8414,1,0,0:0:0:0:
272,320,8639,1,0,0:0:0:0:
192,256,8789,2,0,L|272:184,1,99.9999952316285
160,192,9089,2,0,L|264:100,1,99.9999952316285
336,64,9389,5,0,0:0:0:0:
326,64,9464,1,0,0:0:0:0:
312,64,9539,1,0,0:0:0:0:
292,64,9614,1,0,0:0:0:0:
264,64,9689,1,0,0:0:0:0:
232,64,9764,1,0,0:0:0:0:
192,64,9839,1,0,0:0:0:0:
148,64,9914,1,0,0:0:0:0:
288,128,9989,5,0,0:0:0:0:
200,128,10289,1,0,0:0:0:0:
224,128,10364,1,0,0:0:0:0:
268,128,10439,1,0,0:0:0:0:
320,128,10514,1,0,0:0:0:0:
140,320,10589,5,0,0:0:0:0:
240,320,10814,1,0,0:0:0:0:
164,320,11039,1,0,0:0:0:0:
304,256,11189,2,0,L|192:256,1,99.9999952316285
256,192,11489,2,0,L|136:192,1,99.9999952316285
228,128,11789,5,0,0:0:0:0:
176,128,11939,1,0,0:0:0:0:
228,128,12089,1,0,0:0:0:0:
176,128,12239,1,0,0:0:0:0:
244,128,12389,1,0,0:0:0:0:
160,128,12539,1,0,0:0:0:0:
244,128,12689,1,0,0:0:0:0:
160,128,12839,1,0,0:0:0:0:
480,32,12989,5,0,0:0:0:0:
480,32,13214,1,0,0:0:0:0:
480,32,13439,1,0,0:0:0:0:
480,32,13589,1,0,0:0:0:0:
480,32,13739,1,0,0:0:0:0:
480,32,13889,1,0,0:0:0:0:
480,32,14039,1,0,0:0:0:0:
480,32,14189,1,0,0:0:0:0:
480,32,14339,1,0,0:0:0:0:
480,32,14414,1,0,0:0:0:0:
480,32,14489,1,0,0:0:0:0:
480,32,14564,1,0,0:0:0:0:
480,32,14639,1,0,0:0:0:0:
480,32,14714,1,0,0:0:0:0:
480,32,14789,1,0,0:0:0:0:
480,32,14864,1,0,0:0:0:0:
480,32,14939,1,0,0:0:0:0:
480,32,15014,1,0,0:0:0:0:
480,32,15089,1,0,0:0:0:0:
480,32,15164,1,0,0:0:0:0:
480,32,15239,1,0,0:0:0:0:
480,32,15314,1,0,0:0:0:0:
480,32,15389,5,0,0:0:0:0:
480,32,15614,1,0,0:0:0:0:
480,32,15839,1,0,0:0:0:0:
480,32,15989,1,0,0:0:0:0:
480,32,16139,1,0,0:0:0:0:
480,32,16289,1,0,0:0:0:0:
480,32,16439,1,0,0:0:0:0:
480,32,16589,1,0,0:0:0:0:
480,32,16739,1,0,0:0:0:0:
480,32,16889,1,0,0:0:0:0:
480,32,17039,1,0,0:0:0:0:
480,32,17189,1,0,0:0:0:0:
480,32,17339,1,0,0:0:0:0:
480,32,17489,1,0,0:0:0:0:
480,32,17639,1,0,0:0:0:0:
480,32,17789,1,0,0:0:0:0:
480,32,18014,1,0,0:0:0:0:
480,32,18239,1,0,0:0:0:0:
480,32,18389,1,0,0:0:0:0:
480,32,18539,1,0,0:0:0:0:
480,32,18689,1,0,0:0:0:0:
480,32,18839,1,0,0:0:0:0:
480,32,18989,1,0,0:0:0:0:
480,32,19139,1,0,0:0:0:0:
480,32,19214,1,0,0:0:0:0:
480,32,19289,1,0,0:0:0:0:
480,32,19364,1,0,0:0:0:0:
480,32,19439,1,0,0:0:0:0:
480,32,19514,1,0,0:0:0:0:
480,32,19589,1,0,0:0:0:0:
480,32,19889,1,0,0:0:0:0:
480,32,19964,1,0,0:0:0:0:
480,32,20039,1,0,0:0:0:0:
480,32,20114,1,0,0:0:0:0:
480,32,20189,5,0,0:0:0:0:
