osu file format v14

[General]
AudioFilename: 1.mp3
AudioLeadIn: 0
PreviewTime: 680
Countdown: 0
SampleSet: Soft
StackLeniency: 0.7
Mode: 2
LetterboxInBreaks: 0
WidescreenStoryboard: 1

[Editor]
DistanceSpacing: 6
BeatDivisor: 8
GridSize: 4
TimelineZoom: 2

[Metadata]
Title:HAELEQUIN
TitleUnicode:HAELEQUIN
Artist:orangentle
ArtistUnicode:orangentle
Creator:Cipse
Version:1: N5b
Source:
Tags:n0m
BeatmapID:1080696
BeatmapSetID:498581

[Difficulty]
HPDrainRate:0
CircleSize:5
OverallDifficulty:10
ApproachRate:9.2
SliderMultiplier:1.77999990463257
SliderTickRate:4

[Events]
//Background and Video events
0,0,"1.jpg",0,0
//Break Periods
//Storyboard Layer 0 (Background)
//Storyboard Layer 1 (Fail)
//Storyboard Layer 2 (Pass)
//Storyboard Layer 3 (Foreground)
//Storyboard Sound Samples

[TimingPoints]
1411,359.281437125748,4,2,0,100,1,0
3554,-50,4,2,0,100,0,0
21518,-66.6666666666667,4,2,0,100,0,0
22416,-50,4,2,0,100,0,0
63195,-50,4,2,0,100,0,0
77566,-50,4,2,0,100,0,0

[HitObjects]
60,256,991,5,0,0:0:0:0:
200,256,1111,1,0,0:0:0:0:
340,112,1231,1,0,0:0:0:0:
240,112,1321,1,0,0:0:0:0:
140,112,1411,1,0,0:0:0:0:
440,256,1949,5,0,0:0:0:0:
144,112,2488,5,0,0:0:0:0:
380,256,3027,5,0,0:0:0:0:
176,124,3566,1,0,0:0:0:0:
84,124,3656,1,0,0:0:0:0:
188,192,3746,1,0,0:0:0:0:
96,192,3836,1,0,0:0:0:0:
200,260,3925,1,0,0:0:0:0:
48,260,4105,1,0,0:0:0:0:
444,112,4285,1,0,0:0:0:0:
132,256,4824,5,0,0:0:0:0:
376,112,5363,5,0,0:0:0:0:
208,256,5902,5,0,0:0:0:0:
436,112,6440,6,0,L|248:112,2,177.999990463257
88,256,6979,1,0,0:0:0:0:
160,256,7069,1,0,0:0:0:0:
444,220,7159,2,0,L|104:112,2,355.999980926514
104,256,8237,1,0,0:0:0:0:
292,256,8416,5,0,0:0:0:0:
224,256,8506,1,0,0:0:0:0:
316,112,8596,2,0,L|16:336,2,355.999980926514
172,256,9674,1,0,0:0:0:0:
360,256,9854,5,0,0:0:0:0:
268,256,9943,1,0,0:0:0:0:
352,112,10033,2,0,B|8:232,2,355.999980926514
232,112,11111,1,0,0:0:0:0:
128,256,11381,5,0,0:0:0:0:
212,256,11425,1,0,0:0:0:0:
132,28,11470,2,0,L|384:308,1,355.999980926514
460,256,11919,1,0,0:0:0:0:
368,256,12009,1,0,0:0:0:0:
276,256,12099,1,0,0:0:0:0:
184,112,12189,5,0,0:0:0:0:
276,112,12279,1,0,0:0:0:0:
184,112,12369,1,0,0:0:0:0:
92,112,12458,1,0,0:0:0:0:
168,256,12548,1,0,0:0:0:0:
276,256,12638,1,0,0:0:0:0:
204,256,12728,1,0,0:0:0:0:
312,256,12818,1,0,0:0:0:0:
424,112,12908,5,0,0:0:0:0:
373,112,12997,1,0,0:0:0:0:
321,112,13087,1,0,0:0:0:0:
269,112,13177,1,0,0:0:0:0:
80,256,13267,1,0,0:0:0:0:
132,256,13357,1,0,0:0:0:0:
183,256,13446,1,0,0:0:0:0:
235,256,13536,1,0,0:0:0:0:
328,112,13626,5,0,0:0:0:0:
420,112,13716,1,0,0:0:0:0:
328,112,13806,1,0,0:0:0:0:
236,112,13896,1,0,0:0:0:0:
145,112,13985,1,0,0:0:0:0:
236,112,14075,1,0,0:0:0:0:
145,112,14165,1,0,0:0:0:0:
53,112,14255,1,0,0:0:0:0:
368,256,14345,5,0,0:0:0:0:
172,256,14524,1,0,0:0:0:0:
172,256,14704,1,0,0:0:0:0:
368,336,14884,6,0,B|172:32,1,355.999980926514
368,256,15422,1,0,0:0:0:0:
172,256,15602,1,0,0:0:0:0:
172,256,15782,5,0,0:0:0:0:
368,256,15961,1,0,0:0:0:0:
368,256,16141,1,0,0:0:0:0:
172,340,16321,6,0,B|368:24,1,355.999980926514
172,256,16859,1,0,0:0:0:0:
388,112,16949,5,0,0:0:0:0:
296,112,17039,1,0,0:0:0:0:
204,112,17129,1,0,0:0:0:0:
280,344,17219,2,0,B|16:52,1,355.999980926514
264,256,17668,5,0,0:0:0:0:
172,256,17758,1,0,0:0:0:0:
80,256,17848,1,0,0:0:0:0:
140,176,17937,2,0,B|336:20,1,177.999990463257
76,104,18297,2,0,L|272:200,1,177.999990463257
12,256,18656,5,0,0:0:0:0:
436,256,18925,1,0,0:0:0:0:
200,360,19195,2,0,P|236:360|200:40,1,533.999971389771
44,272,19913,5,0,0:0:0:0:
96,272,20002,1,0,0:0:0:0:
148,320,20092,2,0,L|368:8,1,355.999980926514
164,112,20632,5,0,0:0:0:0:
112,112,20721,1,0,0:0:0:0:
205,256,20812,2,0,L|28:164,1,177.999990463257
276,336,21171,2,0,L|76:240,1,177.999990463257
464,328,21530,2,0,P|356:312|496:44,1,533.999991760254
276,112,22428,5,0,0:0:0:0:
436,112,22608,1,0,0:0:0:0:
248,112,22788,1,0,0:0:0:0:
464,112,22967,1,0,0:0:0:0:
88,116,23237,1,0,0:0:0:0:
440,40,23506,6,0,P|396:40|464:348,1,533.999971389771
88,256,24225,1,0,0:0:0:0:
420,256,24405,1,0,0:0:0:0:
232,260,24584,1,0,0:0:0:0:
420,256,24764,1,0,0:0:0:0:
92,36,24943,6,0,P|144:40|80:356,1,533.999971389771
308,112,25662,1,0,0:0:0:0:
400,112,25752,1,0,0:0:0:0:
492,112,25842,1,0,0:0:0:0:
84,256,26381,1,0,0:0:0:0:
240,256,26560,1,0,0:0:0:0:
396,256,26830,1,0,0:0:0:0:
120,112,27099,1,0,0:0:0:0:
304,112,27279,2,0,L|16:360,1,355.999980926514
140,256,28446,5,0,0:0:0:0:
128,256,28536,1,0,0:0:0:0:
116,256,28626,1,0,0:0:0:0:
255,256,28716,1,0,0:0:0:0:
332,112,29165,5,0,0:0:0:0:
344,112,29255,1,0,0:0:0:0:
353,112,29345,1,0,0:0:0:0:
214,112,29435,5,0,0:0:0:0:
420,112,29614,1,0,0:0:0:0:
240,112,29794,1,0,0:0:0:0:
448,112,29973,1,0,0:0:0:0:
76,112,30153,1,0,0:0:0:0:
360,112,30422,1,0,0:0:0:0:
68,36,30692,6,0,P|124:40|44:352,1,533.999971389771
224,112,31410,1,0,0:0:0:0:
387,112,31590,5,0,0:0:0:0:
96,112,31860,1,0,0:0:0:0:
344,112,32129,1,0,0:0:0:0:
196,256,32309,5,0,0:0:0:0:
472,256,32578,1,0,0:0:0:0:
189,256,32848,1,0,0:0:0:0:
376,356,33027,2,0,B|0:356|0:32|432:32,1,711.999961853028
136,112,34105,6,0,L|432:344,1,355.999980926514
40,112,34824,1,0,0:0:0:0:
220,112,35003,2,0,L|60:16,1,177.999990463257
280,184,35363,2,0,L|112:96,1,177.999990463257
339,256,35722,1,0,0:0:0:0:
199,256,35902,5,0,0:0:0:0:
404,256,36171,1,0,0:0:0:0:
76,32,36440,2,0,L|492:388,1,533.999971389771
368,256,37159,5,0,0:0:0:0:
276,256,37249,1,0,0:0:0:0:
415,256,37339,1,0,0:0:0:0:
100,112,37608,1,0,0:0:0:0:
416,112,37878,1,0,0:0:0:0:
148,256,38057,5,0,0:0:0:0:
464,256,38327,1,0,0:0:0:0:
148,256,38597,1,0,0:0:0:0:
312,112,38776,2,0,B|512:112|512:264|312:264,1,355.999980926514
72,112,40213,5,0,0:0:0:0:
392,256,40393,1,0,0:0:0:0:
480,256,40482,1,0,0:0:0:0:
386,256,40572,1,0,0:0:0:0:
292,256,40662,1,0,0:0:0:0:
200,256,40752,1,0,0:0:0:0:
108,256,40842,1,0,0:0:0:0:
16,256,40931,1,0,0:0:0:0:
120,112,41111,5,0,0:0:0:0:
212,112,41201,1,0,0:0:0:0:
138,112,41291,1,0,0:0:0:0:
230,112,41381,1,0,0:0:0:0:
157,112,41470,1,0,0:0:0:0:
249,112,41560,1,0,0:0:0:0:
175,112,41650,1,0,0:0:0:0:
404,256,41830,5,0,0:0:0:0:
455,256,41919,1,0,0:0:0:0:
404,256,42009,1,0,0:0:0:0:
352,256,42099,1,0,0:0:0:0:
286,256,42189,1,0,0:0:0:0:
206,256,42279,1,0,0:0:0:0:
112,256,42369,1,0,0:0:0:0:
128,112,42548,5,0,0:0:0:0:
220,112,42638,1,0,0:0:0:0:
294,112,42728,1,0,0:0:0:0:
202,112,42818,1,0,0:0:0:0:
129,112,42907,1,0,0:0:0:0:
55,112,42997,1,0,0:0:0:0:
188,112,43087,1,0,0:0:0:0:
268,256,43267,5,0,0:0:0:0:
136,256,43357,1,0,0:0:0:0:
216,256,43446,1,0,0:0:0:0:
300,256,43536,1,0,0:0:0:0:
384,256,43626,1,0,0:0:0:0:
472,256,43716,1,0,0:0:0:0:
380,112,43806,2,0,L|216:248,1,177.999990463257
452,192,44165,2,0,L|288:328,1,177.999990463257
100,256,44524,5,0,0:0:0:0:
100,256,44794,1,0,0:0:0:0:
88,256,44839,1,0,0:0:0:0:
182,256,44884,1,0,0:0:0:0:
171,256,45153,1,0,0:0:0:0:
163,256,45198,1,0,0:0:0:0:
257,256,45243,1,0,0:0:0:0:
268,256,45512,1,0,0:0:0:0:
280,256,45557,1,0,0:0:0:0:
374,256,45602,1,0,0:0:0:0:
386,256,45872,1,0,0:0:0:0:
398,256,45916,1,0,0:0:0:0:
492,112,45961,5,0,0:0:0:0:
446,112,46051,1,0,0:0:0:0:
391,112,46141,1,0,0:0:0:0:
343,112,46231,1,0,0:0:0:0:
288,112,46321,1,0,0:0:0:0:
364,112,46410,1,0,0:0:0:0:
456,24,46500,1,0,0:0:0:0:
204,112,46590,1,0,0:0:0:0:
112,256,46680,5,0,0:0:0:0:
204,256,46770,1,0,0:0:0:0:
96,256,46860,1,0,0:0:0:0:
187,256,46949,1,0,0:0:0:0:
79,256,47039,1,0,0:0:0:0:
171,256,47129,1,0,0:0:0:0:
279,256,47219,1,0,0:0:0:0:
387,256,47309,1,0,0:0:0:0:
260,112,47399,5,0,0:0:0:0:
351,112,47488,1,0,0:0:0:0:
243,112,47578,1,0,0:0:0:0:
135,112,47668,1,0,0:0:0:0:
227,256,47758,1,0,0:0:0:0:
319,256,47848,1,0,0:0:0:0:
211,256,47938,1,0,0:0:0:0:
128,256,48027,1,0,0:0:0:0:
52,112,48117,5,0,0:0:0:0:
111,112,48177,1,0,0:0:0:0:
171,112,48237,1,0,0:0:0:0:
413,112,48297,1,0,0:0:0:0:
354,112,48357,1,0,0:0:0:0:
294,112,48416,1,0,0:0:0:0:
52,112,48476,6,0,B|84:196|84:196|140:264|140:264|224:296,1,266.999985694885
312,296,48836,5,0,0:0:0:0:
352,256,48925,1,0,0:0:0:0:
260,256,49015,1,0,0:0:0:0:
168,256,49105,1,0,0:0:0:0:
88,256,49195,1,0,0:0:0:0:
168,256,49285,1,0,0:0:0:0:
88,256,49375,1,0,0:0:0:0:
9,256,49464,1,0,0:0:0:0:
84,112,49554,5,0,0:0:0:0:
176,112,49644,1,0,0:0:0:0:
304,112,49734,1,0,0:0:0:0:
212,112,49824,1,0,0:0:0:0:
280,112,49913,1,0,0:0:0:0:
348,112,50003,1,0,0:0:0:0:
416,112,50093,1,0,0:0:0:0:
484,112,50182,1,0,0:0:0:0:
279,192,50272,5,0,0:0:0:0:
64,64,50812,1,0,0:0:0:0:
184,64,50902,1,0,0:0:0:0:
64,52,50991,2,0,B|64:384|484:384|484:20,1,711.999961853028
332,112,51890,5,0,0:0:0:0:
46,112,52159,1,0,0:0:0:0:
320,112,52428,1,0,0:0:0:0:
332,112,52698,1,0,0:0:0:0:
46,112,52967,5,0,0:0:0:0:
98,256,53057,1,0,0:0:0:0:
150,256,53147,1,0,0:0:0:0:
202,256,53237,1,0,0:0:0:0:
254,256,53327,1,0,0:0:0:0:
305,256,53416,1,0,0:0:0:0:
184,112,53506,1,0,0:0:0:0:
92,112,53596,1,0,0:0:0:0:
168,112,53686,1,0,0:0:0:0:
244,112,53776,1,0,0:0:0:0:
320,192,53866,5,0,0:0:0:0:
269,192,53955,1,0,0:0:0:0:
217,192,54045,1,0,0:0:0:0:
165,192,54135,1,0,0:0:0:0:
113,256,54225,1,0,0:0:0:0:
204,256,54314,1,0,0:0:0:0:
296,256,54404,1,0,0:0:0:0:
388,256,54494,1,0,0:0:0:0:
249,112,54584,5,0,0:0:0:0:
320,112,54764,1,0,0:0:0:0:
84,112,55033,1,0,0:0:0:0:
320,112,55302,1,0,0:0:0:0:
332,112,55572,1,0,0:0:0:0:
48,256,55842,5,0,0:0:0:0:
99,256,55931,1,0,0:0:0:0:
440,256,56021,1,0,0:0:0:0:
348,256,56111,1,0,0:0:0:0:
256,256,56201,1,0,0:0:0:0:
164,256,56291,1,0,0:0:0:0:
72,192,56381,1,0,0:0:0:0:
123,192,56470,1,0,0:0:0:0:
175,192,56560,1,0,0:0:0:0:
227,192,56650,1,0,0:0:0:0:
332,128,56740,5,0,0:0:0:0:
280,128,56830,1,0,0:0:0:0:
229,128,56919,1,0,0:0:0:0:
177,128,57009,1,0,0:0:0:0:
85,68,57099,1,0,0:0:0:0:
177,68,57189,1,0,0:0:0:0:
269,68,57279,1,0,0:0:0:0:
361,68,57369,1,0,0:0:0:0:
224,256,57458,1,0,0:0:0:0:
364,256,57638,5,0,0:0:0:0:
97,112,57907,1,0,0:0:0:0:
372,112,58176,1,0,0:0:0:0:
384,112,58446,1,0,0:0:0:0:
97,112,58715,1,0,0:0:0:0:
201,192,58896,5,0,0:0:0:0:
252,192,58985,1,0,0:0:0:0:
304,192,59075,1,0,0:0:0:0:
356,192,59165,1,0,0:0:0:0:
408,260,59255,1,0,0:0:0:0:
316,260,59345,1,0,0:0:0:0:
391,260,59434,1,0,0:0:0:0:
467,260,59524,1,0,0:0:0:0:
375,128,59614,5,0,0:0:0:0:
283,128,59704,1,0,0:0:0:0:
191,128,59794,1,0,0:0:0:0:
99,128,59884,1,0,0:0:0:0:
206,192,59973,1,0,0:0:0:0:
298,192,60063,1,0,0:0:0:0:
390,192,60153,1,0,0:0:0:0:
482,192,60243,1,0,0:0:0:0:
100,112,60333,5,0,0:0:0:0:
88,112,60422,1,0,0:0:0:0:
76,112,60512,1,0,0:0:0:0:
64,112,60602,1,0,0:0:0:0:
200,112,60692,1,0,0:0:0:0:
188,112,60781,1,0,0:0:0:0:
176,112,60871,1,0,0:0:0:0:
156,112,60961,1,0,0:0:0:0:
292,112,61051,5,0,0:0:0:0:
280,112,61140,1,0,0:0:0:0:
268,112,61230,1,0,0:0:0:0:
256,112,61320,1,0,0:0:0:0:
392,112,61410,1,0,0:0:0:0:
380,112,61499,1,0,0:0:0:0:
368,112,61589,1,0,0:0:0:0:
348,112,61679,1,0,0:0:0:0:
208,256,61770,5,0,0:0:0:0:
224,256,61860,1,0,0:0:0:0:
256,256,61949,1,0,0:0:0:0:
180,256,62039,1,0,0:0:0:0:
304,192,62129,1,0,0:0:0:0:
348,192,62219,1,0,0:0:0:0:
316,192,62309,1,0,0:0:0:0:
372,192,62399,1,0,0:0:0:0:
252,112,62488,5,0,0:0:0:0:
204,112,62578,1,0,0:0:0:0:
272,112,62668,1,0,0:0:0:0:
232,112,62758,1,0,0:0:0:0:
112,256,62848,1,0,0:0:0:0:
88,256,62937,1,0,0:0:0:0:
156,256,63027,1,0,0:0:0:0:
100,256,63117,1,0,0:0:0:0:
216,64,63207,5,0,0:0:0:0:
280,64,63327,1,0,0:0:0:0:
217,64,63446,1,0,0:0:0:0:
384,128,63566,1,0,0:0:0:0:
316,128,63686,1,0,0:0:0:0:
384,128,63806,1,0,0:0:0:0:
216,192,63925,5,0,0:0:0:0:
288,192,64045,1,0,0:0:0:0:
216,192,64165,1,0,0:0:0:0:
384,256,64285,1,0,0:0:0:0:
308,256,64405,1,0,0:0:0:0:
384,256,64524,1,0,0:0:0:0:
216,64,64644,5,0,0:0:0:0:
296,64,64764,1,0,0:0:0:0:
216,64,64883,1,0,0:0:0:0:
384,128,65003,1,0,0:0:0:0:
300,128,65123,1,0,0:0:0:0:
384,128,65243,1,0,0:0:0:0:
216,192,65362,5,0,0:0:0:0:
304,192,65482,1,0,0:0:0:0:
216,192,65602,1,0,0:0:0:0:
383,256,65722,1,0,0:0:0:0:
291,256,65842,1,0,0:0:0:0:
383,256,65961,1,0,0:0:0:0:
484,64,66081,5,0,0:0:0:0:
358,64,66171,1,0,0:0:0:0:
410,64,66261,1,0,0:0:0:0:
462,64,66351,1,0,0:0:0:0:
48,128,66440,1,0,0:0:0:0:
116,128,66530,1,0,0:0:0:0:
184,128,66620,1,0,0:0:0:0:
252,128,66710,1,0,0:0:0:0:
380,192,66800,5,0,0:0:0:0:
368,192,66860,1,0,0:0:0:0:
356,192,66919,1,0,0:0:0:0:
344,192,66979,1,0,0:0:0:0:
464,192,67069,1,0,0:0:0:0:
372,256,67159,1,0,0:0:0:0:
280,256,67249,1,0,0:0:0:0:
352,256,67339,1,0,0:0:0:0:
260,256,67428,1,0,0:0:0:0:
168,64,67518,5,0,0:0:0:0:
237,64,67638,1,0,0:0:0:0:
168,64,67758,1,0,0:0:0:0:
294,128,67878,1,0,0:0:0:0:
217,128,67997,1,0,0:0:0:0:
294,128,68117,1,0,0:0:0:0:
160,192,68237,5,0,0:0:0:0:
245,192,68357,1,0,0:0:0:0:
160,192,68476,1,0,0:0:0:0:
302,256,68596,1,0,0:0:0:0:
209,256,68716,1,0,0:0:0:0:
302,256,68836,1,0,0:0:0:0:
144,64,68955,5,0,0:0:0:0:
295,64,69135,1,0,0:0:0:0:
88,64,69315,5,0,0:0:0:0:
68,64,69405,1,0,0:0:0:0:
48,64,69494,1,0,0:0:0:0:
424,64,69854,5,0,0:0:0:0:
444,64,69943,1,0,0:0:0:0:
324,64,70033,1,0,0:0:0:0:
304,64,70123,1,0,0:0:0:0:
284,64,70213,1,0,0:0:0:0:
148,64,70572,5,0,0:0:0:0:
168,64,70662,1,0,0:0:0:0:
48,64,70752,1,0,0:0:0:0:
272,192,70931,1,0,0:0:0:0:
292,192,71021,1,0,0:0:0:0:
56,192,71291,1,0,0:0:0:0:
36,192,71381,1,0,0:0:0:0:
154,192,71470,1,0,0:0:0:0:
464,256,71650,5,0,0:0:0:0:
100,256,72009,1,0,0:0:0:0:
248,256,72189,1,0,0:0:0:0:
36,256,72369,1,0,0:0:0:0:
404,320,72728,1,0,0:0:0:0:
248,320,72908,1,0,0:0:0:0:
468,320,73088,1,0,0:0:0:0:
108,64,73446,5,0,0:0:0:0:
272,64,73626,1,0,0:0:0:0:
44,64,73806,1,0,0:0:0:0:
404,128,74165,5,0,0:0:0:0:
120,128,74345,1,0,0:0:0:0:
480,128,74704,5,0,0:0:0:0:
256,192,75063,1,0,0:0:0:0:
188,192,75153,1,0,0:0:0:0:
120,192,75243,1,0,0:0:0:0:
52,192,75333,1,0,0:0:0:0:
256,256,75422,5,0,0:0:0:0:
326,256,75512,1,0,0:0:0:0:
396,256,75602,1,0,0:0:0:0:
466,256,75692,1,0,0:0:0:0:
256,320,75782,1,0,0:0:0:0:
184,320,75872,1,0,0:0:0:0:
112,320,75961,1,0,0:0:0:0:
40,320,76051,1,0,0:0:0:0:
132,64,76141,5,0,0:0:0:0:
206,64,76231,1,0,0:0:0:0:
280,64,76321,1,0,0:0:0:0:
354,64,76410,1,0,0:0:0:0:
428,128,76500,1,0,0:0:0:0:
336,128,76590,1,0,0:0:0:0:
244,128,76680,1,0,0:0:0:0:
152,128,76770,1,0,0:0:0:0:
60,192,76860,5,0,0:0:0:0:
151,192,76949,1,0,0:0:0:0:
76,192,77039,1,0,0:0:0:0:
168,192,77129,1,0,0:0:0:0:
93,256,77219,1,0,0:0:0:0:
185,256,77309,1,0,0:0:0:0:
110,256,77399,1,0,0:0:0:0:
201,256,77488,1,0,0:0:0:0:
452,320,77578,5,0,0:0:0:0:
232,192,79734,5,0,0:0:0:0:
324,192,79824,1,0,0:0:0:0:
140,192,80003,1,0,0:0:0:0:
416,192,80273,1,0,0:0:0:0:
188,192,80452,1,0,0:0:0:0:
156,192,81710,5,0,0:0:0:0:
94,192,81770,1,0,0:0:0:0:
418,192,81830,1,0,0:0:0:0:
356,192,81890,1,0,0:0:0:0:
232,192,82608,5,0,0:0:0:0:
324,192,82698,1,0,0:0:0:0:
108,192,82877,1,0,0:0:0:0:
400,192,83147,1,0,0:0:0:0:
172,192,83326,1,0,0:0:0:0:
232,192,85482,5,0,0:0:0:0:
337,192,85572,1,0,0:0:0:0:
128,192,85751,1,0,0:0:0:0:
444,192,86021,1,0,0:0:0:0:
216,192,86201,6,0,B|364:192|364:192|264:108|264:108|140:192|140:192|268:192|268:192|148:272|148:272|324:272,1,840
104,64,87458,1,0,0:0:0:0:
156,64,87548,1,0,0:0:0:0:
17,64,87638,5,0,0:0:0:0:
472,64,87997,1,0,0:0:0:0:
56,128,88357,1,0,0:0:0:0:
440,128,88536,1,0,0:0:0:0:
212,192,88716,1,0,0:0:0:0:
304,192,88806,1,0,0:0:0:0:
196,192,88896,1,0,0:0:0:0:
288,192,88985,1,0,0:0:0:0:
108,64,89075,5,0,0:0:0:0:
164,64,89165,1,0,0:0:0:0:
276,64,89255,1,0,0:0:0:0:
332,64,89345,1,0,0:0:0:0:
456,128,89434,1,0,0:0:0:0:
400,128,89524,1,0,0:0:0:0:
288,128,89614,1,0,0:0:0:0:
232,128,89704,1,0,0:0:0:0:
84,192,89794,5,0,0:0:0:0:
136,192,89884,1,0,0:0:0:0:
248,192,89973,1,0,0:0:0:0:
300,192,90063,1,0,0:0:0:0:
456,256,90153,1,0,0:0:0:0:
404,256,90243,1,0,0:0:0:0:
292,256,90333,1,0,0:0:0:0:
240,256,90422,1,0,0:0:0:0:
36,64,90512,5,0,0:0:0:0:
116,64,90602,1,0,0:0:0:0:
232,64,90692,1,0,0:0:0:0:
312,64,90782,1,0,0:0:0:0:
478,128,90872,1,0,0:0:0:0:
408,128,90961,1,0,0:0:0:0:
280,128,91051,1,0,0:0:0:0:
208,128,91141,1,0,0:0:0:0:
336,192,91231,5,0,0:0:0:0:
208,192,91321,1,0,0:0:0:0:
192,192,91411,1,0,0:0:0:0:
324,192,91500,1,0,0:0:0:0:
196,256,91590,1,0,0:0:0:0:
180,256,91680,1,0,0:0:0:0:
272,256,91770,1,0,0:0:0:0:
144,256,91860,1,0,0:0:0:0:
476,64,91949,5,0,0:0:0:0:
348,64,92039,1,0,0:0:0:0:
412,64,92129,1,0,0:0:0:0:
349,64,92219,1,0,0:0:0:0:
236,128,92309,1,0,0:0:0:0:
364,128,92399,1,0,0:0:0:0:
300,128,92488,1,0,0:0:0:0:
364,128,92578,1,0,0:0:0:0:
476,192,92668,5,0,0:0:0:0:
348,192,92758,1,0,0:0:0:0:
412,192,92848,1,0,0:0:0:0:
348,192,92938,1,0,0:0:0:0:
236,256,93027,1,0,0:0:0:0:
364,256,93117,1,0,0:0:0:0:
300,256,93206,1,0,0:0:0:0:
236,256,93296,1,0,0:0:0:0:
56,64,93387,5,0,0:0:0:0:
148,64,93476,1,0,0:0:0:0:
240,64,93566,1,0,0:0:0:0:
332,64,93656,1,0,0:0:0:0:
436,128,93746,1,0,0:0:0:0:
384,128,93836,1,0,0:0:0:0:
332,128,93925,1,0,0:0:0:0:
240,128,94015,1,0,0:0:0:0:
148,192,94105,5,0,0:0:0:0:
276,192,94195,1,0,0:0:0:0:
292,192,94285,1,0,0:0:0:0:
160,192,94375,1,0,0:0:0:0:
288,256,94464,1,0,0:0:0:0:
304,256,94554,1,0,0:0:0:0:
212,256,94644,1,0,0:0:0:0:
340,256,94734,1,0,0:0:0:0:
84,64,94824,5,0,0:0:0:0:
432,64,95003,1,0,0:0:0:0:
96,64,95183,1,0,0:0:0:0:
44,64,95273,1,0,0:0:0:0:
424,64,95452,1,0,0:0:0:0:
372,64,95542,1,0,0:0:0:0:
92,128,95722,1,0,0:0:0:0:
396,128,95812,1,0,0:0:0:0:
448,128,95902,1,0,0:0:0:0:
64,128,96081,1,0,0:0:0:0:
116,128,96171,1,0,0:0:0:0:
420,192,96261,5,0,0:0:0:0:
152,192,96620,1,0,0:0:0:0:
124,192,96710,1,0,0:0:0:0:
384,192,96890,1,0,0:0:0:0:
356,192,96980,1,0,0:0:0:0:
80,192,97159,1,0,0:0:0:0:
444,192,97249,1,0,0:0:0:0:
472,192,97339,1,0,0:0:0:0:
20,256,97518,5,0,0:0:0:0:
336,64,97967,1,0,0:0:0:0:
308,64,98012,1,0,0:0:0:0:
376,64,98057,1,0,0:0:0:0:
176,64,98327,1,0,0:0:0:0:
204,64,98372,1,0,0:0:0:0:
136,64,98416,1,0,0:0:0:0:
356,128,98686,1,0,0:0:0:0:
328,128,98731,1,0,0:0:0:0:
396,128,98776,1,0,0:0:0:0:
156,128,99045,1,0,0:0:0:0:
184,128,99090,1,0,0:0:0:0:
116,128,99135,5,0,0:0:0:0:
376,192,99405,1,0,0:0:0:0:
348,192,99449,1,0,0:0:0:0:
416,192,99494,1,0,0:0:0:0:
136,192,99764,1,0,0:0:0:0:
164,192,99809,1,0,0:0:0:0:
96,192,99854,1,0,0:0:0:0:
396,256,100123,1,0,0:0:0:0:
368,256,100168,1,0,0:0:0:0:
436,256,100213,1,0,0:0:0:0:
120,256,100482,1,0,0:0:0:0:
148,256,100527,1,0,0:0:0:0:
80,128,100572,6,0,B|508:128,4,355.999980926514
96,64,102369,1,0,0:0:0:0:
404,64,102728,1,0,0:0:0:0:
36,64,103087,5,0,0:0:0:0:
432,128,103446,1,0,0:0:0:0:
256,192,106321,1,0,0:0:0:0:
