osu file format v14

[General]
AudioFilename: 09 A Man In The Mirror.mp3
AudioLeadIn: 0
PreviewTime: 87046
Countdown: 0
SampleSet: Soft
StackLeniency: 0.7
Mode: 3
LetterboxInBreaks: 0
SpecialStyle: 0
WidescreenStoryboard: 0

[Editor]
DistanceSpacing: 0.8
BeatDivisor: 4
GridSize: 32
TimelineZoom: 1.4

[Metadata]
Title:A Man In The Mirror
TitleUnicode:A Man In The Mirror
Artist:orangentle
ArtistUnicode:orangentle
Creator:AutotelicBrown
Version:TREPXE
Source:オンゲキ SUMMER
Tags:HAELEQUIN Yu_Asahina アサヒナユウ O.N.G.E.K.I. ONGEKI Sound Collection 03 『Splash Dance!!』 柏木咲姫 Saki Kashiwagi セガ SEGA KADOKAWA ZMCZ-13953 Dissociative Identity Disorder Electronic Arcade Video Game Instrumental featured artist fa Toy Piano Baby Alice
BeatmapID:3578444
BeatmapSetID:1749282

[Difficulty]
HPDrainRate:8
CircleSize:4
OverallDifficulty:7.7
ApproachRate:5
SliderMultiplier:1.4
SliderTickRate:1

[Events]
//Background and Video events
0,0,"bg.png",0,0
//Break Periods
//Storyboard Layer 0 (Background)
//Storyboard Layer 1 (Fail)
//Storyboard Layer 2 (Pass)
//Storyboard Layer 3 (Foreground)
//Storyboard Layer 4 (Overlay)
//Storyboard Sound Samples

[TimingPoints]
713,333.333333,4,2,1,60,1,0
87379,-100,4,2,1,60,0,1
108712,-100,4,2,1,60,0,0

[HitObjects]
448,192,379,1,0,0:0:0:0:
64,192,463,1,0,0:0:0:0:
320,192,546,1,0,0:0:0:0:
192,192,629,1,0,0:0:0:0:
448,192,713,1,0,0:0:0:0:
64,192,713,1,0,0:0:0:0:
192,192,962,1,0,0:0:0:0:
448,192,1212,1,0,0:0:0:0:
64,192,1212,1,0,0:0:0:0:
320,192,1379,1,0,0:0:0:0:
320,192,1712,1,0,0:0:0:0:
64,192,1712,1,0,0:0:0:0:
448,192,1879,1,0,0:0:0:0:
448,192,2212,1,0,0:0:0:0:
192,192,2212,1,0,0:0:0:0:
448,192,2546,1,0,0:0:0:0:
192,192,2712,1,0,0:0:0:0:
64,192,2712,1,0,0:0:0:0:
320,192,3046,1,0,0:0:0:0:
64,192,3046,1,0,0:0:0:0:
320,192,3379,1,0,0:0:0:0:
192,192,3379,1,0,0:0:0:0:
320,192,3879,1,0,0:0:0:0:
448,192,4379,1,0,0:0:0:0:
320,192,4379,1,0,0:0:0:0:
192,192,4546,1,0,0:0:0:0:
448,192,4879,1,0,0:0:0:0:
64,192,5379,1,0,0:0:0:0:
320,192,5546,1,0,0:0:0:0:
64,192,5629,1,0,0:0:0:0:
320,192,5712,1,0,0:0:0:0:
192,192,5796,1,0,0:0:0:0:
448,192,5879,1,0,0:0:0:0:
64,192,5879,1,0,0:0:0:0:
320,192,5962,1,0,0:0:0:0:
192,192,6046,1,0,0:0:0:0:
64,192,6046,1,0,0:0:0:0:
320,192,6379,1,0,0:0:0:0:
64,192,6712,1,0,0:0:0:0:
448,192,6879,1,0,0:0:0:0:
320,192,6962,1,0,0:0:0:0:
192,192,7046,1,0,0:0:0:0:
64,192,7046,1,0,0:0:0:0:
448,192,7129,1,0,0:0:0:0:
192,192,7212,1,0,0:0:0:0:
320,192,7296,1,0,0:0:0:0:
448,192,7379,1,0,0:0:0:0:
64,192,7379,1,0,0:0:0:0:
320,192,7712,1,0,0:0:0:0:
448,192,8046,1,0,0:0:0:0:
192,192,8046,1,0,0:0:0:0:
320,192,8296,1,0,0:0:0:0:
64,192,8379,1,0,0:0:0:0:
448,192,8546,1,0,0:0:0:0:
320,192,8712,1,0,0:0:0:0:
192,192,8712,1,0,0:0:0:0:
64,192,9046,1,0,0:0:0:0:
320,192,9379,1,0,0:0:0:0:
192,192,9712,1,0,0:0:0:0:
448,192,9879,1,0,0:0:0:0:
64,192,9879,1,0,0:0:0:0:
320,192,10212,1,0,0:0:0:0:
192,192,10212,1,0,0:0:0:0:
448,192,10546,1,0,0:0:0:0:
64,192,10546,1,0,0:0:0:0:
320,192,10712,1,0,0:0:0:0:
64,192,10796,1,0,0:0:0:0:
320,192,10879,1,0,0:0:0:0:
192,192,10879,1,0,0:0:0:0:
448,192,10962,1,0,0:0:0:0:
64,192,11046,1,0,0:0:0:0:
192,192,11129,1,0,0:0:0:0:
448,192,11212,1,0,0:0:0:0:
320,192,11212,1,0,0:0:0:0:
64,192,11296,1,0,0:0:0:0:
448,192,11379,1,0,0:0:0:0:
192,192,11379,1,0,0:0:0:0:
64,192,11712,1,0,0:0:0:0:
320,192,11796,1,0,0:0:0:0:
192,192,11879,1,0,0:0:0:0:
448,192,11962,1,0,0:0:0:0:
64,192,12046,1,0,0:0:0:0:
192,192,12129,1,0,0:0:0:0:
320,192,12212,1,0,0:0:0:0:
448,192,12296,1,0,0:0:0:0:
64,192,12379,1,0,0:0:0:0:
192,192,12435,1,0,0:0:0:0:
448,192,12546,1,0,0:0:0:0:
320,192,12712,1,0,0:0:0:0:
192,192,12712,1,0,0:0:0:0:
64,192,13046,1,0,0:0:0:0:
448,192,13129,1,0,0:0:0:0:
192,192,13212,1,0,0:0:0:0:
320,192,13296,1,0,0:0:0:0:
64,192,13379,1,0,0:0:0:0:
192,192,13462,1,0,0:0:0:0:
320,192,13546,1,0,0:0:0:0:
448,192,13629,1,0,0:0:0:0:
64,192,13712,1,0,0:0:0:0:
320,192,13796,1,0,0:0:0:0:
192,192,13879,1,0,0:0:0:0:
448,192,13962,1,0,0:0:0:0:
320,192,14046,1,0,0:0:0:0:
64,192,14046,1,0,0:0:0:0:
448,192,14379,1,0,0:0:0:0:
320,192,14462,1,0,0:0:0:0:
64,192,14546,1,0,0:0:0:0:
448,192,14629,1,0,0:0:0:0:
192,192,14712,1,0,0:0:0:0:
64,192,14796,1,0,0:0:0:0:
448,192,14879,1,0,0:0:0:0:
320,192,14935,1,0,0:0:0:0:
192,192,15046,1,0,0:0:0:0:
64,192,15129,1,0,0:0:0:0:
320,192,15212,1,0,0:0:0:0:
448,192,15296,1,0,0:0:0:0:
192,192,15379,1,0,0:0:0:0:
64,192,15379,1,0,0:0:0:0:
320,192,15462,1,0,0:0:0:0:
64,192,15629,1,0,0:0:0:0:
320,192,15796,1,0,0:0:0:0:
64,192,15962,1,0,0:0:0:0:
448,192,16129,1,0,0:0:0:0:
320,192,16212,1,0,0:0:0:0:
192,192,16212,1,0,0:0:0:0:
448,192,16379,1,0,0:0:0:0:
64,192,16379,1,0,0:0:0:0:
320,192,16546,1,0,0:0:0:0:
192,192,16546,1,0,0:0:0:0:
320,192,16712,1,0,0:0:0:0:
64,192,16712,1,0,0:0:0:0:
448,192,17046,1,0,0:0:0:0:
64,192,17129,1,0,0:0:0:0:
320,192,17212,1,0,0:0:0:0:
448,192,17296,1,0,0:0:0:0:
192,192,17379,1,0,0:0:0:0:
64,192,17435,1,0,0:0:0:0:
320,192,17546,1,0,0:0:0:0:
448,192,17712,1,0,0:0:0:0:
320,192,17796,1,0,0:0:0:0:
64,192,17879,1,0,0:0:0:0:
192,192,18129,1,0,0:0:0:0:
320,192,18212,1,0,0:0:0:0:
448,192,18879,1,0,0:0:0:0:
192,192,18962,1,0,0:0:0:0:
320,192,19046,1,0,0:0:0:0:
64,192,19129,1,0,0:0:0:0:
448,192,19212,1,0,0:0:0:0:
64,192,19296,1,0,0:0:0:0:
320,192,19379,1,0,0:0:0:0:
192,192,19462,1,0,0:0:0:0:
448,192,19629,1,0,0:0:0:0:
64,192,19879,1,0,0:0:0:0:
192,192,19962,1,0,0:0:0:0:
320,192,20046,1,0,0:0:0:0:
192,192,20212,1,0,0:0:0:0:
64,192,20379,1,0,0:0:0:0:
320,192,20462,1,0,0:0:0:0:
448,192,20546,1,0,0:0:0:0:
64,192,21046,1,0,0:0:0:0:
192,192,21129,1,0,0:0:0:0:
320,192,21212,1,0,0:0:0:0:
448,192,21296,1,0,0:0:0:0:
192,192,21379,1,0,0:0:0:0:
320,192,21435,1,0,0:0:0:0:
64,192,21546,1,0,0:0:0:0:
192,192,21629,1,0,0:0:0:0:
448,192,21712,1,0,0:0:0:0:
64,192,21796,1,0,0:0:0:0:
320,192,21879,1,0,0:0:0:0:
192,192,21962,1,0,0:0:0:0:
448,192,22046,1,0,0:0:0:0:
64,192,22046,1,0,0:0:0:0:
320,192,22212,1,0,0:0:0:0:
64,192,22296,1,0,0:0:0:0:
192,192,22379,1,0,0:0:0:0:
448,192,22546,1,0,0:0:0:0:
64,192,22712,1,0,0:0:0:0:
192,192,22796,1,0,0:0:0:0:
320,192,22879,1,0,0:0:0:0:
64,192,22962,1,0,0:0:0:0:
448,192,23046,1,0,0:0:0:0:
320,192,23129,1,0,0:0:0:0:
192,192,23212,1,0,0:0:0:0:
320,192,23712,1,0,0:0:0:0:
192,192,23779,128,0,24546:0:0:0:0:
448,192,24712,1,0,0:0:0:0:
64,192,24796,1,0,0:0:0:0:
192,192,24962,1,0,0:0:0:0:
320,192,25212,1,0,0:0:0:0:
192,192,25379,1,0,0:0:0:0:
448,192,25546,1,0,0:0:0:0:
320,192,25629,1,0,0:0:0:0:
192,192,25712,1,0,0:0:0:0:
64,192,25796,1,0,0:0:0:0:
448,192,25879,1,0,0:0:0:0:
64,192,26379,1,0,0:0:0:0:
192,192,26462,1,0,0:0:0:0:
320,192,26546,1,0,0:0:0:0:
448,192,26629,1,0,0:0:0:0:
192,192,26712,1,0,0:0:0:0:
64,192,26768,1,0,0:0:0:0:
448,192,26879,1,0,0:0:0:0:
320,192,26962,1,0,0:0:0:0:
64,192,27046,1,0,0:0:0:0:
320,192,27212,1,0,0:0:0:0:
192,192,27379,1,0,0:0:0:0:
64,192,27379,1,0,0:0:0:0:
448,192,27462,1,0,0:0:0:0:
192,192,27629,1,0,0:0:0:0:
448,192,27796,1,0,0:0:0:0:
192,192,27962,1,0,0:0:0:0:
448,192,28046,1,0,0:0:0:0:
64,192,28129,1,0,0:0:0:0:
320,192,28296,1,0,0:0:0:0:
64,192,28462,1,0,0:0:0:0:
320,192,28629,1,0,0:0:0:0:
192,192,28712,1,0,0:0:0:0:
448,192,28796,1,0,0:0:0:0:
64,192,28962,1,0,0:0:0:0:
448,192,29129,1,0,0:0:0:0:
64,192,29296,1,0,0:0:0:0:
320,192,29379,1,0,0:0:0:0:
192,192,29546,1,0,0:0:0:0:
64,192,29546,1,0,0:0:0:0:
448,192,29712,1,0,0:0:0:0:
320,192,29712,1,0,0:0:0:0:
192,192,29879,1,0,0:0:0:0:
64,192,29879,1,0,0:0:0:0:
448,192,30046,1,0,0:0:0:0:
320,192,30046,1,0,0:0:0:0:
64,192,30129,1,0,0:0:0:0:
320,192,30296,1,0,0:0:0:0:
64,192,30462,1,0,0:0:0:0:
320,192,30629,1,0,0:0:0:0:
64,192,30712,1,0,0:0:0:0:
448,192,30796,1,0,0:0:0:0:
192,192,30962,1,0,0:0:0:0:
448,192,31129,1,0,0:0:0:0:
64,192,31296,1,0,0:0:0:0:
320,192,31379,1,0,0:0:0:0:
192,192,31462,1,0,0:0:0:0:
320,192,31629,1,0,0:0:0:0:
192,192,31796,1,0,0:0:0:0:
320,192,31962,1,0,0:0:0:0:
64,192,32046,1,0,0:0:0:0:
448,192,32212,1,0,0:0:0:0:
192,192,32296,1,0,0:0:0:0:
448,192,32379,1,0,0:0:0:0:
320,192,32379,1,0,0:0:0:0:
192,192,32546,1,0,0:0:0:0:
64,192,32546,1,0,0:0:0:0:
448,192,32629,1,0,0:0:0:0:
320,192,32712,1,0,0:0:0:0:
64,192,32712,1,0,0:0:0:0:
192,192,33046,1,0,0:0:0:0:
448,192,33212,1,0,0:0:0:0:
320,192,33296,1,0,0:0:0:0:
192,192,33379,1,0,0:0:0:0:
64,192,33379,1,0,0:0:0:0:
448,192,33546,1,0,0:0:0:0:
320,192,33712,1,0,0:0:0:0:
64,192,33712,1,0,0:0:0:0:
192,192,33879,1,0,0:0:0:0:
448,192,34046,1,0,0:0:0:0:
320,192,34046,1,0,0:0:0:0:
192,192,34379,1,0,0:0:0:0:
448,192,34546,1,0,0:0:0:0:
64,192,34629,1,0,0:0:0:0:
320,192,34712,1,0,0:0:0:0:
192,192,34712,1,0,0:0:0:0:
64,192,34879,1,0,0:0:0:0:
448,192,35046,1,0,0:0:0:0:
192,192,35046,1,0,0:0:0:0:
320,192,35212,1,0,0:0:0:0:
448,192,35379,1,0,0:0:0:0:
64,192,35379,1,0,0:0:0:0:
192,192,35712,1,0,0:0:0:0:
320,192,35879,1,0,0:0:0:0:
64,192,35962,1,0,0:0:0:0:
448,192,36046,1,0,0:0:0:0:
192,192,36046,1,0,0:0:0:0:
320,192,36379,1,0,0:0:0:0:
64,192,36379,1,0,0:0:0:0:
320,192,36712,1,0,0:0:0:0:
192,192,36712,1,0,0:0:0:0:
64,192,37046,1,0,0:0:0:0:
448,192,37379,1,0,0:0:0:0:
320,192,37629,1,0,0:0:0:0:
192,192,37712,1,0,0:0:0:0:
320,192,37879,1,0,0:0:0:0:
448,192,38046,1,0,0:0:0:0:
64,192,38046,1,0,0:0:0:0:
192,192,38212,1,0,0:0:0:0:
320,192,38296,1,0,0:0:0:0:
448,192,38296,1,0,0:0:0:0:
64,192,38379,1,0,0:0:0:0:
320,192,38462,1,0,0:0:0:0:
448,192,38546,1,0,0:0:0:0:
192,192,38546,1,0,0:0:0:0:
448,192,39046,1,0,0:0:0:0:
320,192,39046,1,0,0:0:0:0:
192,192,39379,1,0,0:0:0:0:
64,192,39379,1,0,0:0:0:0:
320,192,39546,1,0,0:0:0:0:
64,192,39629,1,0,0:0:0:0:
448,192,39712,1,0,0:0:0:0:
320,192,39879,1,0,0:0:0:0:
192,192,39879,1,0,0:0:0:0:
448,192,40212,1,0,0:0:0:0:
320,192,40379,1,0,0:0:0:0:
448,192,40546,1,0,0:0:0:0:
64,192,40546,1,0,0:0:0:0:
192,192,40629,1,0,0:0:0:0:
320,192,40712,1,0,0:0:0:0:
64,192,40712,1,0,0:0:0:0:
448,192,41046,1,0,0:0:0:0:
320,192,41046,1,0,0:0:0:0:
192,192,41129,1,0,0:0:0:0:
64,192,41212,1,0,0:0:0:0:
448,192,41296,1,0,0:0:0:0:
192,192,41379,1,0,0:0:0:0:
320,192,41462,1,0,0:0:0:0:
64,192,41546,1,0,0:0:0:0:
192,192,41629,1,0,0:0:0:0:
448,192,41712,1,0,0:0:0:0:
64,192,41796,1,0,0:0:0:0:
320,192,41879,1,0,0:0:0:0:
192,192,41962,1,0,0:0:0:0:
64,192,42046,1,0,0:0:0:0:
448,192,42379,128,0,43129:0:0:0:0:
192,192,42379,1,0,0:0:0:0:
64,192,42712,1,0,0:0:0:0:
320,192,42962,1,0,0:0:0:0:
64,192,43129,1,0,0:0:0:0:
192,192,43212,1,0,0:0:0:0:
320,192,43296,1,0,0:0:0:0:
192,192,43379,1,0,0:0:0:0:
64,192,43379,1,0,0:0:0:0:
448,192,43712,1,0,0:0:0:0:
64,192,43796,1,0,0:0:0:0:
192,192,43879,1,0,0:0:0:0:
320,192,43962,1,0,0:0:0:0:
192,192,44046,1,0,0:0:0:0:
64,192,44046,1,0,0:0:0:0:
448,192,44212,1,0,0:0:0:0:
320,192,44379,1,0,0:0:0:0:
64,192,44379,1,0,0:0:0:0:
192,192,44546,1,0,0:0:0:0:
448,192,44712,1,0,0:0:0:0:
64,192,44712,1,0,0:0:0:0:
320,192,45046,1,0,0:0:0:0:
192,192,45212,1,0,0:0:0:0:
448,192,45379,1,0,0:0:0:0:
320,192,45629,1,0,0:0:0:0:
192,192,45712,1,0,0:0:0:0:
64,192,45712,1,0,0:0:0:0:
448,192,45879,1,0,0:0:0:0:
320,192,45879,1,0,0:0:0:0:
64,192,46046,1,0,0:0:0:0:
192,192,46212,1,0,0:0:0:0:
448,192,46379,1,0,0:0:0:0:
64,192,46379,1,0,0:0:0:0:
320,192,46490,1,0,0:0:0:0:
192,192,46601,1,0,0:0:0:0:
64,192,46712,1,0,0:0:0:0:
320,192,46824,1,0,0:0:0:0:
448,192,46935,1,0,0:0:0:0:
320,192,47046,1,0,0:0:0:0:
192,192,47046,1,0,0:0:0:0:
64,192,47157,1,0,0:0:0:0:
192,192,47268,1,0,0:0:0:0:
448,192,47379,1,0,0:0:0:0:
320,192,47379,1,0,0:0:0:0:
64,192,47546,1,0,0:0:0:0:
192,192,47629,1,0,0:0:0:0:
320,192,47712,1,0,0:0:0:0:
448,192,47796,1,0,0:0:0:0:
64,192,47879,1,0,0:0:0:0:
320,192,47962,1,0,0:0:0:0:
192,192,48046,1,0,0:0:0:0:
448,192,48129,1,0,0:0:0:0:
64,192,48212,1,0,0:0:0:0:
320,192,48296,1,0,0:0:0:0:
448,192,48379,1,0,0:0:0:0:
192,192,48462,1,0,0:0:0:0:
320,192,48546,1,0,0:0:0:0:
64,192,48629,1,0,0:0:0:0:
448,192,48712,1,0,0:0:0:0:
192,192,48712,1,0,0:0:0:0:
64,192,49046,1,0,0:0:0:0:
192,192,49157,1,0,0:0:0:0:
320,192,49268,1,0,0:0:0:0:
64,192,49379,1,0,0:0:0:0:
448,192,49546,1,0,0:0:0:0:
320,192,49712,1,0,0:0:0:0:
64,192,49879,1,0,0:0:0:0:
192,192,49962,1,0,0:0:0:0:
448,192,50046,1,0,0:0:0:0:
320,192,50046,1,0,0:0:0:0:
64,192,50129,1,0,0:0:0:0:
448,192,50212,1,0,0:0:0:0:
192,192,50379,1,0,0:0:0:0:
64,192,50379,1,0,0:0:0:0:
320,192,50462,1,0,0:0:0:0:
448,192,50546,1,0,0:0:0:0:
320,192,50712,1,0,0:0:0:0:
64,192,50712,1,0,0:0:0:0:
320,192,51046,1,0,0:0:0:0:
192,192,51046,1,0,0:0:0:0:
448,192,51129,1,0,0:0:0:0:
64,192,51212,1,0,0:0:0:0:
192,192,51296,1,0,0:0:0:0:
448,192,51379,1,0,0:0:0:0:
320,192,51379,1,0,0:0:0:0:
64,192,51490,1,0,0:0:0:0:
192,192,51601,1,0,0:0:0:0:
448,192,51712,1,0,0:0:0:0:
320,192,51824,1,0,0:0:0:0:
64,192,51935,1,0,0:0:0:0:
448,192,52046,1,0,0:0:0:0:
192,192,52129,1,0,0:0:0:0:
320,192,52212,1,0,0:0:0:0:
64,192,52379,1,0,0:0:0:0:
448,192,52462,1,0,0:0:0:0:
192,192,52546,1,0,0:0:0:0:
64,192,52629,1,0,0:0:0:0:
320,192,52712,1,0,0:0:0:0:
192,192,52879,1,0,0:0:0:0:
448,192,53046,1,0,0:0:0:0:
64,192,53212,1,0,0:0:0:0:
192,192,53296,1,0,0:0:0:0:
320,192,53379,1,0,0:0:0:0:
192,192,53546,1,0,0:0:0:0:
64,192,53629,1,0,0:0:0:0:
448,192,53712,1,0,0:0:0:0:
320,192,53796,1,0,0:0:0:0:
64,192,53879,1,0,0:0:0:0:
192,192,53962,1,0,0:0:0:0:
448,192,54046,1,0,0:0:0:0:
320,192,54046,1,0,0:0:0:0:
192,192,54379,1,0,0:0:0:0:
64,192,54546,1,0,0:0:0:0:
448,192,54712,1,0,0:0:0:0:
320,192,55712,1,0,0:0:0:0:
192,192,56046,1,0,0:0:0:0:
64,192,56379,1,0,0:0:0:0:
320,192,56712,1,0,0:0:0:0:
448,192,57046,1,0,0:0:0:0:
320,192,57212,1,0,0:0:0:0:
192,192,57379,1,0,0:0:0:0:
64,192,57879,1,0,0:0:0:0:
192,192,57962,1,0,0:0:0:0:
448,192,58046,1,0,0:0:0:0:
320,192,58046,1,0,0:0:0:0:
192,192,58212,1,0,0:0:0:0:
320,192,58296,1,0,0:0:0:0:
448,192,58379,1,0,0:0:0:0:
64,192,58379,1,0,0:0:0:0:
320,192,58546,1,0,0:0:0:0:
448,192,58629,1,0,0:0:0:0:
192,192,58712,1,0,0:0:0:0:
64,192,58712,1,0,0:0:0:0:
320,192,58879,1,0,0:0:0:0:
192,192,58962,1,0,0:0:0:0:
448,192,59046,1,0,0:0:0:0:
320,192,59129,1,0,0:0:0:0:
64,192,59212,1,0,0:0:0:0:
192,192,59296,1,0,0:0:0:0:
448,192,59379,1,0,0:0:0:0:
320,192,59379,1,0,0:0:0:0:
448,192,60379,1,0,0:0:0:0:
320,192,60546,1,0,0:0:0:0:
192,192,60712,1,0,0:0:0:0:
64,192,60712,1,0,0:0:0:0:
320,192,61046,1,0,0:0:0:0:
192,192,61379,1,0,0:0:0:0:
64,192,61712,1,0,0:0:0:0:
192,192,61879,1,0,0:0:0:0:
448,192,62046,1,0,0:0:0:0:
64,192,62046,1,0,0:0:0:0:
320,192,62129,1,0,0:0:0:0:
192,192,62212,1,0,0:0:0:0:
64,192,62296,1,0,0:0:0:0:
448,192,62379,1,0,0:0:0:0:
320,192,62462,1,0,0:0:0:0:
192,192,62546,1,0,0:0:0:0:
448,192,62629,1,0,0:0:0:0:
64,192,62712,1,0,0:0:0:0:
192,192,62796,1,0,0:0:0:0:
320,192,62879,1,0,0:0:0:0:
64,192,62962,1,0,0:0:0:0:
448,192,63046,1,0,0:0:0:0:
192,192,63129,1,0,0:0:0:0:
320,192,63212,1,0,0:0:0:0:
448,192,63296,1,0,0:0:0:0:
64,192,63379,1,0,0:0:0:0:
320,192,63462,1,0,0:0:0:0:
192,192,63546,1,0,0:0:0:0:
64,192,63629,1,0,0:0:0:0:
448,192,63712,1,0,0:0:0:0:
192,192,63796,1,0,0:0:0:0:
320,192,63879,1,0,0:0:0:0:
448,192,63962,1,0,0:0:0:0:
64,192,64046,1,0,0:0:0:0:
320,192,64129,1,0,0:0:0:0:
192,192,64212,1,0,0:0:0:0:
64,192,64296,1,0,0:0:0:0:
448,192,64379,1,0,0:0:0:0:
320,192,64379,1,0,0:0:0:0:
448,192,64712,1,0,0:0:0:0:
192,192,64712,1,0,0:0:0:0:
64,192,64879,1,0,0:0:0:0:
192,192,64962,1,0,0:0:0:0:
320,192,65046,1,0,0:0:0:0:
64,192,65129,1,0,0:0:0:0:
448,192,65212,1,0,0:0:0:0:
320,192,65296,1,0,0:0:0:0:
192,192,65379,1,0,0:0:0:0:
320,192,65879,1,0,0:0:0:0:
192,192,65962,1,0,0:0:0:0:
448,192,66046,1,0,0:0:0:0:
64,192,66046,1,0,0:0:0:0:
448,192,66462,1,0,0:0:0:0:
320,192,66546,1,0,0:0:0:0:
192,192,66629,1,0,0:0:0:0:
64,192,66712,1,0,0:0:0:0:
320,192,66962,1,0,0:0:0:0:
192,192,67212,1,0,0:0:0:0:
64,192,67296,1,0,0:0:0:0:
448,192,67379,1,0,0:0:0:0:
320,192,67379,1,0,0:0:0:0:
320,192,67879,1,0,0:0:0:0:
192,192,68046,1,0,0:0:0:0:
64,192,68046,1,0,0:0:0:0:
448,192,68296,1,0,0:0:0:0:
320,192,68546,1,0,0:0:0:0:
64,192,68629,1,0,0:0:0:0:
448,192,68712,1,0,0:0:0:0:
192,192,68712,1,0,0:0:0:0:
448,192,69212,1,0,0:0:0:0:
320,192,69296,1,0,0:0:0:0:
192,192,69379,1,0,0:0:0:0:
64,192,69462,1,0,0:0:0:0:
448,192,69546,1,0,0:0:0:0:
192,192,69629,1,0,0:0:0:0:
320,192,69712,1,0,0:0:0:0:
64,192,69796,1,0,0:0:0:0:
448,192,69879,1,0,0:0:0:0:
320,192,69962,1,0,0:0:0:0:
192,192,70046,1,0,0:0:0:0:
64,192,70046,1,0,0:0:0:0:
448,192,70129,1,0,0:0:0:0:
64,192,70296,1,0,0:0:0:0:
320,192,70379,1,0,0:0:0:0:
192,192,70462,1,0,0:0:0:0:
64,192,70546,1,0,0:0:0:0:
448,192,70629,1,0,0:0:0:0:
192,192,70712,1,0,0:0:0:0:
320,192,70796,1,0,0:0:0:0:
448,192,70879,1,0,0:0:0:0:
64,192,70962,1,0,0:0:0:0:
192,192,71046,1,0,0:0:0:0:
320,192,71129,1,0,0:0:0:0:
64,192,71212,1,0,0:0:0:0:
192,192,71296,1,0,0:0:0:0:
448,192,71379,1,0,0:0:0:0:
320,192,71462,1,0,0:0:0:0:
192,192,71546,1,0,0:0:0:0:
64,192,71629,1,0,0:0:0:0:
320,192,71712,1,0,0:0:0:0:
192,192,71796,1,0,0:0:0:0:
448,192,71879,1,0,0:0:0:0:
64,192,72046,1,0,0:0:0:0:
320,192,72129,1,0,0:0:0:0:
448,192,72212,1,0,0:0:0:0:
192,192,72296,1,0,0:0:0:0:
320,192,72379,1,0,0:0:0:0:
64,192,72462,1,0,0:0:0:0:
448,192,72546,1,0,0:0:0:0:
192,192,72629,1,0,0:0:0:0:
448,192,72712,1,0,0:0:0:0:
320,192,72712,1,0,0:0:0:0:
64,192,72879,1,0,0:0:0:0:
192,192,73046,1,0,0:0:0:0:
448,192,73129,1,0,0:0:0:0:
320,192,73212,1,0,0:0:0:0:
448,192,73379,1,0,0:0:0:0:
64,192,73379,1,0,0:0:0:0:
192,192,73546,1,0,0:0:0:0:
320,192,73712,1,0,0:0:0:0:
64,192,73796,1,0,0:0:0:0:
192,192,73879,1,0,0:0:0:0:
448,192,74046,1,0,0:0:0:0:
64,192,74046,1,0,0:0:0:0:
320,192,74129,1,0,0:0:0:0:
192,192,74212,1,0,0:0:0:0:
448,192,74296,1,0,0:0:0:0:
64,192,74379,1,0,0:0:0:0:
192,192,74462,1,0,0:0:0:0:
320,192,74546,1,0,0:0:0:0:
64,192,74629,1,0,0:0:0:0:
448,192,74712,1,0,0:0:0:0:
320,192,74796,1,0,0:0:0:0:
192,192,74879,1,0,0:0:0:0:
448,192,74962,1,0,0:0:0:0:
320,192,75046,1,0,0:0:0:0:
64,192,75046,1,0,0:0:0:0:
192,192,75212,1,0,0:0:0:0:
448,192,75379,1,0,0:0:0:0:
64,192,75379,1,0,0:0:0:0:
192,192,75629,1,0,0:0:0:0:
64,192,75879,1,0,0:0:0:0:
448,192,76046,1,0,0:0:0:0:
320,192,76046,1,0,0:0:0:0:
192,192,76546,1,0,0:0:0:0:
320,192,76629,1,0,0:0:0:0:
448,192,76712,1,0,0:0:0:0:
192,192,76712,1,0,0:0:0:0:
64,192,77212,1,0,0:0:0:0:
192,192,77296,1,0,0:0:0:0:
320,192,77379,1,0,0:0:0:0:
64,192,77379,1,0,0:0:0:0:
448,192,77629,1,0,0:0:0:0:
192,192,77879,1,0,0:0:0:0:
448,192,78046,1,0,0:0:0:0:
320,192,78046,1,0,0:0:0:0:
448,192,78546,1,0,0:0:0:0:
320,192,78629,1,0,0:0:0:0:
448,192,78712,1,0,0:0:0:0:
64,192,78712,1,0,0:0:0:0:
192,192,78962,1,0,0:0:0:0:
64,192,79212,1,0,0:0:0:0:
320,192,79379,1,0,0:0:0:0:
192,192,79379,1,0,0:0:0:0:
448,192,79712,1,0,0:0:0:0:
64,192,79879,1,0,0:0:0:0:
320,192,79962,1,0,0:0:0:0:
192,192,80046,1,0,0:0:0:0:
64,192,80046,1,0,0:0:0:0:
448,192,80296,1,0,0:0:0:0:
320,192,80379,1,0,0:0:0:0:
192,192,80546,1,0,0:0:0:0:
64,192,80629,1,0,0:0:0:0:
448,192,80712,1,0,0:0:0:0:
192,192,80712,1,0,0:0:0:0:
320,192,80962,1,0,0:0:0:0:
64,192,81046,1,0,0:0:0:0:
192,192,81212,1,0,0:0:0:0:
448,192,81379,1,0,0:0:0:0:
64,192,81379,1,0,0:0:0:0:
320,192,81712,1,0,0:0:0:0:
192,192,81879,1,0,0:0:0:0:
448,192,81962,1,0,0:0:0:0:
320,192,82046,1,0,0:0:0:0:
192,192,82046,1,0,0:0:0:0:
64,192,82379,1,0,0:0:0:0:
448,192,82546,1,0,0:0:0:0:
320,192,82629,1,0,0:0:0:0:
448,192,82712,1,0,0:0:0:0:
192,192,82712,1,0,0:0:0:0:
320,192,82962,1,0,0:0:0:0:
64,192,83046,1,0,0:0:0:0:
192,192,83212,1,0,0:0:0:0:
448,192,83296,1,0,0:0:0:0:
320,192,83379,1,0,0:0:0:0:
64,192,83379,1,0,0:0:0:0:
448,192,83712,1,0,0:0:0:0:
192,192,83879,1,0,0:0:0:0:
64,192,83962,1,0,0:0:0:0:
320,192,84046,1,0,0:0:0:0:
192,192,84046,1,0,0:0:0:0:
64,192,84296,1,0,0:0:0:0:
448,192,84379,1,0,0:0:0:0:
320,192,84546,1,0,0:0:0:0:
192,192,84712,1,0,0:0:0:0:
64,192,84712,1,0,0:0:0:0:
448,192,84879,1,0,0:0:0:0:
320,192,84879,1,0,0:0:0:0:
192,192,85046,1,0,0:0:0:0:
64,192,85046,1,0,0:0:0:0:
448,192,85212,1,0,0:0:0:0:
320,192,85212,1,0,0:0:0:0:
64,192,85379,1,0,0:0:0:0:
192,192,85462,1,0,0:0:0:0:
448,192,85546,1,0,0:0:0:0:
320,192,85629,1,0,0:0:0:0:
64,192,85712,1,0,0:0:0:0:
192,192,85796,1,0,0:0:0:0:
448,192,85879,1,0,0:0:0:0:
320,192,85962,1,0,0:0:0:0:
192,192,86046,1,0,0:0:0:0:
64,192,86046,1,0,0:0:0:0:
448,192,86379,1,0,0:0:0:0:
448,192,86712,1,0,0:0:0:0:
320,192,87046,1,0,0:0:0:0:
192,192,87046,1,0,0:0:0:0:
448,192,87379,1,0,0:0:0:0:
64,192,87379,1,0,0:0:0:0:
192,192,87462,1,0,0:0:0:0:
320,192,87546,1,0,0:0:0:0:
448,192,87629,1,0,0:0:0:0:
64,192,87712,1,0,0:0:0:0:
320,192,87796,1,0,0:0:0:0:
192,192,87879,1,0,0:0:0:0:
448,192,87962,1,0,0:0:0:0:
320,192,88046,1,0,0:0:0:0:
64,192,88129,1,0,0:0:0:0:
448,192,88212,1,0,0:0:0:0:
192,192,88296,1,0,0:0:0:0:
320,192,88379,1,0,0:0:0:0:
64,192,88462,1,0,0:0:0:0:
448,192,88546,1,0,0:0:0:0:
320,192,88629,1,0,0:0:0:0:
192,192,88712,1,0,0:0:0:0:
448,192,89129,1,0,0:0:0:0:
320,192,89212,1,0,0:0:0:0:
192,192,89296,1,0,0:0:0:0:
64,192,89379,1,0,0:0:0:0:
448,192,89462,1,0,0:0:0:0:
192,192,89546,1,0,0:0:0:0:
320,192,89629,1,0,0:0:0:0:
64,192,89712,1,0,0:0:0:0:
192,192,89796,1,0,0:0:0:0:
448,192,89879,1,0,0:0:0:0:
320,192,89962,1,0,0:0:0:0:
64,192,90046,1,0,0:0:0:0:
448,192,90212,1,0,0:0:0:0:
320,192,90296,1,0,0:0:0:0:
192,192,90379,1,0,0:0:0:0:
448,192,90462,1,0,0:0:0:0:
64,192,90546,1,0,0:0:0:0:
192,192,90629,1,0,0:0:0:0:
320,192,90712,1,0,0:0:0:0:
64,192,90796,1,0,0:0:0:0:
448,192,90879,1,0,0:0:0:0:
192,192,90962,1,0,0:0:0:0:
320,192,91046,1,0,0:0:0:0:
64,192,91129,1,0,0:0:0:0:
448,192,91212,1,0,0:0:0:0:
320,192,91546,1,0,0:0:0:0:
192,192,91712,1,0,0:0:0:0:
448,192,91768,1,0,0:0:0:0:
64,192,91879,1,0,0:0:0:0:
320,192,91962,1,0,0:0:0:0:
192,192,92046,1,0,0:0:0:0:
448,192,92129,1,0,0:0:0:0:
64,192,92212,1,0,0:0:0:0:
192,192,92296,1,0,0:0:0:0:
320,192,92379,1,0,0:0:0:0:
64,192,92462,1,0,0:0:0:0:
448,192,92546,1,0,0:0:0:0:
320,192,92629,1,0,0:0:0:0:
192,192,92712,1,0,0:0:0:0:
448,192,92879,1,0,0:0:0:0:
320,192,92962,1,0,0:0:0:0:
64,192,93046,1,0,0:0:0:0:
448,192,93129,1,0,0:0:0:0:
192,192,93212,1,0,0:0:0:0:
320,192,93296,1,0,0:0:0:0:
64,192,93379,1,0,0:0:0:0:
192,192,93462,1,0,0:0:0:0:
448,192,93546,1,0,0:0:0:0:
320,192,93629,1,0,0:0:0:0:
64,192,93712,1,0,0:0:0:0:
448,192,93796,1,0,0:0:0:0:
192,192,93879,1,0,0:0:0:0:
320,192,93962,1,0,0:0:0:0:
448,192,94046,1,0,0:0:0:0:
192,192,94212,1,0,0:0:0:0:
320,192,94296,1,0,0:0:0:0:
64,192,94379,1,0,0:0:0:0:
448,192,94462,1,0,0:0:0:0:
192,192,94546,1,0,0:0:0:0:
320,192,94629,1,0,0:0:0:0:
64,192,94712,1,0,0:0:0:0:
192,192,94796,1,0,0:0:0:0:
448,192,94879,1,0,0:0:0:0:
64,192,94962,1,0,0:0:0:0:
320,192,95046,1,0,0:0:0:0:
192,192,95129,1,0,0:0:0:0:
448,192,95212,1,0,0:0:0:0:
64,192,95379,1,0,0:0:0:0:
192,192,95462,1,0,0:0:0:0:
448,192,95546,1,0,0:0:0:0:
320,192,95629,1,0,0:0:0:0:
64,192,95712,1,0,0:0:0:0:
192,192,95879,1,0,0:0:0:0:
320,192,95962,1,0,0:0:0:0:
64,192,96046,1,0,0:0:0:0:
448,192,96212,1,0,0:0:0:0:
192,192,96212,1,0,0:0:0:0:
320,192,96546,1,0,0:0:0:0:
192,192,96546,1,0,0:0:0:0:
64,192,96879,128,0,97712:0:0:0:0:
448,192,97879,1,0,0:0:0:0:
320,192,97962,1,0,0:0:0:0:
192,192,98046,1,0,0:0:0:0:
64,192,98046,1,0,0:0:0:0:
448,192,98129,1,0,0:0:0:0:
64,192,98212,1,0,0:0:0:0:
320,192,98296,1,0,0:0:0:0:
192,192,98379,1,0,0:0:0:0:
448,192,98462,1,0,0:0:0:0:
64,192,98546,1,0,0:0:0:0:
192,192,98629,1,0,0:0:0:0:
320,192,98712,1,0,0:0:0:0:
448,192,98796,1,0,0:0:0:0:
192,192,98879,1,0,0:0:0:0:
64,192,98962,1,0,0:0:0:0:
448,192,99046,1,0,0:0:0:0:
320,192,99129,1,0,0:0:0:0:
192,192,99212,1,0,0:0:0:0:
64,192,99296,1,0,0:0:0:0:
448,192,99379,1,0,0:0:0:0:
192,192,99462,1,0,0:0:0:0:
320,192,99546,1,0,0:0:0:0:
64,192,99629,1,0,0:0:0:0:
448,192,99712,1,0,0:0:0:0:
320,192,99796,1,0,0:0:0:0:
64,192,99879,1,0,0:0:0:0:
448,192,99962,1,0,0:0:0:0:
192,192,100046,1,0,0:0:0:0:
320,192,100212,1,0,0:0:0:0:
448,192,100296,1,0,0:0:0:0:
64,192,100379,1,0,0:0:0:0:
320,192,100546,1,0,0:0:0:0:
64,192,100629,1,0,0:0:0:0:
192,192,100712,1,0,0:0:0:0:
448,192,100879,1,0,0:0:0:0:
320,192,100962,1,0,0:0:0:0:
64,192,101046,1,0,0:0:0:0:
192,192,101157,1,0,0:0:0:0:
320,192,101268,1,0,0:0:0:0:
448,192,101379,1,0,0:0:0:0:
192,192,101546,1,0,0:0:0:0:
64,192,101629,1,0,0:0:0:0:
320,192,101712,1,0,0:0:0:0:
448,192,101824,1,0,0:0:0:0:
64,192,101935,1,0,0:0:0:0:
192,192,102046,1,0,0:0:0:0:
448,192,102212,1,0,0:0:0:0:
320,192,102268,1,0,0:0:0:0:
64,192,102379,1,0,0:0:0:0:
192,192,102462,1,0,0:0:0:0:
448,192,102546,1,0,0:0:0:0:
64,192,102629,1,0,0:0:0:0:
320,192,102712,1,0,0:0:0:0:
448,192,102796,1,0,0:0:0:0:
192,192,102879,1,0,0:0:0:0:
64,192,102962,1,0,0:0:0:0:
320,192,103046,1,0,0:0:0:0:
192,192,103129,1,0,0:0:0:0:
448,192,103212,1,0,0:0:0:0:
64,192,103296,1,0,0:0:0:0:
320,192,103379,1,0,0:0:0:0:
192,192,103379,1,0,0:0:0:0:
448,192,103546,1,0,0:0:0:0:
192,192,103712,1,0,0:0:0:0:
64,192,103712,1,0,0:0:0:0:
320,192,103879,1,0,0:0:0:0:
448,192,104046,1,0,0:0:0:0:
64,192,104046,1,0,0:0:0:0:
192,192,104212,1,0,0:0:0:0:
448,192,104379,1,0,0:0:0:0:
320,192,104379,1,0,0:0:0:0:
64,192,104546,1,0,0:0:0:0:
320,192,104712,1,0,0:0:0:0:
192,192,104712,1,0,0:0:0:0:
64,192,104879,1,0,0:0:0:0:
448,192,105046,1,0,0:0:0:0:
320,192,105046,1,0,0:0:0:0:
192,192,105212,1,0,0:0:0:0:
448,192,105379,1,0,0:0:0:0:
64,192,105379,1,0,0:0:0:0:
320,192,105546,1,0,0:0:0:0:
192,192,105629,1,0,0:0:0:0:
64,192,105712,1,0,0:0:0:0:
448,192,105796,1,0,0:0:0:0:
192,192,105879,1,0,0:0:0:0:
320,192,105962,1,0,0:0:0:0:
448,192,106046,1,0,0:0:0:0:
64,192,106046,1,0,0:0:0:0:
192,192,106157,1,0,0:0:0:0:
320,192,106268,1,0,0:0:0:0:
64,192,106379,1,0,0:0:0:0:
192,192,106490,1,0,0:0:0:0:
448,192,106601,1,0,0:0:0:0:
64,192,106712,1,0,0:0:0:0:
320,192,106824,1,0,0:0:0:0:
448,192,106935,1,0,0:0:0:0:
192,192,107046,1,0,0:0:0:0:
320,192,107157,1,0,0:0:0:0:
448,192,107268,1,0,0:0:0:0:
192,192,107379,1,0,0:0:0:0:
64,192,107379,1,0,0:0:0:0:
320,192,107490,1,0,0:0:0:0:
64,192,107601,1,0,0:0:0:0:
448,192,107712,1,0,0:0:0:0:
192,192,107824,1,0,0:0:0:0:
320,192,107935,1,0,0:0:0:0:
448,192,108046,1,0,0:0:0:0:
192,192,108212,1,0,0:0:0:0:
64,192,108296,1,0,0:0:0:0:
320,192,108379,1,0,0:0:0:0:
192,192,108490,1,0,0:0:0:0:
448,192,108601,1,0,0:0:0:0:
320,192,108712,1,0,0:0:0:0:
64,192,108712,1,0,0:0:0:0:
192,192,108796,1,0,0:0:0:0:
448,192,108962,1,0,0:0:0:0:
192,192,109129,1,0,0:0:0:0:
448,192,109296,1,0,0:0:0:0:
64,192,109462,1,0,0:0:0:0:
320,192,109629,1,0,0:0:0:0:
64,192,109796,1,0,0:0:0:0:
320,192,109962,1,0,0:0:0:0:
192,192,110046,1,0,0:0:0:0:
448,192,110129,1,0,0:0:0:0:
64,192,110296,1,0,0:0:0:0:
448,192,110462,1,0,0:0:0:0:
64,192,110629,1,0,0:0:0:0:
320,192,110712,1,0,0:0:0:0:
192,192,110879,1,0,0:0:0:0:
320,192,111046,1,0,0:0:0:0:
192,192,111212,1,0,0:0:0:0:
448,192,111379,1,0,0:0:0:0:
64,192,111379,1,0,0:0:0:0:
320,192,111462,1,0,0:0:0:0:
192,192,111629,1,0,0:0:0:0:
320,192,111796,1,0,0:0:0:0:
192,192,111962,1,0,0:0:0:0:
448,192,112129,1,0,0:0:0:0:
64,192,112296,1,0,0:0:0:0:
448,192,112462,1,0,0:0:0:0:
64,192,112629,1,0,0:0:0:0:
320,192,112712,1,0,0:0:0:0:
192,192,112796,1,0,0:0:0:0:
448,192,112962,1,0,0:0:0:0:
192,192,113129,1,0,0:0:0:0:
448,192,113296,1,0,0:0:0:0:
192,192,113379,1,0,0:0:0:0:
64,192,113379,1,0,0:0:0:0:
448,192,113546,1,0,0:0:0:0:
320,192,113546,1,0,0:0:0:0:
192,192,113712,1,0,0:0:0:0:
64,192,113712,1,0,0:0:0:0:
448,192,113879,1,0,0:0:0:0:
320,192,113879,1,0,0:0:0:0:
64,192,114046,1,0,0:0:0:0:
320,192,114212,1,0,0:0:0:0:
192,192,114296,1,0,0:0:0:0:
448,192,114379,1,0,0:0:0:0:
64,192,114490,1,0,0:0:0:0:
192,192,114601,1,0,0:0:0:0:
320,192,114712,1,0,0:0:0:0:
64,192,114824,1,0,0:0:0:0:
448,192,114935,1,0,0:0:0:0:
192,192,115046,1,0,0:0:0:0:
320,192,115157,1,0,0:0:0:0:
64,192,115268,1,0,0:0:0:0:
448,192,115379,1,0,0:0:0:0:
192,192,115379,1,0,0:0:0:0:
320,192,115546,1,0,0:0:0:0:
192,192,115712,1,0,0:0:0:0:
320,192,115879,1,0,0:0:0:0:
64,192,116046,1,0,0:0:0:0:
192,192,116129,1,0,0:0:0:0:
448,192,116212,1,0,0:0:0:0:
320,192,116296,1,0,0:0:0:0:
64,192,116379,1,0,0:0:0:0:
192,192,116462,1,0,0:0:0:0:
448,192,116546,1,0,0:0:0:0:
320,192,116629,1,0,0:0:0:0:
192,192,116712,1,0,0:0:0:0:
64,192,116712,1,0,0:0:0:0:
448,192,116796,1,0,0:0:0:0:
64,192,116962,1,0,0:0:0:0:
448,192,117129,1,0,0:0:0:0:
64,192,117296,1,0,0:0:0:0:
320,192,117462,1,0,0:0:0:0:
192,192,117629,1,0,0:0:0:0:
320,192,117796,1,0,0:0:0:0:
192,192,117962,1,0,0:0:0:0:
448,192,118046,1,0,0:0:0:0:
320,192,118129,1,0,0:0:0:0:
448,192,118296,1,0,0:0:0:0:
320,192,118462,1,0,0:0:0:0:
448,192,118629,1,0,0:0:0:0:
192,192,118879,1,0,0:0:0:0:
64,192,118879,1,0,0:0:0:0:
192,192,119046,1,0,0:0:0:0:
64,192,119046,1,0,0:0:0:0:
192,192,119212,1,0,0:0:0:0:
64,192,119212,1,0,0:0:0:0:
320,192,119379,1,0,0:0:0:0:
448,192,119712,1,0,0:0:0:0:
64,192,119712,1,0,0:0:0:0:
