osu file format v14

[General]
AudioFilename: 09 A Man In The Mirror.mp3
AudioLeadIn: 0
PreviewTime: 87046
Countdown: 0
SampleSet: Soft
StackLeniency: 0.7
Mode: 3
LetterboxInBreaks: 0
SpecialStyle: 0
WidescreenStoryboard: 0

[Editor]
DistanceSpacing: 0.8
BeatDivisor: 4
GridSize: 32
TimelineZoom: 1

[Metadata]
Title:A Man In The Mirror
TitleUnicode:A Man In The Mirror
Artist:orangentle
ArtistUnicode:orangentle
Creator:AutotelicBrown
Version:CISAB
Source:オンゲキ SUMMER
Tags:HAELEQUIN Yu_Asahina アサヒナユウ O.N.G.E.K.I. ONGEKI Sound Collection 03 『Splash Dance!!』 柏木咲姫 Saki Kashiwagi セガ SEGA KADOKAWA ZMCZ-13953 Dissociative Identity Disorder Electronic Arcade Video Game Instrumental featured artist fa Toy Piano Baby Alice
BeatmapID:3578442
BeatmapSetID:1749282

[Difficulty]
HPDrainRate:7
CircleSize:4
OverallDifficulty:7
ApproachRate:5
SliderMultiplier:1.4
SliderTickRate:1

[Events]
//Background and Video events
0,0,"bg.png",0,0
//Break Periods
//Storyboard Layer 0 (Background)
//Storyboard Layer 1 (Fail)
//Storyboard Layer 2 (Pass)
//Storyboard Layer 3 (Foreground)
//Storyboard Layer 4 (Overlay)
//Storyboard Sound Samples

[TimingPoints]
713,333.333333,4,2,1,60,1,0
87379,-100,4,2,1,60,0,1
108712,-100,4,2,1,60,0,0

[HitObjects]
192,192,713,5,0,0:0:0:0:
64,192,713,1,0,0:0:0:0:
320,192,1212,1,0,0:0:0:0:
64,192,1712,1,0,0:0:0:0:
448,192,1879,1,0,0:0:0:0:
192,192,2212,1,0,0:0:0:0:
448,192,2712,1,0,0:0:0:0:
192,192,3046,1,0,0:0:0:0:
320,192,3379,1,0,0:0:0:0:
64,192,3879,1,0,0:0:0:0:
320,192,4379,1,0,0:0:0:0:
192,192,4546,1,0,0:0:0:0:
448,192,4879,1,0,0:0:0:0:
192,192,5379,1,0,0:0:0:0:
320,192,5629,1,0,0:0:0:0:
64,192,5879,1,0,0:0:0:0:
448,192,6046,1,0,0:0:0:0:
192,192,6046,1,0,0:0:0:0:
320,192,6212,1,0,0:0:0:0:
64,192,6546,1,0,0:0:0:0:
320,192,6879,1,0,0:0:0:0:
192,192,7046,1,0,0:0:0:0:
448,192,7212,1,0,0:0:0:0:
64,192,7546,1,0,0:0:0:0:
192,192,7712,1,0,0:0:0:0:
320,192,8046,1,0,0:0:0:0:
64,192,8296,1,0,0:0:0:0:
192,192,8546,1,0,0:0:0:0:
320,192,8712,1,0,0:0:0:0:
64,192,8879,1,0,0:0:0:0:
448,192,9212,1,0,0:0:0:0:
192,192,9546,1,0,0:0:0:0:
320,192,9712,1,0,0:0:0:0:
448,192,9879,1,0,0:0:0:0:
64,192,9879,1,0,0:0:0:0:
192,192,10212,1,0,0:0:0:0:
320,192,10546,1,0,0:0:0:0:
192,192,10879,1,0,0:0:0:0:
64,192,11212,1,0,0:0:0:0:
448,192,11379,1,0,0:0:0:0:
320,192,11379,1,0,0:0:0:0:
448,192,12546,1,0,0:0:0:0:
320,192,12712,1,0,0:0:0:0:
192,192,12712,1,0,0:0:0:0:
320,192,13879,1,0,0:0:0:0:
192,192,14046,1,0,0:0:0:0:
64,192,14046,1,0,0:0:0:0:
448,192,15379,1,0,0:0:0:0:
64,192,15379,1,0,0:0:0:0:
320,192,16212,1,0,0:0:0:0:
64,192,16379,1,0,0:0:0:0:
192,192,16546,1,0,0:0:0:0:
448,192,16712,1,0,0:0:0:0:
320,192,16712,1,0,0:0:0:0:
64,192,17046,1,0,0:0:0:0:
320,192,17379,1,0,0:0:0:0:
192,192,17712,1,0,0:0:0:0:
448,192,18046,1,0,0:0:0:0:
64,192,18379,1,0,0:0:0:0:
192,192,18712,1,0,0:0:0:0:
448,192,19046,1,0,0:0:0:0:
320,192,19379,1,0,0:0:0:0:
64,192,19712,1,0,0:0:0:0:
448,192,20046,1,0,0:0:0:0:
192,192,20379,1,0,0:0:0:0:
320,192,20712,1,0,0:0:0:0:
64,192,21046,1,0,0:0:0:0:
192,192,21379,1,0,0:0:0:0:
320,192,21712,1,0,0:0:0:0:
64,192,21879,1,0,0:0:0:0:
448,192,22046,1,0,0:0:0:0:
192,192,22046,1,0,0:0:0:0:
64,192,22379,1,0,0:0:0:0:
448,192,22712,1,0,0:0:0:0:
192,192,23046,1,0,0:0:0:0:
320,192,23379,1,0,0:0:0:0:
64,192,23712,1,0,0:0:0:0:
448,192,24046,1,0,0:0:0:0:
64,192,24379,1,0,0:0:0:0:
192,192,24712,1,0,0:0:0:0:
320,192,25046,1,0,0:0:0:0:
448,192,25379,1,0,0:0:0:0:
192,192,25712,1,0,0:0:0:0:
320,192,26046,1,0,0:0:0:0:
448,192,26379,1,0,0:0:0:0:
192,192,26712,1,0,0:0:0:0:
64,192,27046,1,0,0:0:0:0:
448,192,27212,1,0,0:0:0:0:
320,192,27379,1,0,0:0:0:0:
192,192,27379,1,0,0:0:0:0:
448,192,28046,1,0,0:0:0:0:
64,192,28712,1,0,0:0:0:0:
320,192,29379,1,0,0:0:0:0:
64,192,29546,1,0,0:0:0:0:
192,192,29712,1,0,0:0:0:0:
448,192,29879,1,0,0:0:0:0:
320,192,30046,1,0,0:0:0:0:
64,192,30712,1,0,0:0:0:0:
448,192,31379,1,0,0:0:0:0:
64,192,31712,1,0,0:0:0:0:
320,192,32046,1,0,0:0:0:0:
64,192,32212,1,0,0:0:0:0:
192,192,32379,1,0,0:0:0:0:
448,192,32546,1,0,0:0:0:0:
320,192,32712,1,0,0:0:0:0:
192,192,32712,1,0,0:0:0:0:
64,192,33212,1,0,0:0:0:0:
192,192,33379,1,0,0:0:0:0:
448,192,33546,1,0,0:0:0:0:
320,192,33712,1,0,0:0:0:0:
192,192,33879,1,0,0:0:0:0:
64,192,34046,1,0,0:0:0:0:
448,192,34546,1,0,0:0:0:0:
320,192,34712,1,0,0:0:0:0:
64,192,34879,1,0,0:0:0:0:
192,192,35046,1,0,0:0:0:0:
320,192,35212,1,0,0:0:0:0:
448,192,35379,1,0,0:0:0:0:
192,192,35879,1,0,0:0:0:0:
320,192,36046,1,0,0:0:0:0:
64,192,36379,1,0,0:0:0:0:
448,192,36712,1,0,0:0:0:0:
192,192,38046,1,0,0:0:0:0:
448,192,38212,1,0,0:0:0:0:
64,192,38379,1,0,0:0:0:0:
320,192,38546,1,0,0:0:0:0:
448,192,39046,1,0,0:0:0:0:
64,192,39379,1,0,0:0:0:0:
320,192,39546,1,0,0:0:0:0:
192,192,39712,1,0,0:0:0:0:
448,192,39879,1,0,0:0:0:0:
320,192,40546,1,0,0:0:0:0:
192,192,40712,1,0,0:0:0:0:
448,192,41046,1,0,0:0:0:0:
320,192,41379,1,0,0:0:0:0:
64,192,41546,1,0,0:0:0:0:
192,192,41712,1,0,0:0:0:0:
448,192,41879,1,0,0:0:0:0:
320,192,42046,1,0,0:0:0:0:
192,192,42379,1,0,0:0:0:0:
64,192,42379,1,0,0:0:0:0:
64,192,43129,1,0,0:0:0:0:
448,192,43379,1,0,0:0:0:0:
320,192,43379,1,0,0:0:0:0:
64,192,43796,1,0,0:0:0:0:
448,192,44046,1,0,0:0:0:0:
192,192,44212,1,0,0:0:0:0:
320,192,44379,1,0,0:0:0:0:
64,192,44546,1,0,0:0:0:0:
192,192,44712,1,0,0:0:0:0:
320,192,45212,1,0,0:0:0:0:
64,192,45712,1,0,0:0:0:0:
192,192,46046,1,0,0:0:0:0:
320,192,46212,1,0,0:0:0:0:
64,192,46379,1,0,0:0:0:0:
448,192,46546,1,0,0:0:0:0:
192,192,46712,1,0,0:0:0:0:
320,192,47046,1,0,0:0:0:0:
64,192,47212,1,0,0:0:0:0:
448,192,47379,1,0,0:0:0:0:
192,192,47379,1,0,0:0:0:0:
64,192,47712,1,0,0:0:0:0:
320,192,48046,1,0,0:0:0:0:
192,192,48379,1,0,0:0:0:0:
448,192,48546,1,0,0:0:0:0:
320,192,48712,1,0,0:0:0:0:
64,192,49046,1,0,0:0:0:0:
192,192,49212,1,0,0:0:0:0:
448,192,49379,1,0,0:0:0:0:
192,192,49712,1,0,0:0:0:0:
64,192,49879,1,0,0:0:0:0:
448,192,50046,1,0,0:0:0:0:
320,192,50046,1,0,0:0:0:0:
192,192,50379,1,0,0:0:0:0:
64,192,50379,1,0,0:0:0:0:
448,192,50712,1,0,0:0:0:0:
320,192,50712,1,0,0:0:0:0:
64,192,51046,1,0,0:0:0:0:
192,192,51212,1,0,0:0:0:0:
320,192,51379,1,0,0:0:0:0:
192,192,52046,1,0,0:0:0:0:
320,192,52379,1,0,0:0:0:0:
64,192,52712,1,0,0:0:0:0:
448,192,52879,1,0,0:0:0:0:
192,192,53046,1,0,0:0:0:0:
320,192,53212,1,0,0:0:0:0:
64,192,53546,1,0,0:0:0:0:
192,192,53712,1,0,0:0:0:0:
448,192,53879,1,0,0:0:0:0:
320,192,54046,1,0,0:0:0:0:
64,192,54046,1,0,0:0:0:0:
192,192,54379,1,0,0:0:0:0:
64,192,54546,1,0,0:0:0:0:
448,192,54712,1,0,0:0:0:0:
320,192,55712,1,0,0:0:0:0:
192,192,56046,1,0,0:0:0:0:
64,192,56379,1,0,0:0:0:0:
320,192,56712,1,0,0:0:0:0:
448,192,57046,1,0,0:0:0:0:
320,192,57212,1,0,0:0:0:0:
192,192,57379,1,0,0:0:0:0:
64,192,57879,1,0,0:0:0:0:
320,192,58046,1,0,0:0:0:0:
192,192,58379,1,0,0:0:0:0:
448,192,58712,1,0,0:0:0:0:
64,192,59046,1,0,0:0:0:0:
320,192,59379,1,0,0:0:0:0:
192,192,59379,1,0,0:0:0:0:
448,192,60379,1,0,0:0:0:0:
320,192,60546,1,0,0:0:0:0:
192,192,60712,1,0,0:0:0:0:
64,192,60712,1,0,0:0:0:0:
448,192,61046,1,0,0:0:0:0:
320,192,61379,1,0,0:0:0:0:
192,192,61712,1,0,0:0:0:0:
448,192,61879,1,0,0:0:0:0:
320,192,62046,1,0,0:0:0:0:
64,192,62046,1,0,0:0:0:0:
448,192,62712,1,0,0:0:0:0:
192,192,62712,1,0,0:0:0:0:
320,192,63379,1,0,0:0:0:0:
64,192,63379,1,0,0:0:0:0:
448,192,63712,1,0,0:0:0:0:
192,192,64046,1,0,0:0:0:0:
64,192,64046,1,0,0:0:0:0:
448,192,64379,1,0,0:0:0:0:
64,192,64379,1,0,0:0:0:0:
320,192,64712,1,0,0:0:0:0:
192,192,64712,1,0,0:0:0:0:
64,192,64879,1,0,0:0:0:0:
448,192,65046,1,0,0:0:0:0:
320,192,65212,1,0,0:0:0:0:
64,192,65379,1,0,0:0:0:0:
192,192,65879,1,0,0:0:0:0:
320,192,66046,1,0,0:0:0:0:
64,192,66462,1,0,0:0:0:0:
320,192,66712,1,0,0:0:0:0:
192,192,66962,1,0,0:0:0:0:
448,192,67212,1,0,0:0:0:0:
64,192,67379,1,0,0:0:0:0:
320,192,67879,1,0,0:0:0:0:
192,192,68046,1,0,0:0:0:0:
448,192,68296,1,0,0:0:0:0:
64,192,68546,1,0,0:0:0:0:
192,192,68712,1,0,0:0:0:0:
320,192,69212,1,0,0:0:0:0:
448,192,69379,1,0,0:0:0:0:
192,192,69546,1,0,0:0:0:0:
64,192,69712,1,0,0:0:0:0:
448,192,69879,1,0,0:0:0:0:
320,192,70046,1,0,0:0:0:0:
192,192,70046,1,0,0:0:0:0:
64,192,71712,1,0,0:0:0:0:
192,192,72046,1,0,0:0:0:0:
448,192,72379,1,0,0:0:0:0:
320,192,72546,1,0,0:0:0:0:
192,192,72712,1,0,0:0:0:0:
64,192,72712,1,0,0:0:0:0:
448,192,73379,1,0,0:0:0:0:
320,192,73379,1,0,0:0:0:0:
320,192,74046,1,0,0:0:0:0:
192,192,74046,1,0,0:0:0:0:
448,192,74712,1,0,0:0:0:0:
64,192,74712,1,0,0:0:0:0:
192,192,75046,1,0,0:0:0:0:
448,192,75212,1,0,0:0:0:0:
320,192,75379,1,0,0:0:0:0:
64,192,75379,1,0,0:0:0:0:
192,192,75629,1,0,0:0:0:0:
64,192,75879,1,0,0:0:0:0:
448,192,76046,1,0,0:0:0:0:
192,192,76546,1,0,0:0:0:0:
320,192,76712,1,0,0:0:0:0:
448,192,77212,1,0,0:0:0:0:
320,192,77379,1,0,0:0:0:0:
64,192,77629,1,0,0:0:0:0:
192,192,77879,1,0,0:0:0:0:
448,192,78046,1,0,0:0:0:0:
64,192,78546,1,0,0:0:0:0:
192,192,78712,1,0,0:0:0:0:
448,192,78962,1,0,0:0:0:0:
320,192,79212,1,0,0:0:0:0:
64,192,79379,1,0,0:0:0:0:
320,192,79879,1,0,0:0:0:0:
192,192,80046,1,0,0:0:0:0:
64,192,80546,1,0,0:0:0:0:
448,192,80712,1,0,0:0:0:0:
192,192,80712,1,0,0:0:0:0:
320,192,80962,1,0,0:0:0:0:
64,192,81212,1,0,0:0:0:0:
448,192,81379,1,0,0:0:0:0:
320,192,81879,1,0,0:0:0:0:
64,192,82046,1,0,0:0:0:0:
192,192,82546,1,0,0:0:0:0:
64,192,82712,1,0,0:0:0:0:
320,192,82962,1,0,0:0:0:0:
192,192,83212,1,0,0:0:0:0:
448,192,83379,1,0,0:0:0:0:
320,192,83879,1,0,0:0:0:0:
448,192,84046,1,0,0:0:0:0:
192,192,84296,1,0,0:0:0:0:
64,192,84546,1,0,0:0:0:0:
448,192,84712,1,0,0:0:0:0:
320,192,84712,1,0,0:0:0:0:
192,192,85046,1,0,0:0:0:0:
64,192,85046,1,0,0:0:0:0:
448,192,85379,1,0,0:0:0:0:
320,192,85546,1,0,0:0:0:0:
64,192,85712,1,0,0:0:0:0:
192,192,85879,1,0,0:0:0:0:
448,192,86046,1,0,0:0:0:0:
320,192,86046,1,0,0:0:0:0:
64,192,86379,1,0,0:0:0:0:
192,192,86712,1,0,0:0:0:0:
448,192,87046,1,0,0:0:0:0:
320,192,87379,1,0,0:0:0:0:
64,192,87379,1,0,0:0:0:0:
192,192,87712,1,0,0:0:0:0:
320,192,88046,1,0,0:0:0:0:
448,192,88379,1,0,0:0:0:0:
320,192,88712,1,0,0:0:0:0:
192,192,88712,1,0,0:0:0:0:
64,192,89046,1,0,0:0:0:0:
448,192,89379,1,0,0:0:0:0:
320,192,89712,1,0,0:0:0:0:
192,192,90046,1,0,0:0:0:0:
64,192,90046,1,0,0:0:0:0:
448,192,90379,1,0,0:0:0:0:
64,192,90712,1,0,0:0:0:0:
320,192,91046,1,0,0:0:0:0:
192,192,91379,1,0,0:0:0:0:
448,192,91712,1,0,0:0:0:0:
64,192,92046,1,0,0:0:0:0:
320,192,92379,1,0,0:0:0:0:
448,192,92712,1,0,0:0:0:0:
192,192,92712,1,0,0:0:0:0:
64,192,93046,1,0,0:0:0:0:
448,192,93379,1,0,0:0:0:0:
192,192,93712,1,0,0:0:0:0:
320,192,94046,1,0,0:0:0:0:
64,192,94046,1,0,0:0:0:0:
448,192,94379,1,0,0:0:0:0:
192,192,94712,1,0,0:0:0:0:
320,192,95046,1,0,0:0:0:0:
448,192,95379,1,0,0:0:0:0:
64,192,95379,1,0,0:0:0:0:
192,192,95712,1,0,0:0:0:0:
320,192,95879,1,0,0:0:0:0:
192,192,96212,1,0,0:0:0:0:
64,192,96212,1,0,0:0:0:0:
448,192,96546,1,0,0:0:0:0:
320,192,96546,1,0,0:0:0:0:
64,192,96879,1,0,0:0:0:0:
192,192,97046,1,0,0:0:0:0:
320,192,97379,1,0,0:0:0:0:
64,192,97712,1,0,0:0:0:0:
448,192,97879,1,0,0:0:0:0:
320,192,98046,1,0,0:0:0:0:
192,192,98046,1,0,0:0:0:0:
64,192,98379,1,0,0:0:0:0:
192,192,98712,1,0,0:0:0:0:
320,192,99046,1,0,0:0:0:0:
192,192,99379,1,0,0:0:0:0:
64,192,99379,1,0,0:0:0:0:
448,192,99712,1,0,0:0:0:0:
320,192,100046,1,0,0:0:0:0:
64,192,100379,1,0,0:0:0:0:
448,192,100712,1,0,0:0:0:0:
192,192,100712,1,0,0:0:0:0:
320,192,101379,1,0,0:0:0:0:
64,192,101379,1,0,0:0:0:0:
448,192,102046,1,0,0:0:0:0:
320,192,102046,1,0,0:0:0:0:
192,192,102712,1,0,0:0:0:0:
64,192,102712,1,0,0:0:0:0:
320,192,103379,1,0,0:0:0:0:
192,192,103379,1,0,0:0:0:0:
64,192,103712,1,0,0:0:0:0:
448,192,104046,1,0,0:0:0:0:
192,192,104046,1,0,0:0:0:0:
320,192,104379,1,0,0:0:0:0:
448,192,104712,1,0,0:0:0:0:
64,192,104712,1,0,0:0:0:0:
320,192,105046,1,0,0:0:0:0:
192,192,105379,1,0,0:0:0:0:
64,192,105379,1,0,0:0:0:0:
320,192,105712,1,0,0:0:0:0:
192,192,105879,1,0,0:0:0:0:
448,192,106046,1,0,0:0:0:0:
64,192,106046,1,0,0:0:0:0:
192,192,107379,1,0,0:0:0:0:
448,192,108046,1,0,0:0:0:0:
320,192,108712,1,0,0:0:0:0:
64,192,108712,1,0,0:0:0:0:
448,192,109462,1,0,0:0:0:0:
192,192,109462,1,0,0:0:0:0:
448,192,110046,1,0,0:0:0:0:
64,192,110046,1,0,0:0:0:0:
320,192,110712,1,0,0:0:0:0:
192,192,110712,1,0,0:0:0:0:
192,192,111379,1,0,0:0:0:0:
64,192,111379,1,0,0:0:0:0:
448,192,112129,1,0,0:0:0:0:
320,192,112129,1,0,0:0:0:0:
448,192,112712,1,0,0:0:0:0:
64,192,112712,1,0,0:0:0:0:
192,192,113379,1,0,0:0:0:0:
64,192,113546,1,0,0:0:0:0:
320,192,113712,1,0,0:0:0:0:
448,192,113879,1,0,0:0:0:0:
192,192,114046,1,0,0:0:0:0:
64,192,114046,1,0,0:0:0:0:
448,192,115379,1,0,0:0:0:0:
320,192,115379,1,0,0:0:0:0:
64,192,116046,1,0,0:0:0:0:
192,192,116212,1,0,0:0:0:0:
448,192,116379,1,0,0:0:0:0:
320,192,116546,1,0,0:0:0:0:
192,192,116712,1,0,0:0:0:0:
64,192,116712,1,0,0:0:0:0:
448,192,117462,1,0,0:0:0:0:
320,192,117462,1,0,0:0:0:0:
320,192,118046,1,0,0:0:0:0:
192,192,118046,1,0,0:0:0:0:
192,192,118879,1,0,0:0:0:0:
64,192,118879,1,0,0:0:0:0:
448,192,119046,1,0,0:0:0:0:
320,192,119046,1,0,0:0:0:0:
192,192,119212,1,0,0:0:0:0:
64,192,119212,1,0,0:0:0:0:
448,192,119712,1,0,0:0:0:0:
64,192,119712,1,0,0:0:0:0:
