osu file format v14

[General]
AudioFilename: audio.mp3
AudioLeadIn: 0
PreviewTime: 71162
Countdown: 0
SampleSet: Normal
StackLeniency: 0.2
Mode: 1
LetterboxInBreaks: 0
WidescreenStoryboard: 0

[Editor]
Bookmarks: 1395,15348,37674,48837,60000,71162,93488,126976,138139,160465,174418,210697
DistanceSpacing: 0.5
BeatDivisor: 4
GridSize: 32
TimelineZoom: 2.9

[Metadata]
Title:HAELEQUINZ -the clown of 24stairs-
TitleUnicode:HAELEQ∩INZ -the clown of 24stairs-
Artist:orangentle / Yu_Asahina
ArtistUnicode:orangentle / Yu_Asahina
Creator:Jaye
Version:Muzukashii
Source:
Tags:Zetera BMS SOUND VOLTEX HAELEQUIN/HAELEQ∩INZ Comiket 87 C87 KLAMNOP NEXT NEXT-101 NEXT-001
BeatmapID:1317555
BeatmapSetID:623427

[Difficulty]
HPDrainRate:6
CircleSize:2
OverallDifficulty:5
ApproachRate:10
SliderMultiplier:1.4
SliderTickRate:1

[Events]
//Background and Video events
0,0,"commission_for_yiamme_by_erisiar-d78vaup.jpg",0,0
//Break Periods
//Storyboard Layer 0 (Background)
//Storyboard Layer 1 (Fail)
//Storyboard Layer 2 (Pass)
//Storyboard Layer 3 (Foreground)
//Storyboard Sound Samples

[TimingPoints]
0,348.837209302326,4,1,0,95,1,0
1395,-86.9565217391304,4,1,0,95,0,0
7151,-90.9090909090909,4,1,0,95,0,0
14302,-91.743119266055,4,1,0,95,0,0
14389,-92.5925925925926,4,1,0,95,0,0
14476,-93.4579439252336,4,1,0,95,0,0
14651,-95.2380952380952,4,1,0,95,0,0
14825,-97.0873786407767,4,1,0,95,0,0
15000,-98.0392156862745,4,1,0,95,0,0
15087,-99.009900990099,4,1,0,95,0,0
15174,-100,4,1,0,95,0,0
71162,-92.5925925925926,4,1,0,95,0,0
93488,-86.9565217391304,4,1,0,100,0,1
101802,-85.4700854700855,4,1,0,100,0,1
102500,-84.0336134453781,4,1,0,100,0,1
103197,-82.6446280991736,4,1,0,100,0,1
103895,-81.3008130081301,4,1,0,100,0,1
104563,-86.9565217391304,4,1,0,100,0,1
106133,-83.3333333333333,4,1,0,100,0,1
107441,-86.9565217391304,4,1,0,100,0,1
121351,-85.4700854700855,4,1,0,100,0,1
122049,-84.0336134453781,4,1,0,100,0,1
122747,-82.6446280991736,4,1,0,100,0,1
123619,-86.9565217391304,4,1,0,100,0,1
126627,-88.4955752212389,4,1,0,100,0,1
126802,-89.2857142857143,4,1,0,100,0,1
126976,-90.9090909090909,4,1,0,95,0,0
137267,-92.5925925925926,4,1,0,95,0,0
137441,-94.3396226415094,4,1,0,95,0,0
137529,-95.2380952380952,4,1,0,95,0,0
137616,-96.1538461538461,4,1,0,95,0,0
137790,-98.0392156862745,4,1,0,95,0,0
137965,-100,4,1,0,95,0,0
174418,-86.9565217391304,4,1,0,100,0,1
182732,-85.4700854700855,4,1,0,100,0,1
183430,-84.0336134453781,4,1,0,100,0,1
184127,-82.6446280991736,4,1,0,100,0,1
184825,-81.3008130081301,4,1,0,100,0,1
185494,-86.9565217391304,4,1,0,100,0,1
187063,-83.3333333333333,4,1,0,100,0,1
188372,-86.9565217391304,4,1,0,100,0,1
202281,-85.4700854700855,4,1,0,100,0,1
202979,-84.0336134453781,4,1,0,100,0,1
203677,-82.6446280991736,4,1,0,100,0,1
204549,-86.9565217391304,4,1,0,100,0,1
210348,-88.4955752212389,4,1,0,100,0,1
210523,-89.2857142857143,4,1,0,100,0,1
210697,-90.9090909090909,4,1,0,95,0,0
222252,-50,4,1,0,95,0,0

[HitObjects]
256,192,1395,5,4,0:0:0:0:
256,192,1744,1,8,0:0:0:0:
256,192,1918,1,12,0:0:0:0:
256,192,2441,1,0,0:0:0:0:
256,192,2616,1,12,0:0:0:0:
256,192,3139,1,8,0:0:0:0:
256,192,3314,1,12,0:0:0:0:
256,192,3662,1,0,0:0:0:0:
256,192,3837,1,8,0:0:0:0:
256,192,4011,1,8,0:0:0:0:
256,192,4361,1,0,0:0:0:0:
256,192,4448,1,0,0:0:0:0:
256,192,4535,1,0,0:0:0:0:
256,192,4709,1,0,0:0:0:0:
256,192,5058,1,8,0:0:0:0:
256,192,5145,1,8,0:0:0:0:
256,192,5232,1,8,0:0:0:0:
256,192,5406,1,0,0:0:0:0:
256,192,5755,1,12,0:0:0:0:
256,192,5930,1,12,0:0:0:0:
256,192,6279,1,4,0:0:0:0:
256,192,6453,1,4,0:0:0:0:
256,192,6802,1,12,0:0:0:0:
256,192,6976,1,0,0:0:0:0:
256,192,7500,1,0,0:0:0:0:
256,192,7848,1,0,0:0:0:0:
256,192,8023,1,8,0:0:0:0:
256,192,8197,1,0,0:0:0:0:
256,192,8372,1,0,0:0:0:0:
256,192,8895,1,0,0:0:0:0:
256,192,9244,1,0,0:0:0:0:
256,192,9418,1,8,0:0:0:0:
256,192,9593,1,8,0:0:0:0:
256,192,9767,1,0,0:0:0:0:
256,192,10290,1,0,0:0:0:0:
256,192,10639,1,0,0:0:0:0:
256,192,10813,1,8,0:0:0:0:
256,192,10988,1,0,0:0:0:0:
256,192,11162,1,8,0:0:0:0:
256,192,11686,1,0,0:0:0:0:
256,192,12034,1,0,0:0:0:0:
256,192,12209,1,8,0:0:0:0:
256,192,12383,1,8,0:0:0:0:
256,192,12558,1,8,0:0:0:0:
256,192,13255,1,8,0:0:0:0:
256,192,13517,1,0,0:0:0:0:
256,192,13779,1,0,0:0:0:0:
256,192,13953,1,0,0:0:0:0:
256,192,14302,1,8,0:0:0:0:
256,192,14389,1,8,0:0:0:0:
256,192,14476,1,8,0:0:0:0:
256,192,14651,1,8,0:0:0:0:
256,192,14825,1,0,0:0:0:0:
256,192,15000,1,0,0:0:0:0:
256,192,15087,1,0,0:0:0:0:
256,192,15174,1,0,0:0:0:0:
256,192,15348,1,0,0:0:0:0:
256,192,15872,1,0,0:0:0:0:
256,192,16046,1,0,0:0:0:0:
256,192,16308,1,8,0:0:0:0:
256,192,16569,1,0,0:0:0:0:
256,192,16744,1,8,0:0:0:0:
256,192,17093,1,8,0:0:0:0:
256,192,17267,1,0,0:0:0:0:
256,192,17790,1,8,0:0:0:0:
256,192,18139,1,8,0:0:0:0:
256,192,18662,1,0,0:0:0:0:
256,192,18750,1,0,0:0:0:0:
256,192,18837,1,0,0:0:0:0:
256,192,19098,1,8,0:0:0:0:
256,192,19360,1,0,0:0:0:0:
256,192,19534,1,8,0:0:0:0:
256,192,19883,1,8,0:0:0:0:
256,192,20058,1,0,0:0:0:0:
256,192,20581,1,8,0:0:0:0:
256,192,20930,1,8,0:0:0:0:
256,192,21104,1,0,0:0:0:0:
256,192,21191,1,0,0:0:0:0:
256,192,21279,1,0,0:0:0:0:
256,192,21453,1,0,0:0:0:0:
256,192,21802,1,0,0:0:0:0:
256,192,21976,1,8,0:0:0:0:
256,192,22325,1,0,0:0:0:0:
256,192,22500,1,8,0:0:0:0:
256,192,22587,1,8,0:0:0:0:
256,192,22674,1,8,0:0:0:0:
256,192,22848,1,8,0:0:0:0:
256,192,23197,1,0,0:0:0:0:
256,192,23372,1,0,0:0:0:0:
256,192,23546,1,8,0:0:0:0:
256,192,23720,1,8,0:0:0:0:
256,192,24069,1,8,0:0:0:0:
256,192,24418,1,8,0:0:0:0:
256,192,24680,1,8,0:0:0:0:
256,192,24941,1,0,0:0:0:0:
256,192,25116,1,0,0:0:0:0:
256,192,25465,1,8,0:0:0:0:
256,192,26337,1,8,0:0:0:0:
256,192,26424,1,8,0:0:0:0:
256,192,26511,1,8,0:0:0:0:
256,192,26860,1,8,0:0:0:0:
256,192,27034,1,0,0:0:0:0:
256,192,27209,1,8,0:0:0:0:
256,192,27558,1,8,0:0:0:0:
256,192,27732,1,0,0:0:0:0:
256,192,27819,1,0,0:0:0:0:
256,192,27906,1,0,0:0:0:0:
256,192,28255,1,0,0:0:0:0:
256,192,28430,1,8,0:0:0:0:
256,192,28604,1,8,0:0:0:0:
256,192,28779,1,8,0:0:0:0:
256,192,28866,1,8,0:0:0:0:
256,192,28953,1,8,0:0:0:0:
256,192,29127,1,0,0:0:0:0:
256,192,29302,1,8,0:0:0:0:
256,192,29651,1,0,0:0:0:0:
256,192,29738,1,0,0:0:0:0:
256,192,29825,1,0,0:0:0:0:
256,192,30000,1,8,0:0:0:0:
256,192,30261,1,0,0:0:0:0:
256,192,30523,1,8,0:0:0:0:
256,192,30697,1,0,0:0:0:0:
256,192,31046,1,0,0:0:0:0:
256,192,31395,1,8,0:0:0:0:
256,192,31569,1,0,0:0:0:0:
256,192,31744,1,8,0:0:0:0:
256,192,31918,1,8,0:0:0:0:
256,192,32005,1,8,0:0:0:0:
256,192,32093,1,8,0:0:0:0:
256,192,32441,1,8,0:0:0:0:
256,192,32616,1,0,0:0:0:0:
256,192,32703,1,0,0:0:0:0:
256,192,32790,1,0,0:0:0:0:
256,192,32965,1,0,0:0:0:0:
256,192,33139,1,8,0:0:0:0:
256,192,33313,1,8,0:0:0:0:
256,192,33488,1,0,0:0:0:0:
256,192,33662,1,8,0:0:0:0:
256,192,33750,1,8,0:0:0:0:
256,192,33837,1,8,0:0:0:0:
256,192,34186,1,8,0:0:0:0:
256,192,34709,1,8,0:0:0:0:
256,192,34883,1,0,0:0:0:0:
256,192,35058,1,8,0:0:0:0:
256,192,35145,1,8,0:0:0:0:
256,192,35232,1,8,0:0:0:0:
256,192,35406,1,0,0:0:0:0:
256,192,35581,1,8,0:0:0:0:
256,192,35755,1,0,0:0:0:0:
256,192,35843,1,0,0:0:0:0:
256,192,35930,1,0,0:0:0:0:
256,192,36104,1,0,0:0:0:0:
256,192,36453,1,0,0:0:0:0:
256,192,36627,1,8,0:0:0:0:
256,192,36802,1,0,0:0:0:0:
256,192,36976,1,8,0:0:0:0:
256,192,37151,1,0,0:0:0:0:
256,192,37325,1,8,0:0:0:0:
256,192,37412,1,8,0:0:0:0:
256,192,37500,1,8,0:0:0:0:
256,192,37674,1,0,0:0:0:0:
256,192,38197,1,8,0:0:0:0:
256,192,38372,1,0,0:0:0:0:
256,192,38720,1,0,0:0:0:0:
256,192,38895,1,8,0:0:0:0:
256,192,39069,1,0,0:0:0:0:
256,192,39244,1,8,0:0:0:0:
256,192,39505,1,8,0:0:0:0:
256,192,39593,1,8,0:0:0:0:
256,192,39767,1,0,0:0:0:0:
256,192,40290,1,0,0:0:0:0:
256,192,40377,1,0,0:0:0:0:
256,192,40465,1,0,0:0:0:0:
256,192,40988,1,8,0:0:0:0:
256,192,41162,1,0,0:0:0:0:
256,192,41337,1,0,0:0:0:0:
256,192,41511,1,8,0:0:0:0:
256,192,41686,1,8,0:0:0:0:
256,192,41860,1,8,0:0:0:0:
256,192,42034,1,0,0:0:0:0:
256,192,42122,1,0,0:0:0:0:
256,192,42209,1,0,0:0:0:0:
256,192,42383,1,8,0:0:0:0:
256,192,42470,1,8,0:0:0:0:
256,192,42558,1,8,0:0:0:0:
256,192,43081,1,0,0:0:0:0:
256,192,43168,1,0,0:0:0:0:
256,192,43255,1,8,0:0:0:0:
256,192,43430,1,0,0:0:0:0:
256,192,43604,1,0,0:0:0:0:
256,192,43779,1,8,0:0:0:0:
256,192,43953,1,0,0:0:0:0:
256,192,44302,1,8,0:0:0:0:
256,192,44476,1,0,0:0:0:0:
256,192,44651,1,8,0:0:0:0:
256,192,44825,1,0,0:0:0:0:
256,192,44912,1,0,0:0:0:0:
256,192,45000,1,0,0:0:0:0:
256,192,45174,1,8,0:0:0:0:
256,192,45872,1,8,0:0:0:0:
256,192,45959,1,8,0:0:0:0:
256,192,46046,1,8,0:0:0:0:
256,192,46569,1,8,0:0:0:0:
256,192,46744,1,0,0:0:0:0:
256,192,47005,1,0,0:0:0:0:
256,192,47267,1,0,0:0:0:0:
256,192,47441,1,8,0:0:0:0:
256,192,47616,1,0,0:0:0:0:
256,192,47790,1,0,0:0:0:0:
256,192,47965,1,8,0:0:0:0:
256,192,48052,1,8,0:0:0:0:
256,192,48139,1,8,0:0:0:0:
256,192,48313,1,0,0:0:0:0:
256,192,48488,1,8,0:0:0:0:
256,192,48837,1,0,0:0:0:0:
256,192,49098,1,8,0:0:0:0:
256,192,49360,1,8,0:0:0:0:
256,192,49883,1,8,0:0:0:0:
256,192,50145,1,8,0:0:0:0:
256,192,50406,1,8,0:0:0:0:
256,192,50930,1,0,0:0:0:0:
256,192,51191,1,8,0:0:0:0:
256,192,51453,1,0,0:0:0:0:
256,192,51627,1,0,0:0:0:0:
256,192,51889,1,8,0:0:0:0:
256,192,52151,1,8,0:0:0:0:
256,192,52674,1,8,0:0:0:0:
256,192,52936,1,8,0:0:0:0:
256,192,53197,1,8,0:0:0:0:
256,192,53720,1,0,0:0:0:0:
256,192,53982,1,8,0:0:0:0:
256,192,54244,1,8,0:0:0:0:
256,192,54331,1,8,0:0:0:0:
256,192,54418,1,8,0:0:0:0:
256,192,54680,1,8,0:0:0:0:
256,192,54941,1,8,0:0:0:0:
256,192,55465,1,8,0:0:0:0:
256,192,55552,1,8,0:0:0:0:
256,192,55726,1,8,0:0:0:0:
256,192,55988,1,8,0:0:0:0:
256,192,56162,1,0,0:0:0:0:
256,192,56511,1,8,0:0:0:0:
256,192,56773,1,8,0:0:0:0:
256,192,57034,1,8,0:0:0:0:
256,192,57209,1,4,0:0:0:0:
256,192,57383,1,0,0:0:0:0:
256,192,57470,1,0,0:0:0:0:
256,192,57558,1,0,0:0:0:0:
256,192,57906,1,8,0:0:0:0:
256,192,58081,1,8,0:0:0:0:
256,192,58168,1,8,0:0:0:0:
256,192,58255,1,8,0:0:0:0:
256,192,58604,1,0,0:0:0:0:
256,192,58691,1,0,0:0:0:0:
256,192,58779,1,0,0:0:0:0:
256,192,58953,1,8,0:0:0:0:
256,192,59127,1,0,0:0:0:0:
256,192,59302,1,8,0:0:0:0:
256,192,59389,1,8,0:0:0:0:
256,192,59476,1,8,0:0:0:0:
256,192,59651,1,0,0:0:0:0:
256,192,59825,1,8,0:0:0:0:
256,192,59912,1,8,0:0:0:0:
256,192,60000,1,8,0:0:0:0:
256,192,60697,1,0,0:0:0:0:
256,192,61046,1,8,0:0:0:0:
256,192,61220,1,0,0:0:0:0:
256,192,61395,1,8,0:0:0:0:
256,192,61744,1,0,0:0:0:0:
256,192,61918,1,8,0:0:0:0:
256,192,62093,1,0,0:0:0:0:
256,192,62441,1,0,0:0:0:0:
256,192,62790,1,8,0:0:0:0:
256,192,63488,1,8,0:0:0:0:
256,192,63837,1,0,0:0:0:0:
256,192,64011,1,8,0:0:0:0:
256,192,64098,1,8,0:0:0:0:
256,192,64186,1,8,0:0:0:0:
256,192,64360,1,0,0:0:0:0:
256,192,64534,1,0,0:0:0:0:
256,192,64709,1,8,0:0:0:0:
256,192,64883,1,8,0:0:0:0:
256,192,65058,1,0,0:0:0:0:
256,192,65232,1,0,0:0:0:0:
256,192,65581,1,8,0:0:0:0:
256,192,65930,1,8,0:0:0:0:
256,192,66104,1,8,0:0:0:0:
256,192,66191,1,8,0:0:0:0:
256,192,66279,1,8,0:0:0:0:
256,192,66453,1,0,0:0:0:0:
256,192,66627,1,8,0:0:0:0:
256,192,66976,1,8,0:0:0:0:
256,192,67151,1,0,0:0:0:0:
256,192,67238,1,0,0:0:0:0:
256,192,67325,1,0,0:0:0:0:
256,192,67500,1,0,0:0:0:0:
256,192,67674,1,8,0:0:0:0:
256,192,67761,1,8,0:0:0:0:
256,192,67848,1,0,0:0:0:0:
256,192,68023,1,8,0:0:0:0:
256,192,68372,1,8,0:0:0:0:
256,192,68895,1,8,0:0:0:0:
256,192,69069,1,0,0:0:0:0:
256,192,69418,1,8,0:0:0:0:
256,192,69505,1,8,0:0:0:0:
256,192,69593,1,8,0:0:0:0:
256,192,69767,1,8,0:0:0:0:
256,192,69941,1,0,0:0:0:0:
256,192,70029,1,0,0:0:0:0:
256,192,70116,1,8,0:0:0:0:
256,192,70290,1,8,0:0:0:0:
256,192,70465,1,8,0:0:0:0:
256,192,70639,1,0,0:0:0:0:
256,192,70726,1,8,0:0:0:0:
256,192,70813,1,8,0:0:0:0:
256,192,71162,1,12,0:0:0:0:
256,192,71686,1,12,0:0:0:0:
256,192,72034,1,12,0:0:0:0:
256,192,72209,1,0,0:0:0:0:
256,192,72383,1,12,0:0:0:0:
256,192,72732,1,0,0:0:0:0:
256,192,72906,1,4,0:0:0:0:
256,192,73081,1,8,0:0:0:0:
256,192,73255,1,12,0:0:0:0:
256,192,73517,1,12,0:0:0:0:
256,192,73779,1,0,0:0:0:0:
256,192,73953,1,12,0:0:0:0:
256,192,74476,1,12,0:0:0:0:
256,192,74825,1,8,0:0:0:0:
256,192,75000,1,8,0:0:0:0:
256,192,75174,1,0,0:0:0:0:
256,192,75348,1,8,0:0:0:0:
256,192,75523,1,8,0:0:0:0:
256,192,75697,1,0,0:0:0:0:
256,192,75784,1,0,0:0:0:0:
256,192,75872,1,0,0:0:0:0:
256,192,76046,1,0,0:0:0:0:
256,192,76220,1,12,0:0:0:0:
256,192,76744,1,12,0:0:0:0:
256,192,77267,1,12,0:0:0:0:
256,192,77616,1,12,0:0:0:0:
256,192,77790,1,0,0:0:0:0:
256,192,77965,1,12,0:0:0:0:
256,192,78313,1,0,0:0:0:0:
256,192,78488,1,4,0:0:0:0:
256,192,78662,1,8,0:0:0:0:
256,192,78837,1,12,0:0:0:0:
256,192,79098,1,12,0:0:0:0:
256,192,79360,1,0,0:0:0:0:
256,192,79534,1,12,0:0:0:0:
256,192,80755,1,8,0:0:0:0:
256,192,80930,1,4,0:0:0:0:
256,192,81279,1,8,0:0:0:0:
256,192,81453,1,0,0:0:0:0:
256,192,81627,1,8,0:0:0:0:
256,192,81802,1,0,0:0:0:0:
256,192,81976,1,8,0:0:0:0:
256,192,82325,1,12,0:0:0:0:
256,192,82500,1,0,0:0:0:0:
256,192,82587,1,0,0:0:0:0:
256,192,82674,1,0,0:0:0:0:
256,192,82848,1,12,0:0:0:0:
256,192,83197,1,8,0:0:0:0:
256,192,83372,1,0,0:0:0:0:
256,192,83546,1,12,0:0:0:0:
256,192,83895,1,0,0:0:0:0:
256,192,84069,1,8,0:0:0:0:
256,192,84244,1,0,0:0:0:0:
256,192,84418,1,8,0:0:0:0:
256,192,84941,1,8,0:0:0:0:
256,192,85116,1,0,0:0:0:0:
256,192,85290,1,8,0:0:0:0:
256,192,85465,1,8,0:0:0:0:
256,192,85639,1,12,0:0:0:0:
256,192,85988,1,8,0:0:0:0:
256,192,86162,1,0,0:0:0:0:
256,192,86337,1,4,0:0:0:0:
256,192,86511,1,8,0:0:0:0:
256,192,86686,1,8,0:0:0:0:
256,192,86860,1,0,0:0:0:0:
256,192,86947,1,0,0:0:0:0:
256,192,87035,1,0,0:0:0:0:
256,192,87209,1,8,0:0:0:0:
256,192,87732,1,0,0:0:0:0:
256,192,87906,1,12,0:0:0:0:
256,192,88081,1,0,0:0:0:0:
256,192,88255,1,8,0:0:0:0:
256,192,88430,1,0,0:0:0:0:
256,192,88604,1,0,0:0:0:0:
256,192,88866,1,8,0:0:0:0:
256,192,89127,1,8,0:0:0:0:
256,192,89302,1,4,0:0:0:0:
256,192,89825,1,0,0:0:0:0:
256,192,90174,1,12,0:0:0:0:
256,192,90523,1,4,0:0:0:0:
256,192,91046,1,8,0:0:0:0:
256,192,91395,1,8,0:0:0:0:
256,192,91569,1,0,0:0:0:0:
256,192,91744,1,8,0:0:0:0:
256,192,91918,1,0,0:0:0:0:
256,192,92267,1,8,0:0:0:0:
256,192,92441,1,0,0:0:0:0:
256,192,92529,1,0,0:0:0:0:
256,192,92616,1,0,0:0:0:0:
256,192,92790,1,8,0:0:0:0:
256,192,92965,1,8,0:0:0:0:
256,192,93139,1,8,0:0:0:0:
256,192,93226,1,8,0:0:0:0:
256,192,93313,1,8,0:0:0:0:
256,192,93662,1,8,0:0:0:0:
256,192,93837,1,8,0:0:0:0:
256,192,93924,1,8,0:0:0:0:
256,192,94011,1,8,0:0:0:0:
256,192,94186,1,8,0:0:0:0:
256,192,94360,1,0,0:0:0:0:
256,192,94534,1,0,0:0:0:0:
256,192,94709,1,0,0:0:0:0:
256,192,95058,1,8,0:0:0:0:
256,192,95232,1,0,0:0:0:0:
256,192,95406,1,0,0:0:0:0:
256,192,95581,1,8,0:0:0:0:
256,192,95668,1,8,0:0:0:0:
256,192,95755,1,8,0:0:0:0:
256,192,96104,1,0,0:0:0:0:
256,192,96453,1,8,0:0:0:0:
256,192,96627,1,0,0:0:0:0:
256,192,96802,1,0,0:0:0:0:
256,192,96976,1,8,0:0:0:0:
256,192,97151,1,0,0:0:0:0:
256,192,97325,1,8,0:0:0:0:
256,192,97412,1,8,0:0:0:0:
256,192,97500,1,8,0:0:0:0:
256,192,98023,1,8,0:0:0:0:
256,192,98197,1,8,0:0:0:0:
256,192,98372,1,0,0:0:0:0:
256,192,98546,1,8,0:0:0:0:
256,192,98720,1,0,0:0:0:0:
256,192,98895,1,8,0:0:0:0:
256,192,98982,1,8,0:0:0:0:
256,192,99069,1,8,0:0:0:0:
256,192,99767,1,0,0:0:0:0:
256,192,99941,1,8,0:0:0:0:
256,192,100116,1,8,0:0:0:0:
256,192,100290,1,8,0:0:0:0:
256,192,100377,1,8,0:0:0:0:
256,192,100465,1,8,0:0:0:0:
256,192,100813,1,8,0:0:0:0:
256,192,100988,1,0,0:0:0:0:
256,192,101075,1,0,0:0:0:0:
256,192,101162,1,0,0:0:0:0:
256,192,101337,1,8,0:0:0:0:
256,192,101511,1,0,0:0:0:0:
256,192,101860,1,4,0:0:0:0:
256,192,102034,1,0,0:0:0:0:
256,192,102209,1,8,0:0:0:0:
256,192,102558,1,4,0:0:0:0:
256,192,102732,1,8,0:0:0:0:
256,192,102906,1,8,0:0:0:0:
256,192,103255,1,4,0:0:0:0:
256,192,103430,1,8,0:0:0:0:
256,192,103604,1,8,0:0:0:0:
256,192,103779,1,8,0:0:0:0:
256,192,103953,1,4,0:0:0:0:
256,192,104651,1,8,0:0:0:0:
256,192,104825,1,0,0:0:0:0:
256,192,105000,1,8,0:0:0:0:
256,192,105174,1,0,0:0:0:0:
256,192,105348,1,8,0:0:0:0:
256,192,105523,1,8,0:0:0:0:
256,192,105697,1,0,0:0:0:0:
256,192,105784,1,0,0:0:0:0:
256,192,105872,1,0,0:0:0:0:
256,192,106220,1,12,0:0:0:0:
256,192,106395,1,12,0:0:0:0:
256,192,106569,1,12,0:0:0:0:
256,192,106918,1,4,0:0:0:0:
256,192,107267,1,4,0:0:0:0:
256,192,107616,1,8,0:0:0:0:
256,192,107790,1,8,0:0:0:0:
256,192,108139,1,0,0:0:0:0:
256,192,108313,1,8,0:0:0:0:
256,192,108488,1,0,0:0:0:0:
256,192,108575,1,0,0:0:0:0:
256,192,108662,1,0,0:0:0:0:
256,192,109011,1,8,0:0:0:0:
256,192,109186,1,0,0:0:0:0:
256,192,109360,1,0,0:0:0:0:
256,192,109534,1,0,0:0:0:0:
256,192,110232,1,0,0:0:0:0:
256,192,110406,1,0,0:0:0:0:
256,192,110581,1,8,0:0:0:0:
256,192,110755,1,0,0:0:0:0:
256,192,110930,1,8,0:0:0:0:
256,192,111104,1,0,0:0:0:0:
256,192,111191,1,0,0:0:0:0:
256,192,111279,1,0,0:0:0:0:
256,192,111453,1,0,0:0:0:0:
256,192,111802,1,0,0:0:0:0:
256,192,111976,1,8,0:0:0:0:
256,192,112151,1,8,0:0:0:0:
256,192,112325,1,8,0:0:0:0:
256,192,112936,1,8,0:0:0:0:
256,192,113023,1,8,0:0:0:0:
256,192,113197,1,0,0:0:0:0:
256,192,113372,1,0,0:0:0:0:
256,192,113546,1,0,0:0:0:0:
256,192,113720,1,8,0:0:0:0:
256,192,113895,1,0,0:0:0:0:
256,192,114069,1,8,0:0:0:0:
256,192,114156,1,8,0:0:0:0:
256,192,114244,1,8,0:0:0:0:
256,192,114593,1,8,0:0:0:0:
256,192,114767,1,0,0:0:0:0:
256,192,114941,1,8,0:0:0:0:
256,192,115116,1,8,0:0:0:0:
256,192,115290,1,0,0:0:0:0:
256,192,115377,1,0,0:0:0:0:
256,192,115465,1,0,0:0:0:0:
256,192,115639,1,8,0:0:0:0:
256,192,115813,1,0,0:0:0:0:
256,192,115988,1,8,0:0:0:0:
256,192,116162,1,8,0:0:0:0:
256,192,116337,1,0,0:0:0:0:
256,192,116511,1,0,0:0:0:0:
256,192,116686,1,8,0:0:0:0:
256,192,116860,1,8,0:0:0:0:
256,192,117034,1,0,0:0:0:0:
256,192,117558,1,8,0:0:0:0:
256,192,117732,1,0,0:0:0:0:
256,192,117819,1,0,0:0:0:0:
256,192,117906,1,0,0:0:0:0:
256,192,118081,1,8,0:0:0:0:
256,192,118168,1,8,0:0:0:0:
256,192,118255,1,8,0:0:0:0:
256,192,118430,1,8,0:0:0:0:
256,192,118779,1,8,0:0:0:0:
256,192,118953,1,0,0:0:0:0:
256,192,119127,1,0,0:0:0:0:
256,192,119302,1,8,0:0:0:0:
256,192,119476,1,8,0:0:0:0:
256,192,119563,1,8,0:0:0:0:
256,192,119651,1,8,0:0:0:0:
256,192,119825,1,8,0:0:0:0:
256,192,120174,1,8,0:0:0:0:
256,192,120348,1,0,0:0:0:0:
256,192,120523,1,8,0:0:0:0:
256,192,120697,1,0,0:0:0:0:
256,192,120872,1,0,0:0:0:0:
256,192,121046,1,0,0:0:0:0:
256,192,121395,1,4,0:0:0:0:
256,192,121569,1,0,0:0:0:0:
256,192,121744,1,8,0:0:0:0:
256,192,122093,1,4,0:0:0:0:
256,192,122267,1,8,0:0:0:0:
256,192,122441,1,8,0:0:0:0:
256,192,122790,1,12,0:0:0:0:
256,192,122965,1,0,0:0:0:0:
256,192,123139,1,8,0:0:0:0:
256,192,123313,1,8,0:0:0:0:
256,192,123488,1,8,0:0:0:0:
256,192,124186,1,8,0:0:0:0:
256,192,124273,1,8,0:0:0:0:
256,192,124360,1,8,0:0:0:0:
256,192,124534,1,8,0:0:0:0:
256,192,124709,1,0,0:0:0:0:
256,192,125058,1,0,0:0:0:0:
256,192,125232,1,8,0:0:0:0:
256,192,125581,1,8,0:0:0:0:
256,192,125756,1,8,0:0:0:0:
256,192,125843,1,8,0:0:0:0:
256,192,125930,1,8,0:0:0:0:
256,192,126104,1,0,0:0:0:0:
256,192,126453,1,0,0:0:0:0:
256,192,126627,1,8,0:0:0:0:
256,192,126802,1,8,0:0:0:0:
256,192,126976,1,4,0:0:0:0:
256,192,127151,1,0,0:0:0:0:
256,192,127325,1,8,0:0:0:0:
256,192,127848,1,8,0:0:0:0:
256,192,128023,1,0,0:0:0:0:
256,192,128197,1,8,0:0:0:0:
256,192,128372,1,0,0:0:0:0:
256,192,128546,1,0,0:0:0:0:
256,192,128720,1,8,0:0:0:0:
256,192,129069,1,0,0:0:0:0:
256,192,129331,1,8,0:0:0:0:
256,192,129767,1,8,0:0:0:0:
256,192,129941,1,0,0:0:0:0:
256,192,130115,1,8,0:0:0:0:
256,192,130639,1,8,0:0:0:0:
256,192,130813,1,0,0:0:0:0:
256,192,130987,1,8,0:0:0:0:
256,192,131337,1,8,0:0:0:0:
256,192,131512,1,8,0:0:0:0:
256,192,131599,1,8,0:0:0:0:
256,192,131686,1,8,0:0:0:0:
256,192,131861,1,0,0:0:0:0:
256,192,131948,1,0,0:0:0:0:
256,192,132035,1,0,0:0:0:0:
256,192,132209,1,0,0:0:0:0:
256,192,132558,1,8,0:0:0:0:
256,192,132732,1,0,0:0:0:0:
256,192,132906,1,8,0:0:0:0:
256,192,133430,1,8,0:0:0:0:
256,192,133604,1,8,0:0:0:0:
256,192,133778,1,8,0:0:0:0:
256,192,133953,1,0,0:0:0:0:
256,192,134127,1,0,0:0:0:0:
256,192,134301,1,8,0:0:0:0:
256,192,134650,1,0,0:0:0:0:
256,192,134912,1,8,0:0:0:0:
256,192,135348,1,12,0:0:0:0:
256,192,136569,1,8,0:0:0:0:
256,192,136744,1,4,0:0:0:0:
256,192,137093,1,8,0:0:0:0:
256,192,137267,1,0,0:0:0:0:
256,192,137441,1,0,0:0:0:0:
256,192,137529,1,0,0:0:0:0:
256,192,137616,1,0,0:0:0:0:
256,192,137790,1,8,0:0:0:0:
256,192,137965,1,0,0:0:0:0:
256,192,138139,1,8,0:0:0:0:
256,192,138663,1,0,0:0:0:0:
256,192,138837,1,0,0:0:0:0:
256,192,139099,1,8,0:0:0:0:
256,192,139360,1,0,0:0:0:0:
256,192,139535,1,8,0:0:0:0:
256,192,139884,1,8,0:0:0:0:
256,192,140058,1,0,0:0:0:0:
256,192,140581,1,8,0:0:0:0:
256,192,140930,1,8,0:0:0:0:
256,192,141453,1,0,0:0:0:0:
256,192,141541,1,0,0:0:0:0:
256,192,141628,1,0,0:0:0:0:
256,192,141889,1,8,0:0:0:0:
256,192,142151,1,0,0:0:0:0:
256,192,142325,1,8,0:0:0:0:
256,192,142674,1,8,0:0:0:0:
256,192,142849,1,0,0:0:0:0:
256,192,143372,1,8,0:0:0:0:
256,192,143721,1,8,0:0:0:0:
256,192,143895,1,0,0:0:0:0:
256,192,143982,1,0,0:0:0:0:
256,192,144070,1,0,0:0:0:0:
256,192,144244,1,0,0:0:0:0:
256,192,144593,1,0,0:0:0:0:
256,192,144767,1,8,0:0:0:0:
256,192,145116,1,8,0:0:0:0:
256,192,145291,1,0,0:0:0:0:
256,192,145378,1,0,0:0:0:0:
256,192,145465,1,0,0:0:0:0:
256,192,145639,1,8,0:0:0:0:
256,192,145988,1,0,0:0:0:0:
256,192,146163,1,8,0:0:0:0:
256,192,146337,1,8,0:0:0:0:
256,192,146424,1,8,0:0:0:0:
256,192,146511,1,8,0:0:0:0:
256,192,146860,1,8,0:0:0:0:
256,192,147209,1,8,0:0:0:0:
256,192,147471,1,8,0:0:0:0:
256,192,147732,1,0,0:0:0:0:
256,192,147907,1,0,0:0:0:0:
256,192,148256,1,8,0:0:0:0:
256,192,149128,1,8,0:0:0:0:
256,192,149215,1,8,0:0:0:0:
256,192,149302,1,8,0:0:0:0:
256,192,149651,1,8,0:0:0:0:
256,192,149825,1,0,0:0:0:0:
256,192,150000,1,8,0:0:0:0:
256,192,150349,1,8,0:0:0:0:
256,192,150523,1,0,0:0:0:0:
256,192,150610,1,0,0:0:0:0:
256,192,150697,1,0,0:0:0:0:
256,192,151046,1,0,0:0:0:0:
256,192,151221,1,8,0:0:0:0:
256,192,151395,1,8,0:0:0:0:
256,192,151570,1,8,0:0:0:0:
256,192,151657,1,8,0:0:0:0:
256,192,151744,1,8,0:0:0:0:
256,192,151918,1,0,0:0:0:0:
256,192,152093,1,8,0:0:0:0:
256,192,152442,1,0,0:0:0:0:
256,192,152529,1,0,0:0:0:0:
256,192,152616,1,0,0:0:0:0:
256,192,152791,1,8,0:0:0:0:
256,192,153052,1,0,0:0:0:0:
256,192,153314,1,8,0:0:0:0:
256,192,153488,1,0,0:0:0:0:
256,192,153837,1,0,0:0:0:0:
256,192,154011,1,0,0:0:0:0:
256,192,154186,1,8,0:0:0:0:
256,192,154360,1,0,0:0:0:0:
256,192,154535,1,8,0:0:0:0:
256,192,154709,1,8,0:0:0:0:
256,192,154796,1,8,0:0:0:0:
256,192,154884,1,8,0:0:0:0:
256,192,155232,1,8,0:0:0:0:
256,192,155407,1,0,0:0:0:0:
256,192,155494,1,0,0:0:0:0:
256,192,155581,1,0,0:0:0:0:
256,192,155756,1,0,0:0:0:0:
256,192,155930,1,8,0:0:0:0:
256,192,156104,1,8,0:0:0:0:
256,192,156279,1,0,0:0:0:0:
256,192,156453,1,8,0:0:0:0:
256,192,156541,1,8,0:0:0:0:
256,192,156628,1,8,0:0:0:0:
256,192,156977,1,8,0:0:0:0:
256,192,157500,1,8,0:0:0:0:
256,192,157674,1,0,0:0:0:0:
256,192,157849,1,8,0:0:0:0:
256,192,157936,1,8,0:0:0:0:
256,192,158023,1,8,0:0:0:0:
256,192,158197,1,0,0:0:0:0:
256,192,158372,1,8,0:0:0:0:
256,192,158546,1,0,0:0:0:0:
256,192,158634,1,0,0:0:0:0:
256,192,158721,1,0,0:0:0:0:
256,192,158895,1,0,0:0:0:0:
256,192,159244,1,0,0:0:0:0:
256,192,159418,1,8,0:0:0:0:
256,192,159593,1,0,0:0:0:0:
256,192,159767,1,8,0:0:0:0:
256,192,159942,1,0,0:0:0:0:
256,192,160116,1,8,0:0:0:0:
256,192,160291,1,8,0:0:0:0:
256,192,160378,1,8,0:0:0:0:
256,192,160465,1,8,0:0:0:0:
256,192,160813,1,0,0:0:0:0:
256,192,160988,1,8,0:0:0:0:
256,192,161511,1,0,0:0:0:0:
256,192,161860,1,8,0:0:0:0:
256,192,162209,1,8,0:0:0:0:
256,192,162383,1,0,0:0:0:0:
256,192,162906,1,8,0:0:0:0:
256,192,163255,1,0,0:0:0:0:
256,192,163604,1,0,0:0:0:0:
256,192,163779,1,8,0:0:0:0:
256,192,164302,1,8,0:0:0:0:
256,192,164651,1,8,0:0:0:0:
256,192,165000,1,0,0:0:0:0:
256,192,165175,1,8,0:0:0:0:
256,192,165697,1,8,0:0:0:0:
256,192,166046,1,8,0:0:0:0:
256,192,166395,1,8,0:0:0:0:
256,192,166569,1,0,0:0:0:0:
256,192,166744,1,8,0:0:0:0:
256,192,167093,1,8,0:0:0:0:
256,192,167442,1,8,0:0:0:0:
256,192,167791,1,0,0:0:0:0:
256,192,167965,1,8,0:0:0:0:
256,192,168140,1,0,0:0:0:0:
256,192,168488,1,8,0:0:0:0:
256,192,168662,1,12,0:0:0:0:
256,192,169011,1,0,0:0:0:0:
256,192,169186,1,0,0:0:0:0:
256,192,169534,1,0,0:0:0:0:
256,192,169883,1,0,0:0:0:0:
256,192,170058,1,0,0:0:0:0:
256,192,170232,1,0,0:0:0:0:
256,192,170581,1,0,0:0:0:0:
256,192,170755,1,0,0:0:0:0:
256,192,170930,1,8,0:0:0:0:
256,192,171104,1,0,0:0:0:0:
256,192,171279,1,8,0:0:0:0:
256,192,171453,1,12,0:0:0:0:
256,192,171976,1,0,0:0:0:0:
256,192,172151,1,0,0:0:0:0:
256,192,172325,1,8,0:0:0:0:
256,192,172500,1,0,0:0:0:0:
256,192,172674,1,8,0:0:0:0:
256,192,172848,1,0,0:0:0:0:
256,192,173197,1,8,0:0:0:0:
256,192,173372,1,8,0:0:0:0:
256,192,173459,1,8,0:0:0:0:
256,192,173546,1,8,0:0:0:0:
256,192,173720,1,0,0:0:0:0:
256,192,173895,1,0,0:0:0:0:
256,192,173982,1,0,0:0:0:0:
256,192,174069,1,0,0:0:0:0:
256,192,174244,1,8,0:0:0:0:
256,192,174593,1,8,0:0:0:0:
256,192,174767,1,0,0:0:0:0:
256,192,174941,1,0,0:0:0:0:
256,192,175029,1,0,0:0:0:0:
256,192,175116,1,0,0:0:0:0:
256,192,175290,1,8,0:0:0:0:
256,192,175465,1,8,0:0:0:0:
256,192,175639,1,0,0:0:0:0:
256,192,176162,1,8,0:0:0:0:
256,192,176337,1,0,0:0:0:0:
256,192,176424,1,0,0:0:0:0:
256,192,176511,1,0,0:0:0:0:
256,192,176860,1,8,0:0:0:0:
256,192,177034,1,8,0:0:0:0:
256,192,177383,1,8,0:0:0:0:
256,192,177558,1,0,0:0:0:0:
256,192,177645,1,0,0:0:0:0:
256,192,177732,1,0,0:0:0:0:
256,192,177906,1,0,0:0:0:0:
256,192,178081,1,8,0:0:0:0:
256,192,178168,1,8,0:0:0:0:
256,192,178255,1,8,0:0:0:0:
256,192,178430,1,8,0:0:0:0:
256,192,178779,1,8,0:0:0:0:
256,192,178953,1,8,0:0:0:0:
256,192,179040,1,8,0:0:0:0:
256,192,179127,1,8,0:0:0:0:
256,192,179302,1,0,0:0:0:0:
256,192,179389,1,0,0:0:0:0:
256,192,179476,1,0,0:0:0:0:
256,192,179651,1,0,0:0:0:0:
256,192,179825,1,8,0:0:0:0:
256,192,180000,1,8,0:0:0:0:
256,192,180348,1,8,0:0:0:0:
256,192,180523,1,0,0:0:0:0:
256,192,180697,1,8,0:0:0:0:
256,192,180872,1,8,0:0:0:0:
256,192,180959,1,8,0:0:0:0:
256,192,181046,1,8,0:0:0:0:
256,192,181220,1,0,0:0:0:0:
256,192,181569,1,0,0:0:0:0:
256,192,181744,1,8,0:0:0:0:
256,192,181918,1,8,0:0:0:0:
256,192,182093,1,0,0:0:0:0:
256,192,182267,1,8,0:0:0:0:
256,192,182441,1,0,0:0:0:0:
256,192,182790,1,4,0:0:0:0:
256,192,182965,1,0,0:0:0:0:
256,192,183052,1,0,0:0:0:0:
256,192,183140,1,0,0:0:0:0:
256,192,183488,1,4,0:0:0:0:
256,192,183663,1,8,0:0:0:0:
256,192,183750,1,8,0:0:0:0:
256,192,183837,1,8,0:0:0:0:
256,192,184186,1,4,0:0:0:0:
256,192,184361,1,0,0:0:0:0:
256,192,184535,1,8,0:0:0:0:
256,192,184622,1,8,0:0:0:0:
256,192,184709,1,8,0:0:0:0:
256,192,184883,1,12,0:0:0:0:
256,192,185581,1,8,0:0:0:0:
256,192,185755,1,8,0:0:0:0:
256,192,185930,1,0,0:0:0:0:
256,192,186104,1,0,0:0:0:0:
256,192,186279,1,0,0:0:0:0:
256,192,186453,1,8,0:0:0:0:
256,192,186540,1,8,0:0:0:0:
256,192,186627,1,8,0:0:0:0:
256,192,186802,1,8,0:0:0:0:
256,192,187151,1,12,0:0:0:0:
256,192,187325,1,12,0:0:0:0:
256,192,187500,1,12,0:0:0:0:
256,192,187848,1,4,0:0:0:0:
256,192,188197,1,4,0:0:0:0:
256,192,188546,1,8,0:0:0:0:
256,192,188720,1,8,0:0:0:0:
256,192,188895,1,8,0:0:0:0:
256,192,189069,1,0,0:0:0:0:
256,192,189244,1,0,0:0:0:0:
256,192,189418,1,0,0:0:0:0:
256,192,189505,1,0,0:0:0:0:
256,192,189593,1,0,0:0:0:0:
256,192,189941,1,8,0:0:0:0:
256,192,190116,1,0,0:0:0:0:
256,192,190290,1,8,0:0:0:0:
256,192,190465,1,0,0:0:0:0:
256,192,191162,1,0,0:0:0:0:
256,192,191337,1,0,0:0:0:0:
256,192,191511,1,8,0:0:0:0:
256,192,191686,1,0,0:0:0:0:
256,192,191860,1,8,0:0:0:0:
256,192,192034,1,0,0:0:0:0:
256,192,192122,1,0,0:0:0:0:
256,192,192209,1,0,0:0:0:0:
256,192,192383,1,0,0:0:0:0:
256,192,192732,1,0,0:0:0:0:
256,192,192906,1,8,0:0:0:0:
256,192,193081,1,8,0:0:0:0:
256,192,193255,1,0,0:0:0:0:
256,192,193866,1,8,0:0:0:0:
256,192,193953,1,8,0:0:0:0:
256,192,194127,1,8,0:0:0:0:
256,192,194302,1,0,0:0:0:0:
256,192,194476,1,8,0:0:0:0:
256,192,194651,1,8,0:0:0:0:
256,192,194825,1,0,0:0:0:0:
256,192,195000,1,8,0:0:0:0:
256,192,195087,1,8,0:0:0:0:
256,192,195174,1,8,0:0:0:0:
256,192,195523,1,8,0:0:0:0:
256,192,195697,1,0,0:0:0:0:
256,192,195784,1,0,0:0:0:0:
256,192,195872,1,0,0:0:0:0:
256,192,196046,1,8,0:0:0:0:
256,192,196220,1,8,0:0:0:0:
256,192,196395,1,0,0:0:0:0:
256,192,196569,1,8,0:0:0:0:
256,192,196744,1,0,0:0:0:0:
256,192,196918,1,8,0:0:0:0:
256,192,197005,1,8,0:0:0:0:
256,192,197093,1,8,0:0:0:0:
256,192,197267,1,0,0:0:0:0:
256,192,197441,1,8,0:0:0:0:
256,192,197616,1,8,0:0:0:0:
256,192,197790,1,8,0:0:0:0:
256,192,197965,1,0,0:0:0:0:
256,192,198488,1,8,0:0:0:0:
256,192,198662,1,0,0:0:0:0:
256,192,198749,1,0,0:0:0:0:
256,192,198836,1,0,0:0:0:0:
256,192,199011,1,8,0:0:0:0:
256,192,199098,1,8,0:0:0:0:
256,192,199185,1,8,0:0:0:0:
256,192,199360,1,8,0:0:0:0:
256,192,199709,1,8,0:0:0:0:
256,192,199883,1,0,0:0:0:0:
256,192,200057,1,0,0:0:0:0:
256,192,200232,1,8,0:0:0:0:
256,192,200406,1,8,0:0:0:0:
256,192,200493,1,8,0:0:0:0:
256,192,200581,1,8,0:0:0:0:
256,192,200755,1,8,0:0:0:0:
256,192,201104,1,8,0:0:0:0:
256,192,201278,1,0,0:0:0:0:
256,192,201453,1,8,0:0:0:0:
256,192,201627,1,0,0:0:0:0:
256,192,201802,1,0,0:0:0:0:
256,192,201976,1,0,0:0:0:0:
256,192,202325,1,4,0:0:0:0:
256,192,202499,1,0,0:0:0:0:
256,192,202587,1,0,0:0:0:0:
256,192,202674,1,0,0:0:0:0:
256,192,203023,1,4,0:0:0:0:
256,192,203197,1,8,0:0:0:0:
256,192,203284,1,8,0:0:0:0:
256,192,203371,1,8,0:0:0:0:
256,192,203720,1,12,0:0:0:0:
256,192,203895,1,0,0:0:0:0:
256,192,204069,1,8,0:0:0:0:
256,192,204156,1,8,0:0:0:0:
256,192,204243,1,8,0:0:0:0:
256,192,204418,1,8,0:0:0:0:
256,192,205116,1,8,0:0:0:0:
256,192,205203,1,8,0:0:0:0:
256,192,205290,1,8,0:0:0:0:
256,192,205464,1,0,0:0:0:0:
256,192,205639,1,0,0:0:0:0:
256,192,205726,1,0,0:0:0:0:
256,192,205813,1,0,0:0:0:0:
256,192,205988,1,0,0:0:0:0:
256,192,206162,1,0,0:0:0:0:
256,192,206336,1,8,0:0:0:0:
256,192,206511,1,8,0:0:0:0:
256,192,206598,1,8,0:0:0:0:
256,192,206685,1,8,0:0:0:0:
256,192,206859,1,0,0:0:0:0:
256,192,207034,1,0,0:0:0:0:
256,192,207121,1,0,0:0:0:0:
256,192,207208,1,0,0:0:0:0:
256,192,207383,1,0,0:0:0:0:
256,192,207557,1,0,0:0:0:0:
256,192,207906,1,8,0:0:0:0:
256,192,207993,1,8,0:0:0:0:
256,192,208080,1,8,0:0:0:0:
256,192,208254,1,0,0:0:0:0:
256,192,208429,1,0,0:0:0:0:
256,192,208516,1,0,0:0:0:0:
256,192,208603,1,0,0:0:0:0:
256,192,208778,1,0,0:0:0:0:
256,192,208952,1,8,0:0:0:0:
256,192,209126,1,8,0:0:0:0:
256,192,209302,1,8,0:0:0:0:
256,192,209389,1,8,0:0:0:0:
256,192,209476,1,8,0:0:0:0:
256,192,209650,1,0,0:0:0:0:
256,192,209825,1,0,0:0:0:0:
256,192,209912,1,0,0:0:0:0:
256,192,209999,1,0,0:0:0:0:
256,192,210173,1,8,0:0:0:0:
256,192,210347,1,0,0:0:0:0:
256,192,210522,1,8,0:0:0:0:
256,192,210697,1,4,0:0:0:0:
256,192,210872,1,0,0:0:0:0:
256,192,211046,1,8,0:0:0:0:
256,192,211569,1,8,0:0:0:0:
256,192,211744,1,8,0:0:0:0:
256,192,211918,1,8,0:0:0:0:
256,192,212093,1,0,0:0:0:0:
256,192,212267,1,0,0:0:0:0:
256,192,212441,1,8,0:0:0:0:
256,192,212790,1,0,0:0:0:0:
256,192,213052,1,8,0:0:0:0:
256,192,213488,1,8,0:0:0:0:
256,192,213662,1,0,0:0:0:0:
256,192,213836,1,8,0:0:0:0:
256,192,214360,1,0,0:0:0:0:
256,192,214534,1,8,0:0:0:0:
256,192,214708,1,8,0:0:0:0:
256,192,215058,1,8,0:0:0:0:
256,192,215233,1,8,0:0:0:0:
256,192,215320,1,8,0:0:0:0:
256,192,215407,1,8,0:0:0:0:
256,192,215582,1,0,0:0:0:0:
256,192,215669,1,0,0:0:0:0:
256,192,215756,1,0,0:0:0:0:
256,192,215930,1,0,0:0:0:0:
256,192,216279,1,8,0:0:0:0:
256,192,216453,1,0,0:0:0:0:
256,192,216627,1,8,0:0:0:0:
256,192,217151,1,0,0:0:0:0:
256,192,217325,1,0,0:0:0:0:
256,192,217499,1,8,0:0:0:0:
256,192,217674,1,0,0:0:0:0:
256,192,217848,1,0,0:0:0:0:
256,192,218022,1,8,0:0:0:0:
256,192,218371,1,8,0:0:0:0:
256,192,218633,1,8,0:0:0:0:
256,192,219069,1,12,0:0:0:0:
256,192,219244,1,8,0:0:0:0:
256,192,219331,1,8,0:0:0:0:
256,192,219418,1,8,0:0:0:0:
256,192,219593,1,0,0:0:0:0:
256,192,219767,1,0,0:0:0:0:
256,192,220029,1,8,0:0:0:0:
256,192,220465,1,4,0:0:0:0:
256,192,220639,1,0,0:0:0:0:
256,192,220726,1,0,0:0:0:0:
256,192,220813,1,0,0:0:0:0:
256,192,220988,1,0,0:0:0:0:
256,192,221162,1,0,0:0:0:0:
256,192,221250,1,0,0:0:0:0:
256,192,221337,1,8,0:0:0:0:
256,192,221511,1,8,0:0:0:0:
256,192,221686,1,0,0:0:0:0:
256,192,221773,1,8,0:0:0:0:
256,192,222209,1,12,0:0:0:0:
256,192,222383,12,12,227354,0:0:0:0:
