osu file format v14

[General]
AudioFilename: audio.mp3
AudioLeadIn: 0
PreviewTime: 71162
Countdown: 0
SampleSet: Normal
StackLeniency: 0.2
Mode: 1
LetterboxInBreaks: 0
WidescreenStoryboard: 0

[Editor]
Bookmarks: 1395,15348,37674,48837,60000,71162,93488,126976,138139,160465,174418,210697
DistanceSpacing: 0.5
BeatDivisor: 2
GridSize: 32
TimelineZoom: 2.9

[Metadata]
Title:HAELEQUINZ -the clown of 24stairs-
TitleUnicode:HAELEQ∩INZ -the clown of 24stairs-
Artist:orangentle / Yu_Asahina
ArtistUnicode:orangentle / Yu_Asahina
Creator:Jaye
Version:Kantan
Source:
Tags:Zetera BMS SOUND VOLTEX HAELEQUIN/HAELEQ∩INZ Comiket 87 C87 KLAMNOP NEXT NEXT-101 NEXT-001
BeatmapID:1487788
BeatmapSetID:623427

[Difficulty]
HPDrainRate:8
CircleSize:2
OverallDifficulty:3
ApproachRate:10
SliderMultiplier:1.4
SliderTickRate:1

[Events]
//Background and Video events
0,0,"commission_for_yiamme_by_erisiar-d78vaup.jpg",0,0
//Break Periods
//Storyboard Layer 0 (Background)
//Storyboard Layer 1 (Fail)
//Storyboard Layer 2 (Pass)
//Storyboard Layer 3 (Foreground)
//Storyboard Sound Samples

[TimingPoints]
0,348.837209302326,4,1,0,95,1,0
93488,-100,4,1,0,100,0,1
126976,-100,4,1,0,95,0,0
174418,-100,4,1,0,100,0,1
210697,-100,4,1,0,95,0,0

[HitObjects]
256,192,1395,5,4,0:0:0:0:
256,192,1918,1,4,0:0:0:0:
256,192,2615,1,12,0:0:0:0:
256,192,3313,1,12,0:0:0:0:
256,192,4011,1,8,0:0:0:0:
256,192,5755,1,12,0:0:0:0:
256,192,6279,1,4,0:0:0:0:
256,192,6976,1,0,0:0:0:0:
256,192,8372,1,8,0:0:0:0:
256,192,9767,1,0,0:0:0:0:
256,192,11162,1,8,0:0:0:0:
256,192,12558,1,8,0:0:0:0:
256,192,13255,1,0,0:0:0:0:
256,192,13953,1,8,0:0:0:0:
256,192,14302,1,0,0:0:0:0:
256,192,15348,1,0,0:0:0:0:
256,192,16046,1,0,0:0:0:0:
256,192,16395,1,0,0:0:0:0:
256,192,16744,1,8,0:0:0:0:
256,192,17790,1,0,0:0:0:0:
256,192,18139,1,8,0:0:0:0:
256,192,18837,1,8,0:0:0:0:
256,192,19186,1,8,0:0:0:0:
256,192,19534,1,0,0:0:0:0:
256,192,20581,1,0,0:0:0:0:
256,192,20930,1,8,0:0:0:0:
256,192,21453,1,0,0:0:0:0:
256,192,22325,1,0,0:0:0:0:
256,192,22848,1,8,0:0:0:0:
256,192,23720,1,8,0:0:0:0:
256,192,24418,1,8,0:0:0:0:
256,192,25116,1,8,0:0:0:0:
256,192,25465,1,0,0:0:0:0:
256,192,26511,1,8,0:0:0:0:
256,192,27209,1,0,0:0:0:0:
256,192,27558,1,8,0:0:0:0:
256,192,27906,1,0,0:0:0:0:
256,192,28604,1,8,0:0:0:0:
256,192,28953,1,0,0:0:0:0:
256,192,29302,1,8,0:0:0:0:
256,192,30000,1,8,0:0:0:0:
256,192,30348,1,0,0:0:0:0:
256,192,30697,1,0,0:0:0:0:
256,192,31395,1,8,0:0:0:0:
256,192,32093,1,8,0:0:0:0:
256,192,33488,1,0,0:0:0:0:
256,192,33837,1,8,0:0:0:0:
256,192,34186,1,8,0:0:0:0:
256,192,34883,1,0,0:0:0:0:
256,192,36279,1,8,0:0:0:0:
256,192,36976,1,0,0:0:0:0:
256,192,37325,1,8,0:0:0:0:
256,192,37674,1,8,0:0:0:0:
256,192,38372,1,0,0:0:0:0:
256,192,39069,1,0,0:0:0:0:
256,192,39418,1,8,0:0:0:0:
256,192,39767,1,0,0:0:0:0:
256,192,40465,1,0,0:0:0:0:
256,192,41162,1,0,0:0:0:0:
256,192,41860,1,8,0:0:0:0:
256,192,42209,1,0,0:0:0:0:
256,192,42558,1,8,0:0:0:0:
256,192,43255,1,8,0:0:0:0:
256,192,44651,1,0,0:0:0:0:
256,192,45174,1,8,0:0:0:0:
256,192,46046,1,8,0:0:0:0:
256,192,46744,1,0,0:0:0:0:
256,192,47441,1,8,0:0:0:0:
256,192,47790,1,0,0:0:0:0:
256,192,48139,1,8,0:0:0:0:
256,192,48488,1,8,0:0:0:0:
256,192,48837,1,0,0:0:0:0:
256,192,49883,1,8,0:0:0:0:
256,192,50930,1,0,0:0:0:0:
256,192,51279,1,8,0:0:0:0:
256,192,51627,1,0,0:0:0:0:
256,192,52674,1,8,0:0:0:0:
256,192,53372,1,8,0:0:0:0:
256,192,53720,1,0,0:0:0:0:
256,192,54069,1,8,0:0:0:0:
256,192,54418,1,0,0:0:0:0:
256,192,55465,1,8,0:0:0:0:
256,192,56511,1,8,0:0:0:0:
256,192,56860,1,8,0:0:0:0:
256,192,57209,1,4,0:0:0:0:
256,192,57906,1,8,0:0:0:0:
256,192,58604,1,0,0:0:0:0:
256,192,59302,1,8,0:0:0:0:
256,192,59651,1,0,0:0:0:0:
256,192,60000,1,8,0:0:0:0:
256,192,61395,1,8,0:0:0:0:
256,192,62093,1,0,0:0:0:0:
256,192,62441,1,0,0:0:0:0:
256,192,62790,1,8,0:0:0:0:
256,192,63837,1,0,0:0:0:0:
256,192,64186,1,8,0:0:0:0:
256,192,64883,1,8,0:0:0:0:
256,192,65581,1,8,0:0:0:0:
256,192,65930,1,0,0:0:0:0:
256,192,66279,1,8,0:0:0:0:
256,192,66976,1,8,0:0:0:0:
256,192,67674,1,0,0:0:0:0:
256,192,68023,1,8,0:0:0:0:
256,192,68372,1,8,0:0:0:0:
256,192,69069,1,0,0:0:0:0:
256,192,69767,1,8,0:0:0:0:
256,192,70116,1,0,0:0:0:0:
256,192,70465,1,0,0:0:0:0:
256,192,70813,1,8,0:0:0:0:
256,192,71162,1,12,0:0:0:0:
256,192,73081,1,0,0:0:0:0:
256,192,73430,1,12,0:0:0:0:
256,192,73953,1,4,0:0:0:0:
256,192,75348,1,8,0:0:0:0:
256,192,75697,1,0,0:0:0:0:
256,192,76220,1,12,0:0:0:0:
256,192,76744,1,4,0:0:0:0:
256,192,78488,1,0,0:0:0:0:
256,192,78837,1,8,0:0:0:0:
256,192,79186,1,0,0:0:0:0:
256,192,79534,1,12,0:0:0:0:
256,192,80930,1,4,0:0:0:0:
256,192,81627,1,8,0:0:0:0:
256,192,82325,1,12,0:0:0:0:
256,192,83372,1,0,0:0:0:0:
256,192,84069,1,8,0:0:0:0:
256,192,84418,1,8,0:0:0:0:
256,192,85116,1,0,0:0:0:0:
256,192,86162,1,0,0:0:0:0:
256,192,86860,1,0,0:0:0:0:
256,192,87209,1,8,0:0:0:0:
256,192,87906,1,12,0:0:0:0:
256,192,88604,1,8,0:0:0:0:
256,192,89302,1,4,0:0:0:0:
256,192,90523,1,0,0:0:0:0:
256,192,91046,1,8,0:0:0:0:
256,192,91395,1,8,0:0:0:0:
256,192,92093,1,0,0:0:0:0:
256,192,92441,1,0,0:0:0:0:
256,192,92790,1,0,0:0:0:0:
256,192,93313,1,8,0:0:0:0:
256,192,93837,1,8,0:0:0:0:
256,192,94186,1,8,0:0:0:0:
256,192,94709,1,0,0:0:0:0:
256,192,95581,1,0,0:0:0:0:
256,192,96104,1,8,0:0:0:0:
256,192,96627,1,8,0:0:0:0:
256,192,96976,1,0,0:0:0:0:
256,192,97500,1,0,0:0:0:0:
256,192,98720,1,0,0:0:0:0:
256,192,99069,1,8,0:0:0:0:
256,192,99767,1,0,0:0:0:0:
256,192,100290,1,8,0:0:0:0:
256,192,101162,1,0,0:0:0:0:
256,192,101686,1,4,0:0:0:0:
256,192,102558,1,4,0:0:0:0:
256,192,103255,1,4,0:0:0:0:
256,192,103953,1,12,0:0:0:0:
256,192,104651,1,8,0:0:0:0:
256,192,105000,1,0,0:0:0:0:
256,192,105348,1,8,0:0:0:0:
256,192,105872,1,0,0:0:0:0:
256,192,106569,1,8,0:0:0:0:
256,192,107267,1,0,0:0:0:0:
256,192,107790,1,8,0:0:0:0:
256,192,108139,1,0,0:0:0:0:
256,192,108837,1,0,0:0:0:0:
256,192,109186,1,0,0:0:0:0:
256,192,109534,1,8,0:0:0:0:
256,192,110581,1,8,0:0:0:0:
256,192,110930,1,8,0:0:0:0:
256,192,111627,1,0,0:0:0:0:
256,192,111976,1,8,0:0:0:0:
256,192,112325,1,8,0:0:0:0:
256,192,113023,1,0,0:0:0:0:
256,192,114244,1,8,0:0:0:0:
256,192,114767,1,0,0:0:0:0:
256,192,115116,1,8,0:0:0:0:
256,192,115813,1,0,0:0:0:0:
256,192,116162,1,8,0:0:0:0:
256,192,116511,1,0,0:0:0:0:
256,192,117034,1,0,0:0:0:0:
256,192,117906,1,0,0:0:0:0:
256,192,118953,1,0,0:0:0:0:
256,192,119302,1,0,0:0:0:0:
256,192,120000,1,8,0:0:0:0:
256,192,120697,1,0,0:0:0:0:
256,192,121395,1,4,0:0:0:0:
256,192,122093,1,4,0:0:0:0:
256,192,122790,1,12,0:0:0:0:
256,192,123488,1,12,0:0:0:0:
256,192,124186,1,12,0:0:0:0:
256,192,125232,1,0,0:0:0:0:
256,192,125581,1,8,0:0:0:0:
256,192,126627,1,8,0:0:0:0:
256,192,126976,1,4,0:0:0:0:
256,192,128023,1,8,0:0:0:0:
256,192,128720,1,0,0:0:0:0:
256,192,129069,1,0,0:0:0:0:
256,192,129767,1,8,0:0:0:0:
256,192,130813,1,0,0:0:0:0:
256,192,131512,1,8,0:0:0:0:
256,192,131861,1,0,0:0:0:0:
256,192,132558,1,0,0:0:0:0:
256,192,133604,1,8,0:0:0:0:
256,192,134301,1,0,0:0:0:0:
256,192,134650,1,8,0:0:0:0:
256,192,135348,1,12,0:0:0:0:
256,192,136744,1,4,0:0:0:0:
256,192,138139,1,0,0:0:0:0:
256,192,138837,1,8,0:0:0:0:
256,192,139186,1,0,0:0:0:0:
256,192,139535,1,8,0:0:0:0:
256,192,140581,1,0,0:0:0:0:
256,192,140930,1,8,0:0:0:0:
256,192,141628,1,0,0:0:0:0:
256,192,141977,1,8,0:0:0:0:
256,192,142325,1,0,0:0:0:0:
256,192,143372,1,8,0:0:0:0:
256,192,143721,1,8,0:0:0:0:
256,192,144244,1,0,0:0:0:0:
256,192,145116,1,0,0:0:0:0:
256,192,145639,1,8,0:0:0:0:
256,192,146511,1,8,0:0:0:0:
256,192,147209,1,8,0:0:0:0:
256,192,147907,1,0,0:0:0:0:
256,192,148256,1,8,0:0:0:0:
256,192,149302,1,0,0:0:0:0:
256,192,150000,1,8,0:0:0:0:
256,192,150349,1,8,0:0:0:0:
256,192,150697,1,0,0:0:0:0:
256,192,151395,1,8,0:0:0:0:
256,192,151744,1,0,0:0:0:0:
256,192,152093,1,8,0:0:0:0:
256,192,152791,1,8,0:0:0:0:
256,192,153139,1,0,0:0:0:0:
256,192,153488,1,0,0:0:0:0:
256,192,154186,1,8,0:0:0:0:
256,192,154884,1,8,0:0:0:0:
256,192,156279,1,0,0:0:0:0:
256,192,156628,1,8,0:0:0:0:
256,192,156977,1,8,0:0:0:0:
256,192,157674,1,0,0:0:0:0:
256,192,159070,1,8,0:0:0:0:
256,192,159767,1,0,0:0:0:0:
256,192,160116,1,8,0:0:0:0:
256,192,160465,1,0,0:0:0:0:
256,192,161860,1,8,0:0:0:0:
256,192,163255,1,0,0:0:0:0:
256,192,164651,1,8,0:0:0:0:
256,192,166046,1,0,0:0:0:0:
256,192,167442,1,8,0:0:0:0:
256,192,168139,1,0,0:0:0:0:
256,192,168662,1,12,0:0:0:0:
256,192,169186,1,0,0:0:0:0:
256,192,169534,1,0,0:0:0:0:
256,192,170232,1,0,0:0:0:0:
256,192,170581,1,0,0:0:0:0:
256,192,170930,1,8,0:0:0:0:
256,192,171453,1,12,0:0:0:0:
256,192,172848,1,0,0:0:0:0:
256,192,173372,1,8,0:0:0:0:
256,192,173720,1,0,0:0:0:0:
256,192,174244,1,8,0:0:0:0:
256,192,175116,1,8,0:0:0:0:
256,192,175639,1,0,0:0:0:0:
256,192,176337,1,8,0:0:0:0:
256,192,177034,1,0,0:0:0:0:
256,192,177558,1,8,0:0:0:0:
256,192,177906,1,0,0:0:0:0:
256,192,178430,1,8,0:0:0:0:
256,192,178953,1,8,0:0:0:0:
256,192,179302,1,0,0:0:0:0:
256,192,179651,1,0,0:0:0:0:
256,192,180000,1,8,0:0:0:0:
256,192,181220,1,0,0:0:0:0:
256,192,182093,1,0,0:0:0:0:
256,192,182441,1,8,0:0:0:0:
256,192,182790,1,4,0:0:0:0:
256,192,183488,1,4,0:0:0:0:
256,192,184186,1,4,0:0:0:0:
256,192,184883,1,12,0:0:0:0:
256,192,185581,1,8,0:0:0:0:
256,192,186802,1,8,0:0:0:0:
256,192,187499,1,8,0:0:0:0:
256,192,188197,1,0,0:0:0:0:
256,192,188720,1,8,0:0:0:0:
256,192,189069,1,0,0:0:0:0:
256,192,189767,1,0,0:0:0:0:
256,192,190116,1,0,0:0:0:0:
256,192,190464,1,8,0:0:0:0:
256,192,191511,1,8,0:0:0:0:
256,192,191860,1,8,0:0:0:0:
256,192,192557,1,0,0:0:0:0:
256,192,192906,1,8,0:0:0:0:
256,192,193255,1,8,0:0:0:0:
256,192,193953,1,0,0:0:0:0:
256,192,194650,1,8,0:0:0:0:
256,192,194999,1,8,0:0:0:0:
256,192,195697,1,0,0:0:0:0:
256,192,196046,1,8,0:0:0:0:
256,192,196743,1,0,0:0:0:0:
256,192,197092,1,8,0:0:0:0:
256,192,197441,1,0,0:0:0:0:
256,192,197965,1,0,0:0:0:0:
256,192,198836,1,0,0:0:0:0:
256,192,199883,1,0,0:0:0:0:
256,192,200232,1,0,0:0:0:0:
256,192,200755,1,8,0:0:0:0:
256,192,201627,1,0,0:0:0:0:
256,192,202325,1,4,0:0:0:0:
256,192,203023,1,4,0:0:0:0:
256,192,203720,1,12,0:0:0:0:
256,192,204418,1,12,0:0:0:0:
256,192,205116,1,12,0:0:0:0:
256,192,206162,1,0,0:0:0:0:
256,192,206511,1,8,0:0:0:0:
256,192,207557,1,0,0:0:0:0:
256,192,207906,1,8,0:0:0:0:
256,192,208603,1,0,0:0:0:0:
256,192,208952,1,8,0:0:0:0:
256,192,209302,1,8,0:0:0:0:
256,192,209999,1,0,0:0:0:0:
256,192,210347,1,8,0:0:0:0:
256,192,210697,1,12,0:0:0:0:
256,192,211744,1,8,0:0:0:0:
256,192,212441,1,0,0:0:0:0:
256,192,212790,1,0,0:0:0:0:
256,192,213488,1,8,0:0:0:0:
256,192,214534,1,0,0:0:0:0:
256,192,215233,1,8,0:0:0:0:
256,192,215582,1,0,0:0:0:0:
256,192,216279,1,0,0:0:0:0:
256,192,217325,1,8,0:0:0:0:
256,192,218022,1,8,0:0:0:0:
256,192,218371,1,0,0:0:0:0:
256,192,219069,1,12,0:0:0:0:
256,192,220465,1,4,0:0:0:0:
256,192,221162,1,0,0:0:0:0:
256,192,221511,1,8,0:0:0:0:
256,192,222209,1,12,0:0:0:0:
256,192,222383,12,12,227354,0:0:0:0:
