osu file format v14

[General]
AudioFilename: HAELEQUIN (Extended ver.).mp3
AudioLeadIn: 0
PreviewTime: 219424
Countdown: 0
SampleSet: Normal
StackLeniency: 0.7
Mode: 1
LetterboxInBreaks: 0
WidescreenStoryboard: 0

[Editor]
DistanceSpacing: 1
BeatDivisor: 4
GridSize: 32
TimelineZoom: 2.699999

[Metadata]
Title:HAELEQUIN (Extended ver.)
TitleUnicode:HAELEQUIN (Extended ver.)
Artist:orangentle / Yu_Asahina
ArtistUnicode:orangentle / Yu_Asahina
Creator:butter0414
Version:Inner Oni
Source:SOUND VOLTEX II -infinite infection-
Tags:sdvx chunithm bms bof2012
BeatmapID:1424806
BeatmapSetID:673204

[Difficulty]
HPDrainRate:4
CircleSize:5
OverallDifficulty:7
ApproachRate:5
SliderMultiplier:1.4
SliderTickRate:1

[Events]
//Background and Video events
0,0,"gear-wallpaper-2.jpg",0,0
//Break Periods
//Storyboard Layer 0 (Background)
//Storyboard Layer 1 (Fail)
//Storyboard Layer 2 (Pass)
//Storyboard Layer 3 (Foreground)
//Storyboard Sound Samples

[TimingPoints]
1401,348.837209302326,4,1,0,65,1,0
11866,-100,4,1,0,70,0,0
23377,-100,4,1,0,75,0,0
25994,-100,4,1,0,80,0,0
38901,-100,4,1,0,65,0,0
47273,-100,4,1,0,70,0,0
69773,-100,4,1,0,80,0,0
92273,-100,4,1,0,75,0,0
96197,-100,4,1,0,80,0,0
103435,-100,4,1,0,65,0,0
122709,-100,4,1,0,75,0,0
167621,-100,4,1,0,80,0,0
188028,-100,4,1,0,85,0,0
219075,-100,4,1,0,95,0,0
220470,-100,4,1,0,95,0,1
238610,-100,4,1,0,95,0,0
240005,-100,4,1,0,95,0,1
265121,-100,4,1,0,95,0,0
265209,-100,4,1,0,90,0,0
281866,-100,4,1,0,95,0,1
284656,-100,4,1,0,95,0,0
284831,-100,4,1,0,85,0,0
293028,-100,4,1,0,90,0,0

[HitObjects]
256,192,703,5,2,0:0:0:0:
256,192,1401,5,4,0:0:0:0:
256,192,1749,1,2,0:0:0:0:
256,192,2447,1,2,0:0:0:0:
256,192,3145,1,2,0:0:0:0:
256,192,3842,1,2,0:0:0:0:
256,192,4540,1,2,0:0:0:0:
256,192,5238,1,2,0:0:0:0:
256,192,5935,1,2,0:0:0:0:
256,192,6633,1,2,0:0:0:0:
256,192,7331,1,2,0:0:0:0:
256,192,8028,1,2,0:0:0:0:
256,192,8726,1,2,0:0:0:0:
256,192,9424,1,2,0:0:0:0:
256,192,9773,1,0,0:0:0:0:
256,192,10121,1,2,0:0:0:0:
256,192,10819,1,2,0:0:0:0:
256,192,11517,1,2,0:0:0:0:
256,192,12214,1,2,0:0:0:0:
256,192,12389,1,0,0:0:0:0:
256,192,12563,1,0,0:0:0:0:
256,192,12912,1,2,0:0:0:0:
256,192,13261,1,0,0:0:0:0:
256,192,13610,1,2,0:0:0:0:
256,192,13959,1,0,0:0:0:0:
256,192,14307,1,2,0:0:0:0:
256,192,14656,1,0,0:0:0:0:
256,192,15005,1,2,0:0:0:0:
224,192,15180,1,2,0:0:0:0:
256,192,15354,1,0,0:0:0:0:
256,192,15703,1,2,0:0:0:0:
256,192,16052,1,0,0:0:0:0:
256,192,16401,1,2,0:0:0:0:
256,192,16749,1,0,0:0:0:0:
256,192,17098,1,2,0:0:0:0:
256,192,17447,1,0,0:0:0:0:
256,192,17709,1,0,0:0:0:0:
256,192,17796,1,2,0:0:0:0:
256,192,17970,1,0,0:0:0:0:
256,192,18145,1,0,0:0:0:0:
256,192,18494,1,2,0:0:0:0:
256,192,18842,1,0,0:0:0:0:
256,192,19191,1,2,0:0:0:0:
256,192,19540,1,0,0:0:0:0:
256,192,19889,1,2,0:0:0:0:
256,192,20238,1,0,0:0:0:0:
256,192,20587,1,2,0:0:0:0:
256,192,20761,1,0,0:0:0:0:
256,192,20935,1,0,0:0:0:0:
256,192,21284,1,2,0:0:0:0:
256,192,21633,1,0,0:0:0:0:
256,192,21982,1,2,0:0:0:0:
256,192,22331,1,4,0:0:0:0:
256,192,23726,1,2,0:0:0:0:
256,192,23813,1,2,0:0:0:0:
256,192,23901,1,0,0:0:0:0:
256,192,23988,1,2,0:0:0:0:
256,192,24075,1,2,0:0:0:0:
256,192,24162,1,0,0:0:0:0:
256,192,24249,1,2,0:0:0:0:
256,192,24337,1,0,0:0:0:0:
256,192,24424,1,2,0:0:0:0:
256,192,24511,1,0,0:0:0:0:
256,192,24598,1,0,0:0:0:0:
256,192,24685,1,2,0:0:0:0:
256,192,24773,1,0,0:0:0:0:
256,192,24860,1,0,0:0:0:0:
256,192,24947,1,2,0:0:0:0:
256,192,25034,1,2,0:0:0:0:
256,192,25121,1,0,0:0:0:0:
256,192,25819,1,2,0:0:0:0:
256,192,26168,1,0,0:0:0:0:
256,192,26255,1,0,0:0:0:0:
256,192,26342,1,2,0:0:0:0:
256,192,26430,1,2,0:0:0:0:
256,192,26517,1,0,0:0:0:0:
256,192,26866,1,2,0:0:0:0:
256,192,27040,1,4,0:0:0:0:
256,192,27389,1,0,0:0:0:0:
256,192,27563,1,6,0:0:0:0:
256,192,27738,1,0,0:0:0:0:
256,192,28087,1,6,0:0:0:0:
256,192,28435,1,0,0:0:0:0:
256,192,28610,1,6,0:0:0:0:
256,192,28959,1,4,0:0:0:0:
256,192,29133,1,2,0:0:0:0:
256,192,29307,1,4,0:0:0:0:
256,192,29482,1,2,0:0:0:0:
256,192,29656,1,2,0:0:0:0:
256,192,29831,1,4,0:0:0:0:
256,192,30180,1,0,0:0:0:0:
256,192,30354,1,6,0:0:0:0:
256,192,30703,1,2,0:0:0:0:
256,192,30877,1,4,0:0:0:0:
256,192,31226,1,2,0:0:0:0:
256,192,31401,1,0,0:0:0:0:
256,192,31488,1,2,0:0:0:0:
256,192,31575,1,2,0:0:0:0:
256,192,31662,1,0,0:0:0:0:
256,192,31749,1,2,0:0:0:0:
256,192,31837,1,2,0:0:0:0:
256,192,31924,1,0,0:0:0:0:
256,192,32011,1,2,0:0:0:0:
256,192,32098,1,0,0:0:0:0:
256,192,32273,1,2,0:0:0:0:
256,192,32447,1,0,0:0:0:0:
256,192,32534,1,2,0:0:0:0:
256,192,32796,1,0,0:0:0:0:
256,192,33057,1,2,0:0:0:0:
256,192,33145,1,0,0:0:0:0:
256,192,33319,1,2,0:0:0:0:
256,192,33406,1,2,0:0:0:0:
256,192,33494,1,0,0:0:0:0:
256,192,33668,1,2,0:0:0:0:
256,192,33842,1,0,0:0:0:0:
256,192,33930,1,2,0:0:0:0:
256,192,34191,1,0,0:0:0:0:
256,192,34366,1,2,0:0:0:0:
256,192,34453,1,0,0:0:0:0:
256,192,34540,1,2,0:0:0:0:
256,192,34714,1,0,0:0:0:0:
256,192,34802,1,0,0:0:0:0:
256,192,34889,1,2,0:0:0:0:
256,192,35063,1,0,0:0:0:0:
256,192,35238,1,2,0:0:0:0:
256,192,35325,1,2,0:0:0:0:
256,192,35499,1,2,0:0:0:0:
256,192,35587,1,0,0:0:0:0:
256,192,35761,1,2,0:0:0:0:
256,192,35848,1,2,0:0:0:0:
256,192,35935,1,0,0:0:0:0:
256,192,36110,1,2,0:0:0:0:
256,192,36284,1,0,0:0:0:0:
256,192,36633,1,6,0:0:0:0:
256,192,37680,1,2,0:0:0:0:
256,192,37767,1,2,0:0:0:0:
256,192,37941,1,0,0:0:0:0:
256,192,38028,1,2,0:0:0:0:
256,192,38203,1,0,0:0:0:0:
256,192,38290,1,2,0:0:0:0:
256,192,38377,1,2,0:0:0:0:
256,192,38464,1,2,0:0:0:0:
256,192,38552,1,0,0:0:0:0:
256,192,38639,1,0,0:0:0:0:
256,192,38726,1,2,0:0:0:0:
256,192,39075,1,4,0:0:0:0:
256,192,39424,1,2,0:0:0:0:
256,192,39598,1,0,0:0:0:0:
256,192,40121,1,2,0:0:0:0:
256,192,40470,1,0,0:0:0:0:
256,192,40819,1,2,0:0:0:0:
256,192,40994,1,0,0:0:0:0:
256,192,41342,1,0,0:0:0:0:
256,192,41517,1,2,0:0:0:0:
256,192,41866,1,0,0:0:0:0:
256,192,42040,1,0,0:0:0:0:
256,192,42389,1,2,0:0:0:0:
256,192,42738,1,0,0:0:0:0:
256,192,42912,1,2,0:0:0:0:
256,192,43087,1,0,0:0:0:0:
256,192,43261,1,0,0:0:0:0:
256,192,43435,1,2,0:0:0:0:
256,192,43610,1,2,0:0:0:0:
256,192,43784,1,0,0:0:0:0:
256,192,44133,1,0,0:0:0:0:
256,192,44307,1,2,0:0:0:0:
256,192,44656,1,0,0:0:0:0:
256,192,44831,1,0,0:0:0:0:
256,192,45180,1,2,0:0:0:0:
256,192,45441,1,2,0:0:0:0:
256,192,45528,1,0,0:0:0:0:
256,192,45703,1,2,0:0:0:0:
256,192,45877,1,2,0:0:0:0:
256,192,46052,1,0,0:0:0:0:
256,192,46139,1,2,0:0:0:0:
256,192,46226,1,0,0:0:0:0:
256,192,46401,1,2,0:0:0:0:
256,192,46488,1,2,0:0:0:0:
256,192,46575,1,0,0:0:0:0:
256,192,46662,1,0,0:0:0:0:
256,192,46749,1,2,0:0:0:0:
256,192,46837,1,2,0:0:0:0:
256,192,46924,1,0,0:0:0:0:
256,192,47098,1,2,0:0:0:0:
256,192,47447,1,4,0:0:0:0:
256,192,47883,1,2,0:0:0:0:
256,192,47970,1,2,0:0:0:0:
256,192,48057,1,2,0:0:0:0:
256,192,48145,1,0,0:0:0:0:
256,192,48319,1,2,0:0:0:0:
256,192,48494,1,2,0:0:0:0:
256,192,48668,1,2,0:0:0:0:
256,192,48842,1,0,0:0:0:0:
256,192,49104,1,2,0:0:0:0:
256,192,49191,1,0,0:0:0:0:
256,192,49366,1,2,0:0:0:0:
256,192,49714,1,2,0:0:0:0:
256,192,49889,1,0,0:0:0:0:
256,192,50063,1,2,0:0:0:0:
256,192,50151,1,2,0:0:0:0:
256,192,50238,1,0,0:0:0:0:
256,192,50587,1,2,0:0:0:0:
256,192,50761,1,0,0:0:0:0:
256,192,50848,1,2,0:0:0:0:
256,192,50935,1,2,0:0:0:0:
256,192,51110,1,0,0:0:0:0:
256,192,51284,1,2,0:0:0:0:
256,192,51459,1,0,0:0:0:0:
256,192,51546,1,0,0:0:0:0:
256,192,51633,1,2,0:0:0:0:
256,192,51720,1,2,0:0:0:0:
256,192,51807,1,0,0:0:0:0:
256,192,52156,1,2,0:0:0:0:
256,192,52505,1,2,0:0:0:0:
256,192,52680,1,0,0:0:0:0:
256,192,52854,1,2,0:0:0:0:
256,192,53028,1,0,0:0:0:0:
256,192,53290,1,2,0:0:0:0:
256,192,53552,1,0,0:0:0:0:
256,192,53813,1,0,0:0:0:0:
256,192,53901,1,2,0:0:0:0:
256,192,54075,1,0,0:0:0:0:
256,192,54249,1,2,0:0:0:0:
256,192,54424,1,2,0:0:0:0:
256,192,54511,1,2,0:0:0:0:
256,192,54598,1,0,0:0:0:0:
256,192,54773,1,0,0:0:0:0:
256,192,54947,1,2,0:0:0:0:
256,192,55296,1,2,0:0:0:0:
256,192,55470,1,0,0:0:0:0:
256,192,55645,1,2,0:0:0:0:
256,192,55732,1,2,0:0:0:0:
256,192,55819,1,0,0:0:0:0:
256,192,56168,1,2,0:0:0:0:
256,192,56342,1,0,0:0:0:0:
256,192,56430,1,0,0:0:0:0:
256,192,56517,1,2,0:0:0:0:
256,192,56691,1,0,0:0:0:0:
256,192,56778,1,2,0:0:0:0:
256,192,56866,1,0,0:0:0:0:
256,192,57040,1,2,0:0:0:0:
256,192,57214,1,0,0:0:0:0:
256,192,57563,1,6,0:0:0:0:
256,192,58348,1,0,0:0:0:0:
256,192,58435,1,2,0:0:0:0:
256,192,58523,1,2,0:0:0:0:
256,192,58610,1,0,0:0:0:0:
256,192,58784,1,2,0:0:0:0:
256,192,59046,1,2,0:0:0:0:
256,192,59133,1,2,0:0:0:0:
256,192,59220,1,2,0:0:0:0:
256,192,59307,1,0,0:0:0:0:
256,192,59482,1,2,0:0:0:0:
256,192,59656,1,2,0:0:0:0:
256,192,59831,1,2,0:0:0:0:
256,192,60005,1,0,0:0:0:0:
256,192,60180,1,2,0:0:0:0:
256,192,60267,1,2,0:0:0:0:
256,192,60354,1,0,0:0:0:0:
256,192,60528,1,2,0:0:0:0:
256,192,60877,1,2,0:0:0:0:
256,192,61052,1,0,0:0:0:0:
256,192,61226,1,2,0:0:0:0:
256,192,61401,1,4,0:0:0:0:
256,192,61662,1,2,0:0:0:0:
256,192,61924,1,0,0:0:0:0:
256,192,62098,1,6,0:0:0:0:
256,192,62360,1,2,0:0:0:0:
256,192,62621,1,0,0:0:0:0:
256,192,62796,1,6,0:0:0:0:
256,192,63319,1,0,0:0:0:0:
256,192,63494,1,6,0:0:0:0:
256,192,63842,1,2,0:0:0:0:
256,192,64191,1,4,0:0:0:0:
256,192,64540,1,0,0:0:0:0:
256,192,64714,1,2,0:0:0:0:
256,192,64889,1,0,0:0:0:0:
256,192,65063,1,2,0:0:0:0:
256,192,65238,1,2,0:0:0:0:
256,192,65412,1,0,0:0:0:0:
256,192,65587,1,2,0:0:0:0:
256,192,65848,1,0,0:0:0:0:
256,192,65935,1,2,0:0:0:0:
256,192,66110,1,0,0:0:0:0:
256,192,66459,1,2,0:0:0:0:
256,192,66633,1,0,0:0:0:0:
256,192,66807,1,2,0:0:0:0:
256,192,66895,1,2,0:0:0:0:
256,192,66982,1,0,0:0:0:0:
256,192,67244,1,2,0:0:0:0:
256,192,67505,1,2,0:0:0:0:
256,192,67680,1,4,0:0:0:0:
256,192,67941,1,2,0:0:0:0:
256,192,68203,1,0,0:0:0:0:
256,192,68377,1,6,0:0:0:0:
256,192,68552,1,0,0:0:0:0:
256,192,68639,1,0,0:0:0:0:
256,192,68726,1,2,0:0:0:0:
256,192,68784,1,2,0:0:0:0:
256,192,68842,1,2,0:0:0:0:
256,192,68901,1,0,0:0:0:0:
256,192,68959,1,0,0:0:0:0:
256,192,69017,1,0,0:0:0:0:
256,192,69075,1,2,0:0:0:0:
256,192,69249,1,0,0:0:0:0:
256,192,69424,1,2,0:0:0:0:
256,192,69511,1,2,0:0:0:0:
256,192,69598,1,0,0:0:0:0:
256,192,69685,1,2,0:0:0:0:
256,192,69773,1,0,0:0:0:0:
256,192,69947,1,2,0:0:0:0:
256,192,70121,1,0,0:0:0:0:
256,192,70209,1,2,0:0:0:0:
256,192,70296,1,0,0:0:0:0:
256,192,70383,1,0,0:0:0:0:
256,192,70470,1,2,0:0:0:0:
256,192,70645,1,0,0:0:0:0:
256,192,70732,1,2,0:0:0:0:
256,192,70819,1,0,0:0:0:0:
256,192,70994,1,2,0:0:0:0:
256,192,71168,1,0,0:0:0:0:
256,192,71430,1,2,0:0:0:0:
256,192,71517,1,0,0:0:0:0:
256,192,71691,1,2,0:0:0:0:
256,192,71866,1,0,0:0:0:0:
256,192,71953,1,0,0:0:0:0:
256,192,72040,1,2,0:0:0:0:
256,192,72214,1,0,0:0:0:0:
256,192,72389,1,2,0:0:0:0:
256,192,72476,1,2,0:0:0:0:
256,192,72563,1,0,0:0:0:0:
256,192,72912,1,2,0:0:0:0:
256,192,73087,1,0,0:0:0:0:
256,192,73174,1,2,0:0:0:0:
256,192,73261,1,2,0:0:0:0:
256,192,73435,1,0,0:0:0:0:
256,192,73610,1,2,0:0:0:0:
256,192,73784,1,0,0:0:0:0:
256,192,73871,1,0,0:0:0:0:
256,192,73959,1,2,0:0:0:0:
256,192,74220,1,0,0:0:0:0:
256,192,74307,1,2,0:0:0:0:
256,192,74482,1,0,0:0:0:0:
256,192,74569,1,0,0:0:0:0:
256,192,74656,1,2,0:0:0:0:
224,192,74744,1,2,0:0:0:0:
256,192,74831,1,0,0:0:0:0:
256,192,75005,1,2,0:0:0:0:
256,192,75180,1,2,0:0:0:0:
256,192,75354,1,4,0:0:0:0:
256,192,75616,1,0,0:0:0:0:
256,192,75703,1,2,0:0:0:0:
256,192,75877,1,4,0:0:0:0:
256,192,76226,1,2,0:0:0:0:
256,192,76401,1,0,0:0:0:0:
256,192,76575,1,2,0:0:0:0:
256,192,76749,1,4,0:0:0:0:
256,192,76924,1,0,0:0:0:0:
256,192,77011,1,2,0:0:0:0:
256,192,77098,1,0,0:0:0:0:
256,192,77273,1,6,0:0:0:0:
256,192,77447,1,0,0:0:0:0:
256,192,77621,1,2,0:0:0:0:
256,192,77680,1,0,0:0:0:0:
256,192,77738,1,0,0:0:0:0:
256,192,77796,1,2,0:0:0:0:
256,192,77854,1,0,0:0:0:0:
256,192,77912,1,0,0:0:0:0:
256,192,77970,1,2,0:0:0:0:
256,192,78057,1,2,0:0:0:0:
256,192,78145,1,0,0:0:0:0:
256,192,78494,1,2,0:0:0:0:
256,192,78668,1,0,0:0:0:0:
256,192,78842,1,2,0:0:0:0:
256,192,79017,1,0,0:0:0:0:
256,192,79104,1,2,0:0:0:0:
256,192,79191,1,2,0:0:0:0:
256,192,79366,1,0,0:0:0:0:
256,192,79540,1,2,0:0:0:0:
256,192,79889,1,4,0:0:0:0:
256,192,80412,1,0,0:0:0:0:
256,192,80499,1,0,0:0:0:0:
256,192,80587,1,2,0:0:0:0:
256,192,80674,1,2,0:0:0:0:
256,192,80761,1,0,0:0:0:0:
256,192,80848,1,2,0:0:0:0:
256,192,80935,1,0,0:0:0:0:
256,192,81110,1,2,0:0:0:0:
256,192,81284,1,0,0:0:0:0:
256,192,81371,1,2,0:0:0:0:
256,192,81459,1,0,0:0:0:0:
256,192,81546,1,0,0:0:0:0:
256,192,81633,1,2,0:0:0:0:
256,192,81807,1,0,0:0:0:0:
256,192,81895,1,2,0:0:0:0:
256,192,81982,1,0,0:0:0:0:
256,192,82156,1,2,0:0:0:0:
256,192,82331,1,0,0:0:0:0:
256,192,82592,1,2,0:0:0:0:
256,192,82680,1,0,0:0:0:0:
256,192,82854,1,2,0:0:0:0:
256,192,82941,1,2,0:0:0:0:
256,192,83028,1,0,0:0:0:0:
256,192,83203,1,2,0:0:0:0:
256,192,83290,1,0,0:0:0:0:
256,192,83377,1,2,0:0:0:0:
256,192,83552,1,0,0:0:0:0:
256,192,83726,1,6,0:0:0:0:
256,192,83988,1,2,0:0:0:0:
256,192,84249,1,0,0:0:0:0:
256,192,84424,1,6,0:0:0:0:
256,192,84685,1,0,0:0:0:0:
256,192,84947,1,0,0:0:0:0:
256,192,85121,1,6,0:0:0:0:
256,192,85645,1,0,0:0:0:0:
256,192,85819,1,6,0:0:0:0:
256,192,85994,1,0,0:0:0:0:
256,192,86052,1,0,0:0:0:0:
256,192,86110,1,0,0:0:0:0:
256,192,86168,1,2,0:0:0:0:
256,192,86255,1,0,0:0:0:0:
256,192,86342,1,2,0:0:0:0:
256,192,86430,1,2,0:0:0:0:
256,192,86517,1,0,0:0:0:0:
256,192,86866,1,2,0:0:0:0:
256,192,87040,1,0,0:0:0:0:
256,192,87127,1,0,0:0:0:0:
256,192,87214,1,2,0:0:0:0:
256,192,87302,1,2,0:0:0:0:
256,192,87389,1,0,0:0:0:0:
256,192,87563,1,2,0:0:0:0:
256,192,87738,1,2,0:0:0:0:
256,192,87912,1,0,0:0:0:0:
256,192,88174,1,2,0:0:0:0:
256,192,88261,1,0,0:0:0:0:
256,192,88435,1,2,0:0:0:0:
256,192,88610,1,0,0:0:0:0:
256,192,88784,1,2,0:0:0:0:
256,192,88871,1,0,0:0:0:0:
256,192,88959,1,2,0:0:0:0:
256,192,89046,1,2,0:0:0:0:
256,192,89133,1,0,0:0:0:0:
256,192,89220,1,2,0:0:0:0:
256,192,89482,1,0,0:0:0:0:
256,192,89656,1,6,0:0:0:0:
256,192,90180,1,0,0:0:0:0:
256,192,90354,1,6,0:0:0:0:
256,192,90703,1,0,0:0:0:0:
256,192,90790,1,0,0:0:0:0:
256,192,90877,1,2,0:0:0:0:
256,192,90935,1,2,0:0:0:0:
256,192,90994,1,2,0:0:0:0:
256,192,91052,1,0,0:0:0:0:
256,192,91139,1,2,0:0:0:0:
256,192,91226,1,0,0:0:0:0:
256,192,91284,1,0,0:0:0:0:
256,192,91342,1,0,0:0:0:0:
256,192,91401,1,2,0:0:0:0:
256,192,91575,1,0,0:0:0:0:
256,192,91749,1,2,0:0:0:0:
256,192,91837,1,0,0:0:0:0:
256,192,91924,1,2,0:0:0:0:
256,192,92011,1,2,0:0:0:0:
256,192,92098,1,0,0:0:0:0:
256,192,92447,1,2,0:0:0:0:
256,192,93145,1,2,0:0:0:0:
256,192,93494,1,4,0:0:0:0:
256,192,93842,1,2,0:0:0:0:
256,192,94366,1,0,0:0:0:0:
256,192,94540,1,2,0:0:0:0:
256,192,94714,1,0,0:0:0:0:
256,192,94773,1,0,0:0:0:0:
256,192,94831,1,0,0:0:0:0:
256,192,94889,1,0,0:0:0:0:
256,192,95238,1,2,0:0:0:0:
256,192,95587,1,2,0:0:0:0:
256,192,95761,1,0,0:0:0:0:
256,192,95935,1,2,0:0:0:0:
256,192,96110,1,2,0:0:0:0:
256,192,96284,1,0,0:0:0:0:
256,192,96546,1,0,0:0:0:0:
256,192,96633,1,2,0:0:0:0:
256,192,96807,1,0,0:0:0:0:
256,192,96895,1,0,0:0:0:0:
256,192,96982,1,2,0:0:0:0:
256,192,97156,1,0,0:0:0:0:
256,192,97244,1,2,0:0:0:0:
256,192,97331,1,0,0:0:0:0:
256,192,97418,1,0,0:0:0:0:
256,192,97505,1,2,0:0:0:0:
256,192,97592,1,2,0:0:0:0:
256,192,97680,1,0,0:0:0:0:
256,192,97767,1,2,0:0:0:0:
256,192,97854,1,0,0:0:0:0:
256,192,97941,1,0,0:0:0:0:
256,192,98028,1,2,0:0:0:0:
256,192,98116,1,0,0:0:0:0:
256,192,98203,1,2,0:0:0:0:
256,192,98290,1,0,0:0:0:0:
256,192,98377,1,2,0:0:0:0:
256,192,98464,1,2,0:0:0:0:
256,192,98552,1,0,0:0:0:0:
256,192,98726,1,2,0:0:0:0:
256,192,98813,1,0,0:0:0:0:
256,192,98901,1,2,0:0:0:0:
256,192,98988,1,2,0:0:0:0:
256,192,99075,1,0,0:0:0:0:
256,192,99162,1,2,0:0:0:0:
256,192,99249,1,0,0:0:0:0:
256,192,99337,1,0,0:0:0:0:
256,192,99424,1,2,0:0:0:0:
256,192,99511,1,2,0:0:0:0:
256,192,99598,1,0,0:0:0:0:
256,192,99685,1,2,0:0:0:0:
256,192,99773,1,0,0:0:0:0:
256,192,99831,1,0,0:0:0:0:
256,192,99889,1,0,0:0:0:0:
256,192,99947,1,2,0:0:0:0:
256,192,100005,1,2,0:0:0:0:
256,192,100063,1,2,0:0:0:0:
256,192,100121,1,2,0:0:0:0:
256,192,100470,1,4,0:0:0:0:
256,192,100645,1,2,0:0:0:0:
256,192,100732,1,0,0:0:0:0:
256,192,100819,1,2,0:0:0:0:
256,192,100906,1,2,0:0:0:0:
256,192,100994,1,0,0:0:0:0:
256,192,101081,1,2,0:0:0:0:
256,192,101168,1,0,0:0:0:0:
256,192,101255,1,2,0:0:0:0:
256,192,101342,1,0,0:0:0:0:
256,192,101430,1,0,0:0:0:0:
256,192,101517,1,2,0:0:0:0:
256,192,101604,1,0,0:0:0:0:
256,192,101691,1,2,0:0:0:0:
256,192,101778,1,2,0:0:0:0:
256,192,101866,1,0,0:0:0:0:
256,192,102127,1,2,0:0:0:0:
256,192,102214,1,0,0:0:0:0:
256,192,102389,1,2,0:0:0:0:
256,192,102476,1,2,0:0:0:0:
256,192,102563,1,2,0:0:0:0:
256,192,102738,1,2,0:0:0:0:
256,192,102825,1,0,0:0:0:0:
256,192,102912,1,2,0:0:0:0:
256,192,102970,1,0,0:0:0:0:
256,192,103028,1,0,0:0:0:0:
256,192,103087,1,0,0:0:0:0:
256,192,103174,1,2,0:0:0:0:
256,192,103261,1,0,0:0:0:0:
256,192,103610,1,2,0:0:0:0:
256,192,104307,1,2,0:0:0:0:
256,192,105005,1,2,0:0:0:0:
256,192,105528,1,2,0:0:0:0:
256,192,105703,1,2,0:0:0:0:
256,192,106052,1,0,0:0:0:0:
256,192,106401,1,2,0:0:0:0:
256,192,107098,1,2,0:0:0:0:
256,192,107621,1,2,0:0:0:0:
256,192,107796,1,2,0:0:0:0:
256,192,108145,1,0,0:0:0:0:
256,192,108406,1,0,0:0:0:0:
256,192,108494,1,2,0:0:0:0:
256,192,108668,1,2,0:0:0:0:
256,192,108842,1,0,0:0:0:0:
256,192,109191,1,2,0:0:0:0:
256,192,109889,1,2,0:0:0:0:
256,192,110238,1,0,0:0:0:0:
256,192,110587,1,2,0:0:0:0:
256,192,111110,1,2,0:0:0:0:
256,192,111284,1,2,0:0:0:0:
256,192,111633,1,0,0:0:0:0:
256,192,111982,1,2,0:0:0:0:
256,192,112680,1,2,0:0:0:0:
256,192,113377,1,2,0:0:0:0:
256,192,113726,1,2,0:0:0:0:
256,192,113901,1,2,0:0:0:0:
256,192,114075,1,2,0:0:0:0:
256,192,114424,1,0,0:0:0:0:
256,192,114773,1,2,0:0:0:0:
256,192,115470,1,2,0:0:0:0:
256,192,116168,1,2,0:0:0:0:
256,192,116691,1,2,0:0:0:0:
256,192,116866,1,2,0:0:0:0:
256,192,117214,1,0,0:0:0:0:
256,192,117563,1,2,0:0:0:0:
256,192,118261,1,2,0:0:0:0:
256,192,118784,1,2,0:0:0:0:
256,192,118959,1,2,0:0:0:0:
256,192,119220,1,2,0:0:0:0:
256,192,119307,1,0,0:0:0:0:
256,192,119482,1,2,0:0:0:0:
256,192,119656,1,2,0:0:0:0:
256,192,120005,1,0,0:0:0:0:
256,192,120180,1,2,0:0:0:0:
256,192,120528,1,2,0:0:0:0:
256,192,120877,1,2,0:0:0:0:
256,192,121226,1,2,0:0:0:0:
256,192,121401,1,0,0:0:0:0:
256,192,121575,1,2,0:0:0:0:
256,192,121924,1,2,0:0:0:0:
256,192,122273,1,2,0:0:0:0:
256,192,122447,1,0,0:0:0:0:
256,192,122621,1,2,0:0:0:0:
256,192,122796,1,0,0:0:0:0:
256,192,122883,1,0,0:0:0:0:
256,192,122970,1,2,0:0:0:0:
256,192,123057,1,2,0:0:0:0:
256,192,123145,1,0,0:0:0:0:
256,192,123232,1,2,0:0:0:0:
256,192,123319,1,0,0:0:0:0:
256,192,123406,1,0,0:0:0:0:
256,192,123494,1,2,0:0:0:0:
256,192,123581,1,2,0:0:0:0:
256,192,123668,1,0,0:0:0:0:
256,192,123755,1,2,0:0:0:0:
256,192,123842,1,0,0:0:0:0:
256,192,123930,1,0,0:0:0:0:
256,192,124017,1,2,0:0:0:0:
256,192,124104,1,2,0:0:0:0:
256,192,124191,1,0,0:0:0:0:
256,192,124278,1,2,0:0:0:0:
256,192,124366,1,0,0:0:0:0:
256,192,124453,1,0,0:0:0:0:
256,192,124540,1,2,0:0:0:0:
256,192,124627,1,0,0:0:0:0:
256,192,124714,1,2,0:0:0:0:
256,192,124802,1,2,0:0:0:0:
256,192,124889,1,0,0:0:0:0:
256,192,125063,1,0,0:0:0:0:
256,192,125238,1,0,0:0:0:0:
256,192,125325,1,0,0:0:0:0:
256,192,125412,1,2,0:0:0:0:
256,192,125499,1,2,0:0:0:0:
256,192,125587,1,0,0:0:0:0:
256,192,125703,1,2,0:0:0:0:
256,192,125819,1,2,0:0:0:0:
256,192,125935,1,0,0:0:0:0:
256,192,126052,1,2,0:0:0:0:
256,192,126168,1,0,0:0:0:0:
256,192,126284,1,2,0:0:0:0:
256,192,126401,1,0,0:0:0:0:
256,192,126517,1,0,0:0:0:0:
256,192,126633,1,2,0:0:0:0:
256,192,126749,1,0,0:0:0:0:
256,192,126866,1,2,0:0:0:0:
256,192,126982,1,0,0:0:0:0:
256,192,127098,1,0,0:0:0:0:
256,192,127214,1,2,0:0:0:0:
256,192,127331,1,0,0:0:0:0:
256,192,127447,1,2,0:0:0:0:
256,192,127563,1,0,0:0:0:0:
256,192,127680,1,2,0:0:0:0:
256,192,127796,1,2,0:0:0:0:
256,192,127912,1,0,0:0:0:0:
256,192,128028,1,2,0:0:0:0:
256,192,128145,1,0,0:0:0:0:
256,192,128261,1,2,0:0:0:0:
256,192,128377,1,0,0:0:0:0:
256,192,128464,1,0,0:0:0:0:
256,192,128552,1,2,0:0:0:0:
256,192,128639,1,2,0:0:0:0:
256,192,128726,1,0,0:0:0:0:
256,192,128813,1,2,0:0:0:0:
256,192,128901,1,0,0:0:0:0:
256,192,128988,1,0,0:0:0:0:
256,192,129075,1,2,0:0:0:0:
256,192,129133,1,2,0:0:0:0:
256,192,129191,1,2,0:0:0:0:
256,192,129249,1,0,0:0:0:0:
256,192,129424,1,2,0:0:0:0:
256,192,129511,1,0,0:0:0:0:
256,192,129598,1,0,0:0:0:0:
256,192,129685,1,2,0:0:0:0:
256,192,129773,1,0,0:0:0:0:
256,192,129889,1,0,0:0:0:0:
256,192,130005,1,2,0:0:0:0:
256,192,130121,1,0,0:0:0:0:
256,192,130238,1,2,0:0:0:0:
256,192,130354,1,0,0:0:0:0:
256,192,130470,1,2,0:0:0:0:
256,192,130587,1,0,0:0:0:0:
256,192,130703,1,2,0:0:0:0:
256,192,130819,1,0,0:0:0:0:
256,192,130935,1,2,0:0:0:0:
256,192,131052,1,2,0:0:0:0:
256,192,131168,1,0,0:0:0:0:
256,192,131342,1,2,0:0:0:0:
256,192,131430,1,0,0:0:0:0:
256,192,131517,1,2,0:0:0:0:
256,192,131604,1,2,0:0:0:0:
256,192,131691,1,0,0:0:0:0:
256,192,132040,1,0,0:0:0:0:
256,192,132127,1,0,0:0:0:0:
256,192,132214,1,2,0:0:0:0:
256,192,132302,1,2,0:0:0:0:
256,192,132389,1,0,0:0:0:0:
256,192,132738,1,0,0:0:0:0:
256,192,132825,1,2,0:0:0:0:
256,192,132912,1,0,0:0:0:0:
256,192,132999,1,0,0:0:0:0:
256,192,133087,1,2,0:0:0:0:
256,192,133348,1,2,0:0:0:0:
256,192,133435,1,0,0:0:0:0:
256,192,133610,1,2,0:0:0:0:
256,192,133784,1,4,0:0:0:0:
256,192,134133,1,0,0:0:0:0:
256,192,134220,1,0,0:0:0:0:
256,192,134307,1,2,0:0:0:0:
256,192,134482,1,0,0:0:0:0:
256,192,134744,1,2,0:0:0:0:
256,192,134831,1,0,0:0:0:0:
256,192,135005,1,2,0:0:0:0:
256,192,135180,1,4,0:0:0:0:
256,192,135354,1,2,0:0:0:0:
256,192,135441,1,2,0:0:0:0:
256,192,135528,1,0,0:0:0:0:
256,192,135703,1,2,0:0:0:0:
256,192,135877,1,0,0:0:0:0:
256,192,135964,1,2,0:0:0:0:
256,192,136052,1,2,0:0:0:0:
256,192,136139,1,2,0:0:0:0:
256,192,136226,1,0,0:0:0:0:
256,192,136313,1,0,0:0:0:0:
256,192,136401,1,2,0:0:0:0:
256,192,136575,1,0,0:0:0:0:
256,192,136662,1,2,0:0:0:0:
256,192,136749,1,0,0:0:0:0:
256,192,137098,1,2,0:0:0:0:
256,192,137185,1,2,0:0:0:0:
256,192,137273,1,0,0:0:0:0:
256,192,137360,1,0,0:0:0:0:
256,192,137447,1,2,0:0:0:0:
256,192,137534,1,2,0:0:0:0:
256,192,137621,1,0,0:0:0:0:
256,192,137709,1,2,0:0:0:0:
256,192,137796,1,0,0:0:0:0:
256,192,137883,1,0,0:0:0:0:
256,192,137970,1,2,0:0:0:0:
256,192,138057,1,2,0:0:0:0:
256,192,138145,1,0,0:0:0:0:
256,192,138232,1,0,0:0:0:0:
256,192,138319,1,2,0:0:0:0:
256,192,138406,1,0,0:0:0:0:
256,192,138494,1,2,0:0:0:0:
256,192,138581,1,2,0:0:0:0:
256,192,138668,1,0,0:0:0:0:
256,192,138755,1,2,0:0:0:0:
256,192,138842,1,0,0:0:0:0:
256,192,138930,1,0,0:0:0:0:
256,192,139017,1,2,0:0:0:0:
256,192,139104,1,0,0:0:0:0:
256,192,139191,1,2,0:0:0:0:
256,192,139278,1,2,0:0:0:0:
256,192,139366,1,2,0:0:0:0:
256,192,139453,1,2,0:0:0:0:
256,192,139540,1,0,0:0:0:0:
256,192,139714,1,2,0:0:0:0:
256,192,139889,1,0,0:0:0:0:
256,192,139976,1,2,0:0:0:0:
256,192,140238,1,0,0:0:0:0:
256,192,140499,1,2,0:0:0:0:
256,192,140587,1,0,0:0:0:0:
256,192,140761,1,2,0:0:0:0:
256,192,140935,1,0,0:0:0:0:
256,192,141110,1,2,0:0:0:0:
256,192,141284,1,0,0:0:0:0:
256,192,141371,1,2,0:0:0:0:
256,192,141633,1,0,0:0:0:0:
256,192,141895,1,0,0:0:0:0:
256,192,141982,1,2,0:0:0:0:
256,192,142156,1,2,0:0:0:0:
256,192,142331,1,0,0:0:0:0:
256,192,142505,1,2,0:0:0:0:
256,192,142680,1,0,0:0:0:0:
256,192,142767,1,2,0:0:0:0:
256,192,143028,1,0,0:0:0:0:
256,192,143290,1,2,0:0:0:0:
256,192,143377,1,0,0:0:0:0:
256,192,143552,1,2,0:0:0:0:
256,192,143639,1,2,0:0:0:0:
256,192,143726,1,0,0:0:0:0:
256,192,144075,1,6,0:0:0:0:
256,192,144424,1,0,0:0:0:0:
256,192,144685,1,0,0:0:0:0:
256,192,144773,1,2,0:0:0:0:
256,192,144947,1,2,0:0:0:0:
256,192,145121,1,0,0:0:0:0:
256,192,145296,1,2,0:0:0:0:
256,192,145470,1,0,0:0:0:0:
256,192,145557,1,2,0:0:0:0:
256,192,145819,1,0,0:0:0:0:
256,192,146081,1,2,0:0:0:0:
256,192,146168,1,0,0:0:0:0:
256,192,146342,1,2,0:0:0:0:
256,192,146517,1,0,0:0:0:0:
256,192,146866,1,2,0:0:0:0:
256,192,147127,1,2,0:0:0:0:
256,192,147214,1,0,0:0:0:0:
256,192,147389,1,0,0:0:0:0:
256,192,147476,1,0,0:0:0:0:
256,192,147563,1,2,0:0:0:0:
256,192,147738,1,4,0:0:0:0:
256,192,148087,1,0,0:0:0:0:
256,192,148261,1,2,0:0:0:0:
256,192,148435,1,0,0:0:0:0:
256,192,148523,1,0,0:0:0:0:
256,192,148610,1,2,0:0:0:0:
256,192,148784,1,2,0:0:0:0:
256,192,148959,1,0,0:0:0:0:
256,192,149133,1,6,0:0:0:0:
256,192,149482,1,0,0:0:0:0:
256,192,149656,1,2,0:0:0:0:
256,192,149831,1,0,0:0:0:0:
256,192,150092,1,2,0:0:0:0:
256,192,150180,1,0,0:0:0:0:
256,192,150354,1,2,0:0:0:0:
256,192,150528,1,2,0:0:0:0:
256,192,150616,1,2,0:0:0:0:
256,192,150703,1,0,0:0:0:0:
256,192,150877,1,2,0:0:0:0:
256,192,151052,1,0,0:0:0:0:
256,192,151139,1,2,0:0:0:0:
256,192,151401,1,0,0:0:0:0:
256,192,151662,1,2,0:0:0:0:
256,192,151749,1,0,0:0:0:0:
256,192,151924,1,2,0:0:0:0:
256,192,152098,1,0,0:0:0:0:
256,192,152273,1,2,0:0:0:0:
256,192,152447,1,0,0:0:0:0:
256,192,152534,1,2,0:0:0:0:
256,192,152621,1,2,0:0:0:0:
256,192,152796,1,0,0:0:0:0:
256,192,152970,1,2,0:0:0:0:
256,192,153057,1,0,0:0:0:0:
256,192,153145,1,2,0:0:0:0:
256,192,153319,1,2,0:0:0:0:
256,192,153494,1,0,0:0:0:0:
256,192,153668,1,2,0:0:0:0:
256,192,153842,1,0,0:0:0:0:
256,192,154017,1,2,0:0:0:0:
256,192,154104,1,2,0:0:0:0:
256,192,154191,1,0,0:0:0:0:
256,192,154453,1,0,0:0:0:0:
256,192,154540,1,2,0:0:0:0:
256,192,154714,1,0,0:0:0:0:
256,192,154889,1,2,0:0:0:0:
256,192,155063,1,0,0:0:0:0:
256,192,155151,1,2,0:0:0:0:
256,192,155238,1,0,0:0:0:0:
256,192,155412,1,2,0:0:0:0:
256,192,155499,1,2,0:0:0:0:
256,192,155587,1,0,0:0:0:0:
256,192,155761,1,0,0:0:0:0:
256,192,155848,1,0,0:0:0:0:
256,192,155935,1,2,0:0:0:0:
256,192,156110,1,2,0:0:0:0:
256,192,156284,1,0,0:0:0:0:
256,192,156459,1,0,0:0:0:0:
256,192,156633,1,2,0:0:0:0:
256,192,156807,1,4,0:0:0:0:
256,192,157069,1,2,0:0:0:0:
256,192,157156,1,0,0:0:0:0:
256,192,157331,1,2,0:0:0:0:
256,192,157505,1,4,0:0:0:0:
256,192,157854,1,0,0:0:0:0:
256,192,158028,1,0,0:0:0:0:
256,192,158203,1,6,0:0:0:0:
256,192,158552,1,0,0:0:0:0:
256,192,158639,1,0,0:0:0:0:
256,192,158726,1,2,0:0:0:0:
256,192,158901,1,4,0:0:0:0:
256,192,159162,1,2,0:0:0:0:
256,192,159249,1,0,0:0:0:0:
256,192,159424,1,2,0:0:0:0:
256,192,159598,1,4,0:0:0:0:
256,192,159947,1,0,0:0:0:0:
256,192,160121,1,0,0:0:0:0:
256,192,160296,1,6,0:0:0:0:
256,192,160557,1,0,0:0:0:0:
256,192,160645,1,2,0:0:0:0:
256,192,160819,1,2,0:0:0:0:
256,192,160994,1,4,0:0:0:0:
256,192,161342,1,0,0:0:0:0:
256,192,161517,1,2,0:0:0:0:
256,192,161691,1,0,0:0:0:0:
256,192,161778,1,0,0:0:0:0:
256,192,161866,1,2,0:0:0:0:
256,192,162214,1,0,0:0:0:0:
256,192,162302,1,0,0:0:0:0:
256,192,162389,1,2,0:0:0:0:
256,192,162476,1,2,0:0:0:0:
256,192,162563,1,0,0:0:0:0:
256,192,162651,1,2,0:0:0:0:
256,192,162738,1,0,0:0:0:0:
256,192,162825,1,0,0:0:0:0:
256,192,162912,1,2,0:0:0:0:
256,192,162999,1,2,0:0:0:0:
256,192,163087,1,0,0:0:0:0:
256,192,163174,1,2,0:0:0:0:
256,192,163261,1,2,0:0:0:0:
256,192,163348,1,2,0:0:0:0:
256,192,163435,1,0,0:0:0:0:
256,192,163523,1,0,0:0:0:0:
256,192,163610,1,2,0:0:0:0:
256,192,163697,1,0,0:0:0:0:
256,192,163784,1,0,0:0:0:0:
256,192,163871,1,0,0:0:0:0:
256,192,163959,1,2,0:0:0:0:
256,192,164046,1,0,0:0:0:0:
256,192,164133,1,2,0:0:0:0:
256,192,164220,1,2,0:0:0:0:
256,192,164307,1,0,0:0:0:0:
256,192,164395,1,2,0:0:0:0:
256,192,164482,1,0,0:0:0:0:
256,192,164656,1,0,0:0:0:0:
256,192,164744,1,2,0:0:0:0:
256,192,164831,1,0,0:0:0:0:
256,192,164918,1,0,0:0:0:0:
256,192,165005,1,2,0:0:0:0:
256,192,165092,1,2,0:0:0:0:
256,192,165180,1,0,0:0:0:0:
256,192,165267,1,2,0:0:0:0:
256,192,165354,1,0,0:0:0:0:
256,192,165441,1,2,0:0:0:0:
256,192,165528,1,2,0:0:0:0:
256,192,165616,1,2,0:0:0:0:
256,192,165703,1,0,0:0:0:0:
256,192,165790,1,2,0:0:0:0:
256,192,165877,1,0,0:0:0:0:
256,192,165964,1,2,0:0:0:0:
256,192,166139,1,2,0:0:0:0:
256,192,166226,1,0,0:0:0:0:
256,192,166313,1,2,0:0:0:0:
256,192,166401,1,0,0:0:0:0:
256,192,166488,1,2,0:0:0:0:
256,192,166575,1,0,0:0:0:0:
256,192,166662,1,0,0:0:0:0:
256,192,166749,1,2,0:0:0:0:
256,192,166807,1,2,0:0:0:0:
256,192,166866,1,2,0:0:0:0:
256,192,166924,1,0,0:0:0:0:
256,192,167011,1,2,0:0:0:0:
256,192,167098,1,0,0:0:0:0:
256,192,167156,1,0,0:0:0:0:
256,224,167214,1,0,0:0:0:0:
256,192,167273,1,2,0:0:0:0:
256,192,167360,1,2,0:0:0:0:
256,192,167447,1,0,0:0:0:0:
256,192,167796,5,2,0:0:0:0:
256,192,168494,1,2,0:0:0:0:
256,192,169191,1,2,0:0:0:0:
256,192,169714,1,4,0:0:0:0:
256,192,170063,1,4,0:0:0:0:
256,192,170238,1,4,0:0:0:0:
256,192,170587,1,2,0:0:0:0:
256,192,171284,1,2,0:0:0:0:
256,192,171459,1,0,0:0:0:0:
256,192,171517,1,0,0:0:0:0:
256,192,171575,1,0,0:0:0:0:
256,192,171633,1,0,0:0:0:0:
256,192,171982,1,2,0:0:0:0:
256,192,172331,1,4,0:0:0:0:
256,192,172592,1,4,0:0:0:0:
256,192,172854,1,4,0:0:0:0:
256,192,173028,1,4,0:0:0:0:
256,192,173377,1,2,0:0:0:0:
256,192,174075,1,2,0:0:0:0:
256,192,174773,1,2,0:0:0:0:
256,192,175121,1,2,0:0:0:0:
256,192,175209,1,2,0:0:0:0:
256,192,175383,1,2,0:0:0:0:
256,192,175645,1,2,0:0:0:0:
256,192,175819,1,4,0:0:0:0:
256,192,176168,1,2,0:0:0:0:
256,192,176866,1,2,0:0:0:0:
256,192,177214,1,0,0:0:0:0:
256,192,177563,1,2,0:0:0:0:
256,192,178087,1,2,0:0:0:0:
256,192,178261,1,0,0:0:0:0:
256,192,178610,1,6,0:0:0:0:
256,192,178871,1,0,0:0:0:0:
256,192,178959,1,2,0:0:0:0:
256,192,179133,1,0,0:0:0:0:
256,192,179482,1,2,0:0:0:0:
256,192,179656,1,2,0:0:0:0:
256,192,179831,1,0,0:0:0:0:
256,192,180180,1,0,0:0:0:0:
256,192,180354,1,2,0:0:0:0:
256,192,180528,1,0,0:0:0:0:
256,192,180877,1,4,0:0:0:0:
256,192,181226,1,4,0:0:0:0:
256,192,181401,1,4,0:0:0:0:
256,192,181662,1,0,0:0:0:0:
256,192,181749,1,2,0:0:0:0:
256,192,181924,1,0,0:0:0:0:
256,192,182273,1,0,0:0:0:0:
256,192,182447,1,2,0:0:0:0:
256,192,182621,1,0,0:0:0:0:
256,192,182680,1,0,0:0:0:0:
256,192,182738,1,0,0:0:0:0:
256,192,182796,1,0,0:0:0:0:
256,192,183145,1,2,0:0:0:0:
256,192,183494,1,4,0:0:0:0:
256,192,183755,1,4,0:0:0:0:
256,192,184017,1,4,0:0:0:0:
256,192,184191,1,4,0:0:0:0:
256,192,184453,1,0,0:0:0:0:
256,192,184540,1,2,0:0:0:0:
256,192,184714,1,0,0:0:0:0:
256,192,185063,1,2,0:0:0:0:
256,192,185238,1,2,0:0:0:0:
256,192,185412,1,0,0:0:0:0:
256,192,185761,1,0,0:0:0:0:
256,192,185935,1,2,0:0:0:0:
256,192,186110,1,0,0:0:0:0:
256,192,186284,1,2,0:0:0:0:
256,192,186371,1,2,0:0:0:0:
256,192,186546,1,2,0:0:0:0:
256,192,186807,1,2,0:0:0:0:
256,192,186982,1,4,0:0:0:0:
256,192,188377,1,0,0:0:0:0:
256,192,188552,1,2,0:0:0:0:
256,192,188639,1,2,0:0:0:0:
256,192,188726,1,0,0:0:0:0:
256,192,188813,1,0,0:0:0:0:
256,192,188901,1,2,0:0:0:0:
256,192,188959,1,2,0:0:0:0:
256,192,189017,1,2,0:0:0:0:
256,192,189075,1,0,0:0:0:0:
256,192,189162,1,2,0:0:0:0:
256,192,189249,1,0,0:0:0:0:
256,192,189337,1,0,0:0:0:0:
256,192,189424,1,2,0:0:0:0:
256,192,189511,1,2,0:0:0:0:
256,192,189598,1,0,0:0:0:0:
256,192,189685,1,2,0:0:0:0:
256,192,189773,1,0,0:0:0:0:
256,192,190034,1,2,0:0:0:0:
256,192,190121,1,0,0:0:0:0:
256,192,190296,1,2,0:0:0:0:
256,192,190470,1,0,0:0:0:0:
256,192,190557,1,0,0:0:0:0:
256,192,190645,1,2,0:0:0:0:
256,192,190819,1,0,0:0:0:0:
256,192,190994,1,2,0:0:0:0:
256,192,191081,1,2,0:0:0:0:
256,192,191168,1,0,0:0:0:0:
256,192,191342,1,2,0:0:0:0:
256,192,191517,1,0,0:0:0:0:
256,192,191691,1,2,0:0:0:0:
256,192,191866,1,0,0:0:0:0:
256,192,191953,1,2,0:0:0:0:
256,192,192127,1,2,0:0:0:0:
256,192,192214,1,0,0:0:0:0:
256,192,192302,1,0,0:0:0:0:
256,192,192389,1,2,0:0:0:0:
256,192,192563,1,0,0:0:0:0:
256,192,192825,1,2,0:0:0:0:
256,192,192912,1,0,0:0:0:0:
256,192,193087,1,2,0:0:0:0:
256,192,193261,1,0,0:0:0:0:
256,192,193348,1,0,0:0:0:0:
256,192,193435,1,2,0:0:0:0:
256,192,193610,1,0,0:0:0:0:
256,192,193784,1,2,0:0:0:0:
256,192,193871,1,0,0:0:0:0:
256,192,193959,1,2,0:0:0:0:
256,192,194133,1,0,0:0:0:0:
256,192,194307,1,2,0:0:0:0:
256,192,194482,1,0,0:0:0:0:
256,192,194569,1,0,0:0:0:0:
256,192,194656,1,2,0:0:0:0:
256,192,194744,1,2,0:0:0:0:
256,192,194918,1,2,0:0:0:0:
256,192,195005,1,0,0:0:0:0:
256,192,195180,1,2,0:0:0:0:
256,192,195354,1,0,0:0:0:0:
256,192,195616,1,2,0:0:0:0:
256,192,195703,1,0,0:0:0:0:
256,192,195877,1,2,0:0:0:0:
256,192,196052,1,0,0:0:0:0:
256,192,196139,1,0,0:0:0:0:
256,192,196226,1,2,0:0:0:0:
256,192,196401,1,0,0:0:0:0:
256,192,196575,1,2,0:0:0:0:
256,192,196662,1,2,0:0:0:0:
256,192,196749,1,0,0:0:0:0:
256,192,196924,1,2,0:0:0:0:
256,192,197011,1,0,0:0:0:0:
256,192,197098,1,2,0:0:0:0:
256,192,197273,1,0,0:0:0:0:
256,192,197360,1,0,0:0:0:0:
256,192,197447,1,2,0:0:0:0:
256,192,197534,1,2,0:0:0:0:
256,192,197709,1,2,0:0:0:0:
256,192,197796,1,0,0:0:0:0:
256,192,197970,1,2,0:0:0:0:
256,192,198145,1,0,0:0:0:0:
256,192,198406,1,0,0:0:0:0:
256,192,198494,1,2,0:0:0:0:
256,192,198668,1,2,0:0:0:0:
256,192,198842,1,0,0:0:0:0:
256,192,198930,1,0,0:0:0:0:
256,192,199017,1,2,0:0:0:0:
256,192,199191,1,0,0:0:0:0:
256,192,199366,1,2,0:0:0:0:
256,192,199540,1,0,0:0:0:0:
256,192,199627,1,2,0:0:0:0:
256,192,199714,1,2,0:0:0:0:
256,192,199802,1,2,0:0:0:0:
256,192,199889,1,0,0:0:0:0:
256,192,199976,1,0,0:0:0:0:
256,192,200063,1,2,0:0:0:0:
256,192,200151,1,2,0:0:0:0:
256,192,200238,1,0,0:0:0:0:
256,192,200325,1,2,0:0:0:0:
256,192,200499,1,0,0:0:0:0:
256,192,200587,1,2,0:0:0:0:
256,192,200674,1,2,0:0:0:0:
256,192,200761,1,0,0:0:0:0:
256,192,200935,1,6,0:0:0:0:
256,192,201197,1,0,0:0:0:0:
256,192,201284,1,2,0:0:0:0:
256,192,201459,1,0,0:0:0:0:
256,192,201633,1,2,0:0:0:0:
256,192,201720,1,0,0:0:0:0:
256,192,201807,1,2,0:0:0:0:
256,192,201982,1,0,0:0:0:0:
256,192,202156,1,2,0:0:0:0:
256,192,202244,1,2,0:0:0:0:
256,192,202331,1,0,0:0:0:0:
256,192,202505,1,0,0:0:0:0:
256,192,202680,1,2,0:0:0:0:
256,192,202854,1,2,0:0:0:0:
256,192,202941,1,2,0:0:0:0:
256,192,203028,1,0,0:0:0:0:
256,192,203116,1,2,0:0:0:0:
256,192,203290,1,0,0:0:0:0:
256,192,203377,1,2,0:0:0:0:
256,192,203552,1,0,0:0:0:0:
256,192,203726,1,0,0:0:0:0:
256,192,203988,1,2,0:0:0:0:
256,192,204075,1,0,0:0:0:0:
256,192,204249,1,2,0:0:0:0:
256,192,204424,1,0,0:0:0:0:
256,192,204511,1,0,0:0:0:0:
256,192,204598,1,2,0:0:0:0:
256,192,204773,1,0,0:0:0:0:
256,192,204947,1,2,0:0:0:0:
256,192,205034,1,2,0:0:0:0:
256,192,205121,1,0,0:0:0:0:
256,192,205209,1,2,0:0:0:0:
256,192,205296,1,2,0:0:0:0:
256,192,205383,1,2,0:0:0:0:
256,192,205470,1,0,0:0:0:0:
256,192,205557,1,0,0:0:0:0:
256,192,205645,1,2,0:0:0:0:
256,192,205732,1,2,0:0:0:0:
256,192,205819,1,0,0:0:0:0:
256,192,205906,1,2,0:0:0:0:
256,192,206081,1,0,0:0:0:0:
256,192,206168,1,2,0:0:0:0:
256,192,206255,1,2,0:0:0:0:
256,192,206342,1,0,0:0:0:0:
256,192,206517,1,0,0:0:0:0:
256,192,206691,1,2,0:0:0:0:
256,192,206866,1,0,0:0:0:0:
256,192,206953,1,0,0:0:0:0:
256,192,207127,1,2,0:0:0:0:
256,192,207214,1,0,0:0:0:0:
256,192,207389,1,2,0:0:0:0:
256,192,207476,1,0,0:0:0:0:
256,192,207563,1,0,0:0:0:0:
256,192,207651,1,2,0:0:0:0:
256,192,207738,1,0,0:0:0:0:
256,192,207912,1,0,0:0:0:0:
256,192,208087,1,2,0:0:0:0:
256,192,208261,1,0,0:0:0:0:
256,192,208348,1,2,0:0:0:0:
256,192,208523,1,2,0:0:0:0:
256,192,208610,1,0,0:0:0:0:
256,192,208697,1,0,0:0:0:0:
256,192,208784,1,2,0:0:0:0:
256,192,208842,1,2,0:0:0:0:
256,192,208901,1,2,0:0:0:0:
256,192,208959,1,0,0:0:0:0:
256,192,209133,1,2,0:0:0:0:
256,192,209307,1,0,0:0:0:0:
256,192,209482,1,0,0:0:0:0:
256,192,209569,1,2,0:0:0:0:
256,192,209656,1,0,0:0:0:0:
256,192,209831,1,2,0:0:0:0:
256,192,209918,1,2,0:0:0:0:
256,192,210005,1,0,0:0:0:0:
256,192,210180,1,2,0:0:0:0:
256,192,210267,1,0,0:0:0:0:
256,192,210354,1,2,0:0:0:0:
256,192,210528,1,2,0:0:0:0:
256,192,210616,1,2,0:0:0:0:
256,192,210703,1,0,0:0:0:0:
256,192,210877,1,0,0:0:0:0:
256,192,210964,1,2,0:0:0:0:
256,192,211052,1,0,0:0:0:0:
256,192,211226,1,2,0:0:0:0:
256,192,211313,1,0,0:0:0:0:
256,192,211401,1,2,0:0:0:0:
256,192,211488,1,2,0:0:0:0:
256,192,211575,1,0,0:0:0:0:
256,192,211662,1,2,0:0:0:0:
256,192,211749,1,0,0:0:0:0:
256,192,211837,1,0,0:0:0:0:
256,192,211924,1,2,0:0:0:0:
256,192,211982,1,2,0:0:0:0:
256,192,212040,1,2,0:0:0:0:
256,192,212098,1,0,0:0:0:0:
256,192,212185,1,0,0:0:0:0:
256,192,212273,1,2,0:0:0:0:
256,192,212360,1,0,0:0:0:0:
256,192,212447,1,2,0:0:0:0:
256,192,212534,1,2,0:0:0:0:
256,192,212621,1,0,0:0:0:0:
256,192,212709,1,2,0:0:0:0:
256,192,212796,1,0,0:0:0:0:
256,192,212883,1,2,0:0:0:0:
256,192,212970,1,0,0:0:0:0:
256,192,213057,1,0,0:0:0:0:
256,192,213145,1,2,0:0:0:0:
256,192,213232,1,0,0:0:0:0:
256,192,213319,1,2,0:0:0:0:
256,192,213406,1,0,0:0:0:0:
256,192,213494,1,2,0:0:0:0:
256,192,213581,1,2,0:0:0:0:
256,192,213668,1,0,0:0:0:0:
256,192,213726,1,0,0:0:0:0:
256,192,213784,1,0,0:0:0:0:
256,192,213842,1,2,0:0:0:0:
256,192,213930,1,0,0:0:0:0:
256,192,214017,1,2,0:0:0:0:
256,192,214075,1,0,0:0:0:0:
256,192,214133,1,0,0:0:0:0:
256,192,214191,1,2,0:0:0:0:
256,192,214278,1,0,0:0:0:0:
256,192,214366,1,2,0:0:0:0:
256,192,214424,1,2,0:0:0:0:
256,192,214482,1,2,0:0:0:0:
256,192,214540,1,0,0:0:0:0:
256,192,214627,1,2,0:0:0:0:
256,192,214714,1,0,0:0:0:0:
256,192,214773,1,2,0:0:0:0:
256,192,214831,1,2,0:0:0:0:
256,192,214889,1,0,0:0:0:0:
256,192,214976,8,0,219075,0:0:0:0:
256,192,219424,5,6,0:0:0:0:
256,192,219773,1,6,0:0:0:0:
256,192,220121,1,4,0:0:0:0:
256,192,220470,1,2,0:0:0:0:
256,192,220557,1,2,0:0:0:0:
256,192,220645,1,0,0:0:0:0:
256,192,220732,1,2,0:0:0:0:
256,192,220819,1,0,0:0:0:0:
256,192,220906,1,0,0:0:0:0:
256,192,220994,1,2,0:0:0:0:
256,192,221081,1,0,0:0:0:0:
256,192,221168,1,2,0:0:0:0:
256,192,221255,1,2,0:0:0:0:
256,192,221342,1,0,0:0:0:0:
256,192,221430,1,0,0:0:0:0:
256,192,221517,1,2,0:0:0:0:
256,192,221604,1,2,0:0:0:0:
256,192,221691,1,0,0:0:0:0:
256,192,221778,1,2,0:0:0:0:
256,192,221866,1,0,0:0:0:0:
256,192,222040,1,2,0:0:0:0:
256,192,222098,1,0,0:0:0:0:
256,192,222156,1,0,0:0:0:0:
256,192,222214,1,2,0:0:0:0:
256,192,222389,1,0,0:0:0:0:
256,192,222563,1,2,0:0:0:0:
256,192,222651,1,0,0:0:0:0:
256,192,222738,1,2,0:0:0:0:
256,192,222912,1,2,0:0:0:0:
256,192,223087,1,0,0:0:0:0:
256,192,223174,1,0,0:0:0:0:
256,192,223261,1,2,0:0:0:0:
256,192,223435,1,0,0:0:0:0:
256,192,223523,1,2,0:0:0:0:
256,192,223697,1,2,0:0:0:0:
256,192,223784,1,2,0:0:0:0:
256,192,223871,1,0,0:0:0:0:
256,192,223959,1,2,0:0:0:0:
256,192,224046,1,2,0:0:0:0:
256,192,224133,1,0,0:0:0:0:
256,192,224220,1,0,0:0:0:0:
256,192,224307,1,2,0:0:0:0:
256,192,224366,1,0,0:0:0:0:
256,192,224424,1,0,0:0:0:0:
256,192,224482,1,2,0:0:0:0:
256,192,224540,1,0,0:0:0:0:
256,192,224598,1,0,0:0:0:0:
256,192,224656,1,2,0:0:0:0:
256,192,224831,1,0,0:0:0:0:
256,192,224918,1,2,0:0:0:0:
256,192,225092,1,2,0:0:0:0:
256,192,225180,1,0,0:0:0:0:
256,192,225267,1,0,0:0:0:0:
256,192,225354,1,2,0:0:0:0:
256,192,225528,1,2,0:0:0:0:
256,192,225616,1,0,0:0:0:0:
256,192,225703,1,0,0:0:0:0:
256,192,225877,1,2,0:0:0:0:
256,192,226052,1,0,0:0:0:0:
256,192,226139,1,0,0:0:0:0:
256,192,226226,1,2,0:0:0:0:
256,192,226313,1,2,0:0:0:0:
256,192,226401,1,0,0:0:0:0:
256,192,226488,1,2,0:0:0:0:
256,192,226575,1,2,0:0:0:0:
256,192,226662,1,2,0:0:0:0:
256,192,226749,1,0,0:0:0:0:
256,192,226924,1,2,0:0:0:0:
256,192,227011,1,2,0:0:0:0:
256,192,227098,1,0,0:0:0:0:
256,192,227273,1,2,0:0:0:0:
256,192,227447,1,0,0:0:0:0:
256,192,227709,1,0,0:0:0:0:
256,192,227796,1,2,0:0:0:0:
256,192,227883,1,2,0:0:0:0:
256,192,227970,1,0,0:0:0:0:
256,192,228057,1,0,0:0:0:0:
256,192,228145,1,2,0:0:0:0:
256,192,228319,1,0,0:0:0:0:
256,192,228406,1,2,0:0:0:0:
256,192,228494,1,0,0:0:0:0:
256,192,228668,1,0,0:0:0:0:
256,192,228755,1,0,0:0:0:0:
256,192,228842,1,2,0:0:0:0:
256,192,229017,1,0,0:0:0:0:
256,192,229075,1,0,0:0:0:0:
256,192,229133,1,0,0:0:0:0:
256,192,229191,1,2,0:0:0:0:
256,192,229249,1,2,0:0:0:0:
256,192,229307,1,2,0:0:0:0:
256,192,229366,1,0,0:0:0:0:
256,192,229540,1,2,0:0:0:0:
256,192,229714,1,0,0:0:0:0:
256,192,229773,1,2,0:0:0:0:
256,192,229831,1,2,0:0:0:0:
256,192,229889,1,0,0:0:0:0:
256,192,229947,1,2,0:0:0:0:
256,192,230005,1,2,0:0:0:0:
256,192,230063,1,0,0:0:0:0:
256,192,230238,1,2,0:0:0:0:
256,192,230412,1,0,0:0:0:0:
256,192,230470,1,2,0:0:0:0:
256,192,230528,1,2,0:0:0:0:
256,192,230587,1,2,0:0:0:0:
256,192,230645,1,2,0:0:0:0:
256,192,230703,1,2,0:0:0:0:
256,192,230761,1,0,0:0:0:0:
256,192,230848,1,0,0:0:0:0:
256,192,230935,1,2,0:0:0:0:
256,192,231110,1,0,0:0:0:0:
256,192,231197,1,2,0:0:0:0:
256,192,231284,1,0,0:0:0:0:
256,192,231371,1,0,0:0:0:0:
256,192,231459,1,2,0:0:0:0:
256,192,231546,1,2,0:0:0:0:
256,192,231633,1,0,0:0:0:0:
256,192,231807,1,0,0:0:0:0:
256,192,231895,1,2,0:0:0:0:
256,192,232069,1,2,0:0:0:0:
256,192,232156,1,0,0:0:0:0:
256,192,232244,1,0,0:0:0:0:
256,192,232331,1,2,0:0:0:0:
256,192,232418,1,2,0:0:0:0:
256,192,232505,1,0,0:0:0:0:
256,192,232592,1,2,0:0:0:0:
256,192,232680,1,0,0:0:0:0:
256,192,232767,1,0,0:0:0:0:
256,192,232854,1,2,0:0:0:0:
256,192,232941,1,0,0:0:0:0:
256,192,233028,1,2,0:0:0:0:
256,192,233203,1,0,0:0:0:0:
256,192,233261,1,0,0:0:0:0:
256,192,233319,1,0,0:0:0:0:
256,192,233377,1,2,0:0:0:0:
256,192,233552,1,2,0:0:0:0:
256,192,233610,1,2,0:0:0:0:
256,192,233668,1,2,0:0:0:0:
256,192,233726,1,0,0:0:0:0:
256,192,233901,1,0,0:0:0:0:
256,192,233959,1,0,0:0:0:0:
256,192,234017,1,0,0:0:0:0:
256,192,234075,1,2,0:0:0:0:
256,192,234249,1,2,0:0:0:0:
256,192,234307,1,2,0:0:0:0:
256,192,234366,1,2,0:0:0:0:
256,192,234424,1,0,0:0:0:0:
256,192,234511,1,0,0:0:0:0:
256,192,234598,1,2,0:0:0:0:
256,192,234685,1,2,0:0:0:0:
256,192,234773,1,0,0:0:0:0:
256,192,234860,1,2,0:0:0:0:
256,192,234947,1,0,0:0:0:0:
256,192,235034,1,0,0:0:0:0:
256,192,235121,1,2,0:0:0:0:
256,192,235209,1,2,0:0:0:0:
256,192,235296,1,0,0:0:0:0:
256,192,235383,1,2,0:0:0:0:
256,192,235470,1,0,0:0:0:0:
256,192,235557,1,0,0:0:0:0:
256,192,235645,1,2,0:0:0:0:
256,192,235732,1,2,0:0:0:0:
256,192,235819,1,0,0:0:0:0:
256,192,235994,1,2,0:0:0:0:
256,192,236081,1,0,0:0:0:0:
256,192,236168,1,2,0:0:0:0:
256,192,236226,1,2,0:0:0:0:
256,192,236284,1,2,0:0:0:0:
256,192,236342,1,0,0:0:0:0:
256,192,236401,1,0,0:0:0:0:
256,192,236459,1,0,0:0:0:0:
256,192,236517,1,2,0:0:0:0:
256,192,236691,1,0,0:0:0:0:
256,192,236866,1,2,0:0:0:0:
256,192,236953,1,2,0:0:0:0:
256,192,237040,1,0,0:0:0:0:
256,192,237127,1,0,0:0:0:0:
256,192,237214,1,2,0:0:0:0:
256,192,237273,1,2,0:0:0:0:
256,192,237331,1,2,0:0:0:0:
256,192,237389,1,0,0:0:0:0:
256,192,237476,1,0,0:0:0:0:
256,192,237563,1,2,0:0:0:0:
256,192,237621,1,2,0:0:0:0:
256,192,237680,1,2,0:0:0:0:
256,192,237738,1,0,0:0:0:0:
256,192,237825,1,0,0:0:0:0:
256,192,237912,1,2,0:0:0:0:
256,192,237999,1,2,0:0:0:0:
256,192,238087,1,0,0:0:0:0:
256,192,238174,1,0,0:0:0:0:
256,192,238261,1,2,0:0:0:0:
256,192,238348,1,2,0:0:0:0:
256,192,238435,1,0,0:0:0:0:
256,192,238523,1,2,0:0:0:0:
256,192,238610,1,0,0:0:0:0:
256,192,238784,1,0,0:0:0:0:
256,192,238871,1,2,0:0:0:0:
256,192,239046,1,2,0:0:0:0:
256,192,239133,1,0,0:0:0:0:
256,192,239191,1,0,0:0:0:0:
256,192,239249,1,0,0:0:0:0:
256,192,239307,1,2,0:0:0:0:
256,192,239395,1,2,0:0:0:0:
256,192,239569,1,2,0:0:0:0:
256,192,239656,1,0,0:0:0:0:
256,192,239744,1,0,0:0:0:0:
256,192,239831,1,2,0:0:0:0:
256,192,240005,1,0,0:0:0:0:
256,192,240092,1,2,0:0:0:0:
256,192,240180,1,0,0:0:0:0:
256,192,240267,1,0,0:0:0:0:
256,192,240354,1,2,0:0:0:0:
256,192,240441,1,2,0:0:0:0:
256,192,240528,1,0,0:0:0:0:
256,192,240616,1,2,0:0:0:0:
256,192,240703,1,0,0:0:0:0:
256,192,240790,1,0,0:0:0:0:
256,192,240877,1,2,0:0:0:0:
256,192,240964,1,0,0:0:0:0:
256,192,241052,1,2,0:0:0:0:
256,192,241139,1,2,0:0:0:0:
256,192,241226,1,0,0:0:0:0:
256,192,241313,1,2,0:0:0:0:
256,192,241401,1,0,0:0:0:0:
256,192,241575,1,2,0:0:0:0:
256,192,241633,1,0,0:0:0:0:
256,192,241691,1,0,0:0:0:0:
256,192,241749,1,2,0:0:0:0:
256,192,241924,1,0,0:0:0:0:
256,192,242098,1,2,0:0:0:0:
256,192,242185,1,0,0:0:0:0:
256,192,242273,1,2,0:0:0:0:
256,192,242447,1,0,0:0:0:0:
256,192,242621,1,2,0:0:0:0:
256,192,242709,1,2,0:0:0:0:
256,192,242796,1,0,0:0:0:0:
256,192,242970,1,0,0:0:0:0:
256,192,243057,1,2,0:0:0:0:
256,192,243232,1,2,0:0:0:0:
256,192,243319,1,2,0:0:0:0:
256,192,243406,1,0,0:0:0:0:
256,192,243494,1,2,0:0:0:0:
256,192,243581,1,2,0:0:0:0:
256,192,243668,1,0,0:0:0:0:
256,192,243755,1,0,0:0:0:0:
256,192,243842,1,2,0:0:0:0:
256,192,243901,1,0,0:0:0:0:
256,192,243959,1,0,0:0:0:0:
256,192,244017,1,2,0:0:0:0:
256,192,244075,1,0,0:0:0:0:
256,192,244133,1,0,0:0:0:0:
256,192,244191,1,2,0:0:0:0:
256,192,244366,1,0,0:0:0:0:
256,192,244453,1,2,0:0:0:0:
256,192,244627,1,2,0:0:0:0:
256,192,244714,1,2,0:0:0:0:
256,192,244802,1,0,0:0:0:0:
256,192,244889,1,2,0:0:0:0:
256,192,245063,1,2,0:0:0:0:
256,192,245151,1,0,0:0:0:0:
256,192,245238,1,0,0:0:0:0:
256,192,245412,1,2,0:0:0:0:
256,192,245587,1,0,0:0:0:0:
256,192,245674,1,2,0:0:0:0:
256,192,245761,1,0,0:0:0:0:
256,192,245848,1,0,0:0:0:0:
256,192,245935,1,2,0:0:0:0:
256,192,246023,1,2,0:0:0:0:
256,192,246110,1,0,0:0:0:0:
256,192,246197,1,2,0:0:0:0:
256,192,246284,1,0,0:0:0:0:
256,192,246459,1,2,0:0:0:0:
256,192,246546,1,0,0:0:0:0:
256,192,246633,1,2,0:0:0:0:
256,192,246807,1,0,0:0:0:0:
256,192,246982,1,2,0:0:0:0:
256,192,247244,1,0,0:0:0:0:
256,192,247331,1,2,0:0:0:0:
256,192,247389,1,2,0:0:0:0:
256,192,247447,1,2,0:0:0:0:
256,192,247505,1,0,0:0:0:0:
256,192,247680,1,2,0:0:0:0:
256,192,247854,1,0,0:0:0:0:
256,192,247941,1,2,0:0:0:0:
256,192,248028,1,0,0:0:0:0:
256,192,248087,1,0,0:0:0:0:
256,192,248145,1,0,0:0:0:0:
256,192,248203,1,2,0:0:0:0:
256,192,248290,1,2,0:0:0:0:
256,192,248377,1,0,0:0:0:0:
256,192,248552,1,0,0:0:0:0:
256,192,248726,1,6,0:0:0:0:
256,192,248988,1,0,0:0:0:0:
256,192,249249,1,0,0:0:0:0:
256,192,249424,1,6,0:0:0:0:
256,192,249685,1,2,0:0:0:0:
256,192,249773,1,0,0:0:0:0:
256,192,249947,1,0,0:0:0:0:
256,192,250121,1,6,0:0:0:0:
256,192,250383,1,2,0:0:0:0:
256,192,250470,1,0,0:0:0:0:
256,192,250557,1,0,0:0:0:0:
256,192,250645,1,2,0:0:0:0:
256,192,250732,1,0,0:0:0:0:
256,192,250819,1,2,0:0:0:0:
256,192,250906,1,2,0:0:0:0:
256,192,250994,1,0,0:0:0:0:
256,192,251081,1,2,0:0:0:0:
256,192,251168,1,0,0:0:0:0:
256,192,251255,1,0,0:0:0:0:
256,192,251342,1,2,0:0:0:0:
256,192,251430,1,0,0:0:0:0:
256,192,251604,1,2,0:0:0:0:
256,192,251691,1,2,0:0:0:0:
256,192,251778,1,0,0:0:0:0:
256,192,251866,1,2,0:0:0:0:
256,192,251953,1,2,0:0:0:0:
256,192,252040,1,0,0:0:0:0:
256,192,252127,1,2,0:0:0:0:
256,192,252214,1,0,0:0:0:0:
256,192,252302,1,0,0:0:0:0:
256,192,252389,1,2,0:0:0:0:
256,192,252476,1,2,0:0:0:0:
256,192,252563,1,0,0:0:0:0:
256,192,252738,1,2,0:0:0:0:
256,192,252796,1,0,0:0:0:0:
256,192,252854,1,0,0:0:0:0:
256,192,252912,1,2,0:0:0:0:
256,192,253087,1,0,0:0:0:0:
256,192,253145,1,2,0:0:0:0:
256,192,253203,1,2,0:0:0:0:
256,192,253261,1,0,0:0:0:0:
256,192,253435,1,2,0:0:0:0:
256,192,253494,1,0,0:0:0:0:
256,192,253552,1,0,0:0:0:0:
256,192,253610,1,2,0:0:0:0:
256,192,253784,1,0,0:0:0:0:
256,192,253842,1,2,0:0:0:0:
256,192,253901,1,2,0:0:0:0:
256,192,253959,1,0,0:0:0:0:
256,192,254046,1,0,0:0:0:0:
256,192,254133,1,2,0:0:0:0:
256,192,254220,1,2,0:0:0:0:
256,192,254307,1,0,0:0:0:0:
256,192,254395,1,2,0:0:0:0:
256,192,254482,1,0,0:0:0:0:
256,192,254569,1,0,0:0:0:0:
256,192,254656,1,2,0:0:0:0:
256,192,254744,1,2,0:0:0:0:
256,192,254831,1,0,0:0:0:0:
256,192,254918,1,2,0:0:0:0:
256,192,255005,1,0,0:0:0:0:
256,192,255092,1,0,0:0:0:0:
256,192,255180,1,2,0:0:0:0:
256,192,255267,1,2,0:0:0:0:
256,192,255354,1,0,0:0:0:0:
256,192,255528,1,2,0:0:0:0:
256,192,255616,1,0,0:0:0:0:
256,192,255703,1,2,0:0:0:0:
256,192,255761,1,2,0:0:0:0:
256,192,255819,1,2,0:0:0:0:
256,192,255877,1,0,0:0:0:0:
256,192,255935,1,0,0:0:0:0:
256,192,255994,1,0,0:0:0:0:
256,192,256052,1,2,0:0:0:0:
256,192,256226,1,0,0:0:0:0:
256,192,256401,1,2,0:0:0:0:
256,192,256488,1,2,0:0:0:0:
256,192,256575,1,0,0:0:0:0:
256,192,256662,1,0,0:0:0:0:
256,192,256749,1,2,0:0:0:0:
256,192,256807,1,2,0:0:0:0:
256,192,256866,1,2,0:0:0:0:
256,192,256924,1,0,0:0:0:0:
256,192,257011,1,0,0:0:0:0:
256,192,257098,1,2,0:0:0:0:
256,192,257156,1,2,0:0:0:0:
256,192,257214,1,2,0:0:0:0:
256,192,257273,1,0,0:0:0:0:
256,192,257360,1,0,0:0:0:0:
256,192,257447,1,2,0:0:0:0:
256,192,257534,1,2,0:0:0:0:
256,192,257621,1,0,0:0:0:0:
256,192,257709,1,0,0:0:0:0:
256,192,257796,1,2,0:0:0:0:
256,192,257883,1,2,0:0:0:0:
256,192,257970,1,0,0:0:0:0:
256,192,258145,1,2,0:0:0:0:
256,192,258203,1,0,0:0:0:0:
256,192,258261,1,0,0:0:0:0:
256,192,258319,1,2,0:0:0:0:
256,192,258406,1,0,0:0:0:0:
256,192,258494,1,2,0:0:0:0:
256,192,258552,1,0,0:0:0:0:
256,192,258610,1,0,0:0:0:0:
256,192,258668,1,2,0:0:0:0:
256,192,258755,1,0,0:0:0:0:
256,192,258842,1,2,0:0:0:0:
256,192,258930,1,2,0:0:0:0:
256,192,259017,1,0,0:0:0:0:
256,192,259104,1,0,0:0:0:0:
256,192,259191,1,2,0:0:0:0:
256,192,259278,1,0,0:0:0:0:
256,192,259366,1,0,0:0:0:0:
256,192,259540,1,2,0:0:0:0:
256,192,259598,1,2,0:0:0:0:
256,192,259656,1,2,0:0:0:0:
256,192,259714,1,0,0:0:0:0:
256,192,259802,1,0,0:0:0:0:
256,192,259889,1,2,0:0:0:0:
256,192,259947,1,2,0:0:0:0:
256,192,260005,1,2,0:0:0:0:
256,192,260063,1,0,0:0:0:0:
256,192,260151,1,0,0:0:0:0:
256,192,260238,1,2,0:0:0:0:
256,192,260325,1,2,0:0:0:0:
256,192,260412,1,0,0:0:0:0:
256,192,260499,1,0,0:0:0:0:
256,192,260587,1,2,0:0:0:0:
256,192,260674,1,2,0:0:0:0:
256,192,260761,1,0,0:0:0:0:
256,192,260935,1,2,0:0:0:0:
256,192,260994,1,0,0:0:0:0:
256,192,261052,1,0,0:0:0:0:
256,192,261110,1,2,0:0:0:0:
256,192,261197,1,0,0:0:0:0:
256,192,261284,1,2,0:0:0:0:
256,192,261342,1,0,0:0:0:0:
256,192,261401,1,0,0:0:0:0:
256,192,261459,1,2,0:0:0:0:
256,192,261546,1,0,0:0:0:0:
256,192,261633,1,2,0:0:0:0:
256,192,261720,1,2,0:0:0:0:
256,192,261807,1,0,0:0:0:0:
256,192,261895,1,0,0:0:0:0:
256,192,261982,1,2,0:0:0:0:
256,192,262069,1,0,0:0:0:0:
256,192,262156,1,0,0:0:0:0:
256,192,262331,1,2,0:0:0:0:
256,192,262389,1,2,0:0:0:0:
256,192,262447,1,2,0:0:0:0:
256,192,262505,1,0,0:0:0:0:
256,192,262592,1,0,0:0:0:0:
256,192,262680,1,2,0:0:0:0:
256,192,262738,1,2,0:0:0:0:
256,192,262796,1,2,0:0:0:0:
256,192,262854,1,0,0:0:0:0:
256,192,262941,1,0,0:0:0:0:
256,192,263028,1,2,0:0:0:0:
256,192,263116,1,2,0:0:0:0:
256,192,263203,1,0,0:0:0:0:
256,192,263290,1,0,0:0:0:0:
256,192,263377,1,2,0:0:0:0:
256,192,263464,1,2,0:0:0:0:
256,192,263552,1,0,0:0:0:0:
256,192,263726,1,2,0:0:0:0:
256,192,263784,1,0,0:0:0:0:
256,192,263842,1,0,0:0:0:0:
256,192,263901,1,2,0:0:0:0:
256,192,263988,1,0,0:0:0:0:
256,192,264075,1,2,0:0:0:0:
256,192,264133,1,0,0:0:0:0:
256,192,264191,1,0,0:0:0:0:
256,192,264249,1,2,0:0:0:0:
256,192,264337,1,0,0:0:0:0:
256,192,264424,1,2,0:0:0:0:
256,192,264511,1,0,0:0:0:0:
256,192,264598,1,2,0:0:0:0:
256,192,264685,1,2,0:0:0:0:
256,192,264773,1,0,0:0:0:0:
256,192,264860,1,0,0:0:0:0:
256,192,264947,1,2,0:0:0:0:
256,192,265034,1,2,0:0:0:0:
256,192,265121,1,0,0:0:0:0:
256,192,265383,1,2,0:0:0:0:
256,192,265470,1,0,0:0:0:0:
256,192,265645,1,2,0:0:0:0:
256,192,265819,1,0,0:0:0:0:
256,192,265906,1,0,0:0:0:0:
256,192,265994,1,2,0:0:0:0:
256,192,266168,1,0,0:0:0:0:
256,192,266342,1,2,0:0:0:0:
256,192,266517,1,0,0:0:0:0:
256,192,266778,1,2,0:0:0:0:
256,192,266866,1,0,0:0:0:0:
256,192,267040,1,2,0:0:0:0:
256,192,267214,1,0,0:0:0:0:
256,192,267302,1,2,0:0:0:0:
256,192,267389,1,2,0:0:0:0:
256,192,267563,1,0,0:0:0:0:
256,192,267738,1,2,0:0:0:0:
256,192,267825,1,2,0:0:0:0:
256,192,267912,1,0,0:0:0:0:
256,192,268174,1,0,0:0:0:0:
256,192,268261,1,2,0:0:0:0:
256,192,268435,1,0,0:0:0:0:
256,192,268523,1,0,0:0:0:0:
256,192,268610,1,2,0:0:0:0:
256,192,268697,1,2,0:0:0:0:
256,192,268784,1,0,0:0:0:0:
256,192,268959,1,2,0:0:0:0:
256,192,269133,1,0,0:0:0:0:
256,192,269220,1,2,0:0:0:0:
256,192,269307,1,0,0:0:0:0:
256,192,269569,1,2,0:0:0:0:
256,192,269656,1,0,0:0:0:0:
256,192,269831,1,0,0:0:0:0:
256,192,269918,1,2,0:0:0:0:
256,192,270005,1,0,0:0:0:0:
256,192,270180,1,2,0:0:0:0:
256,192,270267,1,0,0:0:0:0:
256,192,270354,1,0,0:0:0:0:
256,192,270528,1,2,0:0:0:0:
256,192,270703,1,0,0:0:0:0:
256,192,270964,1,2,0:0:0:0:
256,192,271052,1,0,0:0:0:0:
256,192,271139,1,0,0:0:0:0:
256,192,271226,1,2,0:0:0:0:
256,192,271401,1,0,0:0:0:0:
256,192,271575,1,2,0:0:0:0:
256,192,271662,1,2,0:0:0:0:
256,192,271749,1,0,0:0:0:0:
256,192,271924,1,2,0:0:0:0:
256,192,272098,1,0,0:0:0:0:
256,192,272360,1,2,0:0:0:0:
256,192,272447,1,0,0:0:0:0:
256,192,272505,1,0,0:0:0:0:
256,192,272563,1,0,0:0:0:0:
256,192,272621,1,2,0:0:0:0:
256,192,272796,1,0,0:0:0:0:
256,192,272970,1,2,0:0:0:0:
256,192,273057,1,0,0:0:0:0:
256,192,273145,1,2,0:0:0:0:
256,192,273203,1,2,0:0:0:0:
256,192,273261,1,2,0:0:0:0:
256,192,273319,1,0,0:0:0:0:
256,192,273406,1,0,0:0:0:0:
256,192,273494,1,2,0:0:0:0:
256,192,273668,1,0,0:0:0:0:
256,192,273842,1,6,0:0:0:0:
256,192,274104,1,0,0:0:0:0:
256,192,274366,1,0,0:0:0:0:
256,192,274540,1,6,0:0:0:0:
256,192,274802,1,2,0:0:0:0:
256,192,274889,1,0,0:0:0:0:
256,192,275063,1,0,0:0:0:0:
256,192,275238,1,6,0:0:0:0:
256,192,275499,1,2,0:0:0:0:
256,192,275587,1,0,0:0:0:0:
256,192,275674,1,0,0:0:0:0:
256,192,275761,1,2,0:0:0:0:
256,192,275848,1,0,0:0:0:0:
256,192,275935,1,2,0:0:0:0:
256,192,276023,1,2,0:0:0:0:
256,192,276110,1,0,0:0:0:0:
256,192,276197,1,2,0:0:0:0:
256,192,276284,1,0,0:0:0:0:
256,192,276546,1,2,0:0:0:0:
256,192,276633,1,0,0:0:0:0:
256,192,276807,1,2,0:0:0:0:
256,192,276982,1,0,0:0:0:0:
256,192,277069,1,0,0:0:0:0:
256,192,277156,1,2,0:0:0:0:
256,192,277244,1,2,0:0:0:0:
256,192,277331,1,0,0:0:0:0:
256,192,277505,1,0,0:0:0:0:
256,192,277680,1,2,0:0:0:0:
256,192,277854,1,0,0:0:0:0:
256,192,277941,1,0,0:0:0:0:
256,192,278028,1,2,0:0:0:0:
256,192,278203,1,0,0:0:0:0:
256,192,278290,1,2,0:0:0:0:
256,192,278377,1,0,0:0:0:0:
256,192,278552,1,2,0:0:0:0:
256,192,278639,1,0,0:0:0:0:
256,192,278726,1,2,0:0:0:0:
256,192,278901,1,2,0:0:0:0:
256,192,278988,1,2,0:0:0:0:
256,192,279075,1,0,0:0:0:0:
256,192,279162,1,0,0:0:0:0:
256,192,279249,1,2,0:0:0:0:
256,192,279337,1,2,0:0:0:0:
256,192,279424,1,0,0:0:0:0:
256,192,279598,1,0,0:0:0:0:
256,192,279685,1,0,0:0:0:0:
256,192,279773,1,2,0:0:0:0:
256,192,279860,1,2,0:0:0:0:
256,192,279947,1,0,0:0:0:0:
256,192,280034,1,2,0:0:0:0:
256,192,280121,1,0,0:0:0:0:
256,192,280296,1,0,0:0:0:0:
256,192,280383,1,0,0:0:0:0:
256,192,280470,1,2,0:0:0:0:
256,192,280645,1,0,0:0:0:0:
256,192,280732,1,0,0:0:0:0:
256,192,280819,1,2,0:0:0:0:
256,192,280877,1,2,0:0:0:0:
256,192,280935,1,2,0:0:0:0:
256,192,280994,1,0,0:0:0:0:
256,192,281052,1,0,0:0:0:0:
256,192,281110,1,0,0:0:0:0:
256,192,281168,1,2,0:0:0:0:
256,192,281342,1,0,0:0:0:0:
256,192,281430,1,0,0:0:0:0:
256,192,281517,1,2,0:0:0:0:
256,192,281604,1,2,0:0:0:0:
256,192,281691,1,0,0:0:0:0:
256,192,281778,1,0,0:0:0:0:
256,192,281866,1,2,0:0:0:0:
256,192,281924,1,2,0:0:0:0:
256,192,281982,1,2,0:0:0:0:
256,192,282040,1,0,0:0:0:0:
256,192,282127,1,0,0:0:0:0:
256,192,282214,1,2,0:0:0:0:
256,192,282273,1,2,0:0:0:0:
256,192,282331,1,2,0:0:0:0:
256,192,282389,1,0,0:0:0:0:
256,192,282476,1,0,0:0:0:0:
256,192,282563,1,2,0:0:0:0:
256,192,282651,1,2,0:0:0:0:
256,192,282738,1,0,0:0:0:0:
256,192,282825,1,0,0:0:0:0:
256,192,282912,1,2,0:0:0:0:
256,192,282999,1,2,0:0:0:0:
256,192,283087,1,0,0:0:0:0:
256,192,283174,1,0,0:0:0:0:
256,192,283261,1,2,0:0:0:0:
256,192,283319,1,0,0:0:0:0:
256,192,283377,1,0,0:0:0:0:
256,192,283435,1,2,0:0:0:0:
256,192,283523,1,0,0:0:0:0:
256,192,283610,1,2,0:0:0:0:
256,192,283668,1,0,0:0:0:0:
256,192,283726,1,0,0:0:0:0:
256,192,283784,1,2,0:0:0:0:
256,192,283871,1,0,0:0:0:0:
256,192,283959,1,2,0:0:0:0:
256,192,284046,1,0,0:0:0:0:
256,192,284133,1,0,0:0:0:0:
256,192,284220,1,2,0:0:0:0:
256,192,284307,1,2,0:0:0:0:
256,192,284395,1,2,0:0:0:0:
256,192,284482,1,0,0:0:0:0:
256,192,284569,1,2,0:0:0:0:
256,192,284656,1,0,0:0:0:0:
256,192,285005,1,2,0:0:0:0:
256,192,285180,1,0,0:0:0:0:
256,192,285267,1,0,0:0:0:0:
256,192,285354,1,2,0:0:0:0:
256,192,285528,1,0,0:0:0:0:
256,192,285703,1,2,0:0:0:0:
256,192,286052,1,0,0:0:0:0:
256,192,286401,1,2,0:0:0:0:
256,192,286575,1,0,0:0:0:0:
256,192,286662,1,2,0:0:0:0:
256,192,286749,1,0,0:0:0:0:
256,192,286924,1,0,0:0:0:0:
256,192,287098,1,2,0:0:0:0:
256,192,287273,1,2,0:0:0:0:
256,192,287447,1,0,0:0:0:0:
256,192,287796,1,2,0:0:0:0:
256,192,287970,1,0,0:0:0:0:
256,192,288057,1,0,0:0:0:0:
256,192,288145,1,2,0:0:0:0:
256,192,288319,1,0,0:0:0:0:
256,192,288494,1,2,0:0:0:0:
256,192,288668,1,2,0:0:0:0:
256,192,288842,1,0,0:0:0:0:
256,192,289191,1,2,0:0:0:0:
256,192,289366,1,0,0:0:0:0:
256,192,289453,1,2,0:0:0:0:
256,192,289540,1,0,0:0:0:0:
256,192,289714,1,0,0:0:0:0:
256,192,289889,1,2,0:0:0:0:
256,192,289976,1,2,0:0:0:0:
256,192,290063,1,0,0:0:0:0:
256,192,290151,1,2,0:0:0:0:
256,192,290238,1,0,0:0:0:0:
256,192,290412,1,0,0:0:0:0:
256,192,290499,1,2,0:0:0:0:
256,192,290587,1,2,0:0:0:0:
256,192,290674,1,0,0:0:0:0:
256,192,290761,1,2,0:0:0:0:
256,192,290848,1,2,0:0:0:0:
256,192,290935,1,0,0:0:0:0:
256,192,291023,1,2,0:0:0:0:
256,192,291110,1,2,0:0:0:0:
256,192,291197,1,0,0:0:0:0:
256,192,291371,1,2,0:0:0:0:
256,192,291459,1,0,0:0:0:0:
256,192,291546,1,0,0:0:0:0:
256,192,291633,1,2,0:0:0:0:
256,192,291720,1,0,0:0:0:0:
256,192,291895,1,2,0:0:0:0:
256,192,291982,1,0,0:0:0:0:
256,192,292069,1,0,0:0:0:0:
256,192,292156,1,2,0:0:0:0:
256,192,292244,1,0,0:0:0:0:
256,192,292331,1,0,0:0:0:0:
256,192,292418,1,2,0:0:0:0:
256,192,292505,1,0,0:0:0:0:
256,192,292592,1,0,0:0:0:0:
256,192,292680,1,2,0:0:0:0:
256,192,292738,1,2,0:0:0:0:
256,192,292796,1,2,0:0:0:0:
256,192,292854,1,0,0:0:0:0:
256,192,293203,1,0,0:0:0:0:
256,192,293377,1,0,0:0:0:0:
256,192,293464,1,2,0:0:0:0:
256,192,293552,1,0,0:0:0:0:
256,192,293726,1,2,0:0:0:0:
256,192,293813,1,0,0:0:0:0:
256,192,293901,1,2,0:0:0:0:
256,192,293988,1,2,0:0:0:0:
256,192,294075,1,0,0:0:0:0:
256,192,294162,1,0,0:0:0:0:
256,192,294249,1,2,0:0:0:0:
256,192,294337,1,2,0:0:0:0:
256,192,294424,1,0,0:0:0:0:
256,192,294598,1,2,0:0:0:0:
256,192,294685,1,0,0:0:0:0:
256,192,294773,1,2,0:0:0:0:
256,192,294860,1,2,0:0:0:0:
256,192,294947,1,0,0:0:0:0:
256,192,295121,1,2,0:0:0:0:
256,192,295209,1,2,0:0:0:0:
256,192,295296,1,0,0:0:0:0:
256,192,295383,1,2,0:0:0:0:
256,192,295470,1,0,0:0:0:0:
256,192,295557,1,0,0:0:0:0:
256,192,295645,1,2,0:0:0:0:
256,192,295732,1,2,0:0:0:0:
256,192,295819,1,0,0:0:0:0:
256,192,295906,1,0,0:0:0:0:
256,192,295994,1,2,0:0:0:0:
256,192,296081,1,0,0:0:0:0:
256,192,296168,1,2,0:0:0:0:
256,192,296255,1,2,0:0:0:0:
256,192,296342,1,0,0:0:0:0:
256,192,296430,1,2,0:0:0:0:
256,192,296517,1,0,0:0:0:0:
256,192,296604,1,2,0:0:0:0:
256,192,296691,1,2,0:0:0:0:
256,192,296778,1,0,0:0:0:0:
256,192,296866,1,2,0:0:0:0:
256,192,296953,1,0,0:0:0:0:
256,192,297040,1,0,0:0:0:0:
256,192,297127,1,2,0:0:0:0:
256,192,297214,1,0,0:0:0:0:
256,192,297302,1,0,0:0:0:0:
256,192,297389,1,2,0:0:0:0:
256,192,297447,1,0,0:0:0:0:
256,192,297505,1,0,0:0:0:0:
256,192,297563,1,2,0:0:0:0:
256,192,297651,1,0,0:0:0:0:
256,192,297738,1,2,0:0:0:0:
256,192,297796,1,2,0:0:0:0:
256,192,297854,1,2,0:0:0:0:
256,192,297912,1,0,0:0:0:0:
256,192,297999,1,0,0:0:0:0:
256,192,298087,1,2,0:0:0:0:
256,192,298145,1,0,0:0:0:0:
256,192,298203,1,0,0:0:0:0:
256,192,298261,1,2,0:0:0:0:
256,192,298348,1,2,0:0:0:0:
256,192,298435,1,0,0:0:0:0:
256,192,298523,1,0,0:0:0:0:
256,192,298959,1,6,0:0:0:0:
256,192,299046,12,0,302447,0:0:0:0:
256,192,302796,5,0,0:0:0:0:
