osu file format v14

[General]
AudioFilename: audio.mp3
AudioLeadIn: 0
PreviewTime: 219391
Countdown: 0
SampleSet: Soft
StackLeniency: 0.7
Mode: 0
LetterboxInBreaks: 0
WidescreenStoryboard: 1

[Editor]
Bookmarks: 1368,39042,69740,103228,139507,167414,189740,220438,239973,265089,284624
DistanceSpacing: 0.4
BeatDivisor: 4
GridSize: 32
TimelineZoom: 3.899997

[Metadata]
Title:HAELEQUIN (Extended ver.)
TitleUnicode:HAELEQUIN (Extended ver.)
Artist:orangentle / Yu_Asahina
ArtistUnicode:orangentle / Yu_Asahina
Creator:Cellina
Version:Dissociative Identity Disorder
Source:BMS
Tags:sdvx sound voltex ii -infinite infection- bof2012 of fighters -ein neuer heiliger- haeleq∩inz haelequinz c87 dailycare
BeatmapID:1168783
BeatmapSetID:551831

[Difficulty]
HPDrainRate:5
CircleSize:4
OverallDifficulty:8.5
ApproachRate:9.3
SliderMultiplier:1.9
SliderTickRate:1

[Events]
//Background and Video events
0,0,"bgbgbgbgb.jpg",0,0
//Break Periods
//Storyboard Layer 0 (Background)
//Storyboard Layer 1 (Fail)
//Storyboard Layer 2 (Pass)
//Storyboard Layer 3 (Foreground)
//Storyboard Sound Samples

[TimingPoints]
-27,348.837209302326,4,2,1,45,1,0
1368,-111.111111111111,4,2,1,45,0,0
12531,-100,4,2,1,60,0,0
25786,-83.3333333333333,4,2,1,60,0,0
26484,-100,4,2,1,80,0,0
39042,-125,4,2,2,60,0,0
66949,-181.818181818182,4,2,1,60,0,0
67647,-125,4,2,1,60,0,0
69740,-100,4,2,1,70,0,0
75321,-76.9230769230769,4,2,1,70,0,0
75845,-100,4,2,1,70,0,0
76717,-76.9230769230769,4,2,1,70,0,0
77240,-100,4,2,1,70,0,0
83693,-83.3333333333333,4,2,1,70,0,0
85089,-100,4,2,1,70,0,0
89275,-83.3333333333333,4,2,1,70,0,0
89624,-71.4285714285714,4,2,1,70,0,0
89973,-83.3333333333333,4,2,1,70,0,0
90321,-71.4285714285714,4,2,1,70,0,0
90670,-100,4,2,1,70,0,0
91368,-76.9230769230769,4,2,1,70,0,0
92066,-100,4,2,1,70,0,0
96600,-83.3333333333333,4,2,1,70,0,0
96949,-71.4285714285714,4,2,1,70,0,0
97298,-100,4,2,1,70,0,0
103228,-125,4,2,1,50,0,0
125554,-83.3333333333333,4,2,1,65,0,0
131659,-125,4,2,1,65,0,0
132356,-100,4,2,1,65,0,0
138112,-181.818181818182,4,2,1,65,0,0
139159,-125,4,2,1,65,0,0
139507,-100,4,2,1,65,0,0
141600,-83.3333333333333,4,2,1,65,0,0
142124,-100,4,2,1,65,0,0
148577,-83.3333333333333,4,2,1,65,0,0
150670,-100,4,2,1,65,0,0
152763,-83.3333333333333,4,2,1,65,0,0
153286,-100,4,2,1,65,0,0
157473,-90.9090909090909,4,2,1,65,0,0
158170,-83.3333333333333,4,2,1,65,0,0
158868,-100,4,2,1,65,0,0
159566,-90.9090909090909,4,2,1,65,0,0
160263,-83.3333333333333,4,2,1,65,0,0
160961,-100,4,2,1,65,0,0
167414,-100,4,2,1,60,0,0
167938,-76.9230769230769,4,2,1,60,0,0
168286,-100,4,2,1,60,0,0
170728,-76.9230769230769,4,2,1,60,0,0
171077,-100,4,2,1,60,0,0
172385,-76.9230769230769,4,2,1,60,0,0
172996,-100,4,2,1,60,0,0
173519,-76.9230769230769,4,2,1,60,0,0
173868,-100,4,2,1,60,0,0
175786,-125,4,2,1,60,0,0
177879,-100,4,2,1,60,0,0
179100,-76.9230769230769,4,2,1,60,0,0
179449,-100,4,2,1,60,0,0
181891,-76.9230769230769,4,2,1,60,0,0
182240,-100,4,2,1,60,0,0
183548,-76.9230769230769,4,2,1,60,0,0
184159,-100,4,2,1,60,0,0
184682,-76.9230769230769,4,2,1,60,0,0
185031,-100,4,2,1,60,0,0
186949,-125,4,2,1,60,0,0
189391,-100,4,2,1,70,0,0
189740,-100,4,2,1,70,0,0
190263,-71.4285714285714,4,2,1,70,0,0
190612,-100,4,2,1,70,0,0
193054,-71.4285714285714,4,2,1,70,0,0
193403,-90.9090909090909,4,2,1,70,0,0
194711,-76.9230769230769,4,2,1,70,0,0
195321,-100,4,2,1,70,0,0
195845,-76.9230769230769,4,2,1,70,0,0
196193,-100,4,2,1,70,0,0
198635,-71.4285714285714,4,2,1,70,0,0
198984,-100,4,2,1,70,0,0
201426,-71.4285714285714,4,2,1,70,0,0
201775,-100,4,2,1,70,0,0
204217,-71.4285714285714,4,2,1,70,0,0
204566,-90.9090909090909,4,2,1,70,0,0
205089,-76.9230769230769,4,2,1,70,0,0
206484,-100,4,2,1,70,0,0
208577,-76.9230769230769,4,2,1,70,0,0
209100,-166.666666666667,4,2,1,70,0,0
209624,-100,4,2,1,70,0,0
209885,-90.9090909090909,4,2,1,70,0,0
210234,-83.3333333333333,4,2,1,70,0,0
210670,-76.9230769230769,4,2,1,70,0,0
210932,-71.4285714285714,4,2,1,70,0,0
211368,-66.6666666666667,4,2,1,70,0,0
212066,-62.5,4,2,1,70,0,0
212414,-58.8235294117647,4,2,1,70,0,0
212763,-55.5555555555556,4,2,1,70,0,0
213025,-52.6315789473684,4,2,1,70,0,0
213461,-62.5,4,2,1,70,0,0
213810,-57.1428571428571,4,2,1,70,0,0
214159,-52.6315789473684,4,2,1,70,0,0
214507,-50,4,2,1,70,0,0
214856,-100,4,2,1,70,0,0
219042,-83.3333333333333,4,2,1,70,0,0
220438,-76.9230769230769,4,2,1,80,0,1
229507,-68.9655172413793,4,2,1,80,0,1
230205,-62.5,4,2,1,80,0,1
231600,-76.9230769230769,4,2,1,80,0,1
238577,-68.9655172413793,4,2,1,80,0,1
239885,-68.9655172413793,4,2,1,80,0,0
239973,-76.9230769230769,4,2,1,80,0,1
246949,-71.4285714285714,4,2,1,80,0,1
247298,-76.9230769230769,4,2,1,80,0,1
255321,-66.6666666666667,4,2,1,80,0,1
255670,-76.9230769230769,4,2,1,80,0,1
265089,-90.9090909090909,4,2,1,60,0,0
274159,-80,4,2,1,60,0,0
274856,-71.4285714285714,4,2,1,60,0,0
276252,-90.9090909090909,4,2,1,60,0,0
284624,-100,4,2,1,60,0,0
290903,-83.3333333333333,4,2,1,60,0,0
293170,-71.4285714285714,4,2,1,60,0,0

[Colours]
Combo1 : 128,128,192
Combo2 : 255,128,64
Combo3 : 0,82,183
Combo4 : 255,255,0

[HitObjects]
72,175,1368,5,0,1:0:0:0:
93,188,1455,1,0,0:0:0:0:
110,206,1542,1,0,0:0:0:0:
122,228,1629,1,0,0:0:0:0:
130,252,1717,2,0,P|131:282|122:311,3,42.7499986953736,8|0|0|0,0:0|0:0|0:0|0:0,0:0:0:0:
243,368,2066,5,0,0:0:0:0:
240,342,2153,1,0,0:0:0:0:
237,316,2240,1,0,0:0:0:0:
234,290,2327,1,0,0:0:0:0:
231,264,2414,2,0,L|224:201,3,42.7499986953736,8|0|0|0,0:0|0:0|0:0|0:0,0:0:0:0:
303,92,2763,6,0,L|298:134,3,42.7499986953736,0|0|0|0,0:0|0:0|0:0|0:0,0:0:0:0:
149,112,3112,2,0,L|212:104,3,42.7499986953736,8|0|0|0,0:0|0:0|0:0|0:0,0:0:0:0:
84,223,3461,5,0,0:0:0:0:
108,231,3548,1,0,0:0:0:0:
128,246,3635,1,0,0:0:0:0:
142,267,3723,1,0,0:0:0:0:
163,253,3810,2,0,P|187:248|243:250,3,42.7499986953736,8|0|0|0,0:0|0:0|0:0|0:0,0:0:0:0:
362,344,4159,5,0,0:0:0:0:
360,318,4246,1,0,0:0:0:0:
358,292,4333,1,0,0:0:0:0:
356,266,4420,1,0,0:0:0:0:
354,240,4507,2,0,L|348:174,3,42.7499986953736,8|0|0|0,0:0|0:0|0:0|0:0,0:0:0:0:
415,76,4856,6,0,L|411:118,3,42.7499986953736,0|0|0|0,0:0|0:0|0:0|0:0,0:0:0:0:
265,191,5205,2,0,L|261:148,3,42.7499986953736,8|0|0|0,0:0|0:0|0:0|0:0,0:0:0:0:
186,62,5554,5,0,0:0:0:0:
166,78,5641,1,0,0:0:0:0:
141,85,5728,1,0,0:0:0:0:
115,84,5816,1,0,0:0:0:0:
90,75,5903,5,8,0:0:0:0:
111,106,5990,1,0,0:0:0:0:
120,143,6077,1,0,0:0:0:0:
117,181,6164,1,0,0:0:0:0:
101,216,6252,6,0,L|106:275,1,42.7499986953736,0|0,0:0|0:0,0:0:0:0:
209,366,6426,2,0,L|212:323,1,42.7499986953736,0|0,0:0|0:0,0:0:0:0:
264,190,6600,2,0,L|261:148,3,42.7499986953736,8|0|0|0,0:0|0:0|0:0|0:0,0:0:0:0:
328,318,6949,5,0,0:0:0:0:
349,304,7037,1,0,0:0:0:0:
373,298,7124,1,0,0:0:0:0:
398,297,7211,1,0,0:0:0:0:
423,300,7298,2,0,P|454:307|475:316,3,42.7499986953736,8|0|0|0,0:0|0:0|0:0|0:0,0:0:0:0:
264,190,7647,5,0,0:0:0:0:
238,187,7734,1,0,0:0:0:0:
212,184,7821,1,0,0:0:0:0:
186,181,7909,1,0,0:0:0:0:
160,179,7996,2,0,P|165:208|166:233,3,42.7499986953736,8|0|0|0,0:0|0:0|0:0|0:0,0:0:0:0:
143,300,8345,6,0,P|132:327|121:349,3,42.7499986953736,0|0|0|0,0:0|0:0|0:0|0:0,0:0:0:0:
264,189,8693,2,0,P|253:161|242:139,3,42.7499986953736,8|0|0|0,0:0|0:0|0:0|0:0,0:0:0:0:
292,348,9042,5,0,0:0:0:0:
316,342,9129,1,0,0:0:0:0:
341,341,9217,1,0,0:0:0:0:
366,344,9304,1,0,0:0:0:0:
390,351,9391,5,8,0:0:0:0:
375,315,9478,1,0,0:0:0:0:
367,276,9566,1,0,0:0:0:0:
369,237,9653,1,0,0:0:0:0:
381,200,9740,1,0,0:0:0:0:
256,192,9827,12,0,12182,0:0:0:0:
68,131,12356,5,0,1:0:0:0:
31,220,12531,5,0,1:0:0:0:
72,228,12618,1,0,0:0:0:0:
113,217,12705,1,0,0:0:0:0:
146,190,12792,1,0,0:0:0:0:
165,152,12879,2,0,P|174:118|180:88,1,47.5,8|0,1:2|0:0,0:0:0:0:
269,230,13054,2,0,P|274:253|280:276,1,47.5,0|0,0:0|0:0,0:0:0:0:
426,329,13228,5,0,1:0:0:0:
420,286,13316,1,0,0:0:0:0:
414,243,13403,1,0,0:0:0:0:
408,200,13490,1,0,0:0:0:0:
402,157,13577,2,0,L|392:84,1,47.5,8|0,1:2|0:0,0:0:0:0:
280,26,13752,2,0,L|287:74,1,47.5,0|0,0:0|0:0,0:0:0:0:
200,177,13926,5,0,1:0:0:0:
165,152,14013,1,0,0:0:0:0:
122,149,14100,1,0,0:0:0:0:
79,158,14188,1,0,0:0:0:0:
50,189,14275,2,0,L|58:242,1,47.5,8|0,1:2|0:0,0:0:0:0:
165,358,14449,2,0,L|172:311,1,47.5,0|0,0:0|0:0,0:0:0:0:
293,200,14624,5,0,1:0:0:0:
330,180,14711,1,0,0:0:0:0:
371,189,14798,1,0,0:0:0:0:
406,213,14885,1,0,0:0:0:0:
424,252,14973,2,0,P|431:287|443:324,1,47.5,8|0,1:2|0:0,0:0:0:0:
257,368,15147,2,0,P|262:345|267:321,1,47.5,0|0,0:2|0:0,0:0:0:0:
132,326,15321,5,0,1:2:0:0:
138,283,15409,1,0,0:0:0:0:
144,240,15496,1,0,0:0:0:0:
150,197,15583,1,0,0:0:0:0:
156,154,15670,5,8,1:2:0:0:
170,172,15757,1,0,0:0:0:0:
190,184,15845,1,0,0:0:0:0:
212,190,15932,1,0,0:0:0:0:
235,190,16019,5,0,1:2:0:0:
269,164,16106,1,0,0:0:0:0:
310,154,16193,1,0,0:0:0:0:
351,166,16281,1,0,0:0:0:0:
382,194,16368,5,8,1:2:0:0:
362,214,16455,1,0,0:0:0:0:
352,240,16542,1,0,0:0:0:0:
353,268,16629,1,0,0:0:0:0:
366,293,16717,5,0,1:0:0:0:
323,296,16804,1,0,0:0:0:0:
285,316,16891,1,0,0:0:0:0:
261,351,16978,1,0,0:0:0:0:
219,339,17066,5,8,1:2:0:0:
190,336,17153,1,0,0:0:0:0:
161,339,17240,1,0,0:0:0:0:
133,346,17327,1,0,0:0:0:0:
107,358,17414,6,0,L|117:227,1,95,0|0,1:0|0:0,0:0:0:0:
83,195,17676,1,0,0:0:0:0:
83,195,17763,2,0,P|56:190|25:188,1,47.5,8|0,1:2|0:0,0:0:0:0:
129,87,17938,2,0,P|156:92|187:94,1,47.5,0|0,1:0|0:0,0:0:0:0:
418,75,18112,5,0,1:0:0:0:
394,45,18199,1,0,0:0:0:0:
356,36,18286,1,0,0:0:0:0:
318,46,18374,1,0,0:0:0:0:
291,73,18461,1,8,1:2:0:0:
288,110,18548,1,0,0:0:0:0:
307,142,18635,1,0,0:0:0:0:
340,160,18723,1,0,0:0:0:0:
377,163,18810,5,0,1:0:0:0:
413,174,18897,1,0,0:0:0:0:
436,203,18984,1,0,0:0:0:0:
443,240,19071,1,0,0:0:0:0:
430,276,19159,1,8,1:2:0:0:
398,297,19246,1,0,0:0:0:0:
361,306,19333,1,0,0:0:0:0:
323,301,19420,1,0,0:0:0:0:
298,265,19507,5,0,1:0:0:0:
266,252,19595,1,0,0:0:0:0:
237,247,19682,1,0,0:0:0:0:
213,248,19769,1,0,0:0:0:0:
173,273,19856,5,8,1:2:0:0:
149,278,19944,1,0,0:0:0:0:
125,278,20031,1,0,0:0:0:0:
101,276,20118,1,0,0:0:0:0:
81,264,20205,6,0,L|85:208,3,47.5,0|0|0|0,1:2|0:0|0:0|0:0,0:0:0:0:
170,130,20554,2,0,L|173:177,3,47.5,8|0|0|0,1:2|0:0|0:0|0:0,0:0:0:0:
146,345,20903,5,0,1:2:0:0:
164,343,20990,1,0,0:0:0:0:
182,341,21077,1,0,0:0:0:0:
200,339,21164,1,0,0:0:0:0:
219,338,21252,1,8,1:2:0:0:
237,337,21339,1,0,0:0:0:0:
255,336,21426,1,0,0:0:0:0:
273,335,21513,1,0,0:0:0:0:
291,334,21600,5,0,1:2:0:0:
279,318,21688,1,0,0:0:0:0:
270,300,21775,1,0,0:0:0:0:
266,281,21862,1,0,0:0:0:0:
266,262,21949,1,8,1:2:0:0:
272,244,22036,1,0,0:0:0:0:
281,227,22124,1,0,0:0:0:0:
293,213,22211,1,0,0:0:0:0:
315,204,22298,5,0,0:0:0:0:
328,163,22385,1,0,0:0:0:0:
312,122,22473,1,0,0:0:0:0:
276,99,22560,1,0,0:0:0:0:
233,96,22647,1,0,0:0:0:0:
196,117,22734,1,0,0:0:0:0:
178,156,22821,1,0,0:0:0:0:
183,198,22909,1,0,0:0:0:0:
151,169,22996,5,0,0:0:0:0:
109,159,23083,1,0,0:0:0:0:
66,163,23170,1,0,0:0:0:0:
26,178,23257,1,0,0:0:0:0:
0,212,23345,5,0,0:0:0:0:
17,228,23432,1,0,0:0:0:0:
27,249,23519,1,0,0:0:0:0:
33,271,23606,1,0,0:0:0:0:
33,294,23693,5,0,0:0:0:0:
52,295,23781,1,0,0:0:0:0:
70,296,23868,1,0,0:0:0:0:
88,297,23955,1,0,0:0:0:0:
132,331,24042,5,0,0:0:0:0:
151,330,24130,1,0,0:0:0:0:
169,329,24217,1,0,0:0:0:0:
187,328,24304,1,0,0:0:0:0:
234,296,24391,5,0,0:0:0:0:
232,276,24479,1,0,0:0:0:0:
228,257,24566,1,0,0:0:0:0:
220,239,24653,1,0,0:0:0:0:
208,223,24740,5,0,0:0:0:0:
254,230,24827,1,0,0:0:0:0:
301,221,24915,1,0,0:0:0:0:
336,189,25002,1,0,0:0:0:0:
353,144,25089,5,0,0:0:0:0:
353,144,25612,6,0,L|364:222,1,47.5
454,331,25786,6,0,B|407:328|379:292|379:292|371:336|331:364,1,170.999994781494
228,354,26135,5,0,0:0:0:0:
233,308,26223,1,0,0:0:0:0:
238,262,26310,1,0,0:0:0:0:
244,216,26397,1,0,0:0:0:0:
249,170,26484,5,4,1:0:0:0:
102,108,26659,1,0,0:0:0:0:
102,108,26746,1,0,0:0:0:0:
102,108,26833,1,0,0:0:0:0:
290,51,27007,2,0,B|341:38|341:38|415:63,1,95,4|0,1:0|0:0,0:0:0:0:
450,90,27269,1,0,0:0:0:0:
450,90,27356,1,0,0:0:0:0:
379,241,27531,6,0,P|331:238|308:237,2,47.5,4|0|0,2:1|0:0|0:0,0:0:0:0:
266,328,27879,1,0,0:0:0:0:
264,144,28054,2,0,P|328:138|401:122,1,95,4|0,1:0|0:0,0:0:0:0:
483,306,28403,1,0,0:0:0:0:
264,144,28577,6,0,P|238:149|187:147,2,47.5,4|0|0,1:0|0:0|0:0,0:0:0:0:
66,108,28926,1,4,1:0:0:0:
98,136,29013,1,0,0:0:0:0:
115,174,29100,1,0,0:0:0:0:
113,217,29188,1,0,0:0:0:0:
91,253,29275,6,0,P|138:264|207:291,1,95,4|0,1:0|0:0,0:0:0:0:
252,310,29536,1,0,0:0:0:0:
252,310,29624,1,0,0:0:0:0:
443,181,29798,2,0,B|392:175|392:175|359:207,1,95,4|0,1:0|0:0,0:0:0:0:
424,254,30060,1,0,0:0:0:0:
424,254,30147,1,0,0:0:0:0:
264,144,30321,6,0,L|273:78,2,47.5,4|0|0,1:1|0:0|0:0,0:0:0:0:
112,220,30670,5,0,0:0:0:0:
159,41,30845,1,4,1:0:0:0:
40,159,31019,5,0,0:0:0:0:
87,338,31194,1,0,0:0:0:0:
231,101,31368,6,0,P|239:125|245:155,2,47.5,6|0|0,1:0|0:0|0:0,0:0:0:0:
311,197,31629,2,0,P|303:221|297:251,2,47.5,2|4|0,0:1|1:0|0:0,0:0:0:0:
252,310,31891,2,0,P|260:334|266:364,1,47.5,2|0,0:1|0:0,0:0:0:0:
435,352,32066,6,0,L|423:235,1,95,4|0,1:0|0:0,0:0:0:0:
421,215,32327,1,0,0:0:0:0:
421,215,32414,1,8,1:0:0:0:
264,355,32589,1,0,0:0:0:0:
154,186,32763,2,0,P|211:174|271:157,1,95,0|0,1:0|0:0,0:0:0:0:
164,340,33112,5,8,1:0:0:0:
146,311,33199,1,0,0:0:0:0:
116,295,33286,1,0,0:0:0:0:
82,294,33374,1,0,0:0:0:0:
50,304,33461,1,0,1:0:0:0:
232,292,33635,2,0,P|237:249|243:232,2,47.5,0|0|8,0:0|0:0|1:0,0:0:0:0:
92,380,33984,1,0,0:0:0:0:
29,180,34159,2,0,P|88:170|142:156,1,95,0|0,1:0|0:0,0:0:0:0:
339,62,34507,5,8,1:0:0:0:
297,50,34595,1,0,0:0:0:0:
255,57,34682,1,0,0:0:0:0:
227,89,34769,1,0,0:0:0:0:
217,130,34856,1,0,1:0:0:0:
440,213,35031,2,0,P|435:180|432:154,2,47.5,0|0|8,0:0|0:0|1:0,0:0:0:0:
454,68,35379,1,0,0:0:0:0:
346,287,35554,5,0,1:0:0:0:
327,285,35641,1,0,0:0:0:0:
308,283,35728,1,0,0:0:0:0:
288,281,35816,1,0,0:0:0:0:
269,279,35903,2,0,L|177:268,1,47.5,8|0,1:0|0:0,0:0:0:0:
78,218,36077,2,0,L|112:211,2,23.75,2|2|2,0:1|0:1|0:1,0:1:0:0:
176,194,36252,1,2,0:1:0:0:
119,58,36600,5,0,0:0:0:0:
165,45,36688,1,0,0:0:0:0:
211,52,36775,1,2,0:0:0:0:
245,84,36862,1,2,0:0:0:0:
256,129,36949,5,0,0:0:0:0:
238,173,37036,1,0,0:0:0:0:
233,220,37124,1,2,0:0:0:0:
249,264,37211,1,2,0:0:0:0:
289,288,37298,5,0,0:0:0:0:
336,290,37385,1,0,0:0:0:0:
380,272,37473,1,2,0:0:0:0:
412,237,37560,1,2,0:0:0:0:
416,189,37647,5,0,0:0:0:0:
385,201,37734,1,0,0:0:0:0:
369,230,37821,1,2,0:0:0:0:
364,263,37909,1,2,0:0:0:0:
371,295,37996,1,0,0:0:0:0:
393,319,38083,1,0,0:0:0:0:
423,331,38170,1,2,0:0:0:0:
456,332,38257,1,2,0:0:0:0:
487,319,38345,5,2,0:0:0:0:
468,320,38432,1,2,0:0:0:0:
449,322,38519,1,2,0:0:0:0:
430,324,38606,1,2,0:0:0:0:
411,326,38693,5,8,0:3:0:0:
391,328,38781,1,8,0:3:0:0:
372,330,38868,1,8,0:3:0:0:
353,332,38955,1,8,0:3:0:0:
334,334,39042,6,0,P|324:287|318:233,1,76,6|0,0:0|0:0,0:0:0:0:
339,167,39391,1,8,0:0:0:0:
252,198,39566,2,0,P|174:195|108:123,1,152,2|2,0:0|0:0,0:0:0:0:
200,4,40089,2,0,P|243:10|286:29,1,76,10|0,0:0|0:0,0:0:0:0:
214,100,40438,5,2,0:0:0:0:
57,27,40612,1,0,0:0:0:0:
97,198,40786,1,10,0:0:0:0:
114,114,40961,2,0,L|130:277,1,152,2|2,0:0|0:0,0:0:0:0:
155,350,41484,2,0,P|112:350|53:321,1,76,10|0,0:0|0:0,0:0:0:0:
104,183,41833,6,0,P|147:183|206:212,1,76,2|0,0:0|0:0,0:0:0:0:
239,260,42182,1,10,0:0:0:0:
188,336,42356,2,0,P|237:300|338:309,1,152,2|2,0:0|0:0,0:0:0:0:
487,292,42879,2,0,L|478:390,1,76,10|0,0:0|0:0,0:0:0:0:
325,302,43228,5,2,0:0:0:0:
446,222,43403,1,0,0:0:0:0:
319,152,43577,1,10,0:0:0:0:
366,227,43752,2,0,L|349:56,1,152,2|2,0:0|0:0,0:0:0:0:
458,17,44275,1,8,0:0:0:0:
441,111,44449,1,2,0:0:0:0:
266,22,44624,6,0,P|216:8|183:8,1,76,2|0,0:0|0:0,0:0:0:0:
123,180,44973,1,10,0:0:0:0:
0,48,45147,2,0,P|59:42|146:98,1,152,2|2,0:0|0:0,0:0:0:0:
187,293,45670,1,10,0:0:0:0:
247,146,45845,2,0,L|198:149,1,38,2|0,0:0|0:0,0:0:0:0:
123,180,46019,5,2,0:1:0:0:
281,305,46193,1,0,0:0:0:0:
100,354,46368,1,8,0:0:0:0:
219,224,46542,6,0,L|226:173,2,38,2|0|0,0:1|0:0|0:0,0:0:0:0:
355,351,46891,1,2,0:1:0:0:
454,192,47066,1,10,0:1:0:0:
454,192,47153,2,0,L|461:141,2,38
481,226,47414,6,0,P|407:211|335:268,1,152,4|8,0:0|0:0,0:0:0:0:
421,336,47850,1,2,0:0:0:0:
433,340,47938,2,0,P|427:310|420:274,1,38,2|2,0:0|0:0,0:0:0:0:
372,112,48112,5,2,0:0:0:0:
276,150,48286,1,2,0:0:0:0:
174,146,48461,2,0,P|137:154|83:158,1,76,8|2,0:0|0:0,0:0:0:0:
356,195,48810,6,0,P|415:181|476:169,2,114,2|2|2,0:0|0:0|0:0,0:0:0:0:
298,267,49507,2,0,P|305:314|315:360,1,76,2|0,0:0|0:0,0:0:0:0:
356,195,49856,2,0,P|349:148|339:102,1,76,8|2,0:0|0:0,0:0:0:0:
339,108,50118,1,2,0:0:0:0:
333,97,50205,6,0,P|388:133|480:115,1,152,2|8,0:0|0:0,0:0:0:0:
510,34,50728,1,0,0:0:0:0:
507,21,50816,1,2,0:0:0:0:
500,10,50903,5,2,0:0:0:0:
333,97,51077,1,2,0:0:0:0:
441,133,51252,2,0,P|429:87|416:49,1,76,8|2,0:0|0:0,0:0:0:0:
277,10,51600,5,2,0:0:0:0:
277,10,51688,1,0,0:0:0:0:
277,10,51775,1,0,0:0:0:0:
332,199,51949,2,0,L|327:248,4,38,8|0|0|0|0,0:0|0:0|0:0|0:0|0:0,0:0:0:0:
369,109,52473,5,2,0:0:0:0:
241,292,52647,1,10,0:0:0:0:
428,235,52821,1,2,0:0:0:0:
244,147,52996,6,0,P|206:144|156:136,1,76,2|2,0:0|0:0,0:0:0:0:
146,131,53257,2,0,L|153:193,1,38,2|8,0:0|0:0,0:0:0:0:
170,333,53519,2,0,P|132:295|18:301,1,152,2|0,0:0|0:0,0:0:0:0:
124,47,54042,1,8,0:0:0:0:
146,131,54216,1,2,0:0:0:0:
207,69,54391,5,2,0:0:0:0:
61,131,54566,2,0,P|8:142|-23:146,1,76,0|10,0:0|0:0,0:0:0:0:
186,230,54914,2,0,P|224:192|338:198,1,152,2|0,0:0|0:0,0:0:0:0:
374,268,55438,1,8,0:0:0:0:
328,372,55612,5,2,0:0:0:0:
328,372,55699,1,2,0:0:0:0:
328,372,55786,2,0,L|338:197,1,152,2|8,0:0|0:0,0:0:0:0:
394,141,56310,1,0,0:0:0:0:
243,254,56484,6,0,P|196:252|136:292,2,114,2|2|2,0:0|0:0|0:0,0:0:0:0:
422,380,57182,1,2,0:0:0:0:
422,380,57531,6,0,L|431:263,1,114,10|0,0:0|0:0,0:0:0:0:
362,218,57879,6,0,B|353:234|353:234|355:276,1,38,0|0,0:0|0:0,0:0:0:0:
503,305,58054,2,0,B|512:289|512:289|510:247,1,38,0|0,0:0|0:0,0:0:0:0:
464,186,58228,5,10,0:0:0:0:
464,186,58316,2,0,L|510:190,2,38,2|2|2,0:0|0:0|0:0,0:0:0:0:
436,189,58577,6,0,B|385:122|385:122|425:29,1,152,6|8,0:0|0:0,0:0:0:0:
509,101,59013,1,0,0:0:0:0:
512,114,59100,2,0,L|464:111,1,38,2|2,0:0|0:0,0:0:0:0:
316,71,59275,5,2,0:0:0:0:
329,172,59449,1,2,0:0:0:0:
261,246,59624,2,0,P|253:290|252:352,1,76,8|2,0:0|0:0,0:0:0:0:
364,287,59973,6,0,P|400:258|472:265,2,114,0|2|0,0:0|0:0|0:0,0:0:0:0:
376,378,60670,2,0,P|420:369|479:359,1,76
465,260,61019,1,10,0:0:0:0:
376,378,61193,1,2,0:0:0:0:
235,333,61368,5,6,0:0:0:0:
402,138,61630,1,2,0:0:0:0:
400,152,61717,2,0,L|389:240,1,76,10|0,0:0|0:0,0:0:0:0:
165,125,62066,6,0,P|191:103|269:106,1,114,4|2,0:0|0:0,0:0:0:0:
277,114,62414,2,0,L|288:26,1,76,10|0,0:0|0:0,0:0:0:0:
411,40,62763,5,6,0:0:0:0:
325,192,62938,1,0,0:0:0:0:
165,125,63112,2,0,P|117:130|70:165,1,76,10|0,0:0|0:0,0:0:0:0:
18,304,63461,5,4,0:0:0:0:
23,292,63548,1,2,0:0:0:0:
25,279,63635,1,0,0:0:0:0:
20,266,63723,1,2,0:0:0:0:
9,257,63810,2,0,L|141:267,1,114,10|0,0:0|0:0,0:0:0:0:
189,211,64159,6,0,P|202:253|207:297,1,76,6|0,0:0|0:0,0:0:0:0:
141,356,64507,1,8,0:0:0:0:
47,327,64682,1,2,0:0:0:0:
206,284,64856,5,2,0:0:0:0:
38,187,65031,1,2,0:0:0:0:
116,262,65205,2,0,P|125:203|128:160,1,76,8|2,0:0|0:0,0:0:0:0:
99,94,65554,5,2,0:0:0:0:
325,192,65816,1,0,0:0:0:0:
26,287,66077,1,2,0:0:0:0:
101,187,66252,6,0,P|113:238|116:276,1,76,0|0,0:0|0:0,0:0:0:0:
62,376,66600,1,8,0:0:0:0:
6,121,66775,5,2,0:0:0:0:
6,121,66862,1,2,0:0:0:0:
6,121,66949,2,0,B|55:110|55:110|97:141|97:141|170:148,1,156.750004783631,6|0,1:2|0:0,0:0:0:0:
344,164,67647,5,4,1:2:0:0:
167,73,67909,1,0,0:0:0:0:
167,73,67996,2,0,P|154:32|152:-10,1,76,8|0,0:0|0:0,0:0:0:0:
261,226,68345,5,0,0:0:0:0:
342,68,68519,1,0,1:0:0:0:
339,52,68606,1,0,1:0:0:0:
336,36,68693,2,0,L|329:1,2,19,10|0|0,1:0|0:0|0:0,0:0:0:0:
361,141,68868,2,0,L|370:179,2,25.3333333333333,2|0|0,1:0|0:0|0:0,0:0:0:0:
253,69,69042,5,0,1:0:0:0:
474,116,69217,1,0,1:0:0:0:
331,288,69391,1,10,1:0:0:0:
292,272,69478,1,0,1:0:0:0:
248,273,69566,1,0,1:0:0:0:
211,293,69653,1,0,1:0:0:0:
192,331,69740,5,4,1:2:0:0:
429,360,70089,1,8,1:0:0:0:
430,356,70176,1,0,0:0:0:0:
431,352,70263,1,0,0:0:0:0:
432,348,70350,1,0,0:0:0:0:
433,344,70438,2,0,P|425:295|418:237,1,95,0|2,1:0|0:0,0:0:0:0:
306,148,70786,1,8,1:0:0:0:
491,195,70961,1,2,0:0:0:0:
292,272,71135,6,0,P|220:258|164:252,1,95,0|0,1:0|0:0,0:0:0:0:
153,263,71397,2,0,B|176:220|176:220|162:165,1,95,2|0,0:0|0:0,0:0:0:0:
150,133,71659,1,2,0:0:0:0:
5,266,71833,1,0,1:0:0:0:
35,279,71920,1,0,0:0:0:0:
59,301,72007,1,0,0:0:0:0:
75,330,72095,1,0,0:0:0:0:
85,361,72182,1,8,1:0:0:0:
265,342,72356,1,2,0:0:0:0:
265,342,72443,1,2,0:0:0:0:
265,342,72531,6,0,L|252:129,1,190,0|8,1:0|1:0,0:0:0:0:
283,22,73054,1,2,0:0:0:0:
283,22,73141,1,2,0:0:0:0:
283,22,73228,1,0,1:0:0:0:
177,142,73403,1,2,0:0:0:0:
50,43,73577,2,0,P|98:30|147:13,1,95,8|2,1:0|0:0,0:0:0:0:
359,102,73926,6,0,B|241:97|289:146|158:141,1,190,0|8,1:0|1:0,0:0:0:0:
50,281,74449,2,0,P|108:295|150:275,1,95,0|0,0:0|1:0,0:0:0:0:
211,57,74798,1,2,0:0:0:0:
67,198,74973,1,8,1:0:0:0:
255,273,75147,1,2,0:0:0:0:
276,169,75321,6,0,B|296:229|296:229|246:285,1,123.499994346619,4|0,1:2|0:0,0:0:0:0:
276,379,75583,2,0,B|236:335|236:335|256:275,1,123.499994346619,0|0,1:0|0:0,0:0:0:0:
484,328,75845,6,0,B|340:323|340:323|381:362,1,190,0|0,1:0|0:0,0:0:0:0:
383,157,76368,1,8,0:0:0:0:
206,217,76542,1,2,0:0:0:0:
294,64,76717,6,0,P|259:118|292:183,1,123.499994346619,4|0,1:2|0:0,0:0:0:0:
260,277,76978,2,0,P|294:222|261:157,1,123.499994346619,0|0,1:0|0:0,0:0:0:0:
57,242,77240,5,0,1:0:0:0:
12,64,77414,1,0,1:0:0:0:
188,115,77589,2,0,P|171:118|157:118,2,31.6666666666667,0|0|0,1:0|0:0|0:0,0:0:0:0:
328,46,77763,2,0,P|343:46|359:48,2,31.6666666666667,0|0|0,1:0|0:0|0:0,0:0:0:0:
266,86,77938,1,0,1:0:0:0:
266,86,78025,1,0,1:0:0:0:
266,86,78112,6,0,L|256:297,1,190,2|8,1:2|0:0,0:0:0:0:
376,184,78635,1,0,1:0:0:0:
404,329,78810,2,0,P|322:340|277:359,1,95,2|0,1:2|1:0,0:0:0:0:
285,360,79071,1,2,1:2:0:0:
285,360,79159,2,0,P|203:349|158:330,1,95,8|0,1:0|0:0,0:0:0:0:
59,233,79507,1,0,1:0:0:0:
59,233,79856,5,8,1:0:0:0:
101,235,79943,1,0,0:0:0:0:
143,225,80031,1,2,0:0:0:0:
178,200,80118,1,2,0:0:0:0:
197,162,80205,5,0,0:0:0:0:
215,195,80292,1,0,0:0:0:0:
245,217,80379,1,2,1:2:0:0:
281,229,80467,1,2,1:2:0:0:
318,229,80554,5,8,1:0:0:0:
315,262,80641,1,0,0:0:0:0:
326,293,80728,1,2,1:2:0:0:
349,317,80816,1,2,1:2:0:0:
376,324,80903,6,0,P|412:202|457:207,1,190,4|8,1:2|1:0,0:0:0:0:
420,174,81339,1,0,0:0:0:0:
409,137,81426,1,0,0:0:0:0:
415,99,81513,1,0,0:0:0:0:
434,66,81600,5,0,1:0:0:0:
194,165,81775,1,0,0:0:0:0:
311,6,81949,2,0,P|302:66|298:101,1,95,8|2,1:0|0:0,0:0:0:0:
453,270,82298,6,0,B|377:256|389:309|295:292,1,142.5,0|0,1:0|0:0,0:0:0:0:
315,294,82647,1,8,1:0:0:0:
437,360,82821,1,2,0:0:0:0:
215,349,82996,6,0,P|147:317|105:306,1,95,0|0,1:0|0:0,0:0:0:0:
41,333,83257,1,0,0:1:0:0:
41,333,83345,2,0,L|47:285,1,47.5,10|0,1:2|0:0,0:0:0:0:
164,128,83519,2,0,L|170:175,1,47.5,2|0,1:2|0:0,0:0:0:0:
8,99,83693,6,0,B|50:59|50:59|127:77,1,113.999996520996,2|0,1:2|0:0,0:0:0:0:
164,128,83955,2,0,B|206:168|206:168|283:150,1,113.999996520996,2|0,0:0|0:0,0:0:0:0:
320,99,84217,1,2,0:0:0:0:
454,308,84391,6,0,L|325:292,1,113.999996520996,2|0,1:2|0:0,0:0:0:0:
275,341,84653,2,0,L|146:357,1,113.999996520996,2|0,0:0|0:0,0:0:0:0:
92,315,84914,1,2,0:0:0:0:
36,177,85089,6,0,P|116:253|80:324,1,190,2|8,1:2|0:0,0:0:0:0:
49,186,85612,1,0,1:0:0:0:
49,186,85699,1,0,1:0:0:0:
49,186,85786,2,0,P|95:191|163:193,1,95,0|0,1:0|0:0,0:0:0:0:
227,161,86019,5,0,1:0:0:0:
223,176,86077,1,0,1:0:0:0:
219,189,86135,2,0,P|228:219|239:263,1,47.5,10|0,1:2|0:0,0:0:0:0:
381,160,86310,2,0,P|372:130|361:86,1,47.5,0|0,0:0|0:0,0:0:0:0:
470,277,86484,6,0,B|375:248|373:320|277:290,1,190,0|8,1:0|1:0,0:0:0:0:
106,195,87007,1,2,0:0:0:0:
106,195,87094,1,2,0:0:0:0:
106,195,87182,1,0,1:0:0:0:
305,152,87356,1,2,0:0:0:0:
170,295,87531,2,0,P|189:346|199:391,1,95,8|2,1:0|0:0,0:0:0:0:
24,221,87879,6,0,P|35:131|89:110,1,142.5,0|2,1:0|0:0,0:0:0:0:
150,115,88228,2,0,P|203:122|273:126,1,95,8|0,1:0|0:0,0:0:0:0:
380,49,88577,5,0,1:0:0:0:
342,190,88752,1,0,1:0:0:0:
345,208,88839,1,0,1:0:0:0:
347,226,88926,5,8,1:0:0:0:
386,242,89013,1,0,0:0:0:0:
413,274,89100,1,0,0:0:0:0:
417,316,89188,1,0,0:0:0:0:
403,356,89275,6,0,L|321:348,1,56.9999982604981,0|0,0:0|0:0,0:0:0:0:
150,299,89449,2,0,L|232:291,1,56.9999982604981,0|0,1:0|0:0,0:0:0:0:
457,218,89624,6,0,B|383:219|383:219|342:189|342:189|238:220,1,199.499993911743,8|0,1:0|0:0,0:0:0:0:
356,360,89973,6,0,L|413:366,1,56.9999982604981,0|0,0:0|0:0,0:0:0:0:
192,285,90147,2,0,L|136:291,1,56.9999982604981,0|0,1:0|0:0,0:0:0:0:
304,106,90321,6,0,B|257:143|257:143|291:304,1,199.499993911743,8|0,1:0|0:0,0:0:0:0:
184,346,90670,5,0,0:0:0:0:
194,329,90757,1,0,0:0:0:0:
195,308,90845,2,0,P|191:283|184:265,2,23.75,2|0|0,1:2|0:0|0:0,0:0:0:0:
80,217,91019,5,8,0:0:0:0:
70,200,91106,1,0,0:0:0:0:
69,179,91194,2,0,P|73:154|79:138,2,35.625,2|0|0,1:2|0:0|0:0,0:0:0:0:
105,59,91368,6,0,L|186:67,1,61.7499971733095,0|0,1:0|0:0,0:0:0:0:
259,75,91542,2,0,L|340:83,1,61.7499971733095,0|0,1:0|0:0,0:0:0:0:
445,69,91717,1,8,0:0:0:0:
411,96,91804,1,0,0:0:0:0:
427,135,91891,1,0,1:0:0:0:
425,178,91978,1,0,1:0:0:0:
403,215,92066,5,0,1:0:0:0:
277,353,92240,5,2,0:0:0:0:
258,325,92327,1,2,0:0:0:0:
255,291,92414,1,10,0:0:0:0:
270,261,92502,1,2,0:0:0:0:
298,244,92589,1,2,0:0:0:0:
331,242,92676,1,2,0:0:0:0:
361,255,92763,1,2,0:0:0:0:
277,353,92938,5,0,0:0:0:0:
253,351,93025,1,0,0:0:0:0:
229,349,93112,1,10,0:0:0:0:
205,347,93199,1,2,0:0:0:0:
181,345,93286,1,2,0:0:0:0:
157,343,93374,1,0,0:0:0:0:
133,341,93461,1,2,1:2:0:0:
34,185,93635,5,2,0:0:0:0:
66,191,93723,1,2,0:0:0:0:
99,188,93810,1,10,0:0:0:0:
129,176,93897,1,2,0:0:0:0:
159,163,93984,1,2,0:0:0:0:
191,159,94071,1,2,0:0:0:0:
222,171,94159,1,2,0:0:0:0:
76,108,94333,6,0,L|67:60,1,47.5,0|0,1:0|0:0,0:0:0:0:
49,31,94507,5,8,0:0:0:0:
60,35,94566,1,0,0:0:0:0:
72,37,94624,1,0,0:0:0:0:
84,40,94682,5,0,0:0:0:0:
96,41,94740,1,0,0:0:0:0:
108,40,94798,1,0,0:0:0:0:
120,38,94856,5,0,0:0:0:0:
409,122,95031,5,2,0:0:0:0:
384,135,95118,1,2,0:0:0:0:
366,157,95205,1,10,0:0:0:0:
359,184,95292,1,2,0:0:0:0:
365,211,95379,1,2,0:0:0:0:
383,233,95467,1,2,0:0:0:0:
408,245,95554,5,2,0:0:0:0:
253,300,95728,1,0,0:0:0:0:
415,364,95903,1,8,0:0:0:0:
199,356,96077,1,2,0:0:0:0:
265,205,96252,6,0,L|248:338,1,95,2|0,1:2|0:0,0:0:0:0:
94,369,96512,5,2,0:2:0:0:
94,369,96600,2,0,B|69:312|69:312|116:227,1,113.999996520996,10|2,1:2|0:0,0:0:0:0:
150,178,96862,1,0,0:0:0:0:
150,178,96949,6,0,P|112:183|69:184,1,66.4999979705811,0|0,1:0|0:0,0:0:0:0:
27,362,97124,2,0,P|60:363|93:368,1,66.4999979705811
253,378,97298,5,8,0:0:0:0:
243,339,97385,1,0,0:0:0:0:
252,299,97473,1,0,0:0:0:0:
281,272,97560,1,0,0:0:0:0:
320,264,97647,5,0,1:0:0:0:
288,228,97734,1,0,0:0:0:0:
291,180,97821,1,2,0:0:0:0:
324,145,97909,1,2,0:0:0:0:
371,144,97996,6,0,P|398:151|436:168,1,47.5,8|0,1:2|0:0,0:0:0:0:
466,46,98170,2,0,P|439:39|401:22,1,47.5,2|0,0:0|0:0,0:0:0:0:
221,31,98345,5,0,1:0:0:0:
233,38,98432,1,0,0:0:0:0:
245,45,98519,2,0,L|233:165,1,95,0|8,0:0|1:0,0:0:0:0:
288,228,98781,1,0,0:0:0:0:
246,239,98868,1,0,0:0:0:0:
203,234,98955,1,0,0:0:0:0:
168,209,99042,5,0,1:0:0:0:
132,184,99129,1,0,0:0:0:0:
89,175,99217,1,2,0:0:0:0:
47,183,99304,1,2,0:0:0:0:
15,211,99391,6,0,P|21:240|25:269,1,47.5,8|0,1:0|0:0,0:0:0:0:
189,370,99566,2,0,P|183:341|179:312,1,47.5,2|0,0:0|0:0,0:0:0:0:
132,184,99740,5,0,1:0:0:0:
134,196,99798,1,0,0:0:0:0:
136,208,99856,1,0,0:0:0:0:
136,220,99914,2,0,L|144:264,2,31.6666666666667
180,323,100089,6,0,B|257:300|240:339|326:314,1,142.5,8|0,1:0|0:0,0:0:0:0:
378,347,100438,5,0,1:0:0:0:
368,315,100525,1,0,0:0:0:0:
365,281,100612,1,2,0:0:0:0:
372,248,100699,1,2,0:0:0:0:
405,211,100786,5,8,0:0:0:0:
415,179,100873,1,0,0:0:0:0:
418,145,100960,1,2,0:0:0:0:
411,112,101047,1,2,0:0:0:0:
380,71,101136,5,0,0:0:0:0:
361,72,101223,1,0,0:0:0:0:
342,74,101310,1,0,0:0:0:0:
323,76,101397,1,0,0:0:0:0:
303,78,101485,1,8,0:0:0:0:
284,80,101572,1,0,0:0:0:0:
265,82,101659,1,2,0:0:0:0:
246,84,101746,1,2,0:0:0:0:
184,52,101833,6,0,B|207:91|207:91|188:210,1,142.5,0|0,1:0|0:0,0:0:0:0:
174,264,102182,1,8,1:0:0:0:
174,264,102356,1,0,1:0:0:0:
405,353,102705,1,0,1:0:0:0:
415,267,102879,5,8,1:0:0:0:
398,266,102938,1,0,0:0:0:0:
382,268,102996,1,0,0:0:0:0:
367,273,103054,2,0,P|345:286|326:307,1,47.5,0|0,1:0|0:0,0:0:0:0:
424,182,103228,6,0,P|430:143|431:119,1,38,4|0,0:0|0:0,0:0:0:0:
264,117,103403,2,0,P|266:98|270:80,1,38
365,46,103577,6,0,L|361:84,1,38,8|0,0:0|0:0,0:0:0:0:
337,164,103752,2,0,L|333:202,1,38
164,186,103926,5,0,0:0:0:0:
130,190,104013,1,0,0:0:0:0:
101,171,104100,1,2,0:0:0:0:
91,138,104188,1,2,0:0:0:0:
104,107,104275,1,8,0:0:0:0:
135,91,104362,1,0,0:0:0:0:
168,99,104449,1,2,0:0:0:0:
189,125,104536,1,2,0:0:0:0:
191,159,104624,6,0,P|198:137|218:104,1,38
192,22,104798,1,0,0:0:0:0:
222,9,104885,1,0,0:0:0:0:
256,6,104973,1,8,0:0:0:0:
288,12,105060,1,0,0:0:0:0:
316,27,105147,1,0,0:0:0:0:
337,51,105234,1,0,0:0:0:0:
349,82,105321,6,0,P|357:64|362:46,1,38
290,153,105496,1,2,0:0:0:0:
267,179,105583,1,2,0:0:0:0:
253,208,105670,1,8,0:0:0:0:
245,242,105757,1,0,0:0:0:0:
245,276,105845,1,2,0:0:0:0:
255,310,105932,1,2,0:0:0:0:
277,337,106019,6,0,P|299:345|338:349,1,38
342,201,106193,2,0,P|362:201|379:206,1,38
397,291,106368,6,0,L|359:285,1,38,8|0,0:0|0:0,0:0:0:0:
245,242,106542,2,0,L|207:247,1,38
51,298,106717,5,0,0:0:0:0:
65,267,106804,1,0,0:0:0:0:
70,233,106891,1,2,0:0:0:0:
63,199,106978,1,2,0:0:0:0:
44,170,107066,1,8,0:0:0:0:
34,137,107153,1,0,0:0:0:0:
35,103,107240,1,2,0:0:0:0:
46,69,107327,1,2,0:0:0:0:
37,37,107414,6,0,L|108:43,1,38
314,94,107589,1,0,0:0:0:0:
292,121,107676,1,0,0:0:0:0:
261,137,107764,1,8,0:0:0:0:
227,143,107851,1,0,0:0:0:0:
193,139,107938,1,0,0:0:0:0:
161,126,108025,1,0,0:0:0:0:
137,101,108112,6,0,L|126:159,1,38
189,322,108286,1,2,0:0:0:0:
220,308,108374,1,2,0:0:0:0:
253,301,108461,1,8,0:0:0:0:
287,299,108548,1,0,0:0:0:0:
320,305,108635,1,2,0:0:0:0:
353,312,108723,1,2,0:0:0:0:
383,329,108810,6,0,P|390:297|393:273,1,38,4|0,0:0|0:0,0:0:0:0:
398,101,108984,2,0,P|391:133|388:157,1,38
442,203,109159,1,8,0:0:0:0:
410,215,109246,1,0,0:0:0:0:
375,216,109333,1,0,0:0:0:0:
343,203,109420,1,0,0:0:0:0:
319,176,109507,6,0,P|294:170|261:171,1,38,0|0,0:0|0:0,0:0:0:0:
94,232,109682,2,0,P|112:230|131:225,1,38,2|2,0:0|0:0,0:0:0:0:
209,262,109856,1,8,0:0:0:0:
216,228,109943,1,0,0:0:0:0:
207,194,110031,1,2,0:0:0:0:
188,165,110118,1,2,0:0:0:0:
124,122,110205,5,0,0:0:0:0:
157,125,110292,1,0,0:0:0:0:
190,118,110379,1,0,0:0:0:0:
218,99,110467,1,0,0:0:0:0:
237,71,110554,1,8,0:0:0:0:
257,43,110641,1,0,0:0:0:0:
284,22,110728,1,0,0:0:0:0:
317,13,110816,1,0,0:0:0:0:
350,19,110903,5,0,0:0:0:0:
378,37,110990,1,0,0:0:0:0:
395,66,111077,1,2,0:0:0:0:
401,99,111164,1,2,0:0:0:0:
395,133,111252,1,8,0:0:0:0:
372,158,111339,1,0,0:0:0:0:
343,176,111426,1,2,0:0:0:0:
308,178,111513,1,2,0:0:0:0:
275,168,111600,6,0,L|219:172,1,38
150,103,111775,1,0,0:0:0:0:
151,110,111862,1,0,0:0:0:0:
152,117,111949,1,8,0:0:0:0:
153,124,112036,1,0,0:0:0:0:
154,131,112124,1,0,0:0:0:0:
155,138,112211,1,0,0:0:0:0:
157,145,112298,6,0,L|166:205,1,38
322,98,112473,1,2,0:0:0:0:
323,91,112560,1,2,0:0:0:0:
324,84,112647,1,8,0:0:0:0:
325,77,112734,1,0,0:0:0:0:
326,70,112822,1,2,0:0:0:0:
327,63,112909,1,2,0:0:0:0:
329,56,112996,6,0,L|338:-4,1,38
252,155,113170,2,0,L|261:215,1,38
406,143,113345,6,0,P|387:138|362:138,1,38,8|0,0:0|0:0,0:0:0:0:
213,35,113519,2,0,P|231:33|250:29,1,38
425,10,113693,6,0,L|419:47,1,38
481,200,113868,1,2,0:0:0:0:
459,226,113955,1,2,0:0:0:0:
446,257,114042,1,8,0:0:0:0:
440,290,114129,1,0,0:0:0:0:
440,324,114217,1,2,0:0:0:0:
448,357,114304,1,0,0:0:0:0:
468,384,114391,6,0,P|438:376|398:370,1,38
296,311,114566,1,0,0:0:0:0:
290,277,114653,1,0,0:0:0:0:
284,243,114740,1,8,0:0:0:0:
278,209,114827,1,0,0:0:0:0:
272,175,114914,1,0,0:0:0:0:
266,140,115002,1,0,0:0:0:0:
260,106,115089,6,0,P|277:111|311:111,1,38
192,193,115263,1,2,0:0:0:0:
161,178,115350,1,2,0:0:0:0:
126,176,115438,1,8,0:0:0:0:
92,181,115525,1,0,0:0:0:0:
61,195,115612,1,2,0:0:0:0:
36,219,115699,1,2,0:0:0:0:
19,249,115786,6,0,L|30:313,3,38
60,108,116135,2,0,L|53:70,3,38,8|0|0|0,0:0|0:0|0:0|0:0,0:0:0:0:
150,274,116484,5,0,0:0:0:0:
181,287,116571,1,0,0:0:0:0:
220,283,116659,1,2,0:0:0:0:
249,264,116746,1,2,0:0:0:0:
269,235,116833,1,8,0:0:0:0:
295,213,116920,1,0,0:0:0:0:
329,205,117007,1,2,0:0:0:0:
363,210,117095,1,2,0:0:0:0:
390,229,117182,6,0,L|451:238,1,38
491,70,117356,1,0,0:0:0:0:
470,97,117444,1,0,0:0:0:0:
440,114,117531,1,8,0:0:0:0:
406,121,117618,1,0,0:0:0:0:
371,120,117705,1,0,0:0:0:0:
338,108,117793,1,0,0:0:0:0:
313,84,117879,6,0,P|310:104|309:127,1,38
213,219,118054,1,2,0:0:0:0:
185,199,118141,1,2,0:0:0:0:
151,190,118228,1,8,0:0:0:0:
116,192,118316,1,0,0:0:0:0:
83,203,118403,1,2,0:0:0:0:
57,225,118490,1,2,0:0:0:0:
40,254,118577,6,0,L|-23:246,3,38
196,187,118926,2,0,L|259:179,3,38,8|0|0|0,0:0|0:0|0:0|0:0,0:0:0:0:
64,70,119275,5,0,0:0:0:0:
96,80,119362,1,0,0:0:0:0:
129,86,119449,1,2,0:0:0:0:
163,87,119536,1,2,0:0:0:0:
197,84,119624,1,8,0:0:0:0:
230,76,119711,1,0,0:0:0:0:
260,60,119798,1,2,0:0:0:0:
286,38,119885,1,2,0:0:0:0:
306,10,119973,6,0,B|315:28|315:28|313:59,1,38,4|0,0:0|0:0,0:0:0:0:
385,203,120147,1,0,0:0:0:0:
362,176,120234,1,0,0:0:0:0:
332,158,120321,1,8,0:0:0:0:
297,152,120409,1,0,0:0:0:0:
263,156,120496,1,0,0:0:0:0:
233,172,120583,1,0,0:0:0:0:
201,183,120670,6,0,B|146:178,1,38
154,319,120845,1,2,0:0:0:0:
177,292,120932,1,2,0:0:0:0:
207,274,121019,1,8,0:0:0:0:
242,268,121107,1,0,0:0:0:0:
276,272,121193,1,2,0:0:0:0:
306,288,121281,1,2,0:0:0:0:
328,315,121368,6,0,L|323:363,1,38
408,292,121542,1,0,0:0:0:0:
408,292,121629,1,0,0:0:0:0:
408,292,121717,2,0,L|436:331,1,38,8|0,0:0|0:0,0:0:0:0:
452,221,121891,2,0,L|499:230,1,38,0|0,0:0|0:0,0:0:0:0:
383,129,122066,6,0,L|388:177,1,38,0|0,0:0|0:0,0:0:0:0:
303,106,122240,1,2,0:0:0:0:
303,106,122327,1,2,0:0:0:0:
303,106,122415,2,0,L|274:145,1,38,8|0,0:0|0:0,0:0:0:0:
259,35,122589,2,0,L|211:44,1,38,2|2,0:0|0:0,0:0:0:0:
335,8,122763,5,4,1:2:0:0:
339,13,122850,1,0,0:0:0:0:
343,19,122938,1,0,0:0:0:0:
346,25,123025,1,0,0:0:0:0:
348,31,123112,1,8,0:0:0:0:
350,38,123199,1,0,0:0:0:0:
352,45,123286,2,0,L|361:100,1,38,0|0,0:0|0:0,0:0:0:0:
166,94,123461,5,4,1:2:0:0:
162,99,123548,1,0,0:0:0:0:
158,105,123636,1,0,0:0:0:0:
155,111,123723,1,0,0:0:0:0:
153,117,123810,1,8,0:0:0:0:
151,124,123897,1,0,0:0:0:0:
149,131,123984,2,0,L|142:168,1,38,0|0,0:0|0:0,0:0:0:0:
393,161,124159,5,4,1:2:0:0:
395,168,124246,1,0,0:0:0:0:
397,175,124333,2,0,L|406:230,1,38,0|0,0:0|0:0,0:0:0:0:
119,248,124507,5,4,1:2:0:0:
117,255,124594,1,0,0:0:0:0:
115,262,124681,2,0,L|106:317,1,38,0|0,0:0|0:0,0:0:0:0:
423,300,124856,6,0,L|432:355,1,38,4|0,1:2|0:0,0:0:0:0:
149,131,125031,2,0,L|142:168,1,38,0|0,1:0|0:0,0:0:0:0:
352,45,125205,6,0,L|361:100,1,38,12|0,1:2|0:0,0:0:0:0:
219,208,125379,2,0,L|213:246,1,38,0|0,1:0|0:0,0:0:0:0:
72,35,125554,6,0,B|160:43|122:81|212:94,1,151.999995361328,4|0,1:2|0:0,0:0:0:0:
279,313,125903,5,8,1:0:0:0:
353,165,126019,2,0,P|358:122|367:71,1,75.9999976806641,2|0,0:0|0:0,0:0:0:0:
208,93,126252,5,0,1:0:0:0:
300,230,126368,2,0,P|333:255|373:289,1,75.9999976806641,2|0,0:0|0:0,0:0:0:0:
436,142,126601,5,8,1:0:0:0:
270,153,126717,2,0,P|230:169|181:187,1,75.9999976806641,2|0,0:0|0:0,0:0:0:0:
71,295,126949,6,0,P|67:257|59:220,2,75.9999976806641,0|2|0,1:0|0:0|0:0,0:0:0:0:
174,16,127298,2,0,P|167:54|163:92,2,75.9999976806641,8|2|0,1:0|0:0|0:0,0:0:0:0:
0,158,127647,5,0,1:0:0:0:
41,131,127763,1,2,0:0:0:0:
90,139,127879,1,0,0:0:0:0:
136,220,127996,5,8,1:0:0:0:
177,247,128112,1,2,0:0:0:0:
226,239,128228,1,0,0:0:0:0:
307,194,128345,6,0,B|338:244|338:244|326:312,1,113.999996520996,0|0,1:0|0:0,0:0:0:0:
292,378,128606,1,0,0:0:0:0:
292,378,128693,2,0,P|330:380|353:383,1,56.9999982604981,8|0,1:0|0:0,0:0:0:0:
358,183,128868,2,0,P|329:186|301:187,1,56.9999982604981,0|0,0:0|0:0,0:0:0:0:
413,283,129042,6,0,L|479:287,3,56.9999982604981,0|0|2|2,1:0|0:0|0:0|0:0,0:0:0:0:
247,269,129391,2,0,L|190:265,3,56.9999982604981,8|0|2|2,1:0|0:0|0:0|0:0,0:0:0:0:
318,333,129740,5,0,1:0:0:0:
341,241,129856,2,0,B|342:222|350:209|350:209|345:198|345:198|355:183|359:137,1,75.9999976806641,2|0,0:0|0:0,0:0:0:0:
316,341,130089,5,8,1:0:0:0:
265,221,130205,2,0,P|236:199|192:186,1,75.9999976806641,2|0,0:0|0:0,0:0:0:0:
314,349,130438,5,0,1:0:0:0:
415,252,130554,2,0,P|451:243|506:252,1,75.9999976806641,2|0,0:0|0:0,0:0:0:0:
312,357,130786,5,8,1:0:0:0:
270,228,130903,1,2,0:0:0:0:
406,258,131019,1,0,0:0:0:0:
334,284,131135,6,0,L|342:152,1,113.999996520996,4|0,1:2|0:0,0:0:0:0:
145,30,131484,5,10,0:0:0:0:
145,30,131571,1,2,0:0:0:0:
145,30,131659,2,0,P|162:97|171:195,1,152,0|0,1:0|1:0,0:0:0:0:
394,337,132182,5,10,0:0:0:0:
394,337,132269,1,2,0:0:0:0:
394,337,132356,2,0,P|397:284|430:130,1,190,0|0,1:0|1:0,0:0:0:0:
423,149,132792,1,2,0:0:0:0:
423,149,132879,1,8,1:0:0:0:
2,74,133054,6,0,P|21:164|10:307,1,190,0|0,1:0|1:0,0:0:0:0:
69,344,133577,1,10,0:0:0:0:
21,171,133752,6,0,L|220:193,1,190,0|0,1:0|1:0,0:0:0:0:
299,328,134275,1,10,0:0:0:0:
512,197,134449,6,0,L|313:219,1,190,0|0,1:0|1:0,0:0:0:0:
202,350,134973,1,10,0:0:0:0:
110,131,135147,6,0,B|139:9|139:9|172:77,1,190,0|0,1:0|1:0,0:0:0:0:
386,376,135670,1,10,0:0:0:0:
420,172,135845,6,0,B|391:50|391:50|358:118,1,190,0|0,1:0|1:0,0:0:0:0:
106,348,136368,1,10,0:0:0:0:
253,169,136542,6,0,L|259:217,1,47.5,0|0,1:0|1:0,0:0:0:0:
213,56,136717,1,0,0:0:0:0:
299,328,137066,5,10,1:2:0:0:
346,296,137153,1,2,0:2:0:0:
402,289,137240,1,0,0:0:0:0:
457,302,137327,1,2,0:0:0:0:
439,315,137414,5,2,1:2:0:0:
396,305,137502,1,2,0:2:0:0:
353,310,137589,1,0,0:0:0:0:
319,336,137676,1,2,0:0:0:0:
346,343,137763,5,10,1:2:0:0:
369,326,137850,1,2,0:2:0:0:
397,324,137938,1,0,0:0:0:0:
423,333,138025,1,2,0:0:0:0:
385,352,138112,6,0,L|394:175,1,156.750004783631,0|0,0:0|0:0,0:0:0:0:
336,120,138810,2,0,L|331:78,2,26.1250007972718,0|0|0,0:0|0:0|0:0,0:0:0:0:
305,198,139071,1,0,0:0:0:0:
249,109,139159,6,0,L|239:39,2,38,8|0|0,0:0|0:0|0:0,0:0:0:0:
217,200,139420,1,0,0:0:0:0:
217,200,139507,6,0,P|154:186|88:179,1,95,0|2,1:0|0:0,0:0:0:0:
48,177,139769,1,0,0:0:0:0:
48,177,139856,1,8,1:0:0:0:
175,334,140031,1,2,0:0:0:0:
301,178,140205,6,0,P|310:236|317:284,1,95,0|2,1:0|0:0,0:0:0:0:
283,342,140467,1,0,0:0:0:0:
266,360,140554,2,0,P|205:340|154:331,1,95,8|2,1:0|0:0,0:0:0:0:
48,177,140903,6,0,L|199:167,1,142.5,0|0,1:0|0:0,0:0:0:0:
266,161,141252,1,8,1:0:0:0:
123,46,141426,1,2,0:0:0:0:
345,39,141600,6,0,P|365:64|381:90,1,56.9999982604981,0|0,1:0|0:0,0:0:0:0:
256,217,141775,2,0,P|259:188|265:160,1,56.9999982604981,2|0,0:0|0:0,0:0:0:0:
429,209,141949,2,0,P|433:240|434:271,1,56.9999982604981,8|0,1:0|0:0,0:0:0:0:
295,314,142124,6,0,B|191:336|216:273|82:293,1,190,2|2,0:0|0:0,0:0:0:0:
37,310,142560,1,0,0:0:0:0:
37,310,142647,1,8,1:0:0:0:
78,125,142821,6,0,P|71:97|61:68,2,47.5,2|0|0,0:0|0:0|1:0,0:0:0:0:
256,217,143170,1,2,0:0:0:0:
256,217,143257,1,0,0:0:0:0:
256,217,143345,2,0,P|268:151|278:109,1,95,8|2,1:0|0:0,0:0:0:0:
295,54,143606,1,0,0:0:0:0:
299,40,143693,1,0,1:0:0:0:
437,324,144042,6,0,L|258:311,1,142.5,8|0,1:0|0:0,0:0:0:0:
219,306,144391,1,0,1:0:0:0:
343,183,144566,1,2,0:0:0:0:
186,112,144740,2,0,B|152:199|152:199|176:246,1,142.5,8|0,1:0|0:0,0:0:0:0:
219,306,145089,6,0,P|159:328|113:342,1,95,0|2,1:0|0:0,0:0:0:0:
29,156,145438,2,0,L|98:166,2,47.5,8|0|2,1:0|0:0|0:0,0:0:0:0:
309,225,145786,6,0,P|299:169|293:122,1,95,0|2,1:0|0:0,0:0:0:0:
245,70,146048,1,0,0:0:0:0:
279,54,146135,1,8,1:0:0:0:
317,55,146223,1,0,0:0:0:0:
349,74,146310,1,2,0:0:0:0:
385,82,146397,1,0,0:0:0:0:
421,72,146484,5,0,1:0:0:0:
495,253,146659,1,2,0:0:0:0:
480,240,146746,1,0,0:0:0:0:
466,227,146833,2,0,P|401:238|350:246,1,95,8|2,1:0|0:0,0:0:0:0:
245,70,147182,2,0,P|287:120|319:160,1,95,0|2,1:0|0:0,0:0:0:0:
218,329,147531,1,8,1:0:0:0:
83,246,147705,6,0,B|183:272|169:215|284:243,1,190,4|0,1:2|0:0,0:0:0:0:
106,119,148228,1,8,1:0:0:0:
119,138,148316,1,0,0:0:0:0:
129,159,148403,1,2,0:0:0:0:
218,329,148577,6,0,P|250:342|312:336,1,56.9999982604981,0|0,1:0|0:0,0:0:0:0:
433,199,148752,2,0,P|404:196|376:201,1,56.9999982604981,2|0,0:0|0:0,0:0:0:0:
238,104,148926,2,0,P|250:79|264:42,1,56.9999982604981,8|0,1:0|0:0,0:0:0:0:
440,85,149100,6,0,L|432:210,1,113.999996520996,4|0,1:2|0:0,0:0:0:0:
426,336,149449,1,0,1:0:0:0:
426,336,149624,1,8,1:0:0:0:
211,186,149798,6,0,B|341:156|304:241|441:195,1,227.999993041992,4|0,1:2|1:0,0:0:0:0:
364,105,150321,1,8,1:0:0:0:
266,262,150496,1,0,0:0:0:0:
289,287,150583,1,0,0:0:0:0:
306,316,150670,5,4,1:2:0:0:
143,329,150845,1,2,0:0:0:0:
208,181,151019,1,8,1:0:0:0:
208,181,151106,2,0,P|131:215|94:225,1,95,0|0,0:0|0:0,0:0:0:0:
41,230,151368,5,0,1:0:0:0:
171,72,151542,1,2,0:0:0:0:
40,71,151717,2,0,P|54:100|66:133,2,47.5,8|0|2,1:0|0:0|0:0,0:0:0:0:
301,64,152066,6,0,B|273:106|273:106|295:159,1,95,0|2,1:0|0:0,0:0:0:0:
493,114,152414,1,8,1:0:0:0:
496,94,152502,2,0,P|434:107|385:115,1,95,0|0,0:0|0:0,0:0:0:0:
402,112,152763,6,0,P|419:140|432:177,1,56.9999982604981,0|0,1:0|0:0,0:0:0:0:
313,286,152938,2,0,P|312:257|316:229,1,56.9999982604981,2|0,0:0|0:0,0:0:0:0:
483,305,153112,2,0,P|456:300|404:296,1,56.9999982604981,8|0,1:0|0:0,0:0:0:0:
225,366,153286,6,0,L|212:149,1,190,2|2,0:0|0:0,0:0:0:0:
114,61,153810,1,8,1:0:0:0:
110,80,153897,2,0,P|118:109|125:145,1,47.5,0|2,0:0|0:0,0:0:0:0:
122,246,154159,5,0,1:0:0:0:
305,194,154333,1,2,0:0:0:0:
122,246,154507,1,8,1:0:0:0:
298,377,154682,6,0,B|291:309|291:309|315:263|315:263|301:174,1,190,2|2,0:0|0:0,0:0:0:0:
197,58,155205,1,8,1:0:0:0:
210,71,155292,1,0,0:0:0:0:
221,86,155379,1,2,0:0:0:0:
436,66,155554,6,0,P|388:41|328:44,1,95,0|2,1:0|0:0,0:0:0:0:
304,194,155903,2,0,P|352:219|412:216,1,95,8|2,1:0|0:0,0:0:0:0:
367,129,156252,5,0,1:0:0:0:
123,184,156426,1,2,0:0:0:0:
367,129,156600,1,8,0:0:0:0:
92,79,156775,6,0,B|199:71|164:128|286:113,1,190,0|0,1:0|1:0,0:0:0:0:
326,219,157298,1,10,0:0:0:0:
397,326,157473,6,0,P|367:220|458:170,1,209.000006378174,0|0,1:0|1:0,0:0:0:0:
453,255,157996,1,10,0:0:0:0:
307,345,158170,6,0,B|245:358|245:358|204:331|204:331|123:323,1,170.999994781494,0|0,1:0|0:0,0:0:0:0:
67,336,158519,1,2,0:0:0:0:
77,356,158606,1,2,0:0:0:0:
84,377,158693,1,8,1:0:0:0:
76,190,158868,6,0,P|147:127|71:99,1,190,0|0,1:0|1:0,0:0:0:0:
76,190,159391,1,10,0:0:0:0:
191,33,159566,6,0,B|234:38|272:27|272:27|300:57|300:57|339:40|429:49,1,209.000006378174,0|0,1:0|1:0,0:0:0:0:
492,109,160089,1,10,0:0:0:0:
489,336,160263,6,0,B|449:296|449:296|478:166,1,170.999994781494,0|0,1:0|0:0,0:0:0:0:
492,109,160612,1,0,1:0:0:0:
492,109,160786,1,10,0:0:0:0:
366,272,160961,6,0,P|298:223|212:214,1,142.5,0|0,1:0|0:0,0:0:0:0:
162,210,161310,1,2,0:0:0:0:
167,237,161397,1,2,0:0:0:0:
165,265,161484,1,8,1:0:0:0:
36,124,161659,2,0,P|61:117|99:99,1,47.5,0|0,0:0|0:0,0:0:0:0:
228,94,161833,6,0,P|191:83|162:79,3,47.5,0|0|0|0,1:0|0:0|0:0|0:0,0:0:0:0:
354,156,162182,2,0,P|391:167|420:171,3,47.5,8|0|0|0,1:0|0:0|0:0|0:0,0:0:0:0:
324,63,162531,2,0,P|335:26|339:-3,3,47.5,0|0|0|0,1:0|0:0|0:0|0:0,0:0:0:0:
262,189,162880,2,0,P|251:226|247:255,3,47.5,8|0|0|0,1:0|0:0|0:0|0:0,0:0:0:0:
365,336,163228,5,0,1:0:0:0:
329,320,163316,1,0,0:0:0:0:
291,319,163403,1,0,0:0:0:0:
254,327,163490,1,0,0:0:0:0:
221,346,163577,1,8,1:0:0:0:
185,358,163664,1,0,0:0:0:0:
146,357,163752,1,0,0:0:0:0:
111,340,163839,1,0,0:0:0:0:
61,356,163926,5,0,1:0:0:0:
69,338,164013,1,0,0:0:0:0:
74,319,164100,1,0,0:0:0:0:
78,300,164188,1,0,0:0:0:0:
79,281,164275,1,8,1:0:0:0:
77,262,164362,1,0,0:0:0:0:
73,243,164449,1,0,0:0:0:0:
67,224,164536,1,0,0:0:0:0:
56,207,164624,6,0,P|82:201|115:188,3,47.5,0|0|0|0,1:0|0:0|0:0|0:0,0:0:0:0:
137,107,164973,1,10,1:2:0:0:
178,130,165060,1,2,0:2:0:0:
195,173,165147,1,2,0:2:0:0:
191,220,165234,1,2,0:2:0:0:
169,262,165321,5,2,1:2:0:0:
210,238,165409,1,0,0:0:0:0:
257,238,165496,1,0,0:0:0:0:
295,265,165583,1,0,0:0:0:0:
342,270,165670,1,8,1:0:0:0:
382,244,165757,1,0,0:0:0:0:
395,198,165845,1,0,1:0:0:0:
375,154,165932,1,0,0:0:0:0:
343,119,166019,5,0,0:0:0:0:
360,125,166106,1,0,0:0:0:0:
378,129,166193,1,0,1:0:0:0:
396,132,166281,1,0,0:0:0:0:
414,134,166368,1,8,1:0:0:0:
432,136,166455,1,0,0:0:0:0:
450,136,166542,1,0,1:0:0:0:
468,134,166629,1,0,0:0:0:0:
486,130,166717,5,0,1:0:0:0:
449,160,166804,1,0,0:0:0:0:
438,206,166891,1,0,0:0:0:0:
461,247,166978,1,0,0:0:0:0:
508,255,167066,5,10,1:2:0:0:
455,258,167153,1,2,0:2:0:0:
411,286,167240,1,2,0:2:0:0:
386,331,167327,1,2,0:2:0:0:
380,383,167415,5,6,0:0:0:0:
322,206,167589,2,0,L|314:137,2,47.5,2|0|8,0:0|0:0|0:0,0:0:0:0:
322,206,167938,6,0,B|250:255|250:255|140:240,1,185.249991519928,2|0,0:0|0:0,0:0:0:0:
96,190,168286,6,0,P|137:167|184:173,1,95,2|8,0:0|0:0,0:0:0:0:
247,331,168635,1,2,0:0:0:0:
85,278,168810,5,0,0:0:0:0:
260,154,168984,1,2,0:0:0:0:
227,237,169159,5,8,0:0:0:0:
202,89,169333,1,2,0:0:0:0:
338,137,169507,6,0,P|336:169|330:200,1,47.5,2|0,0:0|0:0,0:0:0:0:
309,259,169682,1,0,1:0:0:0:
354,193,169769,2,0,P|422:182|483:231,1,142.5,2|0,0:0|1:0,0:0:0:0:
478,223,170205,6,0,P|489:159|505:107,1,95,0|0,1:0|0:0,0:0:0:0:
497,130,170467,1,2,0:0:0:0:
497,130,170554,1,10,0:0:0:0:
509,324,170728,6,0,P|442:302|327:290,1,185.249991519928,2|0,0:0|0:0,0:0:0:0:
251,266,171077,6,0,P|249:311|282:358,1,95,2|8,0:0|0:0,0:0:0:0:
427,234,171426,2,0,L|421:189,2,31.6666666666667,0|0|0,1:0|0:0|0:0,0:0:0:0:
441,314,171600,5,0,1:0:0:0:
348,155,171775,1,2,0:0:0:0:
507,212,171949,5,8,0:0:0:0:
350,362,172124,1,2,0:0:0:0:
245,110,172298,5,2,1:2:0:0:
313,59,172385,2,0,P|326:108|329:145,1,61.7499971733095,2|2,0:2|1:2,0:0:0:0:
208,292,172560,2,0,B|185:168|185:168|218:200|291:199,1,185.249991519928,0|2,0:0|1:2,0:0:0:0:
237,194,172996,5,0,0:0:0:0:
123,265,173170,2,0,L|72:269,2,47.5,0|0|8,0:0|0:0|0:0,0:0:0:0:
123,265,173519,6,0,P|147:204|96:80,1,185.249991519928,2|0,0:0|0:0,0:0:0:0:
86,6,173868,6,0,L|104:114,1,95,2|8,0:0|0:0,0:0:0:0:
233,165,174217,1,0,0:0:0:0:
296,78,174391,5,0,0:0:0:0:
255,265,174566,1,2,0:0:0:0:
219,173,174740,5,8,0:0:0:0:
260,360,174915,1,2,0:0:0:0:
273,268,175089,5,0,0:0:0:0:
273,266,175176,2,0,P|242:269|213:273,1,47.5,2|0,0:0|0:0,0:0:0:0:
120,227,175350,2,0,B|154:204|154:204|142:321,1,142.5,2|0,0:0|0:0,0:0:0:0:
131,383,175786,6,0,L|125:334,13,38,0|0|0|0|8|0|0|0|0|0|0|0|8|0,1:0|0:0|0:0|0:0|0:0|0:0|0:0|0:0|0:0|0:0|0:0|0:0|0:0|0:0,0:0:0:0:
221,146,177007,5,0,0:0:0:0:
225,151,177095,1,0,0:0:0:0:
229,159,177182,2,0,L|224:196,7,38,0|0|0|0|8|0|0|0,1:0|0:0|0:0|0:0|0:0|0:0|0:0|0:0,0:0:0:0:
202,272,177879,6,0,L|91:263,1,95,0|0,0:0|0:0,0:0:0:0:
12,243,178141,1,0,0:0:0:0:
92,285,178228,6,0,B|103:262|103:262|101:213,1,47.5,10|0,0:0|0:0,0:0:0:0:
77,115,178403,2,0,B|66:138|66:138|68:187,1,47.5,2|0,0:0|0:0,0:0:0:0:
188,276,178577,5,4,1:2:0:0:
337,204,178752,2,0,L|324:113,2,47.5,0|0|8,0:0|0:0|0:0,0:0:0:0:
337,204,179100,6,0,B|358:82|358:82|296:115,1,185.249991519928,2|0,0:0|0:0,0:0:0:0:
201,122,179449,6,0,L|309:115,1,95,2|8,0:0|0:0,0:0:0:0:
441,72,179798,1,0,0:0:0:0:
246,202,179973,5,0,0:0:0:0:
438,270,180147,1,2,0:0:0:0:
501,184,180321,5,8,0:0:0:0:
460,373,180496,1,2,0:0:0:0:
343,267,180670,6,0,P|295:274|268:282,1,47.5,2|0,0:0|0:0,0:0:0:0:
214,254,180845,1,0,1:0:0:0:
252,334,180932,2,0,P|262:267|268:152,1,142.5,2|0,0:0|1:0,0:0:0:0:
267,192,181368,6,0,P|218:200|151:207,1,95,0|0,0:0|0:0,0:0:0:0:
173,205,181629,1,0,0:0:0:0:
173,205,181717,1,8,0:0:0:0:
342,129,181891,6,0,P|407:117|533:109,1,185.249991519928,2|0,0:0|0:0,0:0:0:0:
481,178,182240,6,0,P|444:117|463:56,1,95,2|8,0:0|0:0,0:0:0:0:
262,43,182589,2,0,L|269:-1,2,31.6666666666667,0|0|0,1:0|0:0|0:0,0:0:0:0:
247,118,182763,5,0,1:0:0:0:
120,4,182938,1,2,0:0:0:0:
376,64,183112,5,8,0:0:0:0:
181,226,183286,1,2,0:0:0:0:
243,0,183461,5,0,1:0:0:0:
291,74,183548,2,0,P|261:81|229:86,1,61.7499971733095,2|0,0:0|1:0,0:0:0:0:
105,97,183723,2,0,B|143:53|143:53|169:193,1,185.249991519928,2|0,0:0|1:0,0:0:0:0:
166,177,184159,5,0,0:0:0:0:
321,154,184333,2,0,L|380:162,2,47.5,0|0|8,0:0|0:0|0:0,0:0:0:0:
321,154,184682,6,0,P|369:222|348:356,1,185.249991519928,2|0,0:0|0:0,0:0:0:0:
312,377,185031,6,0,P|371:363|410:360,1,95,2|8,0:0|0:0,0:0:0:0:
280,256,185379,1,0,0:0:0:0:
445,145,185554,5,0,0:0:0:0:
371,282,185728,1,2,0:0:0:0:
274,249,185903,5,8,0:0:0:0:
473,285,186077,1,2,0:0:0:0:
297,350,186252,5,2,0:0:0:0:
297,350,186339,2,0,L|244:346,1,47.5,2|0,0:0|0:0,0:0:0:0:
176,316,186513,2,0,L|326:327,1,142.5,2|0,0:0|0:0,0:0:0:0:
318,326,186949,6,0,L|325:274,13,38,0|0|0|0|8|0|0|0|0|0|0|0|8|0,1:0|0:0|0:0|0:0|0:0|0:0|0:0|0:0|0:0|0:0|0:0|0:0|0:0|0:0,0:0:0:0:
173,78,188170,5,0,0:0:0:0:
169,83,188258,1,0,0:0:0:0:
165,91,188345,6,0,L|170:128,2,38,0|0|0,1:0|0:0|0:0,0:0:0:0:
129,11,188606,1,0,0:0:0:0:
89,127,188693,6,0,L|94:164,2,38,8|0|0,1:0|0:0|0:0,0:0:0:0:
42,19,188955,1,0,0:0:0:0:
11,162,189042,5,0,1:0:0:0:
242,62,189217,1,0,1:0:0:0:
42,19,189391,6,0,L|32:96,1,47.5,8|0,1:0|0:0,0:0:0:0:
176,163,189566,2,0,L|186:240,1,47.5,0|0,1:0|0:0,0:0:0:0:
71,327,189740,5,4,1:2:0:0:
303,213,189914,2,0,P|290:245|284:270,2,47.5,0|0|8,0:0|0:0|1:0,0:0:0:0:
453,331,190263,6,0,B|334:306|372:372|250:345,1,199.499993911743,2|0,0:0|0:0,0:0:0:0:
171,360,190612,6,0,P|178:328|183:284,1,47.5,2|0,0:0|0:0,0:0:0:0:
151,162,190786,2,0,P|175:184|210:210,1,47.5,8|0,1:0|0:0,0:0:0:0:
332,243,190961,2,0,P|300:252|260:270,1,47.5,2|0,0:0|0:0,0:0:0:0:
96,291,191135,5,0,1:0:0:0:
285,156,191310,1,2,0:0:0:0:
57,113,191484,5,8,1:0:0:0:
287,258,191659,1,2,0:0:0:0:
180,44,191833,5,0,1:0:0:0:
103,29,191920,2,0,L|46:20,2,47.5,2|0|2,0:0|0:0|0:0,0:0:0:0:
254,81,192182,2,0,P|300:68|358:56,1,95,8|2,1:0|0:0,0:0:0:0:
451,27,192531,5,0,1:0:0:0:
322,210,192705,1,0,0:0:0:0:
322,210,192792,1,0,0:0:0:0:
322,210,192879,1,8,1:0:0:0:
460,318,193054,6,0,B|478:184|478:184|452:218|396:228,1,199.499993911743,2|0,0:0|0:0,0:0:0:0:
348,130,193403,6,0,P|374:130|419:150,1,52.2500015945435,2|0,0:0|0:0,0:0:0:0:
380,298,193577,2,0,P|355:305|328:305,1,52.2500015945435,8|0,1:0|0:0,0:0:0:0:
336,110,193752,2,0,P|362:110|407:130,1,52.2500015945435,2|0,0:0|0:0,0:0:0:0:
256,350,193926,5,0,1:0:0:0:
206,143,194100,1,2,0:0:0:0:
336,110,194275,5,8,1:0:0:0:
168,286,194449,1,2,0:0:0:0:
72,61,194624,5,0,1:0:0:0:
143,25,194711,2,0,P|148:51|142:97,2,61.7499971733095,2|0|2,0:0|0:0|0:0,0:0:0:0:
49,185,194973,5,8,1:0:0:0:
230,61,195147,1,2,0:0:0:0:
218,201,195321,6,0,L|92:192,1,95,0|0,1:0|0:0,0:0:0:0:
49,185,195583,1,0,0:0:0:0:
28,184,195670,1,8,1:0:0:0:
265,276,195845,6,0,B|327:208|327:208|253:100,1,185.249991519928,2|0,0:0|0:0,0:0:0:0:
230,61,196193,6,0,P|259:56|310:39,1,47.5,2|0,0:0|0:0,0:0:0:0:
457,146,196368,2,0,P|428:141|377:124,1,47.5,8|0,1:0|0:0,0:0:0:0:
171,191,196542,2,0,P|200:196|251:213,1,47.5,2|0,0:0|0:0,0:0:0:0:
387,258,196717,5,0,1:0:0:0:
189,332,196891,1,2,0:0:0:0:
315,369,197066,5,8,1:0:0:0:
217,200,197240,1,2,0:0:0:0:
460,271,197414,5,0,1:0:0:0:
387,258,197502,2,0,L|307:245,2,47.5,2|0|2,0:0|0:0|0:0,0:0:0:0:
189,332,197763,2,0,B|177:285|177:285|208:235,1,95,8|0,1:0|0:0,0:0:0:0:
309,122,198112,5,0,1:0:0:0:
142,91,198286,2,0,P|155:116|164:143,2,47.5,0|0|8,0:0|0:0|0:0,0:0:0:0:
8,212,198635,6,0,B|124:196|89:262|217:242,1,199.499993911743
331,234,198984,6,0,P|302:221|249:216,1,47.5,0|0,0:0|0:0,0:0:0:0:
188,332,199159,2,0,P|211:330|234:324,1,47.5,8|0,1:0|0:0,0:0:0:0:
355,228,199333,2,0,P|326:215|273:210,1,47.5,0|0,0:0|0:0,0:0:0:0:
106,228,199507,5,0,1:0:0:0:
112,215,199595,1,0,0:0:0:0:
112,200,199682,2,0,P|110:180|107:172,2,23.75,0|0|0,1:0|0:0|0:0,0:0:0:0:
270,128,199856,5,8,1:0:0:0:
264,115,199944,1,0,0:0:0:0:
264,100,200031,2,0,P|266:80|269:72,2,23.75,0|0|0,1:0|0:0|0:0,0:0:0:0:
40,89,200205,5,0,0:0:0:0:
40,89,200292,2,0,L|119:92,1,47.5,2|0,0:0|0:0,0:0:0:0:
242,2,200467,1,2,0:0:0:0:
177,43,200554,2,0,P|187:70|193:93,2,47.5,8|0|0,0:0|0:0|0:0,0:0:0:0:
34,209,200903,5,4,1:2:0:0:
235,323,201077,2,0,P|224:338|211:369,2,47.5,0|0|8,0:0|0:0|1:0,0:0:0:0:
434,202,201426,6,0,B|310:194|357:254|218:240,1,199.499993911743,2|0,0:0|0:0,0:0:0:0:
160,205,201775,6,0,P|168:172|171:133,1,47.5,2|0,0:0|0:0,0:0:0:0:
326,67,201949,2,0,P|334:100|337:139,1,47.5,8|0,1:0|0:0,0:0:0:0:
143,215,202124,2,0,P|151:182|154:143,1,47.5,2|0,0:0|0:0,0:0:0:0:
161,58,202298,5,0,1:0:0:0:
37,148,202473,1,2,0:0:0:0:
266,152,202647,5,8,1:0:0:0:
30,49,202821,1,2,0:0:0:0:
66,242,202996,5,0,1:0:0:0:
82,319,203083,2,0,L|93:391,2,47.5,2|0|2,0:0|0:0|0:0,0:0:0:0:
0,179,203345,2,0,B|35:147|35:147|84:155,1,95,8|0,1:0|0:0,0:0:0:0:
266,152,203693,5,0,1:0:0:0:
66,242,203868,1,0,0:0:0:0:
66,242,203955,1,0,0:0:0:0:
66,242,204042,1,8,1:0:0:0:
258,340,204217,6,0,B|264:295|248:266|248:266|276:223|276:223|265:197|266:139,1,199.499993911743,2|0,0:0|0:0,0:0:0:0:
387,71,204566,6,0,P|364:81|321:89,1,52.2500015945435,2|0,0:0|0:0,0:0:0:0:
138,172,204740,2,0,P|161:182|204:190,1,52.2500015945435,8|0,1:0|0:0,0:0:0:0:
390,268,204914,2,0,P|365:270|323:285,1,52.2500015945435,2|0,0:0|0:0,0:0:0:0:
163,350,205089,5,0,1:0:0:0:
163,350,205176,1,0,0:0:0:0:
163,350,205263,2,0,P|165:317|156:262,1,61.7499971733095,2|0,0:0|0:0,0:0:0:0:
389,206,205438,5,8,1:0:0:0:
389,206,205525,1,0,0:0:0:0:
389,206,205612,2,0,P|387:239|396:294,1,61.7499971733095,2|0,0:0|0:0,0:0:0:0:
275,359,205786,5,0,1:0:0:0:
268,281,205874,2,0,L|262:204,1,61.7499971733095,2|0,0:0|0:0,0:0:0:0:
138,172,206048,5,0,0:0:0:0:
138,172,206135,1,8,1:0:0:0:
389,267,206310,1,2,0:0:0:0:
131,266,206484,6,0,P|136:216|138:153,1,95,0|0,1:0|0:0,0:0:0:0:
79,39,206833,1,8,1:0:0:0:
100,27,206920,2,0,P|94:57|86:98,2,47.5,2|0|2,0:0|0:0|0:0,0:0:0:0:
43,177,207182,6,0,L|166:169,1,95,2|0,1:2|0:0,0:0:0:0:
190,117,207443,1,2,0:0:0:0:
212,159,207531,1,8,1:0:0:0:
206,206,207618,1,2,1:2:0:0:
190,250,207705,1,0,1:0:0:0:
197,296,207792,1,0,0:0:0:0:
227,332,207879,6,0,P|274:319|331:308,1,95,0|0,1:0|0:0,0:0:0:0:
419,202,208228,1,8,1:0:0:0:
398,213,208316,2,0,P|410:236|419:265,2,47.5,2|0|2,0:0|0:0|0:0,0:0:0:0:
304,196,208577,6,0,P|312:164|333:131,1,61.7499971733095,0|2,1:0|0:0,0:0:0:0:
378,85,208752,2,0,P|390:74|407:65,4,30.8749985866547,0|0|2|0|8,0:0|0:0|0:0|0:0|1:0,0:0:0:0:
232,149,209100,6,0,L|95:139,1,113.999996520996,0|0,1:0|0:0,0:0:0:0:
59,88,209536,5,2,0:0:0:0:
59,88,209624,2,0,B|30:130|30:130|58:205,1,95,8|0,1:0|0:0,0:0:0:0:
167,335,209885,5,2,0:0:0:0:
167,335,209973,2,0,B|192:286|192:286|161:222,1,104.500003189087,0|0,1:0|0:0,0:0:0:0:
1,275,210234,5,2,0:0:0:0:
1,275,210321,2,0,B|45:312|45:312|108:291,1,113.999996520996,8|0,1:0|0:0,0:0:0:0:
200,162,210583,5,2,0:0:0:0:
200,162,210670,2,0,B|243:122|243:122|307:146,1,123.499994346619,0|0,1:0|1:0,0:0:0:0:
441,288,210932,5,2,0:0:0:0:
441,288,211019,2,0,B|377:318|377:318|331:268,1,132.999995941162,8|0,1:0|0:0,0:0:0:0:
200,162,211281,5,2,0:0:0:0:
200,162,211368,2,0,L|214:308,1,142.500005435944,0|0,1:0|0:0,0:0:0:0:
274,357,211629,1,2,0:0:0:0:
234,375,211717,1,8,1:0:0:0:
191,375,211804,1,2,0:0:0:0:
153,354,211891,1,0,0:0:0:0:
112,342,211978,1,2,0:0:0:0:
70,352,212066,6,0,B|78:320|65:292|65:292|75:267|75:267|61:249|69:153,1,152,0|0,1:0|0:0,0:0:0:0:
66,134,212327,5,2,0:0:0:0:
66,134,212414,2,0,P|123:164|62:202,1,161.500003080368,8|0,1:0|0:0,0:0:0:0:
39,50,212676,5,2,0:0:0:0:
39,50,212763,2,0,B|136:25|117:92|253:52,1,170.999994781494,0|0,1:0|0:0,0:0:0:0:
350,44,213025,5,2,0:0:0:0:
350,44,213112,2,0,B|315:12|315:12|232:20|232:20|201:69,1,180.49999518013,8|0,1:0|0:0,0:0:0:0:
319,215,213374,5,2,0:0:0:0:
319,215,213461,1,0,1:0:0:0:
319,215,213548,1,2,0:0:0:0:
319,215,213635,2,0,P|343:220|371:246,2,38,0|0|0,0:0|0:0|0:0,0:0:0:0:
290,344,213810,5,8,1:0:0:0:
290,344,213897,1,2,0:0:0:0:
290,344,213984,2,0,L|221:339,2,41.5625003963709,0|0|0,0:0|0:0|0:0,0:0:0:0:
112,269,214159,5,0,1:0:0:0:
112,269,214246,1,2,0:0:0:0:
112,269,214333,2,0,L|161:266,2,45.1249987950325,0|0|0,0:0|0:0|0:0,0:0:0:0:
354,226,214507,5,8,1:0:0:0:
354,226,214595,1,2,0:0:0:0:
354,226,214682,2,0,L|301:216,2,47.5,0|0|0,0:0|0:0|0:0,0:0:0:0:
35,119,214856,5,0,0:0:0:0:
44,119,214943,1,0,0:0:0:0:
53,119,215031,1,2,0:0:0:0:
62,119,215118,1,2,0:0:0:0:
71,119,215205,1,8,0:0:0:0:
80,119,215292,1,0,0:0:0:0:
89,119,215379,1,2,0:0:0:0:
98,119,215467,1,2,0:0:0:0:
107,119,215554,5,0,0:0:0:0:
116,119,215641,1,0,0:0:0:0:
125,119,215728,1,2,0:0:0:0:
134,119,215816,1,2,0:0:0:0:
143,119,215903,1,8,0:0:0:0:
152,119,215990,1,0,0:0:0:0:
161,119,216077,1,2,0:0:0:0:
170,119,216164,1,2,0:0:0:0:
179,119,216252,5,0,0:0:0:0:
188,119,216339,1,0,0:0:0:0:
197,119,216426,1,2,0:0:0:0:
206,119,216513,1,2,0:0:0:0:
215,119,216600,1,8,0:0:0:0:
224,119,216688,1,0,0:0:0:0:
233,119,216775,1,2,0:0:0:0:
242,119,216862,1,2,0:0:0:0:
251,119,216949,5,0,0:0:0:0:
260,119,217036,1,0,0:0:0:0:
269,119,217124,1,2,0:0:0:0:
278,119,217211,1,2,0:0:0:0:
287,119,217298,1,8,0:0:0:0:
296,119,217385,1,0,0:0:0:0:
305,119,217473,1,2,0:0:0:0:
314,119,217560,1,2,0:0:0:0:
323,119,217647,5,0,0:0:0:0:
332,119,217734,1,0,0:0:0:0:
341,119,217821,1,2,0:0:0:0:
350,119,217909,1,2,0:0:0:0:
359,119,217996,6,0,L|405:121,5,31.6666666666667,10|0|0|2|0|0,0:0|0:0|0:0|0:0|0:0|0:0,0:0:0:0:
280,220,218345,2,0,L|234:222,5,31.6666666666667,2|0|0|2|0|0,0:0|0:0|0:0|0:0|0:0|0:0,0:0:0:0:
359,323,218693,2,0,L|405:321,5,31.6666666666667,10|0|0|2|0|0,0:0|0:0|0:0|0:0|0:0|0:0,0:0:0:0:
252,324,219042,6,0,B|191:321|191:321|153:295|153:295|80:315,1,170.999994781494,0|0,1:0|0:0,0:0:0:0:
8,341,219391,6,0,P|14:317|14:307,8,18.999999420166,10|0|0|0|0|0|0|0|0,1:0|0:0|0:0|0:0|0:0|0:0|0:0|0:0|0:0,0:0:0:0:
125,110,219740,2,0,P|127:124|131:135,8,18.999999420166,2|0|0|0|0|0|0|0|0,1:0|0:0|0:0|0:0|0:0|0:0|0:0|0:0|0:0,0:0:0:0:
252,324,220089,2,0,P|254:309|256:301,8,18.999999420166,10|0|0|0|0|0|0|0|0,1:0|0:0|0:0|0:0|0:0|0:0|0:0|0:0|0:0,0:0:0:0:
56,214,220438,5,4,1:2:0:0:
23,176,220525,1,0,0:0:0:0:
13,127,220612,2,0,L|25:43,1,61.7499971733095,2|0,0:0|0:0,0:0:0:0:
117,305,220786,5,8,1:0:0:0:
150,267,220873,1,0,0:0:0:0:
160,218,220960,2,0,L|148:134,1,61.7499971733095,2|0,0:0|0:0,0:0:0:0:
241,17,221135,5,0,1:0:0:0:
288,1,221223,1,0,0:0:0:0:
335,15,221310,2,0,P|344:47|346:90,1,61.7499971733095,2|0,0:0|0:0,0:0:0:0:
487,233,221484,2,0,P|457:225|428:212,1,61.7499971733095,8|0,1:0|0:0,0:0:0:0:
221,255,221659,2,0,P|243:232|268:214,1,61.7499971733095,2|0,0:0|0:0,0:0:0:0:
429,123,221833,6,0,B|293:106|293:106|336:151,1,185.249991519928,0|0,1:0|0:0,0:0:0:0:
220,150,222182,2,0,P|215:119|207:89,1,61.7499971733095,8|0,1:0|0:0,0:0:0:0:
383,6,222356,2,0,P|374:35|370:66,1,61.7499971733095,2|0,0:0|0:0,0:0:0:0:
177,9,222531,6,0,P|214:11|253:17,1,61.7499971733095,2|0,1:2|0:0,0:0:0:0:
412,148,222705,2,0,P|381:151|350:153,1,61.7499971733095,2|0,0:0|0:0,0:0:0:0:
195,331,222879,1,10,1:2:0:0:
195,331,222967,1,0,0:0:0:0:
195,331,223054,2,0,L|204:247,1,61.7499971733095,2|0,0:0|0:0,0:0:0:0:
242,74,223228,6,0,B|260:202|260:202|239:179|200:178,1,185.249991519928,0|0,1:0|0:0,0:0:0:0:
107,113,223577,2,0,P|137:108|175:96,1,61.7499971733095,8|0,1:0|0:0,0:0:0:0:
280,293,223752,2,0,P|250:283|220:279,1,61.7499971733095,2|0,0:0|0:0,0:0:0:0:
122,208,223926,5,0,1:0:0:0:
396,138,224100,1,2,0:0:0:0:
280,293,224275,1,8,1:2:0:0:
281,306,224333,1,2,0:0:0:0:
282,320,224391,1,0,0:0:0:0:
283,334,224449,1,2,0:0:0:0:
240,4,224624,6,0,P|226:30|217:64,1,61.7499971733095,2|0,1:2|0:0,0:0:0:0:
196,227,224798,1,0,0:0:0:0:
196,227,224885,2,0,P|180:201|155:177,1,61.7499971733095,0|8,0:0|1:0,0:0:0:0:
24,77,225060,1,0,0:0:0:0:
24,77,225147,2,0,P|53:76|87:66,1,61.7499971733095
218,111,225321,6,0,L|147:103,1,61.7499971733095,2|0,1:2|0:0,0:0:0:0:
3,239,225496,5,2,1:2:0:0:
74,278,225583,1,0,0:0:0:0:
153,257,225670,2,0,L|141:154,1,61.7499971733095,10|0,1:2|0:0,0:0:0:0:
129,13,225845,1,2,0:0:0:0:
129,13,226019,5,0,1:0:0:0:
172,36,226106,1,0,0:0:0:0:
221,37,226193,2,0,L|319:24,1,61.7499971733095,2|0,0:0|0:0,0:0:0:0:
512,188,226368,5,8,1:0:0:0:
469,165,226455,1,0,0:0:0:0:
420,164,226542,2,0,L|322:177,1,61.7499971733095,2|0,0:0|0:0,0:0:0:0:
184,300,226717,5,0,1:0:0:0:
294,113,226891,1,2,0:0:0:0:
270,376,227066,1,10,1:2:0:0:
99,220,227240,1,2,0:0:0:0:
370,249,227414,6,0,B|491:266|491:266|457:274|419:303,1,185.249991519928,2|0,1:2|0:0,0:0:0:0:
372,384,227763,2,0,P|365:353|356:324,1,61.7499971733095,10|0,1:2|0:0,0:0:0:0:
468,146,227938,2,0,P|458:175|452:205,1,61.7499971733095,2|0,0:0|0:0,0:0:0:0:
509,363,228112,6,0,P|482:352|440:354,1,61.7499971733095,2|2,1:2|0:0,0:0:0:0:
190,320,228286,1,2,1:2:0:0:
190,320,228374,1,0,0:0:0:0:
190,320,228461,2,0,P|220:319|249:308,1,61.7499971733095,10|0,1:2|0:0,0:0:0:0:
462,209,228635,2,0,L|369:201,1,61.7499971733095,2|0,0:0|0:0,0:0:0:0:
277,149,228810,5,4,1:2:0:0:
276,160,228897,1,0,0:0:0:0:
278,173,228984,2,0,L|282:243,2,41.1666647822063,2|0|2,0:1|0:0|0:0,0:0:0:0:
357,98,229159,2,0,P|359:66|365:31,1,61.7499971733095,10|0,1:0|0:0,0:0:0:0:
184,130,229333,2,0,P|181:98|176:63,1,61.7499971733095,2|0,0:0|0:0,0:0:0:0:
401,204,229507,6,0,B|315:194|356:240|246:234,1,137.750004203797,4|2,1:2|0:1,0:0:0:0:
198,278,229769,1,0,0:0:0:0:
198,278,229856,2,0,P|187:230|173:181,1,68.8750021018983,10|0,1:0|0:0,0:0:0:0:
374,367,230031,2,0,P|376:317|381:267,1,68.8750021018983,2|0,0:0|0:0,0:0:0:0:
127,115,230205,6,0,P|165:98|273:146,1,152,4|2,1:2|0:1,0:0:0:0:
405,225,230467,1,2,0:0:0:0:
405,225,230554,2,0,P|410:185|416:145,1,76,10|0,1:0|0:0,0:0:0:0:
120,349,230728,2,0,P|115:309|109:269,1,76,2|0,0:0|0:0,0:0:0:0:
299,59,230903,5,4,1:2:0:0:
306,142,230990,1,0,0:0:0:0:
284,225,231077,2,0,L|271:334,1,76,2|0,0:1|0:0,0:0:0:0:
152,174,231252,6,0,B|187:150|245:158,1,76,10|0,1:0|0:0,0:0:0:0:
437,28,231426,2,0,B|399:34|364:10,1,76,2|0,1:2|0:0,0:0:0:0:
110,50,231600,5,4,1:2:0:0:
110,50,231688,2,0,P|139:56|173:69,1,61.7499971733095,0|2,0:0|0:0,0:0:0:0:
223,306,231862,1,0,0:0:0:0:
223,306,231949,2,0,P|213:277|207:241,1,61.7499971733095,8|0,1:0|0:0,0:0:0:0:
375,90,232124,2,0,P|355:112|327:135,1,61.7499971733095,2|0,0:0|0:0,0:0:0:0:
163,153,232298,6,0,L|258:159,1,61.7499971733095,0|0,1:0|0:0,0:0:0:0:
479,299,232473,1,2,0:0:0:0:
489,313,232560,1,0,0:0:0:0:
499,326,232647,2,0,L|507:264,1,61.7499971733095,8|0,1:0|0:0,0:0:0:0:
375,90,232821,2,0,L|387:166,1,61.7499971733095,2|0,0:0|0:0,0:0:0:0:
327,329,232996,5,0,1:0:0:0:
430,237,233170,5,2,0:0:0:0:
430,237,233228,1,2,0:0:0:0:
430,237,233286,1,2,0:0:0:0:
430,237,233345,2,0,P|398:238|340:257,1,61.7499971733095,10|0,1:2|0:0,0:0:0:0:
222,350,233519,5,2,0:0:0:0:
222,350,233577,1,2,0:0:0:0:
222,350,233635,1,2,0:0:0:0:
222,350,233694,2,0,P|237:321|249:262,1,61.7499971733095,2|0,1:2|0:0,0:0:0:0:
231,109,233868,5,2,0:0:0:0:
231,109,233926,1,2,0:0:0:0:
231,109,233984,1,2,0:0:0:0:
231,109,234042,2,0,P|247:135|292:176,1,61.7499971733095,10|0,1:2|0:0,0:0:0:0:
133,310,234217,6,0,P|113:306|92:299,2,41.1666647822063,2|2|2,0:0|0:0|0:0,0:0:0:0:
135,329,234391,6,0,P|105:322|75:322,1,61.7499971733095,6|0,1:2|0:0,0:0:0:0:
258,207,234566,2,0,P|289:206|320:201,1,61.7499971733095,2|0,0:0|0:0,0:0:0:0:
217,364,234740,5,8,1:0:0:0:
222,315,234827,1,0,0:0:0:0:
198,271,234914,1,2,0:0:0:0:
172,228,235002,1,0,0:0:0:0:
173,178,235089,6,0,L|182:114,1,61.7499971733095,4|0,1:2|0:0,0:0:0:0:
15,0,235263,2,0,L|23:61,1,61.7499971733095,2|0,0:0|0:0,0:0:0:0:
233,51,235438,5,8,1:0:0:0:
187,33,235525,1,0,0:0:0:0:
139,44,235612,1,2,0:0:0:0:
107,81,235699,1,0,0:0:0:0:
97,129,235786,6,0,L|104:207,1,61.7499971733095,4|0,1:2|0:0,0:0:0:0:
43,287,235961,1,2,0:0:0:0:
43,287,236019,1,0,0:0:0:0:
43,287,236077,1,0,0:0:0:0:
43,287,236135,6,0,L|-15:273,2,41.1666647822063,10|2|2,1:2|0:0|0:0,0:0:0:0:
102,345,236310,2,0,L|110:388,2,41.1666647822063,2|0|0,0:0|0:0|0:0,0:0:0:0:
123,264,236484,6,0,P|147:247|201:246,1,61.7499971733095,0|0,1:0|0:0,0:0:0:0:
223,124,236659,2,0,L|237:199,2,41.1666647822063,2|0|0,0:0|0:0|0:0,0:0:0:0:
285,278,236833,6,0,L|294:225,2,41.1666647822063,10|0|0,1:2|0:0|0:0,0:0:0:0:
373,193,237007,2,2,P|403:198|427:215,2,41.1666647822063
504,322,237182,5,0,0:0:0:0:
505,327,237269,1,2,0:0:0:0:
505,332,237356,2,0,L|511:375,2,41.1666647822063,2|0|0,0:0|0:0|0:0,0:0:0:0:
423,343,237531,2,0,L|391:372,2,41.1666647822063,2|0|0,0:0|0:0|0:0,0:0:0:0:
366,282,237705,2,0,L|323:272,2,41.1666647822063,2|0|0,0:0|0:0|0:0,0:0:0:0:
432,218,237879,5,2,0:0:0:0:
442,220,237966,1,2,0:0:0:0:
452,222,238053,1,0,0:0:0:0:
462,224,238140,1,0,0:0:0:0:
472,226,238227,1,2,0:0:0:0:
482,228,238315,1,0,0:0:0:0:
492,230,238403,6,0,L|482:160,1,61.7499971733095,2|2,1:2|0:0,0:0:0:0:
433,5,238577,6,0,B|455:-22|455:-22|476:117,1,137.750004203797,0|0,1:0|1:0,1:0:0:0:
494,172,238839,1,0,1:0:0:0:
494,172,238926,2,0,P|443:158|398:157,1,68.8750021018983,0|0,0:0|1:0,0:0:0:0:
269,65,239100,2,0,L|222:71,2,45.9166680679322,0|0|0,1:0|0:0|0:0,0:0:0:0:
363,41,239275,5,0,1:0:0:0:
363,41,239362,2,0,P|358:84|350:125,1,68.8750021018983,2|0,0:0|0:0,0:0:0:0:
457,320,239536,1,2,1:2:0:0:
457,320,239623,2,0,P|422:294|391:266,1,68.8750021018983,2|0,1:2|0:0,0:0:0:0:
170,246,239798,2,0,P|210:229|249:216,1,68.8750021018983
364,352,239973,5,4,1:2:0:0:
329,317,240060,1,0,0:0:0:0:
323,268,240147,2,0,P|332:234|343:202,1,61.7499971733095,2|0,0:0|0:0,0:0:0:0:
191,66,240321,5,8,1:0:0:0:
142,72,240408,1,0,0:0:0:0:
117,114,240495,2,0,P|135:149|145:198,1,61.7499971733095,2|0,0:0|0:0,0:0:0:0:
453,177,240670,5,0,1:0:0:0:
425,151,240758,1,0,0:0:0:0:
388,143,240845,1,2,0:0:0:0:
352,152,240932,1,0,0:0:0:0:
322,174,241019,1,8,1:0:0:0:
287,187,241106,1,0,0:0:0:0:
249,187,241194,1,2,0:0:0:0:
213,175,241281,1,0,0:0:0:0:
188,147,241368,1,0,1:0:0:0:
358,305,241542,5,2,0:0:0:0:
375,299,241629,1,0,0:0:0:0:
392,293,241717,2,0,P|388:258|386:208,1,61.7499971733095,8|0,1:0|0:0,0:0:0:0:
272,30,241891,2,0,P|270:60|266:91,1,61.7499971733095,2|0,0:0|0:0,0:0:0:0:
61,241,242066,5,0,1:0:0:0:
73,164,242153,2,0,L|83:99,2,61.7499971733095,0|2|0,0:0|0:0|0:0,0:0:0:0:
61,241,242414,5,10,1:2:0:0:
98,238,242502,1,0,0:0:0:0:
132,251,242589,1,2,0:0:0:0:
152,281,242676,1,0,0:0:0:0:
163,316,242763,2,0,P|158:344|154:387,1,61.7499971733095,0|0,1:0|0:0,0:0:0:0:
365,348,242938,5,2,0:0:0:0:
363,341,243025,1,0,0:0:0:0:
361,334,243112,1,8,1:0:0:0:
360,327,243199,1,0,0:0:0:0:
359,320,243286,1,2,0:0:0:0:
358,313,243374,1,0,0:0:0:0:
357,306,243461,6,0,P|394:313|433:313,1,61.7499971733095,0|0,1:0|0:0,0:0:0:0:
395,150,243635,2,0,P|364:151|333:157,1,61.7499971733095,2|0,0:0|0:0,0:0:0:0:
247,286,243810,6,0,P|253:304|260:336,2,41.1666647822063,8|0|0,1:0|0:0|0:0,0:0:0:0:
73,167,243984,2,0,P|77:146|84:127,2,41.1666647822063,2|0|0,0:0|0:0|0:0,0:0:0:0:
0,332,244159,6,0,B|126:348|126:348|100:330|79:290,1,185.249991519928,0|0,1:0|1:0,0:0:0:0:
179,197,244507,2,0,P|170:237|166:286,1,61.7499971733095,8|0,1:0|0:0,0:0:0:0:
323,367,244682,5,2,0:0:0:0:
328,363,244769,1,0,0:0:0:0:
332,359,244856,2,0,P|323:326|323:270,1,61.7499971733095,0|0,1:0|0:0,0:0:0:0:
473,132,245031,2,0,P|470:162|461:192,1,61.7499971733095,2|0,1:2|0:0,0:0:0:0:
254,244,245205,5,8,1:0:0:0:
285,214,245292,1,0,0:0:0:0:
327,207,245379,1,2,0:0:0:0:
369,216,245467,1,0,0:0:0:0:
401,244,245554,5,0,1:0:0:0:
376,201,245641,1,0,0:0:0:0:
390,153,245728,1,2,0:0:0:0:
430,123,245816,1,0,0:0:0:0:
428,73,245903,1,8,1:2:0:0:
393,37,245990,1,0,0:0:0:0:
344,25,246077,1,2,0:0:0:0:
298,44,246164,1,0,0:0:0:0:
267,83,246252,6,0,P|275:45|277:2,1,61.7499971733095,0|0,1:0|0:0,0:0:0:0:
54,135,246426,2,0,P|57:165|63:195,1,61.7499971733095,2|0,0:0|0:0,0:0:0:0:
132,54,246600,6,0,P|97:51|23:38,1,61.7499971733095,8|0,1:0|0:0,0:0:0:0:
176,190,246775,2,0,P|211:193|285:206,1,61.7499971733095,2|0,0:0|0:0,0:0:0:0:
474,185,246949,6,0,B|472:208|431:238|431:238|485:271|478:308,1,132.999995941162,0|2,1:0|0:0,0:0:0:0:
323,162,247211,1,0,0:0:0:0:
323,162,247298,6,0,P|356:166|373:167,2,30.8749985866547,8|0|0,1:0|0:0|0:0,0:0:0:0:
375,306,247473,2,0,P|344:306|313:310,1,61.7499971733095,2|0,1:2|0:0,0:0:0:0:
177,345,247647,5,0,1:0:0:0:
204,177,247821,1,2,0:0:0:0:
204,177,247909,1,0,0:0:0:0:
204,177,247996,2,0,P|189:195|177:217,2,30.8749985866547,8|0|0,1:0|0:0|0:0,0:0:0:0:
23,165,248170,1,2,0:0:0:0:
23,165,248257,1,0,0:0:0:0:
23,165,248345,5,4,1:2:0:0:
23,121,248432,1,0,0:0:0:0:
46,85,248519,1,2,0:1:0:0:
87,72,248606,1,0,0:0:0:0:
130,78,248693,2,0,P|146:77|173:67,4,30.8749985866547,10|0|0|0|0,1:0|0:0|0:0|0:0|0:0,0:0:0:0:
242,30,248955,5,0,0:0:0:0:
242,30,249042,2,0,P|245:68|245:111,1,61.7499971733095,4|0,1:2|0:0,0:0:0:0:
465,138,249217,2,0,P|462:100|462:57,1,61.7499971733095,2|0,1:0|0:0,0:0:0:0:
350,89,249391,2,0,P|352:106|354:130,4,30.8749985866547,10|0|0|2|0,1:0|0:0|0:0|0:0|0:0,0:0:0:0:
417,243,249653,5,0,0:0:0:0:
417,243,249740,2,0,P|382:251|332:257,1,61.7499971733095,4|0,1:2|0:0,0:0:0:0:
214,361,249914,2,0,P|249:353|299:347,1,61.7499971733095,2|0,1:0|0:0,0:0:0:0:
232,199,250089,2,0,P|240:211|249:229,4,30.8749985866547,10|0|0|2|0,1:0|0:0|0:0|0:0|0:0,0:0:0:0:
256,124,250350,1,0,0:0:0:0:
213,116,250438,5,4,1:2:0:0:
172,130,250525,1,0,0:0:0:0:
143,162,250612,1,2,1:1:0:0:
105,182,250699,1,0,0:0:0:0:
61,183,250786,5,10,1:0:0:0:
108,213,250874,1,0,0:1:0:0:
130,263,250961,1,2,0:0:0:0:
117,317,251048,1,0,0:0:0:0:
77,355,251135,5,4,1:2:0:0:
77,355,251223,1,0,0:0:0:0:
77,355,251310,2,0,P|66:316|63:275,1,61.7499971733095,2|0,0:0|0:0,0:0:0:0:
215,26,251484,5,0,1:2:0:0:
233,71,251572,1,0,0:0:0:0:
213,116,251659,2,0,P|203:169|202:198,1,61.7499971733095,2|0,0:0|0:0,0:0:0:0:
204,340,251833,5,0,1:0:0:0:
222,339,251920,1,0,0:0:0:0:
240,338,252007,1,2,0:0:0:0:
258,337,252095,1,0,0:0:0:0:
307,362,252182,5,8,1:0:0:0:
289,322,252269,1,0,0:0:0:0:
294,278,252357,1,2,0:0:0:0:
322,245,252444,1,0,0:0:0:0:
363,232,252531,1,0,1:0:0:0:
441,303,252705,5,2,0:0:0:0:
420,306,252763,1,2,0:0:0:0:
399,310,252821,1,2,0:0:0:0:
378,314,252879,1,10,1:2:0:0:
221,187,253054,5,2,0:2:0:0:
242,191,253112,1,2,0:0:0:0:
263,195,253170,1,2,0:0:0:0:
284,198,253228,1,2,1:2:0:0:
453,311,253403,5,2,0:0:0:0:
432,314,253461,1,2,0:0:0:0:
411,318,253519,1,2,0:0:0:0:
390,322,253577,1,10,1:2:0:0:
217,178,253752,6,0,L|273:190,2,41.1666647822063,0|2|2,0:0|0:0|0:0,0:0:0:0:
112,151,253926,5,6,1:2:0:0:
98,191,254013,1,0,0:0:0:0:
107,233,254100,1,2,0:0:0:0:
137,264,254188,1,0,0:0:0:0:
178,276,254275,6,0,P|207:279|260:292,1,61.7499971733095,8|0,1:0|0:0,0:0:0:0:
238,97,254449,2,0,P|208:103|178:106,1,61.7499971733095,2|0,0:0|0:0,0:0:0:0:
264,356,254624,5,4,1:2:0:0:
298,329,254711,1,0,0:0:0:0:
312,288,254798,1,2,0:0:0:0:
299,246,254885,1,0,0:0:0:0:
341,255,254973,6,0,P|370:248|423:237,1,61.7499971733095,8|0,1:0|0:0,0:0:0:0:
455,66,255147,2,0,P|424:59|394:52,1,61.7499971733095,2|0,0:0|0:0,0:0:0:0:
191,102,255321,6,0,B|214:94|230:81|230:81|212:226,1,142.500005435944,4|0,1:2|0:0,0:0:0:0:
164,234,255583,1,0,0:0:0:0:
164,234,255670,2,0,P|139:228|103:225,2,41.1666647822063,10|0|0,1:2|0:0|0:0,0:0:0:0:
271,296,255845,2,0,P|291:292|311:287,2,41.1666647822063,2|0|0,0:0|0:0|0:0,0:0:0:0:
107,352,256019,5,0,1:0:0:0:
0,210,256193,2,0,P|14:233|23:265,2,41.1666647822063,2|0|0,0:0|0:0|0:0,0:0:0:0:
122,116,256368,2,0,P|95:116|62:108,2,41.1666647822063,10|0|0,1:2|0:0|0:0,0:0:0:0:
142,268,256542,2,0,P|154:244|178:220,2,41.1666647822063,2|0|0,0:0|0:0|0:0,0:0:0:0:
256,141,256717,6,0,P|254:160|245:196,10,41.1666647822063,4|0|0|0|0|0|0|0|0|0|0,0:0|0:0|0:0|0:0|0:0|0:0|0:0|0:0|0:0|0:0|0:0,0:0:0:0:
192,90,257414,5,0,0:0:0:0:
226,63,257502,1,0,0:0:0:0:
269,62,257589,1,2,0:0:0:0:
309,78,257676,1,2,0:0:0:0:
339,108,257763,1,0,0:0:0:0:
377,127,257850,1,0,0:0:0:0:
420,131,257938,1,6,1:2:0:0:
461,119,258025,1,2,0:0:0:0:
485,85,258112,6,0,P|493:64|498:47,4,41.1666647822063,4|0|0|0|2,1:2|0:0|0:0|0:0|0:0,0:0:0:0:
256,143,258461,2,0,P|260:158|269:181,4,41.1666647822063,0|0|0|0|2,0:0|0:0|0:0|0:0|0:0,0:0:0:0:
134,65,258810,6,0,P|146:96|156:137,1,61.7499971733095
276,261,258984,2,0,P|264:292|254:333,1,61.7499971733095,2|0,1:2|0:0,0:0:0:0:
19,207,259159,5,0,1:0:0:0:
54,182,259246,1,0,0:0:0:0:
97,181,259333,1,2,0:0:0:0:
136,199,259420,1,0,0:0:0:0:
164,236,259507,6,0,P|156:258|156:296,10,41.1666647822063,4|0|0|0|0|0|0|0|0|0|0,0:0|0:0|0:0|0:0|0:0|0:0|0:0|0:0|0:0|0:0|0:0,0:0:0:0:
93,322,260205,5,0,0:0:0:0:
129,344,260292,1,0,0:0:0:0:
172,345,260379,1,2,0:0:0:0:
211,326,260467,1,2,0:0:0:0:
240,294,260554,1,0,0:0:0:0:
276,270,260641,1,0,0:0:0:0:
319,269,260728,1,2,1:2:0:0:
358,286,260816,1,2,0:0:0:0:
384,320,260903,6,0,P|381:336|376:360,4,41.1666647822063,4|0|0|0|2,1:2|0:0|0:0|0:0|0:0,0:0:0:0:
494,279,261252,2,0,P|489:258|485:238,4,41.1666647822063,0|0|0|0|2,0:2|0:0|0:0|0:0|0:0,0:0:0:0:
285,120,261600,5,0,1:0:0:0:
285,120,261688,1,0,0:0:0:0:
285,120,261775,2,0,P|290:155|292:195,1,61.7499971733095,2|0,1:2|0:0,0:0:0:0:
489,151,261949,2,0,P|484:116|482:76,1,61.7499971733095,0|0,1:0|0:0,0:0:0:0:
363,38,262124,1,2,0:0:0:0:
363,38,262211,1,0,0:0:0:0:
363,38,262298,6,0,P|367:61|368:86,10,41.1666647822063,4|0|0|0|0|0|0|0|0|0|0,0:0|0:0|0:0|0:0|0:0|0:0|0:0|0:0|0:0|0:0|0:0,0:0:0:0:
285,120,262996,5,0,0:0:0:0:
253,90,263083,1,0,0:0:0:0:
210,82,263170,1,2,0:0:0:0:
167,91,263257,1,2,0:0:0:0:
125,53,263345,5,0,0:0:0:0:
141,106,263432,1,0,0:0:0:0:
125,159,263519,1,2,1:2:0:0:
79,189,263606,1,2,0:0:0:0:
23,193,263693,6,0,P|25:177|22:134,4,41.1666647822063,4|0|0|0|2,1:2|0:0|0:0|0:0|0:0,0:0:0:0:
133,310,264042,2,0,P|133:325|136:355,4,41.1666647822063,0|0|0|0|2,0:0|0:0|0:0|0:0|0:0,0:0:0:0:
233,213,264391,5,0,0:0:0:0:
265,175,264478,1,0,0:0:0:0:
314,168,264566,1,2,0:0:0:0:
360,183,264653,1,2,0:0:0:0:
390,221,264740,1,0,0:0:0:0:
396,269,264827,1,0,0:0:0:0:
380,315,264914,1,2,0:0:0:0:
337,340,265002,1,2,0:0:0:0:
287,340,265089,5,6,1:2:0:0:
165,264,265263,1,2,0:0:0:0:
281,196,265438,1,8,1:0:0:0:
292,172,265525,1,0,0:0:0:0:
298,146,265612,1,2,0:0:0:0:
300,120,265699,1,0,0:0:0:0:
297,94,265786,1,0,1:0:0:0:
110,42,265961,1,2,0:0:0:0:
190,127,266135,2,0,P|203:77|213:4,1,104.500003189087,8|2,1:0|0:0,0:0:0:0:
211,24,266397,1,0,0:0:0:0:
211,24,266484,5,0,1:0:0:0:
38,121,266659,1,2,0:0:0:0:
130,211,266833,1,8,1:0:0:0:
137,236,266920,1,0,0:0:0:0:
141,261,267007,1,2,0:0:0:0:
141,287,267095,1,0,0:0:0:0:
138,312,267182,2,0,P|81:318|22:329,1,104.500003189087,0|2,1:0|0:0,0:0:0:0:
247,243,267531,1,8,1:0:0:0:
332,350,267705,1,2,0:0:0:0:
332,350,267792,1,0,0:0:0:0:
332,350,267879,6,0,P|343:287|350:202,1,104.500003189087,0|2,1:0|0:0,0:0:0:0:
299,121,268228,1,8,1:0:0:0:
322,109,268316,2,0,P|353:100|442:96,1,104.500003189087,0|0,0:0|0:0,0:0:0:0:
504,74,268577,2,0,P|499:109|496:146,1,52.2500015945435,0|0,1:0|0:0,0:0:0:0:
402,224,268752,2,0,P|399:198|395:172,1,52.2500015945435,2|0,0:0|0:0,0:0:0:0:
428,6,268926,1,8,1:0:0:0:
499,213,269100,1,2,0:0:0:0:
499,213,269188,1,0,0:0:0:0:
499,213,269275,6,0,L|489:325,1,104.500003189087,0|2,1:0|0:0,0:0:0:0:
302,348,269536,1,0,0:0:0:0:
302,348,269624,2,0,L|312:236,1,104.500003189087,8|2,1:0|0:0,0:0:0:0:
405,180,269885,5,0,0:0:0:0:
405,180,269973,2,0,L|399:258,1,52.2500015945435,0|0,1:0|0:0,0:0:0:0:
392,374,270147,2,0,L|396:321,1,52.2500015945435,2|0,1:2|0:0,0:0:0:0:
304,147,270321,5,8,1:0:0:0:
489,317,270496,1,2,0:0:0:0:
293,290,270670,5,0,1:0:0:0:
496,228,270845,1,2,0:0:0:0:
303,149,271019,1,8,1:0:0:0:
290,126,271106,1,0,0:0:0:0:
283,100,271193,1,2,0:0:0:0:
280,73,271281,1,0,0:0:0:0:
281,47,271368,1,0,1:0:0:0:
408,4,271542,1,2,0:0:0:0:
512,144,271717,2,0,P|456:139|379:134,1,104.500003189087,8|2,1:0|0:0,0:0:0:0:
195,172,272066,5,0,1:0:0:0:
339,294,272240,1,2,1:2:0:0:
341,268,272327,1,0,0:0:0:0:
342,242,272414,2,0,L|345:201,4,26.1250007972718,8|0|0|0|0,1:0|0:0|0:0|0:0|0:0,0:0:0:0:
397,354,272763,6,0,P|378:370|344:378,1,52.2500015945435,0|0,1:0|0:0,0:0:0:0:
182,384,272938,2,0,P|157:379|129:358,1,52.2500015945435,2|0,1:2|0:0,0:0:0:0:
20,238,273112,6,0,P|7:216|4:194,2,26.1250007972718,8|0|0,0:0|0:0|0:0,0:0:0:0:
18,317,273286,2,0,L|77:306,1,52.2500015945435,0|0,0:0|0:0,0:0:0:0:
269,272,273461,6,0,L|328:261,1,52.2500015945435,4|0,1:2|0:0,0:0:0:0:
132,201,273635,2,0,L|73:190,1,52.2500015945435,2|0,1:0|0:0,0:0:0:0:
195,125,273810,2,0,B|223:96|223:96|214:212,1,156.750004783631,10|0,1:0|0:0,0:0:0:0:
225,293,274159,6,0,P|193:286|150:282,1,59.375,4|0,1:2|0:0,0:0:0:0:
186,44,274333,2,0,P|217:50|260:55,1,59.375,2|0,1:0|0:0,0:0:0:0:
366,179,274507,2,0,B|264:201|301:142|191:150,1,178.125,10|0,1:0|0:0,0:0:0:0:
209,322,274856,6,0,L|216:255,1,66.4999979705811,4|0,1:2|0:0,0:0:0:0:
87,28,275031,1,2,1:0:0:0:
87,28,275118,1,0,0:0:0:0:
87,28,275205,2,0,L|104:227,1,199.499993911743,10|0,1:0|0:0,0:0:0:0:
66,340,275554,5,4,1:2:0:0:
102,310,275641,1,0,0:0:0:0:
147,298,275728,1,2,1:0:0:0:
193,304,275816,1,0,0:0:0:0:
231,331,275903,1,10,1:0:0:0:
269,358,275990,1,0,0:0:0:0:
315,364,276078,1,0,0:0:0:0:
360,352,276165,1,0,0:0:0:0:
396,322,276252,5,4,1:2:0:0:
464,60,276426,1,2,0:0:0:0:
480,77,276513,2,0,L|334:88,1,104.500003189087,0|0,0:0|0:0,0:0:0:0:
287,71,276775,2,0,P|295:99|300:125,1,52.2500015945435,2|0,0:0|0:0,0:0:0:0:
382,240,276949,1,0,1:0:0:0:
382,240,277036,2,0,B|392:159|392:159|343:186,1,104.500003189087,0|0,0:0|0:0,0:0:0:0:
250,213,277298,2,0,P|280:215|316:220,1,52.2500015945435,8|0,1:0|0:0,0:0:0:0:
492,137,277473,2,0,P|466:139|440:142,1,52.2500015945435,2|0,0:0|0:0,0:0:0:0:
337,318,277647,5,0,1:0:0:0:
292,133,277821,2,0,L|286:79,2,52.2500015945435,2|0|8,0:0|0:0|1:0,0:0:0:0:
412,279,278170,2,0,L|461:300,2,52.2500015945435,2|0|0,0:0|0:0|1:0,0:0:0:0:
225,310,278519,2,0,L|183:341,3,34.8333343963623,2|0|0|8,0:0|0:0|0:0|1:0,0:0:0:0:
308,234,278868,1,2,0:0:0:0:
308,234,278955,1,0,0:0:0:0:
308,234,279042,5,4,1:2:0:0:
285,220,279129,1,0,0:0:0:0:
259,214,279217,1,2,0:0:0:0:
233,216,279304,1,0,0:0:0:0:
209,226,279391,1,8,1:0:0:0:
185,236,279478,1,0,0:0:0:0:
159,244,279566,2,0,L|93:250,1,52.2500015945435,2|0,0:0|0:0,0:0:0:0:
8,166,279740,5,4,1:2:0:0:
3,140,279827,1,0,0:0:0:0:
5,114,279914,1,2,0:0:0:0:
14,89,280002,1,0,0:0:0:0:
29,67,280089,1,8,1:0:0:0:
50,51,280176,1,0,0:0:0:0:
74,41,280263,2,0,L|153:51,1,52.2500015945435,2|0,0:0|0:0,0:0:0:0:
274,144,280438,5,4,1:2:0:0:
279,118,280525,1,0,0:0:0:0:
284,92,280612,1,2,0:0:0:0:
289,66,280699,1,0,0:0:0:0:
294,40,280786,2,0,L|304:-20,3,34.8333343963623,8|0|0|2,1:0|0:0|0:0|0:0,0:0:0:0:
218,334,281135,6,0,L|208:404,3,52.2500015945435,0|0|2|0,1:0|0:0|0:0|0:0,0:0:0:0:
173,260,281484,2,0,L|129:276,2,34.8333343963623,8|0|0,1:0|0:0|0:0,0:0:0:0:
288,284,281659,2,0,L|310:310,2,34.8333343963623,2|0|0,0:0|0:0|0:0,0:0:0:0:
245,206,281833,6,0,L|254:146,5,34.8333343963623,6|0|0|0|0|0,1:2|0:0|0:0|0:0|0:0|0:0,0:0:0:0:
375,244,282182,2,0,L|381:278,5,34.8333343963623
445,201,282531,6,0,P|455:242|456:269,1,52.2500015945435
314,323,282705,2,2,P|306:297|302:272,1,52.2500015945435,2|0,0:0|0:0,0:0:0:0:
331,146,282879,6,0,L|415:154,1,52.2500015945435
492,329,283054,2,0,L|440:333,1,52.2500015945435,2|2,1:2|0:0,0:0:0:0:
501,153,283228,6,0,B|497:150|504:157|511:100,5,34.8333343963623,0|0|0|0|0|0,1:0|0:0|0:0|0:0|0:0|0:0,0:0:0:0:
438,73,283577,2,0,L|428:2,1,52.2500015945435,0|2,1:0|0:0,0:0:0:0:
329,139,283752,1,0,1:0:0:0:
329,139,283839,6,0,B|324:93|324:93|317:79|317:79|308:12,1,104.500003189087,0|0,1:0|0:0,1:0:0:0:
253,225,284100,2,0,L|321:215,1,52.2500015945435,0|0,1:0|0:0,0:0:0:0:
442,33,284275,1,8,0:0:0:0:
442,33,284362,1,0,1:0:0:0:
442,33,284449,2,0,L|360:24,1,52.2500015945435,0|0,1:0|0:0,0:0:0:0:
246,102,284624,5,4,1:2:0:0:
405,212,284798,1,2,0:0:0:0:
230,294,284973,1,8,1:0:0:0:
346,126,285147,6,0,P|366:235|376:330,1,190,2|2,0:0|0:0,0:0:0:0:
493,115,285670,2,0,P|485:174|481:223,1,95,8|2,1:0|0:0,0:0:0:0:
230,294,286019,6,0,P|225:246|218:199,1,95,0|2,1:0|0:0,0:0:0:0:
147,345,286368,1,8,1:0:0:0:
76,149,286542,2,0,B|188:119|153:190|278:147,1,190,2|2,0:0|0:0,0:0:0:0:
335,54,287066,2,0,P|266:35|221:106,1,142.5,8|0,1:0|0:0,0:0:0:0:
354,210,287414,6,0,P|416:193|472:171,1,95,0|2,1:0|0:0,0:0:0:0:
261,152,287763,1,8,1:0:0:0:
384,321,287938,6,0,P|291:305|166:299,1,190,2|2,0:0|0:0,0:0:0:0:
76,149,288461,1,8,1:0:0:0:
213,211,288635,1,2,0:0:0:0:
90,298,288810,6,0,P|97:268|103:226,2,47.5,0|0|0,1:0|0:0|0:0,0:0:0:0:
76,149,289159,6,0,P|135:142|193:128,1,95,10|0,1:2|0:0,0:0:0:0:
224,76,289391,2,0,P|283:83|360:117,1,126.666666666667,2|0,0:0|0:0,0:0:0:0:
383,138,289682,6,0,P|372:166|366:208,1,47.5,2|0,0:0|0:0,0:0:0:0:
237,279,289856,2,0,P|226:251|220:209,1,47.5,10|0,1:2|0:0,0:0:0:0:
412,310,290031,1,2,0:2:0:0:
412,310,290118,1,2,0:2:0:0:
412,310,290205,6,0,L|324:320,3,47.5,0|0|0|0,1:0|0:0|1:0|0:0,0:0:0:0:
174,228,290554,2,0,L|221:233,3,47.5,0|0|0|0,1:0|0:0|0:0|0:0,0:0:0:0:
354,159,290903,6,0,P|343:189|334:219,2,56.9999982604981,4|0|0,1:2|0:0|0:0,0:0:0:0:
265,371,291164,2,0,P|254:341|245:311,2,56.9999982604981,0|0|0,1:0|0:0|0:0,0:0:0:0:
61,229,291426,2,0,P|82:213|120:179,1,56.9999982604981,0|0,1:0|0:0,0:0:0:0:
248,88,291600,5,0,0:0:0:0:
248,88,291688,2,0,P|204:78|159:70,2,56.9999982604981,0|0|0,1:0|0:0|0:0,0:0:0:0:
336,214,291949,2,0,P|363:208|391:201,2,56.9999982604981,0|0|0,1:0|0:0|0:0,0:0:0:0:
158,338,292211,6,0,P|165:297|175:253,2,56.9999982604981,0|4|0,1:0|0:2|0:0,0:0:0:0:
337,214,292472,1,0,1:0:0:0:
316,224,292560,1,0,0:0:0:0:
293,223,292647,2,0,P|275:215|263:213,4,28.4999991302491,0|0|0|0|0,1:0|0:0|0:0|0:0|0:0,0:0:0:0:
283,340,292909,6,0,B|316:321|316:321|438:351,1,113.999996520996
470,371,293170,6,0,P|465:340|466:279,1,66.4999979705811,0|0,1:0|0:0,0:0:0:0:
305,73,293345,2,0,P|306:115|311:143,1,66.4999979705811,0|0,1:0|0:0,0:0:0:0:
510,192,293519,2,0,P|481:197|440:198,1,66.4999979705811,0|0,1:0|0:0,0:0:0:0:
200,207,293693,5,0,1:0:0:0:
200,207,293781,1,0,0:0:0:0:
200,207,293868,2,0,P|233:207|265:213,1,66.4999979705811,2|0,1:2|0:0,0:0:0:0:
452,43,294042,5,2,1:2:0:0:
411,77,294129,1,0,0:0:0:0:
357,85,294217,1,2,1:2:0:0:
305,73,294304,1,0,0:0:0:0:
272,31,294391,6,0,P|266:74|254:126,1,66.4999979705811,4|0,1:2|0:0,0:0:0:0:
106,263,294566,2,0,P|103:229|102:196,1,66.4999979705811,0|0,1:0|0:0,0:0:0:0:
244,324,294740,5,0,1:0:0:0:
271,286,294827,1,0,0:0:0:0:
314,270,294914,1,0,1:0:0:0:
360,274,295002,1,0,0:0:0:0:
403,290,295089,6,0,P|432:282|494:276,1,66.4999979705811,0|0,1:0|1:0,1:0:0:0:
292,137,295263,2,0,P|263:129|201:123,1,66.4999979705811,2|0,1:2|0:0,0:0:0:0:
450,40,295438,5,2,1:2:0:0:
450,40,295525,1,0,0:0:0:0:
450,40,295612,2,0,L|442:118,1,66.4999979705811,2|0,1:2|1:0,1:0:0:0:
467,276,295786,5,4,1:2:0:0:
436,311,295874,1,0,0:0:0:0:
392,327,295961,1,0,1:0:0:0:
345,323,296048,1,0,0:0:0:0:
302,303,296135,1,0,1:0:0:0:
275,264,296223,1,0,0:0:0:0:
237,236,296310,1,0,1:0:0:0:
190,231,296397,1,0,0:0:0:0:
147,250,296484,5,0,1:0:0:0:
129,292,296571,1,0,0:0:0:0:
137,338,296659,1,0,1:0:0:0:
170,369,296746,1,0,0:0:0:0:
215,375,296833,1,0,1:0:0:0:
259,363,296920,1,0,0:0:0:0:
277,320,297007,1,0,1:0:0:0:
278,273,297095,1,0,0:0:0:0:
260,229,297182,5,0,1:0:0:0:
282,242,297269,1,0,0:0:0:0:
308,243,297356,2,0,P|327:239|350:238,2,33.2499989852906,6|0|0,1:2|0:0|0:0,0:0:0:0:
139,131,297531,5,0,1:0:0:0:
117,118,297618,1,0,0:0:0:0:
91,117,297705,2,0,P|72:121|49:122,2,33.2499989852906,6|0|0,1:2|0:0|0:0,0:0:0:0:
297,40,297879,5,0,1:0:0:0:
297,40,297967,1,0,0:0:0:0:
297,40,298054,2,0,L|300:80,2,33.2499989852906,6|0|0,1:2|0:0|0:0,0:0:0:0:
427,286,298228,5,0,1:0:0:0:
429,268,298286,1,0,1:0:0:0:
431,250,298345,1,2,1:2:0:0:
433,232,298403,1,2,1:2:0:0:
435,214,298461,1,6,1:2:0:0:
437,196,298519,1,6,1:2:0:0:
85,328,298926,5,4,0:0:0:0:
256,192,299013,12,0,302763,0:0:0:0:
