osu file format v14

[General]
AudioFilename: 01 HAELEQUIN (Extended ver.).mp3
AudioLeadIn: 1500
PreviewTime: 219401
Countdown: 0
SampleSet: Normal
StackLeniency: 0.7
Mode: 1
LetterboxInBreaks: 0
WidescreenStoryboard: 0

[Editor]
Bookmarks: 1378,12540,22308,25098,26494,32075,39052,44633,47424,58587,66959,69750,80912,86494,92075,97657,103238,114401,122773,125564,136726,139517,150680,156261,159052,161843,165680,165854,166203,166378,167424,170215,173005,175796,178587,186959,189750,200912,206494,212075,214866,220447,230912,231610,239982,245128,245215,251145,256726,258994,259255,259343,259430,261784,262046,262221,262308,265098,276261,281843,284633,295796,297191,298936
DistanceSpacing: 0.8
BeatDivisor: 4
GridSize: 16
TimelineZoom: 1.1

[Metadata]
Title:HAELEQUIN (Extended ver.)
TitleUnicode:HAELEQUIN (Extended ver.)
Artist:orangentle / Yu_Asahina
ArtistUnicode:orangentle / Yu_Asahina
Creator:404 AccNotFound
Version:Inner Oni
Source:
Tags:SOUND VOLTEX II -infinite infection- BOF2012 BMS of fighters -Ein neuer Heiliger- HAELEQ∩INZ HAELEQUINZ C87
BeatmapID:1345653
BeatmapSetID:620510

[Difficulty]
HPDrainRate:3
CircleSize:7
OverallDifficulty:7
ApproachRate:7
SliderMultiplier:1.4
SliderTickRate:1

[Events]
//Background and Video events
0,0,"bg.png",0,0
//Break Periods
//Storyboard Layer 0 (Background)
//Storyboard Layer 1 (Fail)
//Storyboard Layer 2 (Pass)
//Storyboard Layer 3 (Foreground)
//Storyboard Sound Samples
Sample,84044,0,"normal-hitclap.wav",50
Sample,84742,0,"normal-hitclap.wav",50
Sample,85439,0,"normal-hitclap.wav",50

[TimingPoints]
1378,348.837209302326,4,1,0,70,1,0
1378,-125,4,1,0,70,0,0
12366,-117.647058823529,4,1,0,70,0,0
12540,-111.111111111111,4,1,0,80,0,0
22308,-111.111111111111,4,1,0,50,0,0
26145,-100,4,1,0,80,0,0
26494,-100,4,1,0,90,0,0
32075,-100,4,1,0,85,0,0
39052,-100,4,1,0,70,0,0
47424,-100,4,1,0,75,0,0
66959,-100,4,1,0,90,0,0
68354,-100,4,1,0,85,0,0
69750,-100,4,1,0,80,0,0
92075,-100,4,1,0,75,0,0
93471,-125,4,1,0,75,0,0
96610,-117.647058823529,4,1,0,80,0,0
96959,-111.111111111111,4,1,0,85,0,0
97308,-105.263157894737,4,1,0,90,0,0
97657,-100,4,1,0,80,0,0
103238,-100,4,1,0,60,0,0
122773,-100,4,1,0,85,0,0
125564,-100,4,1,0,80,0,0
133761,-90.9090909090909,4,1,0,90,0,0
136726,-90.9090909090909,4,1,0,85,0,0
137075,-100,4,1,0,85,0,0
139517,-100,4,1,0,75,0,0
156261,-100,4,1,0,85,0,0
158878,-90.9090909090909,4,1,0,85,0,0
161668,-100,4,1,0,85,0,0
161843,-100,4,1,0,80,0,0
164633,-100,4,1,0,90,0,0
167424,-100,4,1,0,85,0,0
189750,-100,4,1,0,80,0,0
206494,-100,4,1,0,70,0,0
209110,-100,4,1,0,80,0,0
212075,-100,4,1,0,85,0,0
214866,-100,4,1,0,90,0,0
219401,-76.9230769230769,4,1,0,100,0,0
219750,-83.3333333333333,4,1,0,100,0,0
220098,-90.9090909090909,4,1,0,100,0,0
220447,-100,4,1,0,90,0,1
237191,-100,4,1,0,85,0,0
239982,-100,4,1,0,90,0,1
265098,-100,4,1,0,80,0,0
273471,-100,4,1,0,85,0,0
276261,-100,4,1,0,80,0,0
284633,-100,4,1,0,75,0,0
290215,-100,4,1,0,80,0,0
295796,-100,4,1,0,85,0,0
297191,-100,4,1,0,90,0,0
298936,-100,4,1,0,95,0,0
302773,-100,4,1,0,80,0,0

[HitObjects]
256,192,680,5,2,0:0:0:0:
224,176,1378,1,4,0:0:0:0:
32,144,1726,1,2,0:0:0:0:
32,144,2424,1,2,0:0:0:0:
32,144,3122,1,2,0:0:0:0:
32,160,3819,1,2,0:0:0:0:
32,160,4517,1,2,0:0:0:0:
32,160,5215,1,2,0:0:0:0:
32,160,5912,1,2,0:0:0:0:
32,160,6610,1,2,0:0:0:0:
32,160,7308,1,2,0:0:0:0:
32,160,8005,1,2,0:0:0:0:
32,160,8703,1,2,0:0:0:0:
32,160,9401,1,2,0:0:0:0:
224,128,9750,1,0,0:0:0:0:
32,160,10098,1,2,0:0:0:0:
32,160,10796,1,2,0:0:0:0:
48,160,11494,1,2,0:0:0:0:
192,176,12191,1,2,0:0:0:0:
192,176,12366,1,0,0:0:0:0:
192,176,12540,1,0,0:0:0:0:
176,112,12889,1,8,0:0:0:0:
176,112,13238,1,0,0:0:0:0:
176,112,13587,1,8,0:0:0:0:
176,112,13936,1,0,0:0:0:0:
384,144,14284,1,8,0:0:0:0:
384,144,14633,1,0,0:0:0:0:
384,144,14982,1,8,0:0:0:0:
384,144,15331,1,0,0:0:0:0:
384,144,15680,1,8,0:0:0:0:
384,144,16029,1,0,0:0:0:0:
384,144,16378,1,8,0:0:0:0:
384,144,16726,1,0,0:0:0:0:
384,144,17075,1,8,0:0:0:0:
384,144,17424,1,0,0:0:0:0:
448,96,17686,1,8,0:0:0:0:
384,144,17773,1,0,0:0:0:0:
128,176,17947,1,0,0:0:0:0:
384,144,18122,1,0,0:0:0:0:
176,240,18471,1,8,0:0:0:0:
176,256,18819,1,0,0:0:0:0:
176,256,19168,1,8,0:0:0:0:
192,256,19517,1,0,0:0:0:0:
192,256,19866,1,8,0:0:0:0:
192,256,20215,1,0,0:0:0:0:
192,256,20564,1,8,0:0:0:0:
192,256,20912,1,0,0:0:0:0:
192,256,21261,1,8,0:0:0:0:
192,256,21610,1,0,0:0:0:0:
192,256,21959,1,8,0:0:0:0:
256,192,22308,8,0,24750,0:0:0:0:
384,96,25098,5,0,0:0:0:0:
96,192,25796,1,2,0:0:0:0:
304,160,26145,1,0,0:0:0:0:
304,160,26232,1,0,0:0:0:0:
304,160,26319,1,0,0:0:0:0:
224,176,26494,1,6,0:0:0:0:
272,192,26843,1,0,0:0:0:0:
224,192,27017,1,6,0:0:0:0:
272,192,27366,1,0,0:0:0:0:
224,192,27540,1,4,0:0:0:0:
224,192,28064,1,4,0:0:0:0:
224,192,28587,1,6,0:0:0:0:
224,192,28936,1,4,0:0:0:0:
224,192,29284,1,6,0:0:0:0:
224,192,29808,1,4,0:0:0:0:
224,192,30331,1,6,0:0:0:0:
224,192,30854,1,4,0:0:0:0:
224,128,31378,1,2,0:0:0:0:
112,128,31465,1,2,0:0:0:0:
112,128,31552,1,0,0:0:0:0:
192,112,31639,1,2,0:0:0:0:
112,128,31726,1,0,0:0:0:0:
112,128,31814,1,0,0:0:0:0:
192,112,31901,1,2,0:0:0:0:
224,192,32075,1,4,0:0:0:0:
208,176,32250,1,2,0:0:0:0:
192,128,32424,1,0,0:0:0:0:
192,176,32598,1,2,0:0:0:0:
64,160,32686,1,2,0:0:0:0:
112,144,32773,1,0,0:0:0:0:
64,160,32860,1,0,0:0:0:0:
192,176,32947,1,2,0:0:0:0:
192,128,33122,1,0,0:0:0:0:
176,176,33296,1,2,0:0:0:0:
160,128,33383,1,0,0:0:0:0:
112,144,33471,1,8,0:0:0:0:
176,176,33645,1,2,0:0:0:0:
192,128,33819,1,0,0:0:0:0:
176,192,33994,1,2,0:0:0:0:
256,208,34081,1,2,0:0:0:0:
112,144,34168,1,0,0:0:0:0:
256,208,34255,1,0,0:0:0:0:
176,192,34343,1,8,0:0:0:0:
192,128,34517,1,0,0:0:0:0:
176,192,34691,1,8,0:0:0:0:
176,192,34779,1,0,0:0:0:0:
112,144,34866,1,8,0:0:0:0:
176,192,35040,1,8,0:0:0:0:
192,128,35215,1,0,0:0:0:0:
176,192,35389,1,2,0:0:0:0:
176,192,35476,1,2,0:0:0:0:
112,144,35564,1,0,0:0:0:0:
176,192,35651,1,2,0:0:0:0:
176,192,35738,1,0,0:0:0:0:
176,192,35825,1,0,0:0:0:0:
0,256,35912,1,2,0:0:0:0:
176,192,36000,1,0,0:0:0:0:
176,192,36087,1,2,0:0:0:0:
176,192,36174,1,2,0:0:0:0:
112,144,36261,1,0,0:0:0:0:
192,128,36610,1,2,0:0:0:0:
240,112,36697,1,2,0:0:0:0:
224,112,36784,1,2,0:0:0:0:
224,112,36872,1,2,0:0:0:0:
224,112,36959,1,0,0:0:0:0:
224,112,37046,1,2,0:0:0:0:
224,112,37133,1,2,0:0:0:0:
224,112,37221,1,0,0:0:0:0:
320,80,37308,1,2,0:0:0:0:
256,80,37395,1,2,0:0:0:0:
256,80,37482,1,0,0:0:0:0:
144,128,37569,1,0,0:0:0:0:
224,112,37657,1,2,0:0:0:0:
224,112,37744,1,2,0:0:0:0:
224,112,37831,1,0,0:0:0:0:
224,112,37918,1,0,0:0:0:0:
224,112,38005,1,2,0:0:0:0:
224,112,38093,1,2,0:0:0:0:
224,112,38180,1,0,0:0:0:0:
224,112,38267,1,0,0:0:0:0:
224,112,38354,1,2,0:0:0:0:
224,112,38441,1,2,0:0:0:0:
224,112,38529,1,0,0:0:0:0:
224,112,38616,1,2,0:0:0:0:
224,112,38703,1,0,0:0:0:0:
224,112,38790,1,0,0:0:0:0:
224,112,38878,1,2,0:0:0:0:
224,112,38965,1,2,0:0:0:0:
224,112,39052,1,0,0:0:0:0:
192,144,39401,1,2,0:0:0:0:
160,144,39575,1,0,0:0:0:0:
96,144,39924,1,0,0:0:0:0:
224,128,40098,1,2,0:0:0:0:
208,144,40447,1,0,0:0:0:0:
192,144,40796,1,2,0:0:0:0:
224,128,41145,1,0,0:0:0:0:
64,176,41319,1,0,0:0:0:0:
224,144,41494,1,2,0:0:0:0:
224,144,41843,1,0,0:0:0:0:
224,144,42191,1,2,0:0:0:0:
272,160,42366,1,0,0:0:0:0:
128,144,42715,1,0,0:0:0:0:
224,144,42889,1,2,0:0:0:0:
224,144,43238,1,0,0:0:0:0:
224,144,43587,1,2,0:0:0:0:
256,160,43936,1,0,0:0:0:0:
112,256,44110,1,0,0:0:0:0:
224,144,44284,1,2,0:0:0:0:
224,144,44633,1,0,0:0:0:0:
224,144,44982,1,2,0:0:0:0:
224,144,45157,1,0,0:0:0:0:
224,144,45505,1,0,0:0:0:0:
224,144,45680,1,2,0:0:0:0:
224,144,46029,1,0,0:0:0:0:
224,176,46203,1,0,0:0:0:0:
224,144,46290,1,0,0:0:0:0:
224,144,46378,1,2,0:0:0:0:
208,112,46465,1,2,0:0:0:0:
224,144,46552,1,0,0:0:0:0:
0,160,46639,1,0,0:0:0:0:
224,176,46726,1,2,0:0:0:0:
160,112,46814,1,2,0:0:0:0:
224,144,46901,1,2,0:0:0:0:
160,96,46988,1,2,0:0:0:0:
160,96,47075,1,0,0:0:0:0:
160,112,47162,1,0,0:0:0:0:
160,112,47250,1,0,0:0:0:0:
160,112,47424,1,4,0:0:0:0:
208,112,47773,1,2,0:0:0:0:
320,192,47947,1,0,0:0:0:0:
96,208,48034,1,2,0:0:0:0:
304,192,48122,1,2,0:0:0:0:
256,208,48296,1,0,0:0:0:0:
256,208,48471,1,2,0:0:0:0:
256,192,48645,1,2,0:0:0:0:
256,192,48819,1,0,0:0:0:0:
256,144,48994,1,0,0:0:0:0:
256,208,49081,1,2,0:0:0:0:
256,144,49168,1,0,0:0:0:0:
256,208,49343,1,2,0:0:0:0:
96,144,49691,1,0,0:0:0:0:
0,176,49866,1,2,0:0:0:0:
256,208,50040,1,0,0:0:0:0:
256,208,50128,1,0,0:0:0:0:
256,208,50215,1,2,0:0:0:0:
176,112,50564,1,2,0:0:0:0:
192,192,50738,1,0,0:0:0:0:
240,208,50825,1,0,0:0:0:0:
240,208,50912,1,2,0:0:0:0:
240,208,51087,1,2,0:0:0:0:
240,208,51261,1,0,0:0:0:0:
240,208,51436,1,0,0:0:0:0:
240,208,51610,1,2,0:0:0:0:
128,192,51959,1,2,0:0:0:0:
240,160,52133,1,0,0:0:0:0:
240,176,52221,1,2,0:0:0:0:
128,192,52308,1,0,0:0:0:0:
112,176,52482,1,0,0:0:0:0:
112,176,52657,1,2,0:0:0:0:
112,176,52831,1,2,0:0:0:0:
112,176,53005,1,0,0:0:0:0:
112,224,53180,1,2,0:0:0:0:
112,176,53267,1,8,0:0:0:0:
96,112,53354,1,0,0:0:0:0:
192,128,53529,1,2,0:0:0:0:
128,192,53703,1,0,0:0:0:0:
240,192,53878,1,0,0:0:0:0:
112,176,54052,1,2,0:0:0:0:
112,176,54226,1,2,0:0:0:0:
112,176,54401,1,0,0:0:0:0:
112,176,54575,1,2,0:0:0:0:
304,208,54662,1,8,0:0:0:0:
112,176,54750,1,0,0:0:0:0:
112,176,54924,1,2,0:0:0:0:
0,144,55011,1,2,0:0:0:0:
128,192,55098,1,0,0:0:0:0:
16,144,55186,1,2,0:0:0:0:
96,176,55273,1,0,0:0:0:0:
192,192,55360,1,0,0:0:0:0:
128,192,55447,1,2,0:0:0:0:
80,208,55622,1,2,0:0:0:0:
192,160,55709,1,0,0:0:0:0:
80,208,55796,1,2,0:0:0:0:
192,192,55971,1,0,0:0:0:0:
128,192,56145,1,2,0:0:0:0:
96,208,56319,1,0,0:0:0:0:
192,176,56407,1,0,0:0:0:0:
96,208,56494,1,2,0:0:0:0:
192,176,56668,1,0,0:0:0:0:
96,208,56755,1,2,0:0:0:0:
192,176,56843,1,0,0:0:0:0:
96,208,57017,1,2,0:0:0:0:
96,208,57191,1,0,0:0:0:0:
96,208,57540,1,0,0:0:0:0:
128,144,57628,1,0,0:0:0:0:
128,160,57715,1,2,0:0:0:0:
144,160,57802,1,2,0:0:0:0:
128,192,57889,1,0,0:0:0:0:
128,160,57976,1,2,0:0:0:0:
128,160,58064,1,0,0:0:0:0:
128,160,58151,1,0,0:0:0:0:
128,192,58238,1,2,0:0:0:0:
128,160,58325,1,0,0:0:0:0:
128,160,58412,1,0,0:0:0:0:
144,160,58500,1,0,0:0:0:0:
128,192,58587,1,0,0:0:0:0:
160,96,58936,1,2,0:0:0:0:
272,192,59110,1,0,0:0:0:0:
272,192,59197,1,0,0:0:0:0:
256,192,59284,1,2,0:0:0:0:
256,192,59459,1,0,0:0:0:0:
256,192,59633,1,2,0:0:0:0:
256,192,59808,1,2,0:0:0:0:
256,192,59982,1,0,0:0:0:0:
176,160,60157,1,2,0:0:0:0:
256,192,60244,1,0,0:0:0:0:
176,160,60331,1,0,0:0:0:0:
256,192,60505,1,2,0:0:0:0:
160,160,60854,1,0,0:0:0:0:
256,192,61029,1,2,0:0:0:0:
256,192,61203,1,0,0:0:0:0:
144,176,61290,1,0,0:0:0:0:
256,192,61378,1,2,0:0:0:0:
256,192,61639,1,2,0:0:0:0:
128,240,61901,1,0,0:0:0:0:
256,192,62075,1,2,0:0:0:0:
144,160,62337,1,0,0:0:0:0:
256,192,62598,1,0,0:0:0:0:
256,192,62773,1,2,0:0:0:0:
144,176,62947,1,0,0:0:0:0:
144,176,63034,1,0,0:0:0:0:
144,176,63122,1,2,0:0:0:0:
128,176,63209,1,2,0:0:0:0:
128,176,63296,1,0,0:0:0:0:
144,160,63383,1,8,0:0:0:0:
144,160,63471,1,0,0:0:0:0:
144,160,63558,1,2,0:0:0:0:
144,160,63645,1,0,0:0:0:0:
160,144,63732,1,0,0:0:0:0:
256,192,63819,1,2,0:0:0:0:
160,144,63907,1,0,0:0:0:0:
160,144,63994,1,0,0:0:0:0:
256,192,64168,1,2,0:0:0:0:
160,144,64517,1,0,0:0:0:0:
256,176,64691,1,2,0:0:0:0:
256,176,64779,1,0,0:0:0:0:
256,176,64866,1,2,0:0:0:0:
256,176,65040,1,0,0:0:0:0:
256,176,65215,1,2,0:0:0:0:
256,176,65389,1,0,0:0:0:0:
256,176,65564,1,2,0:0:0:0:
208,144,65738,1,0,0:0:0:0:
256,176,65825,1,2,0:0:0:0:
208,144,65912,1,0,0:0:0:0:
256,176,66087,1,2,0:0:0:0:
208,144,66174,1,2,0:0:0:0:
208,144,66261,1,0,0:0:0:0:
208,144,66348,1,0,0:0:0:0:
208,144,66436,1,2,0:0:0:0:
208,144,66523,1,0,0:0:0:0:
208,144,66610,1,2,0:0:0:0:
208,144,66697,1,0,0:0:0:0:
208,144,66784,1,0,0:0:0:0:
288,208,66959,1,6,0:0:0:0:
128,176,67221,1,0,0:0:0:0:
128,176,67482,1,2,0:0:0:0:
304,208,67657,1,6,0:0:0:0:
128,176,67918,1,0,0:0:0:0:
128,176,68180,1,0,0:0:0:0:
304,208,68354,1,2,0:0:0:0:
224,112,68529,1,0,0:0:0:0:
224,112,68616,1,0,0:0:0:0:
128,240,68703,1,2,0:0:0:0:
128,240,68761,1,2,0:0:0:0:
128,240,68819,1,2,0:0:0:0:
128,240,68878,1,0,0:0:0:0:
192,192,68965,1,0,0:0:0:0:
176,80,69052,1,2,0:0:0:0:
16,192,69226,1,0,0:0:0:0:
160,192,69401,1,2,0:0:0:0:
368,128,69488,1,2,0:0:0:0:
48,144,69575,1,0,0:0:0:0:
160,112,69750,1,6,0:0:0:0:
240,128,69924,1,0,0:0:0:0:
208,112,70098,1,0,0:0:0:0:
128,176,70186,1,0,0:0:0:0:
320,192,70273,1,2,0:0:0:0:
96,208,70360,1,0,0:0:0:0:
304,192,70447,1,2,0:0:0:0:
256,208,70622,1,0,0:0:0:0:
256,208,70796,1,2,0:0:0:0:
256,192,70971,1,2,0:0:0:0:
192,176,71058,1,2,0:0:0:0:
256,192,71145,1,0,0:0:0:0:
256,144,71319,1,0,0:0:0:0:
256,208,71407,1,2,0:0:0:0:
256,144,71494,1,0,0:0:0:0:
256,208,71668,1,2,0:0:0:0:
176,144,71755,1,2,0:0:0:0:
176,80,71843,1,0,0:0:0:0:
160,144,71930,1,2,0:0:0:0:
144,256,72017,1,0,0:0:0:0:
176,112,72191,1,2,0:0:0:0:
256,208,72366,1,0,0:0:0:0:
256,208,72453,1,2,0:0:0:0:
256,208,72540,1,2,0:0:0:0:
112,224,72715,1,0,0:0:0:0:
176,112,72889,1,2,0:0:0:0:
192,192,73064,1,0,0:0:0:0:
240,208,73151,1,0,0:0:0:0:
240,208,73238,1,2,0:0:0:0:
240,208,73412,1,0,0:0:0:0:
240,208,73587,1,2,0:0:0:0:
240,208,73761,1,0,0:0:0:0:
80,160,73848,1,2,0:0:0:0:
240,208,73936,1,0,0:0:0:0:
16,192,74110,1,0,0:0:0:0:
128,192,74284,1,2,0:0:0:0:
192,144,74459,1,0,0:0:0:0:
192,144,74546,1,2,0:0:0:0:
128,192,74633,1,0,0:0:0:0:
192,144,74721,1,2,0:0:0:0:
112,176,74808,1,0,0:0:0:0:
112,176,74982,1,2,0:0:0:0:
112,176,75157,1,2,0:0:0:0:
112,176,75331,1,4,0:0:0:0:
112,224,75505,1,0,0:0:0:0:
112,176,75593,1,2,0:0:0:0:
112,176,75854,1,4,0:0:0:0:
240,192,76203,1,2,0:0:0:0:
112,176,76378,1,0,0:0:0:0:
112,176,76552,1,2,0:0:0:0:
112,176,76726,1,4,0:0:0:0:
112,176,76901,1,0,0:0:0:0:
304,208,76988,1,2,0:0:0:0:
112,176,77075,1,0,0:0:0:0:
112,176,77250,1,2,0:0:0:0:
48,160,77337,1,0,0:0:0:0:
128,192,77424,1,2,0:0:0:0:
16,144,77511,1,2,0:0:0:0:
96,176,77598,1,0,0:0:0:0:
288,176,77657,1,0,0:0:0:0:
304,176,77715,1,0,0:0:0:0:
128,192,77773,1,2,0:0:0:0:
160,112,77860,1,2,0:0:0:0:
80,208,77947,1,0,0:0:0:0:
80,208,78034,1,0,0:0:0:0:
80,208,78122,1,2,0:0:0:0:
208,160,78471,1,2,0:0:0:0:
288,160,78645,1,0,0:0:0:0:
144,96,78732,1,0,0:0:0:0:
208,160,78819,1,2,0:0:0:0:
288,160,78994,1,0,0:0:0:0:
288,160,79081,1,2,0:0:0:0:
288,160,79343,1,2,0:0:0:0:
288,160,79517,1,0,0:0:0:0:
96,208,79866,1,2,0:0:0:0:
128,144,79953,1,2,0:0:0:0:
128,160,80040,1,0,0:0:0:0:
144,160,80128,1,2,0:0:0:0:
128,192,80215,1,0,0:0:0:0:
128,160,80302,1,2,0:0:0:0:
128,160,80389,1,2,0:0:0:0:
128,160,80476,1,0,0:0:0:0:
128,192,80564,1,2,0:0:0:0:
128,160,80651,1,0,0:0:0:0:
128,160,80738,1,0,0:0:0:0:
128,192,80912,1,6,0:0:0:0:
128,208,81087,1,0,0:0:0:0:
128,208,81261,1,0,0:0:0:0:
176,128,81348,1,0,0:0:0:0:
128,208,81436,1,2,0:0:0:0:
224,160,81523,1,0,0:0:0:0:
176,176,81610,1,2,0:0:0:0:
192,160,81784,1,0,0:0:0:0:
192,144,81959,1,2,0:0:0:0:
112,192,82133,1,0,0:0:0:0:
128,240,82221,1,2,0:0:0:0:
176,208,82308,1,0,0:0:0:0:
128,208,82482,1,2,0:0:0:0:
128,208,82569,1,0,0:0:0:0:
128,208,82657,1,0,0:0:0:0:
128,208,82831,1,2,0:0:0:0:
128,192,82918,1,2,0:0:0:0:
128,192,83005,1,0,0:0:0:0:
128,192,83093,1,2,0:0:0:0:
128,192,83180,1,0,0:0:0:0:
144,96,83267,1,0,0:0:0:0:
128,192,83354,1,2,0:0:0:0:
144,112,83529,1,0,0:0:0:0:
224,208,83703,1,6,0:0:0:0:
224,208,83965,1,2,0:0:0:0:
224,208,84226,1,0,0:0:0:0:
224,208,84401,1,6,0:0:0:0:
224,208,84662,1,0,0:0:0:0:
224,208,84924,1,0,0:0:0:0:
224,208,85098,1,6,0:0:0:0:
192,176,85447,1,2,0:0:0:0:
192,176,85622,1,0,0:0:0:0:
192,176,85709,1,2,0:0:0:0:
192,176,85796,1,0,0:0:0:0:
176,176,85971,1,0,0:0:0:0:
384,128,86029,1,0,0:0:0:0:
384,128,86087,1,0,0:0:0:0:
384,128,86145,1,2,0:0:0:0:
288,144,86232,1,2,0:0:0:0:
288,144,86319,1,0,0:0:0:0:
288,144,86407,1,0,0:0:0:0:
288,144,86494,1,2,0:0:0:0:
48,160,86843,1,0,0:0:0:0:
208,176,87017,1,2,0:0:0:0:
208,176,87104,1,0,0:0:0:0:
208,176,87191,1,2,0:0:0:0:
208,192,87366,1,0,0:0:0:0:
208,192,87540,1,0,0:0:0:0:
208,192,87715,1,0,0:0:0:0:
208,192,87889,1,2,0:0:0:0:
32,144,88064,1,0,0:0:0:0:
208,192,88151,1,2,0:0:0:0:
32,144,88238,1,0,0:0:0:0:
208,192,88412,1,2,0:0:0:0:
128,176,88587,1,0,0:0:0:0:
128,176,88761,1,2,0:0:0:0:
128,176,88848,1,2,0:0:0:0:
128,176,88936,1,0,0:0:0:0:
128,176,89023,1,0,0:0:0:0:
208,192,89110,1,2,0:0:0:0:
208,192,89197,1,0,0:0:0:0:
128,176,89284,1,2,0:0:0:0:
144,112,89459,1,0,0:0:0:0:
208,256,89633,1,6,0:0:0:0:
96,224,90157,1,0,0:0:0:0:
80,224,90331,1,6,0:0:0:0:
304,112,90505,1,0,0:0:0:0:
304,112,90593,1,0,0:0:0:0:
192,192,90680,1,2,0:0:0:0:
192,192,90767,1,2,0:0:0:0:
192,192,90854,1,0,0:0:0:0:
320,176,90941,1,0,0:0:0:0:
320,176,91029,1,2,0:0:0:0:
432,112,91116,1,2,0:0:0:0:
432,112,91203,1,0,0:0:0:0:
432,112,91261,1,0,0:0:0:0:
432,112,91319,1,0,0:0:0:0:
448,112,91378,1,2,0:0:0:0:
272,160,91552,1,2,0:0:0:0:
272,160,91726,1,0,0:0:0:0:
272,160,91814,1,2,0:0:0:0:
272,160,91901,1,0,0:0:0:0:
384,144,91959,1,2,0:0:0:0:
384,128,92017,1,0,0:0:0:0:
272,160,92075,1,0,0:0:0:0:
160,160,93471,1,0,0:0:0:0:
160,160,94343,1,0,0:0:0:0:
160,160,94517,1,0,0:0:0:0:
160,160,94691,1,2,0:0:0:0:
432,128,94750,1,2,0:0:0:0:
432,128,94808,1,2,0:0:0:0:
432,128,94866,1,0,0:0:0:0:
240,192,96261,1,4,0:0:0:0:
240,192,96610,1,6,0:0:0:0:
240,192,96959,1,6,0:0:0:0:
240,192,97308,1,6,0:0:0:0:
240,192,97657,1,2,0:0:0:0:
352,176,97744,1,2,0:0:0:0:
336,192,97831,1,0,0:0:0:0:
336,192,97918,1,2,0:0:0:0:
320,192,98005,1,0,0:0:0:0:
320,192,98093,1,2,0:0:0:0:
320,192,98180,1,2,0:0:0:0:
320,192,98267,1,2,0:0:0:0:
320,192,98354,1,0,0:0:0:0:
320,192,98441,1,0,0:0:0:0:
320,192,98529,1,2,0:0:0:0:
320,192,98616,1,2,0:0:0:0:
320,192,98703,1,0,0:0:0:0:
320,192,98790,1,2,0:0:0:0:
320,192,98878,1,2,0:0:0:0:
320,176,98965,1,2,0:0:0:0:
240,192,99052,1,0,0:0:0:0:
352,176,99139,1,2,0:0:0:0:
336,192,99226,1,2,0:0:0:0:
336,192,99314,1,2,0:0:0:0:
320,192,99401,1,0,0:0:0:0:
320,192,99488,1,0,0:0:0:0:
320,192,99575,1,2,0:0:0:0:
320,192,99662,1,2,0:0:0:0:
320,192,99750,1,0,0:0:0:0:
144,144,99808,1,0,0:0:0:0:
144,144,99866,1,0,0:0:0:0:
144,144,99924,1,2,0:0:0:0:
144,144,99982,1,2,0:0:0:0:
144,144,100040,1,2,0:0:0:0:
144,144,100098,1,2,0:0:0:0:
176,160,100273,1,0,0:0:0:0:
176,160,100447,1,6,0:0:0:0:
80,160,101843,1,0,0:0:0:0:
80,160,102104,1,2,0:0:0:0:
80,144,102191,1,0,0:0:0:0:
192,112,102366,1,0,0:0:0:0:
192,96,102715,1,0,0:0:0:0:
368,160,102889,1,2,0:0:0:0:
368,160,102947,1,2,0:0:0:0:
368,160,103005,1,2,0:0:0:0:
368,160,103064,1,0,0:0:0:0:
448,112,103151,1,2,0:0:0:0:
304,192,103238,1,4,0:0:0:0:
288,160,103412,1,8,0:0:0:0:
224,112,103500,1,8,0:0:0:0:
176,256,103587,1,0,0:0:0:0:
176,256,103761,1,8,0:0:0:0:
176,256,103936,1,8,0:0:0:0:
176,256,104023,1,8,0:0:0:0:
176,256,104110,1,0,0:0:0:0:
176,256,104197,1,8,0:0:0:0:
176,256,104284,1,0,0:0:0:0:
176,256,104459,1,8,0:0:0:0:
160,208,104633,1,8,0:0:0:0:
112,96,104721,1,8,0:0:0:0:
160,208,104808,1,0,0:0:0:0:
160,208,104895,1,0,0:0:0:0:
160,208,104982,1,8,0:0:0:0:
160,208,105069,1,8,0:0:0:0:
160,208,105157,1,0,0:0:0:0:
160,208,105244,1,8,0:0:0:0:
160,208,105331,1,0,0:0:0:0:
160,208,105418,1,0,0:0:0:0:
160,208,105505,1,8,0:0:0:0:
160,208,105593,1,0,0:0:0:0:
160,208,105680,1,8,0:0:0:0:
160,208,105767,1,8,0:0:0:0:
160,208,105854,1,0,0:0:0:0:
160,208,105941,1,8,0:0:0:0:
160,208,106029,1,0,0:0:0:0:
160,208,106203,1,0,0:0:0:0:
160,208,106290,1,0,0:0:0:0:
160,208,106377,1,8,0:0:0:0:
160,208,106552,1,8,0:0:0:0:
160,208,106726,1,0,0:0:0:0:
160,208,106813,1,0,0:0:0:0:
160,208,106901,1,8,0:0:0:0:
160,208,106988,1,0,0:0:0:0:
160,208,107075,1,8,0:0:0:0:
160,208,107250,1,8,0:0:0:0:
160,208,107424,1,8,0:0:0:0:
160,208,107511,1,8,0:0:0:0:
160,208,107598,1,0,0:0:0:0:
160,208,107686,1,0,0:0:0:0:
160,208,107773,1,8,0:0:0:0:
160,208,107860,1,0,0:0:0:0:
160,208,107947,1,8,0:0:0:0:
160,208,108034,1,8,0:0:0:0:
160,208,108121,1,0,0:0:0:0:
160,208,108208,1,0,0:0:0:0:
160,208,108296,1,8,0:0:0:0:
160,208,108383,1,0,0:0:0:0:
160,208,108470,1,8,0:0:0:0:
160,208,108557,1,8,0:0:0:0:
160,208,108644,1,0,0:0:0:0:
192,128,108732,1,8,0:0:0:0:
160,208,108819,1,0,0:0:0:0:
160,208,108993,1,0,0:0:0:0:
160,208,109080,1,0,0:0:0:0:
160,208,109167,1,8,0:0:0:0:
160,208,109342,1,8,0:0:0:0:
160,208,109516,1,0,0:0:0:0:
160,208,109603,1,0,0:0:0:0:
160,208,109691,1,8,0:0:0:0:
160,208,109778,1,0,0:0:0:0:
160,208,109866,1,8,0:0:0:0:
160,208,110039,1,8,0:0:0:0:
160,208,110215,1,8,0:0:0:0:
160,208,110302,1,8,0:0:0:0:
160,208,110389,1,0,0:0:0:0:
160,208,110476,1,0,0:0:0:0:
160,208,110564,1,8,0:0:0:0:
160,208,110651,1,0,0:0:0:0:
160,208,110738,1,8,0:0:0:0:
160,208,110825,1,8,0:0:0:0:
160,208,110912,1,0,0:0:0:0:
160,208,111000,1,0,0:0:0:0:
160,208,111087,1,8,0:0:0:0:
160,208,111174,1,0,0:0:0:0:
160,208,111261,1,8,0:0:0:0:
160,208,111348,1,8,0:0:0:0:
192,128,111436,1,0,0:0:0:0:
160,208,111523,1,8,0:0:0:0:
160,208,111610,1,0,0:0:0:0:
160,208,111784,1,0,0:0:0:0:
160,208,111871,1,0,0:0:0:0:
160,208,111959,1,8,0:0:0:0:
160,208,112133,1,8,0:0:0:0:
160,208,112307,1,0,0:0:0:0:
160,208,112395,1,0,0:0:0:0:
160,208,112482,1,8,0:0:0:0:
160,208,112569,1,8,0:0:0:0:
160,208,112656,1,0,0:0:0:0:
192,128,112831,1,8,0:0:0:0:
160,208,113005,1,8,0:0:0:0:
160,208,113092,1,8,0:0:0:0:
160,208,113179,1,0,0:0:0:0:
160,208,113266,1,0,0:0:0:0:
160,208,113354,1,8,0:0:0:0:
160,208,113441,1,8,0:0:0:0:
160,208,113528,1,0,0:0:0:0:
160,208,113615,1,8,0:0:0:0:
160,208,113702,1,0,0:0:0:0:
160,208,113790,1,0,0:0:0:0:
160,208,113877,1,0,0:0:0:0:
160,208,113964,1,0,0:0:0:0:
160,208,114052,1,8,0:0:0:0:
160,208,114138,1,8,0:0:0:0:
160,208,114226,1,8,0:0:0:0:
160,208,114400,1,4,0:0:0:0:
160,208,114574,1,8,0:0:0:0:
160,208,114662,1,0,0:0:0:0:
160,208,114749,1,8,0:0:0:0:
160,208,114923,1,8,0:0:0:0:
160,208,115098,1,0,0:0:0:0:
160,208,115185,1,0,0:0:0:0:
160,208,115272,1,8,0:0:0:0:
160,208,115359,1,8,0:0:0:0:
160,208,115446,1,0,0:0:0:0:
160,208,115622,1,8,0:0:0:0:
160,208,115796,1,8,0:0:0:0:
160,208,115883,1,8,0:0:0:0:
160,208,115970,1,0,0:0:0:0:
160,208,116058,1,8,0:0:0:0:
160,208,116145,1,0,0:0:0:0:
160,208,116232,1,0,0:0:0:0:
160,208,116319,1,8,0:0:0:0:
160,208,116406,1,0,0:0:0:0:
160,208,116494,1,8,0:0:0:0:
160,208,116581,1,8,0:0:0:0:
160,208,116668,1,0,0:0:0:0:
160,208,116755,1,8,0:0:0:0:
160,208,116843,1,0,0:0:0:0:
160,208,116930,1,0,0:0:0:0:
160,208,117017,1,8,0:0:0:0:
160,208,117104,1,8,0:0:0:0:
160,208,117191,1,0,0:0:0:0:
160,208,117366,1,0,0:0:0:0:
160,208,117453,1,0,0:0:0:0:
160,208,117540,1,8,0:0:0:0:
160,208,117714,1,8,0:0:0:0:
160,208,117889,1,0,0:0:0:0:
160,208,117976,1,0,0:0:0:0:
160,208,118063,1,8,0:0:0:0:
160,208,118150,1,8,0:0:0:0:
192,128,118238,1,0,0:0:0:0:
160,208,118412,1,8,0:0:0:0:
160,208,118586,1,8,0:0:0:0:
160,208,118673,1,8,0:0:0:0:
160,208,118761,1,0,0:0:0:0:
160,208,118848,1,8,0:0:0:0:
160,208,118935,1,0,0:0:0:0:
160,208,119022,1,8,0:0:0:0:
160,208,119110,1,8,0:0:0:0:
160,208,119197,1,0,0:0:0:0:
160,208,119284,1,8,0:0:0:0:
160,208,119371,1,8,0:0:0:0:
160,208,119458,1,0,0:0:0:0:
160,208,119546,1,8,0:0:0:0:
192,128,119633,1,0,0:0:0:0:
192,128,119721,1,0,0:0:0:0:
160,208,119808,1,8,0:0:0:0:
160,208,119895,1,8,0:0:0:0:
160,208,119982,1,0,0:0:0:0:
160,208,120156,1,0,0:0:0:0:
160,208,120244,1,0,0:0:0:0:
160,208,120331,1,8,0:0:0:0:
160,208,120505,1,8,0:0:0:0:
160,208,120680,1,8,0:0:0:0:
160,208,120767,1,0,0:0:0:0:
160,208,120854,1,8,0:0:0:0:
160,208,120941,1,8,0:0:0:0:
160,208,121029,1,0,0:0:0:0:
160,80,121203,1,8,0:0:0:0:
160,208,121378,1,8,0:0:0:0:
160,208,121465,1,8,0:0:0:0:
160,208,121551,1,0,0:0:0:0:
160,208,121638,1,0,0:0:0:0:
160,208,121726,1,8,0:0:0:0:
160,208,121813,1,0,0:0:0:0:
160,208,121900,1,8,0:0:0:0:
160,208,121987,1,8,0:0:0:0:
160,208,122074,1,0,0:0:0:0:
160,208,122162,1,0,0:0:0:0:
160,208,122250,1,8,0:0:0:0:
160,208,122336,1,0,0:0:0:0:
160,208,122424,1,8,0:0:0:0:
160,208,122510,1,8,0:0:0:0:
160,80,122598,1,0,0:0:0:0:
256,112,122686,1,8,0:0:0:0:
128,144,122773,1,0,0:0:0:0:
144,96,122860,1,0,0:0:0:0:
144,96,122947,1,0,0:0:0:0:
144,96,123034,1,0,0:0:0:0:
144,96,123122,1,0,0:0:0:0:
144,96,123209,1,0,0:0:0:0:
144,96,123296,1,0,0:0:0:0:
144,96,123383,1,0,0:0:0:0:
176,160,123471,1,2,0:0:0:0:
144,96,123558,1,2,0:0:0:0:
144,96,123645,1,2,0:0:0:0:
144,96,123732,1,2,0:0:0:0:
144,96,123819,1,2,0:0:0:0:
144,96,123907,1,2,0:0:0:0:
144,96,123994,1,2,0:0:0:0:
144,96,124081,1,2,0:0:0:0:
176,160,124168,1,0,0:0:0:0:
144,96,124255,1,0,0:0:0:0:
144,96,124343,1,0,0:0:0:0:
144,96,124430,1,0,0:0:0:0:
176,160,124517,1,2,0:0:0:0:
144,96,124604,1,2,0:0:0:0:
144,96,124691,1,2,0:0:0:0:
144,96,124779,1,2,0:0:0:0:
176,160,124866,1,0,0:0:0:0:
144,96,124953,1,0,0:0:0:0:
176,160,125040,1,2,0:0:0:0:
144,96,125128,1,2,0:0:0:0:
176,160,125215,1,0,0:0:0:0:
144,96,125302,1,2,0:0:0:0:
176,160,125389,1,0,0:0:0:0:
144,96,125476,1,0,0:0:0:0:
176,160,125564,1,2,0:0:0:0:
160,176,125680,1,2,0:0:0:0:
160,192,125796,1,0,0:0:0:0:
160,192,125912,1,2,0:0:0:0:
160,192,126029,1,0,0:0:0:0:
160,192,126145,1,0,0:0:0:0:
160,192,126261,1,2,0:0:0:0:
160,192,126378,1,2,0:0:0:0:
160,192,126494,1,0,0:0:0:0:
160,192,126610,1,2,0:0:0:0:
160,192,126726,1,0,0:0:0:0:
160,192,126843,1,0,0:0:0:0:
160,192,126959,1,2,0:0:0:0:
160,192,127075,1,2,0:0:0:0:
160,192,127191,1,0,0:0:0:0:
160,192,127308,1,2,0:0:0:0:
160,192,127424,1,0,0:0:0:0:
160,192,127540,1,0,0:0:0:0:
160,192,127657,1,2,0:0:0:0:
160,192,127773,1,0,0:0:0:0:
160,192,127889,1,0,0:0:0:0:
160,192,128005,1,2,0:0:0:0:
160,192,128122,1,2,0:0:0:0:
160,192,128238,1,2,0:0:0:0:
160,192,128354,1,0,0:0:0:0:
352,112,128529,1,2,0:0:0:0:
352,128,128703,1,0,0:0:0:0:
304,144,128878,1,2,0:0:0:0:
304,144,128965,1,0,0:0:0:0:
304,144,129052,1,2,0:0:0:0:
272,128,129110,1,0,0:0:0:0:
272,128,129168,1,0,0:0:0:0:
272,128,129226,1,2,0:0:0:0:
288,144,129314,1,0,0:0:0:0:
288,144,129401,1,2,0:0:0:0:
288,144,129488,1,0,0:0:0:0:
288,144,129575,1,2,0:0:0:0:
288,144,129662,1,2,0:0:0:0:
288,144,129750,1,2,0:0:0:0:
352,128,129866,1,0,0:0:0:0:
352,128,129982,1,0,0:0:0:0:
352,128,130098,1,2,0:0:0:0:
352,128,130215,1,0,0:0:0:0:
352,128,130331,1,2,0:0:0:0:
352,128,130447,1,2,0:0:0:0:
352,128,130564,1,0,0:0:0:0:
352,128,130680,1,2,0:0:0:0:
352,128,130796,1,2,0:0:0:0:
352,128,130912,1,2,0:0:0:0:
352,128,131029,1,0,0:0:0:0:
352,128,131145,1,6,0:0:0:0:
304,128,131319,1,0,0:0:0:0:
304,128,131494,1,2,0:0:0:0:
304,128,131581,1,2,0:0:0:0:
304,128,131668,1,2,0:0:0:0:
304,128,132017,1,0,0:0:0:0:
304,128,132191,1,2,0:0:0:0:
304,128,132279,1,0,0:0:0:0:
304,128,132366,1,2,0:0:0:0:
304,128,132715,1,0,0:0:0:0:
304,128,132802,1,2,0:0:0:0:
304,128,132889,1,0,0:0:0:0:
304,128,133064,1,2,0:0:0:0:
320,112,133412,1,2,0:0:0:0:
0,176,133500,1,2,0:0:0:0:
320,112,133587,1,0,0:0:0:0:
320,112,133761,1,6,0:0:0:0:
288,128,134110,1,2,0:0:0:0:
288,128,134284,1,2,0:0:0:0:
288,128,134459,1,4,0:0:0:0:
288,128,134808,1,0,0:0:0:0:
288,128,134982,1,2,0:0:0:0:
288,128,135157,1,4,0:0:0:0:
288,128,135505,1,2,0:0:0:0:
288,128,135680,1,0,0:0:0:0:
288,128,135854,1,6,0:0:0:0:
160,160,136203,1,2,0:0:0:0:
160,160,136378,1,2,0:0:0:0:
160,160,136552,1,0,0:0:0:0:
160,160,136639,1,0,0:0:0:0:
160,160,136726,1,0,0:0:0:0:
160,160,137075,1,2,0:0:0:0:
160,160,137162,1,2,0:0:0:0:
160,160,137250,1,0,0:0:0:0:
160,160,137337,1,0,0:0:0:0:
160,160,137424,1,2,0:0:0:0:
160,160,137511,1,0,0:0:0:0:
160,160,137598,1,0,0:0:0:0:
160,160,137686,1,0,0:0:0:0:
160,160,137773,1,2,0:0:0:0:
160,160,137860,1,0,0:0:0:0:
160,160,137947,1,0,0:0:0:0:
160,160,138034,1,0,0:0:0:0:
256,192,138122,12,0,138994,0:0:0:0:
144,128,139168,5,2,0:0:0:0:
160,160,139255,1,2,0:0:0:0:
160,160,139343,1,2,0:0:0:0:
160,160,139430,1,2,0:0:0:0:
160,160,139517,1,0,0:0:0:0:
160,192,139691,1,0,0:0:0:0:
160,192,139866,1,2,0:0:0:0:
160,112,139953,1,2,0:0:0:0:
160,192,140040,1,2,0:0:0:0:
160,192,140215,1,0,0:0:0:0:
160,192,140389,1,2,0:0:0:0:
176,80,140476,1,0,0:0:0:0:
160,192,140564,1,2,0:0:0:0:
160,192,140738,1,2,0:0:0:0:
160,192,140912,1,0,0:0:0:0:
160,192,141087,1,0,0:0:0:0:
160,192,141261,1,2,0:0:0:0:
192,64,141348,1,2,0:0:0:0:
160,192,141436,1,2,0:0:0:0:
160,192,141610,1,0,0:0:0:0:
160,192,141784,1,2,0:0:0:0:
192,64,141872,1,0,0:0:0:0:
160,192,141959,1,0,0:0:0:0:
160,192,142133,1,2,0:0:0:0:
160,192,142308,1,0,0:0:0:0:
160,192,142482,1,0,0:0:0:0:
160,192,142657,1,2,0:0:0:0:
192,64,142744,1,2,0:0:0:0:
160,192,142831,1,2,0:0:0:0:
160,192,143005,1,0,0:0:0:0:
160,192,143180,1,2,0:0:0:0:
192,64,143267,1,0,0:0:0:0:
160,192,143354,1,2,0:0:0:0:
160,192,143529,1,2,0:0:0:0:
368,112,143587,1,2,0:0:0:0:
368,112,143645,1,2,0:0:0:0:
160,192,143703,1,0,0:0:0:0:
160,192,143878,1,0,0:0:0:0:
320,128,144052,1,2,0:0:0:0:
208,96,144139,1,2,0:0:0:0:
320,128,144226,1,2,0:0:0:0:
320,128,144401,1,0,0:0:0:0:
320,128,144575,1,2,0:0:0:0:
192,96,144662,1,0,0:0:0:0:
320,128,144750,1,0,0:0:0:0:
320,128,144924,1,2,0:0:0:0:
320,128,145098,1,0,0:0:0:0:
320,128,145273,1,0,0:0:0:0:
64,176,145360,1,0,0:0:0:0:
320,128,145447,1,2,0:0:0:0:
256,160,145534,1,2,0:0:0:0:
320,128,145622,1,0,0:0:0:0:
256,160,145709,1,2,0:0:0:0:
320,128,145796,1,0,0:0:0:0:
256,160,145883,1,2,0:0:0:0:
320,128,145971,1,0,0:0:0:0:
256,160,146058,1,0,0:0:0:0:
320,128,146145,1,2,0:0:0:0:
320,128,146319,1,2,0:0:0:0:
256,160,146494,1,0,0:0:0:0:
256,160,146668,1,0,0:0:0:0:
240,144,146755,1,0,0:0:0:0:
256,160,146843,1,2,0:0:0:0:
256,160,146930,1,2,0:0:0:0:
256,160,147017,1,0,0:0:0:0:
176,176,147104,1,2,0:0:0:0:
256,160,147191,1,0,0:0:0:0:
176,192,147279,1,2,0:0:0:0:
256,160,147366,1,0,0:0:0:0:
256,160,147453,1,0,0:0:0:0:
256,160,147540,1,2,0:0:0:0:
256,160,147715,1,6,0:0:0:0:
128,160,148064,1,0,0:0:0:0:
128,160,148238,1,2,0:0:0:0:
128,160,148412,1,2,0:0:0:0:
128,160,148500,1,2,0:0:0:0:
128,160,148587,1,0,0:0:0:0:
256,80,148674,1,0,0:0:0:0:
128,160,148761,1,2,0:0:0:0:
192,112,148848,1,0,0:0:0:0:
128,160,148936,1,0,0:0:0:0:
128,160,149110,1,6,0:0:0:0:
128,160,149459,1,2,0:0:0:0:
128,160,149633,1,0,0:0:0:0:
192,192,149721,1,2,0:0:0:0:
80,128,149808,1,0,0:0:0:0:
128,160,149895,1,0,0:0:0:0:
192,192,149982,1,2,0:0:0:0:
128,160,150157,1,0,0:0:0:0:
192,192,150244,1,2,0:0:0:0:
128,160,150331,1,0,0:0:0:0:
128,160,150505,1,2,0:0:0:0:
128,160,150593,1,0,0:0:0:0:
128,160,150680,1,2,0:0:0:0:
192,192,150854,1,0,0:0:0:0:
192,192,150941,1,0,0:0:0:0:
144,192,151029,1,2,0:0:0:0:
192,192,151116,1,2,0:0:0:0:
192,192,151203,1,0,0:0:0:0:
144,192,151378,1,2,0:0:0:0:
144,192,151552,1,0,0:0:0:0:
192,192,151639,1,2,0:0:0:0:
144,192,151726,1,0,0:0:0:0:
144,192,151901,1,2,0:0:0:0:
144,192,152075,1,0,0:0:0:0:
192,192,152250,1,2,0:0:0:0:
192,192,152337,1,0,0:0:0:0:
144,192,152424,1,2,0:0:0:0:
192,192,152511,1,2,0:0:0:0:
192,192,152598,1,0,0:0:0:0:
144,192,152773,1,2,0:0:0:0:
144,192,152947,1,0,0:0:0:0:
192,176,153034,1,2,0:0:0:0:
144,192,153122,1,0,0:0:0:0:
144,192,153296,1,2,0:0:0:0:
144,192,153471,1,0,0:0:0:0:
192,176,153645,1,2,0:0:0:0:
144,192,153819,1,0,0:0:0:0:
192,176,153907,1,2,0:0:0:0:
192,176,153994,1,0,0:0:0:0:
144,192,154168,1,2,0:0:0:0:
192,176,154343,1,2,0:0:0:0:
192,176,154430,1,2,0:0:0:0:
144,192,154517,1,0,0:0:0:0:
144,192,154691,1,2,0:0:0:0:
144,192,154866,1,0,0:0:0:0:
192,176,155040,1,0,0:0:0:0:
144,192,155215,1,2,0:0:0:0:
192,176,155302,1,2,0:0:0:0:
192,176,155389,1,0,0:0:0:0:
144,192,155564,1,2,0:0:0:0:
192,176,155738,1,0,0:0:0:0:
192,176,155825,1,2,0:0:0:0:
144,192,155912,1,0,0:0:0:0:
192,176,156087,1,2,0:0:0:0:
144,192,156261,1,4,0:0:0:0:
144,192,156436,1,0,0:0:0:0:
144,192,156610,1,0,0:0:0:0:
144,192,156784,1,6,0:0:0:0:
144,192,157133,1,0,0:0:0:0:
144,192,157308,1,2,0:0:0:0:
144,192,157482,1,6,0:0:0:0:
144,192,157831,1,2,0:0:0:0:
144,192,158005,1,0,0:0:0:0:
144,192,158180,1,6,0:0:0:0:
144,192,158529,1,0,0:0:0:0:
144,192,158616,1,0,0:0:0:0:
144,192,158703,1,0,0:0:0:0:
144,192,158878,1,6,0:0:0:0:
144,192,159226,1,0,0:0:0:0:
144,192,159401,1,2,0:0:0:0:
144,192,159575,1,4,0:0:0:0:
144,192,159924,1,2,0:0:0:0:
144,192,160098,1,0,0:0:0:0:
144,192,160273,1,6,0:0:0:0:
144,192,160622,1,2,0:0:0:0:
144,192,160796,1,0,0:0:0:0:
144,192,160971,1,4,0:0:0:0:
144,192,161319,1,2,0:0:0:0:
144,192,161494,1,0,0:0:0:0:
144,192,161668,1,2,0:0:0:0:
144,192,161755,1,2,0:0:0:0:
144,192,161843,1,0,0:0:0:0:
144,192,161930,1,0,0:0:0:0:
144,192,162017,1,2,0:0:0:0:
144,192,162104,1,0,0:0:0:0:
144,192,162191,1,2,0:0:0:0:
144,192,162279,1,2,0:0:0:0:
144,192,162366,1,0,0:0:0:0:
144,192,162453,1,0,0:0:0:0:
144,192,162540,1,2,0:0:0:0:
144,192,162628,1,2,0:0:0:0:
144,192,162715,1,0,0:0:0:0:
144,192,162802,1,2,0:0:0:0:
144,192,162889,1,0,0:0:0:0:
144,192,162976,1,0,0:0:0:0:
144,192,163064,1,2,0:0:0:0:
144,192,163151,1,2,0:0:0:0:
144,192,163238,1,2,0:0:0:0:
144,192,163325,1,2,0:0:0:0:
144,192,163412,1,0,0:0:0:0:
144,192,163500,1,0,0:0:0:0:
144,192,163587,1,2,0:0:0:0:
144,192,163674,1,0,0:0:0:0:
144,192,163761,1,0,0:0:0:0:
144,192,163848,1,0,0:0:0:0:
144,192,163936,1,2,0:0:0:0:
144,192,164023,1,2,0:0:0:0:
144,192,164110,1,0,0:0:0:0:
144,192,164197,1,0,0:0:0:0:
144,192,164284,1,2,0:0:0:0:
304,176,164372,1,0,0:0:0:0:
144,192,164459,1,2,0:0:0:0:
368,256,164546,1,2,0:0:0:0:
144,192,164633,1,0,0:0:0:0:
176,128,164721,1,0,0:0:0:0:
192,96,164808,1,0,0:0:0:0:
128,160,164895,1,0,0:0:0:0:
192,96,164982,1,2,0:0:0:0:
192,96,165069,1,2,0:0:0:0:
192,96,165157,1,0,0:0:0:0:
192,96,165244,1,0,0:0:0:0:
192,96,165331,1,2,0:0:0:0:
192,96,165418,1,0,0:0:0:0:
192,96,165505,1,0,0:0:0:0:
192,96,165593,1,0,0:0:0:0:
192,96,165680,1,2,0:0:0:0:
192,96,165767,1,2,0:0:0:0:
192,96,165854,1,0,0:0:0:0:
192,96,165941,1,2,0:0:0:0:
192,96,166029,1,0,0:0:0:0:
192,96,166116,1,0,0:0:0:0:
192,96,166203,1,2,0:0:0:0:
192,96,166290,1,0,0:0:0:0:
192,96,166378,1,2,0:0:0:0:
192,96,166465,1,2,0:0:0:0:
192,96,166552,1,0,0:0:0:0:
192,96,166639,1,2,0:0:0:0:
192,96,166726,1,0,0:0:0:0:
192,96,166814,1,0,0:0:0:0:
192,96,166901,1,2,0:0:0:0:
192,96,166988,1,0,0:0:0:0:
192,96,167075,1,2,0:0:0:0:
192,96,167162,1,2,0:0:0:0:
192,96,167250,1,2,0:0:0:0:
224,208,167424,5,4,0:0:0:0:
224,208,167686,1,0,0:0:0:0:
224,208,167947,1,2,0:0:0:0:
224,224,168296,1,2,0:0:0:0:
224,224,168471,1,0,0:0:0:0:
224,224,168645,1,0,0:0:0:0:
224,224,168819,1,2,0:0:0:0:
224,224,168994,1,0,0:0:0:0:
240,224,169168,1,0,0:0:0:0:
240,224,169343,1,0,0:0:0:0:
240,224,169517,1,2,0:0:0:0:
240,224,169604,1,0,0:0:0:0:
240,224,169779,1,0,0:0:0:0:
240,224,170040,1,0,0:0:0:0:
224,208,170215,1,0,0:0:0:0:
224,208,170476,1,0,0:0:0:0:
224,208,170738,1,2,0:0:0:0:
224,224,171087,1,2,0:0:0:0:
224,224,171261,1,0,0:0:0:0:
224,224,171436,1,2,0:0:0:0:
208,176,171523,1,2,0:0:0:0:
224,224,171610,1,2,0:0:0:0:
224,224,171784,1,0,0:0:0:0:
240,224,171959,1,0,0:0:0:0:
240,224,172133,1,0,0:0:0:0:
240,224,172308,1,2,0:0:0:0:
240,224,172395,1,2,0:0:0:0:
240,224,172569,1,2,0:0:0:0:
240,224,172831,1,0,0:0:0:0:
224,208,173005,1,0,0:0:0:0:
224,208,173267,1,0,0:0:0:0:
224,208,173529,1,2,0:0:0:0:
224,224,173878,1,2,0:0:0:0:
224,224,174052,1,0,0:0:0:0:
224,224,174226,1,0,0:0:0:0:
224,224,174401,1,2,0:0:0:0:
224,224,174575,1,0,0:0:0:0:
240,224,174750,1,0,0:0:0:0:
240,224,174924,1,0,0:0:0:0:
240,224,175098,1,2,0:0:0:0:
240,224,175186,1,0,0:0:0:0:
240,224,175360,1,0,0:0:0:0:
240,224,175622,1,0,0:0:0:0:
32,192,175796,2,0,L|80:176,14,35
256,192,177191,8,0,178238,0:0:0:0:
224,208,178587,5,4,0:0:0:0:
224,208,178848,1,0,0:0:0:0:
224,208,179110,1,2,0:0:0:0:
224,224,179459,1,2,0:0:0:0:
224,224,179633,1,0,0:0:0:0:
224,224,179808,1,0,0:0:0:0:
224,224,179982,1,2,0:0:0:0:
224,224,180157,1,0,0:0:0:0:
240,224,180331,1,0,0:0:0:0:
240,224,180505,1,0,0:0:0:0:
240,224,180680,1,2,0:0:0:0:
240,224,180767,1,0,0:0:0:0:
240,224,180941,1,0,0:0:0:0:
240,224,181203,1,0,0:0:0:0:
224,208,181378,1,0,0:0:0:0:
224,208,181639,1,0,0:0:0:0:
224,208,181901,1,2,0:0:0:0:
224,224,182250,1,2,0:0:0:0:
224,224,182424,1,0,0:0:0:0:
224,224,182598,1,2,0:0:0:0:
208,176,182686,1,2,0:0:0:0:
224,224,182773,1,2,0:0:0:0:
224,224,182947,1,0,0:0:0:0:
240,224,183122,1,0,0:0:0:0:
240,224,183296,1,0,0:0:0:0:
240,224,183471,1,2,0:0:0:0:
240,224,183558,1,2,0:0:0:0:
240,224,183732,1,2,0:0:0:0:
240,224,183994,1,0,0:0:0:0:
224,208,184168,1,0,0:0:0:0:
224,208,184430,1,0,0:0:0:0:
224,208,184691,1,2,0:0:0:0:
224,224,185040,1,2,0:0:0:0:
224,224,185215,1,0,0:0:0:0:
224,224,185389,1,0,0:0:0:0:
224,224,185564,1,2,0:0:0:0:
224,224,185738,1,0,0:0:0:0:
240,224,185912,1,0,0:0:0:0:
240,224,186087,1,0,0:0:0:0:
240,224,186261,1,2,0:0:0:0:
240,224,186348,1,2,0:0:0:0:
240,224,186523,1,2,0:0:0:0:
240,224,186784,1,0,0:0:0:0:
32,192,186959,2,0,L|80:176,14,35
144,176,188354,1,2,0:0:0:0:
144,176,188703,1,0,0:0:0:0:
144,176,189052,1,0,0:0:0:0:
144,176,189226,1,0,0:0:0:0:
144,176,189401,1,2,0:0:0:0:
144,176,189488,1,2,0:0:0:0:
144,176,189575,1,0,0:0:0:0:
144,176,189662,1,0,0:0:0:0:
224,208,189750,1,0,0:0:0:0:
224,144,189924,1,0,0:0:0:0:
224,208,190011,1,2,0:0:0:0:
224,144,190098,1,0,0:0:0:0:
224,208,190273,1,2,0:0:0:0:
224,144,190447,1,0,0:0:0:0:
224,224,190622,1,2,0:0:0:0:
224,224,190796,1,0,0:0:0:0:
224,224,190971,1,2,0:0:0:0:
160,176,191058,1,0,0:0:0:0:
224,224,191145,1,2,0:0:0:0:
224,224,191319,1,0,0:0:0:0:
240,224,191494,1,2,0:0:0:0:
240,224,191668,1,0,0:0:0:0:
192,160,191755,1,0,0:0:0:0:
240,224,191843,1,2,0:0:0:0:
240,224,191930,1,2,0:0:0:0:
240,224,192104,1,2,0:0:0:0:
192,160,192191,1,0,0:0:0:0:
240,224,192366,1,2,0:0:0:0:
224,208,192540,1,0,0:0:0:0:
192,160,192715,1,2,0:0:0:0:
224,208,192802,1,0,0:0:0:0:
192,160,192889,1,0,0:0:0:0:
224,208,193064,1,2,0:0:0:0:
192,160,193238,1,0,0:0:0:0:
224,224,193412,1,2,0:0:0:0:
224,224,193587,1,0,0:0:0:0:
224,224,193761,1,2,0:0:0:0:
208,176,193848,1,2,0:0:0:0:
224,224,193936,1,2,0:0:0:0:
224,224,194110,1,0,0:0:0:0:
240,224,194284,1,0,0:0:0:0:
240,224,194459,1,2,0:0:0:0:
208,80,194546,1,0,0:0:0:0:
240,224,194633,1,2,0:0:0:0:
240,224,194721,1,2,0:0:0:0:
240,224,194895,1,2,0:0:0:0:
192,96,194982,1,0,0:0:0:0:
240,224,195157,1,2,0:0:0:0:
224,208,195331,1,0,0:0:0:0:
224,144,195505,1,0,0:0:0:0:
224,208,195593,1,2,0:0:0:0:
224,144,195680,1,0,0:0:0:0:
224,208,195854,1,2,0:0:0:0:
224,144,196029,1,0,0:0:0:0:
224,224,196203,1,2,0:0:0:0:
224,224,196378,1,0,0:0:0:0:
224,224,196552,1,2,0:0:0:0:
112,208,196639,1,0,0:0:0:0:
224,224,196726,1,2,0:0:0:0:
224,224,196901,1,0,0:0:0:0:
240,224,197075,1,2,0:0:0:0:
240,224,197250,1,0,0:0:0:0:
192,160,197337,1,0,0:0:0:0:
240,224,197424,1,2,0:0:0:0:
240,224,197511,1,2,0:0:0:0:
240,224,197686,1,2,0:0:0:0:
192,160,197773,1,0,0:0:0:0:
240,224,197947,1,2,0:0:0:0:
224,208,198122,1,0,0:0:0:0:
192,160,198296,1,2,0:0:0:0:
224,208,198383,1,2,0:0:0:0:
192,160,198471,1,0,0:0:0:0:
224,208,198645,1,2,0:0:0:0:
192,160,198819,1,0,0:0:0:0:
224,224,198994,1,2,0:0:0:0:
224,224,199168,1,0,0:0:0:0:
224,224,199343,1,0,0:0:0:0:
208,176,199430,1,0,0:0:0:0:
224,224,199517,1,2,0:0:0:0:
112,144,199604,1,2,0:0:0:0:
224,224,199691,1,2,0:0:0:0:
128,240,199779,1,2,0:0:0:0:
240,224,199866,1,0,0:0:0:0:
80,160,199953,1,0,0:0:0:0:
240,224,200040,1,0,0:0:0:0:
208,80,200128,1,0,0:0:0:0:
240,224,200215,1,2,0:0:0:0:
240,224,200302,1,2,0:0:0:0:
160,128,200389,1,0,0:0:0:0:
240,224,200476,1,2,0:0:0:0:
192,96,200564,1,2,0:0:0:0:
144,128,200651,1,0,0:0:0:0:
240,224,200738,1,2,0:0:0:0:
128,192,200825,1,0,0:0:0:0:
224,208,200912,1,2,0:0:0:0:
224,144,201087,1,0,0:0:0:0:
224,208,201174,1,2,0:0:0:0:
224,144,201261,1,0,0:0:0:0:
224,208,201436,1,2,0:0:0:0:
224,144,201610,1,0,0:0:0:0:
224,224,201784,1,2,0:0:0:0:
224,224,201959,1,0,0:0:0:0:
224,224,202133,1,2,0:0:0:0:
112,176,202221,1,0,0:0:0:0:
224,224,202308,1,2,0:0:0:0:
224,224,202482,1,0,0:0:0:0:
240,224,202657,1,2,0:0:0:0:
240,224,202831,1,0,0:0:0:0:
192,160,202918,1,0,0:0:0:0:
240,224,203005,1,2,0:0:0:0:
240,224,203093,1,2,0:0:0:0:
240,224,203267,1,2,0:0:0:0:
192,160,203354,1,0,0:0:0:0:
240,224,203529,1,2,0:0:0:0:
224,208,203703,1,0,0:0:0:0:
192,160,203878,1,2,0:0:0:0:
224,208,203965,1,2,0:0:0:0:
192,160,204052,1,0,0:0:0:0:
224,208,204226,1,2,0:0:0:0:
192,160,204401,1,0,0:0:0:0:
224,224,204575,1,2,0:0:0:0:
224,224,204750,1,0,0:0:0:0:
224,224,204924,1,0,0:0:0:0:
208,176,205011,1,0,0:0:0:0:
224,224,205098,1,2,0:0:0:0:
128,160,205186,1,2,0:0:0:0:
224,224,205273,1,0,0:0:0:0:
96,144,205360,1,2,0:0:0:0:
240,224,205447,1,0,0:0:0:0:
96,144,205534,1,0,0:0:0:0:
240,224,205622,1,2,0:0:0:0:
208,80,205709,1,0,0:0:0:0:
240,224,205796,1,2,0:0:0:0:
240,224,205883,1,2,0:0:0:0:
192,208,205971,1,0,0:0:0:0:
240,224,206058,1,2,0:0:0:0:
192,96,206145,1,2,0:0:0:0:
48,192,206232,1,0,0:0:0:0:
240,224,206319,1,2,0:0:0:0:
80,192,206407,1,0,0:0:0:0:
112,160,206494,1,0,0:0:0:0:
128,176,206843,1,2,0:0:0:0:
128,176,207191,1,0,0:0:0:0:
128,176,207453,1,2,0:0:0:0:
128,176,207540,1,0,0:0:0:0:
128,176,207715,1,0,0:0:0:0:
128,176,207889,1,0,0:0:0:0:
128,176,208238,1,2,0:0:0:0:
128,176,208587,1,0,0:0:0:0:
128,176,208761,1,2,0:0:0:0:
208,192,208819,1,2,0:0:0:0:
208,176,208878,1,2,0:0:0:0:
208,192,208936,1,0,0:0:0:0:
272,128,209110,1,6,0:0:0:0:
272,112,209284,1,0,0:0:0:0:
272,112,209459,1,0,0:0:0:0:
272,112,209633,1,2,0:0:0:0:
240,112,209808,1,0,0:0:0:0:
240,112,209895,1,0,0:0:0:0:
272,112,209982,1,2,0:0:0:0:
240,112,210157,1,0,0:0:0:0:
352,160,210244,1,0,0:0:0:0:
272,112,210331,1,2,0:0:0:0:
224,112,210505,1,0,0:0:0:0:
224,112,210593,1,0,0:0:0:0:
224,96,210680,1,2,0:0:0:0:
160,112,210767,1,2,0:0:0:0:
240,96,210854,1,0,0:0:0:0:
240,96,210941,1,0,0:0:0:0:
240,96,211029,1,2,0:0:0:0:
160,112,211116,1,2,0:0:0:0:
240,96,211203,1,0,0:0:0:0:
240,96,211290,1,0,0:0:0:0:
240,96,211378,1,2,0:0:0:0:
144,112,211465,1,2,0:0:0:0:
240,96,211552,1,0,0:0:0:0:
240,96,211639,1,0,0:0:0:0:
240,96,211726,1,2,0:0:0:0:
224,80,211814,1,2,0:0:0:0:
400,128,211901,1,0,0:0:0:0:
480,32,211959,1,2,0:0:0:0:
480,32,212017,1,2,0:0:0:0:
288,128,212075,1,0,0:0:0:0:
272,128,212162,1,2,0:0:0:0:
272,128,212250,1,0,0:0:0:0:
272,128,212337,1,0,0:0:0:0:
272,128,212424,1,2,0:0:0:0:
272,128,212511,1,2,0:0:0:0:
272,128,212598,1,0,0:0:0:0:
272,128,212686,1,2,0:0:0:0:
272,128,212773,1,0,0:0:0:0:
272,128,212860,1,2,0:0:0:0:
272,128,212947,1,0,0:0:0:0:
272,128,213034,1,0,0:0:0:0:
272,128,213122,1,2,0:0:0:0:
272,128,213209,1,2,0:0:0:0:
272,128,213296,1,0,0:0:0:0:
272,128,213383,1,2,0:0:0:0:
160,160,213471,1,0,0:0:0:0:
160,160,213558,1,2,0:0:0:0:
160,160,213645,1,0,0:0:0:0:
368,96,213703,1,2,0:0:0:0:
368,96,213761,1,2,0:0:0:0:
160,160,213819,1,0,0:0:0:0:
160,160,213907,1,2,0:0:0:0:
160,160,213994,1,0,0:0:0:0:
368,96,214052,1,0,0:0:0:0:
368,96,214110,1,0,0:0:0:0:
160,160,214168,1,2,0:0:0:0:
160,160,214255,1,2,0:0:0:0:
160,160,214343,1,0,0:0:0:0:
368,96,214401,1,2,0:0:0:0:
368,96,214459,1,2,0:0:0:0:
160,160,214517,1,0,0:0:0:0:
160,160,214604,1,2,0:0:0:0:
160,160,214691,1,0,0:0:0:0:
368,96,214750,1,0,0:0:0:0:
368,96,214808,1,0,0:0:0:0:
256,192,214866,8,0,219052,0:0:0:0:
288,192,219401,5,6,0:0:0:0:
288,192,219750,1,6,0:0:0:0:
288,192,220098,1,4,0:0:0:0:
288,192,220447,1,2,0:0:0:0:
240,128,220534,1,2,0:0:0:0:
240,128,220622,1,0,0:0:0:0:
240,128,220709,1,0,0:0:0:0:
208,192,220796,1,2,0:0:0:0:
208,192,220883,1,0,0:0:0:0:
208,192,220971,1,0,0:0:0:0:
208,192,221058,1,0,0:0:0:0:
208,192,221145,1,2,0:0:0:0:
208,192,221232,1,2,0:0:0:0:
208,192,221319,1,0,0:0:0:0:
208,192,221407,1,2,0:0:0:0:
208,192,221494,1,0,0:0:0:0:
208,192,221581,1,0,0:0:0:0:
208,192,221668,1,2,0:0:0:0:
208,192,221755,1,2,0:0:0:0:
208,192,221843,1,2,0:0:0:0:
208,192,222017,1,0,0:0:0:0:
224,160,222104,1,2,0:0:0:0:
208,192,222191,1,0,0:0:0:0:
208,192,222279,1,0,0:0:0:0:
224,176,222366,1,2,0:0:0:0:
224,176,222453,1,2,0:0:0:0:
224,176,222540,1,0,0:0:0:0:
224,176,222628,1,0,0:0:0:0:
224,176,222715,1,2,0:0:0:0:
224,176,222802,1,0,0:0:0:0:
224,176,222889,1,2,0:0:0:0:
224,176,222976,1,0,0:0:0:0:
224,176,223064,1,2,0:0:0:0:
224,176,223151,1,2,0:0:0:0:
224,176,223238,1,0,0:0:0:0:
48,128,223325,1,2,0:0:0:0:
208,144,223412,1,0,0:0:0:0:
208,144,223500,1,0,0:0:0:0:
208,144,223587,1,2,0:0:0:0:
208,144,223674,1,0,0:0:0:0:
208,144,223761,1,2,0:0:0:0:
208,144,223848,1,2,0:0:0:0:
208,144,223936,1,0,0:0:0:0:
208,144,224023,1,0,0:0:0:0:
208,144,224110,1,2,0:0:0:0:
208,144,224197,1,0,0:0:0:0:
208,128,224284,1,2,0:0:0:0:
224,144,224343,1,0,0:0:0:0:
224,144,224401,1,0,0:0:0:0:
224,144,224459,1,2,0:0:0:0:
384,112,224546,1,0,0:0:0:0:
384,112,224633,1,2,0:0:0:0:
160,176,224808,1,0,0:0:0:0:
176,176,224895,1,2,0:0:0:0:
176,176,225069,1,0,0:0:0:0:
176,176,225157,1,2,0:0:0:0:
144,96,225244,1,0,0:0:0:0:
176,176,225331,1,2,0:0:0:0:
176,176,225418,1,2,0:0:0:0:
176,176,225505,1,2,0:0:0:0:
160,144,225593,1,0,0:0:0:0:
144,144,225680,1,2,0:0:0:0:
128,128,225767,1,2,0:0:0:0:
144,144,225854,1,0,0:0:0:0:
240,160,225941,1,0,0:0:0:0:
144,160,226029,1,2,0:0:0:0:
208,144,226116,1,2,0:0:0:0:
208,144,226203,1,0,0:0:0:0:
208,144,226290,1,2,0:0:0:0:
208,144,226378,1,0,0:0:0:0:
208,144,226465,1,0,0:0:0:0:
208,144,226552,1,2,0:0:0:0:
208,144,226639,1,2,0:0:0:0:
208,144,226726,1,0,0:0:0:0:
320,144,226814,1,0,0:0:0:0:
208,144,226901,1,2,0:0:0:0:
240,144,226988,1,0,0:0:0:0:
208,144,227075,1,2,0:0:0:0:
208,144,227250,1,0,0:0:0:0:
208,160,227337,1,2,0:0:0:0:
208,144,227424,1,0,0:0:0:0:
208,144,227773,1,2,0:0:0:0:
208,144,227860,1,0,0:0:0:0:
208,144,227947,1,2,0:0:0:0:
208,144,228034,1,2,0:0:0:0:
208,144,228122,1,0,0:0:0:0:
160,160,228209,1,2,0:0:0:0:
208,144,228296,1,2,0:0:0:0:
192,128,228383,1,0,0:0:0:0:
208,144,228471,1,2,0:0:0:0:
208,144,228645,1,2,0:0:0:0:
144,128,228732,1,0,0:0:0:0:
272,176,228819,1,0,0:0:0:0:
320,128,228994,1,0,0:0:0:0:
48,208,229052,1,0,0:0:0:0:
48,208,229110,1,0,0:0:0:0:
288,144,229168,1,2,0:0:0:0:
400,96,229226,1,2,0:0:0:0:
400,96,229284,1,2,0:0:0:0:
400,96,229343,1,0,0:0:0:0:
96,112,229430,1,2,0:0:0:0:
96,112,229517,1,0,0:0:0:0:
288,144,229691,1,2,0:0:0:0:
208,176,229750,1,2,0:0:0:0:
208,176,229808,1,2,0:0:0:0:
208,160,229866,1,0,0:0:0:0:
208,176,229924,1,0,0:0:0:0:
208,176,229982,1,0,0:0:0:0:
160,96,230040,1,2,0:0:0:0:
80,272,230128,1,2,0:0:0:0:
80,272,230215,1,0,0:0:0:0:
288,144,230389,1,0,0:0:0:0:
208,224,230447,1,0,0:0:0:0:
208,224,230505,1,0,0:0:0:0:
288,144,230564,1,2,0:0:0:0:
224,96,230622,1,2,0:0:0:0:
224,96,230680,1,2,0:0:0:0:
32,192,230738,1,0,0:0:0:0:
192,224,230825,1,0,0:0:0:0:
336,160,230912,1,2,0:0:0:0:
272,192,231000,1,2,0:0:0:0:
272,192,231087,1,0,0:0:0:0:
272,192,231174,1,0,0:0:0:0:
272,192,231261,1,2,0:0:0:0:
272,192,231348,1,0,0:0:0:0:
272,192,231436,1,2,0:0:0:0:
272,192,231523,1,2,0:0:0:0:
272,192,231610,1,0,0:0:0:0:
128,160,231697,1,0,0:0:0:0:
208,192,231784,1,2,0:0:0:0:
208,192,231872,1,0,0:0:0:0:
208,192,231959,1,2,0:0:0:0:
208,192,232046,1,0,0:0:0:0:
208,192,232133,1,2,0:0:0:0:
208,192,232221,1,2,0:0:0:0:
208,192,232308,1,0,0:0:0:0:
208,192,232395,1,0,0:0:0:0:
208,192,232482,1,2,0:0:0:0:
208,192,232569,1,0,0:0:0:0:
208,192,232657,1,2,0:0:0:0:
208,192,232744,1,0,0:0:0:0:
208,192,232831,1,2,0:0:0:0:
208,192,232918,1,2,0:0:0:0:
208,192,233005,1,0,0:0:0:0:
208,192,233180,1,2,0:0:0:0:
336,96,233238,1,2,0:0:0:0:
336,96,233296,1,2,0:0:0:0:
208,192,233354,1,0,0:0:0:0:
208,192,233529,1,0,0:0:0:0:
304,112,233587,1,2,0:0:0:0:
304,112,233645,1,2,0:0:0:0:
208,192,233703,1,0,0:0:0:0:
208,192,233878,1,2,0:0:0:0:
304,112,233936,1,0,0:0:0:0:
304,112,233994,1,0,0:0:0:0:
208,192,234052,1,2,0:0:0:0:
208,192,234226,1,0,0:0:0:0:
304,112,234284,1,2,0:0:0:0:
304,112,234343,1,2,0:0:0:0:
208,192,234401,1,0,0:0:0:0:
208,192,234488,1,2,0:0:0:0:
208,192,234575,1,0,0:0:0:0:
208,192,234662,1,2,0:0:0:0:
208,192,234750,1,0,0:0:0:0:
208,192,234837,1,0,0:0:0:0:
208,192,234924,1,2,0:0:0:0:
208,192,235011,1,0,0:0:0:0:
208,192,235098,1,2,0:0:0:0:
208,192,235186,1,2,0:0:0:0:
208,192,235273,1,0,0:0:0:0:
208,192,235360,1,2,0:0:0:0:
208,192,235447,1,0,0:0:0:0:
208,192,235534,1,0,0:0:0:0:
208,192,235622,1,2,0:0:0:0:
208,192,235709,1,0,0:0:0:0:
288,128,235796,1,2,0:0:0:0:
176,160,235883,1,2,0:0:0:0:
208,192,235971,1,0,0:0:0:0:
320,128,236029,1,0,0:0:0:0:
320,128,236087,1,0,0:0:0:0:
320,128,236145,1,2,0:0:0:0:
240,208,236232,1,2,0:0:0:0:
240,208,236319,1,0,0:0:0:0:
96,208,236407,1,2,0:0:0:0:
128,224,236494,1,0,0:0:0:0:
128,208,236581,1,0,0:0:0:0:
208,64,236668,1,2,0:0:0:0:
320,128,236755,1,2,0:0:0:0:
320,128,236843,1,0,0:0:0:0:
320,128,236930,1,0,0:0:0:0:
320,128,237017,1,2,0:0:0:0:
112,192,237104,1,0,0:0:0:0:
320,128,237191,1,2,0:0:0:0:
256,160,237250,1,0,0:0:0:0:
256,160,237308,1,0,0:0:0:0:
256,160,237366,1,2,0:0:0:0:
256,160,237453,1,0,0:0:0:0:
256,160,237540,1,2,0:0:0:0:
256,160,237598,1,0,0:0:0:0:
256,160,237657,1,0,0:0:0:0:
256,160,237715,1,2,0:0:0:0:
256,160,237802,1,0,0:0:0:0:
256,160,237889,1,2,0:0:0:0:
256,160,237976,1,2,0:0:0:0:
256,160,238064,1,0,0:0:0:0:
256,160,238151,1,0,0:0:0:0:
256,160,238238,1,2,0:0:0:0:
256,160,238325,1,0,0:0:0:0:
256,160,238412,1,2,0:0:0:0:
256,160,238500,1,2,0:0:0:0:
256,160,238587,1,2,0:0:0:0:
176,112,238761,1,0,0:0:0:0:
176,112,238848,1,2,0:0:0:0:
176,112,239023,1,0,0:0:0:0:
176,96,239110,1,2,0:0:0:0:
384,80,239168,1,0,0:0:0:0:
400,96,239226,1,0,0:0:0:0:
176,112,239284,1,2,0:0:0:0:
176,112,239372,1,2,0:0:0:0:
176,112,239546,1,0,0:0:0:0:
176,112,239633,1,2,0:0:0:0:
176,208,239721,1,0,0:0:0:0:
176,112,239808,1,0,0:0:0:0:
176,112,239895,1,0,0:0:0:0:
176,112,239982,1,2,0:0:0:0:
192,160,240069,1,2,0:0:0:0:
192,160,240157,1,0,0:0:0:0:
192,160,240244,1,0,0:0:0:0:
192,160,240331,1,2,0:0:0:0:
192,160,240418,1,0,0:0:0:0:
192,160,240505,1,2,0:0:0:0:
192,160,240593,1,2,0:0:0:0:
192,160,240680,1,0,0:0:0:0:
192,160,240767,1,2,0:0:0:0:
192,160,240854,1,0,0:0:0:0:
192,160,240941,1,0,0:0:0:0:
192,160,241029,1,2,0:0:0:0:
192,160,241116,1,0,0:0:0:0:
192,160,241203,1,2,0:0:0:0:
192,160,241290,1,2,0:0:0:0:
192,160,241378,1,2,0:0:0:0:
384,176,241552,1,0,0:0:0:0:
384,96,241639,1,2,0:0:0:0:
384,96,241726,1,0,0:0:0:0:
288,80,241814,1,0,0:0:0:0:
224,176,241901,1,2,0:0:0:0:
224,176,241988,1,0,0:0:0:0:
224,176,242075,1,2,0:0:0:0:
224,176,242162,1,0,0:0:0:0:
224,176,242250,1,2,0:0:0:0:
224,176,242337,1,2,0:0:0:0:
224,176,242424,1,2,0:0:0:0:
224,176,242511,1,0,0:0:0:0:
224,176,242598,1,2,0:0:0:0:
224,80,242686,1,2,0:0:0:0:
224,176,242773,1,0,0:0:0:0:
192,128,242860,1,0,0:0:0:0:
192,128,242947,1,2,0:0:0:0:
192,128,243034,1,2,0:0:0:0:
192,128,243122,1,0,0:0:0:0:
192,128,243209,1,0,0:0:0:0:
192,128,243296,1,2,0:0:0:0:
192,128,243383,1,0,0:0:0:0:
192,128,243471,1,2,0:0:0:0:
192,128,243558,1,2,0:0:0:0:
192,128,243645,1,0,0:0:0:0:
192,128,243732,1,0,0:0:0:0:
192,128,243819,1,2,0:0:0:0:
288,160,243878,1,0,0:0:0:0:
288,160,243936,1,0,0:0:0:0:
288,160,243994,1,2,0:0:0:0:
208,176,244081,1,0,0:0:0:0:
320,144,244168,1,2,0:0:0:0:
240,192,244343,1,0,0:0:0:0:
240,192,244430,1,2,0:0:0:0:
240,192,244604,1,0,0:0:0:0:
240,192,244691,1,2,0:0:0:0:
96,128,244779,1,0,0:0:0:0:
240,192,244866,1,2,0:0:0:0:
176,112,244953,1,2,0:0:0:0:
176,112,245040,1,0,0:0:0:0:
96,128,245128,1,0,0:0:0:0:
176,112,245215,1,2,0:0:0:0:
96,128,245302,1,2,0:0:0:0:
176,112,245389,1,0,0:0:0:0:
176,112,245476,1,0,0:0:0:0:
176,112,245564,1,2,0:0:0:0:
160,96,245651,1,0,0:0:0:0:
160,96,245738,1,2,0:0:0:0:
160,96,245825,1,2,0:0:0:0:
160,96,245912,1,0,0:0:0:0:
160,96,246000,1,0,0:0:0:0:
160,96,246087,1,2,0:0:0:0:
160,96,246174,1,2,0:0:0:0:
160,96,246261,1,0,0:0:0:0:
48,96,246348,1,0,0:0:0:0:
160,96,246436,1,2,0:0:0:0:
160,96,246523,1,0,0:0:0:0:
160,96,246610,1,2,0:0:0:0:
256,304,246697,1,0,0:0:0:0:
160,96,246784,1,2,0:0:0:0:
224,224,246872,1,2,0:0:0:0:
160,96,246959,1,0,0:0:0:0:
256,96,247133,1,0,0:0:0:0:
256,128,247221,1,2,0:0:0:0:
256,128,247308,1,0,0:0:0:0:
400,80,247366,1,2,0:0:0:0:
400,96,247424,1,2,0:0:0:0:
400,96,247482,1,0,0:0:0:0:
64,128,247569,1,2,0:0:0:0:
304,128,247657,1,0,0:0:0:0:
304,128,247831,1,2,0:0:0:0:
304,128,248005,1,2,0:0:0:0:
320,144,248064,1,2,0:0:0:0:
320,144,248122,1,2,0:0:0:0:
320,144,248180,1,0,0:0:0:0:
320,160,248267,1,2,0:0:0:0:
208,144,248354,1,0,0:0:0:0:
320,128,248529,1,0,0:0:0:0:
288,144,248703,1,2,0:0:0:0:
144,176,248761,1,2,0:0:0:0:
144,176,248819,1,2,0:0:0:0:
144,224,248878,1,2,0:0:0:0:
144,224,249226,1,0,0:0:0:0:
288,144,249401,1,2,0:0:0:0:
208,80,249459,1,2,0:0:0:0:
208,80,249517,1,2,0:0:0:0:
176,192,249575,1,0,0:0:0:0:
176,176,249750,1,0,0:0:0:0:
336,160,249924,1,0,0:0:0:0:
288,144,250098,1,2,0:0:0:0:
208,96,250157,1,2,0:0:0:0:
208,80,250215,1,2,0:0:0:0:
288,144,250273,1,0,0:0:0:0:
176,176,250360,1,0,0:0:0:0:
336,160,250447,1,2,0:0:0:0:
272,192,250534,1,2,0:0:0:0:
272,192,250622,1,0,0:0:0:0:
272,192,250709,1,0,0:0:0:0:
272,192,250796,1,2,0:0:0:0:
272,192,250883,1,2,0:0:0:0:
272,192,250971,1,2,0:0:0:0:
272,192,251058,1,2,0:0:0:0:
272,192,251145,1,0,0:0:0:0:
128,160,251232,1,0,0:0:0:0:
208,192,251319,1,2,0:0:0:0:
208,192,251407,1,0,0:0:0:0:
208,192,251494,1,2,0:0:0:0:
208,192,251581,1,2,0:0:0:0:
208,192,251668,1,0,0:0:0:0:
208,192,251755,1,0,0:0:0:0:
208,192,251843,1,2,0:0:0:0:
208,192,251930,1,2,0:0:0:0:
208,192,252017,1,0,0:0:0:0:
208,192,252104,1,0,0:0:0:0:
208,192,252191,1,2,0:0:0:0:
208,192,252279,1,0,0:0:0:0:
208,192,252366,1,2,0:0:0:0:
208,192,252453,1,2,0:0:0:0:
208,192,252540,1,0,0:0:0:0:
208,192,252715,1,2,0:0:0:0:
336,96,252773,1,2,0:0:0:0:
336,96,252831,1,2,0:0:0:0:
208,192,252889,1,0,0:0:0:0:
208,192,253064,1,0,0:0:0:0:
304,112,253122,1,2,0:0:0:0:
304,112,253180,1,2,0:0:0:0:
208,192,253238,1,0,0:0:0:0:
208,192,253412,1,2,0:0:0:0:
304,112,253471,1,0,0:0:0:0:
304,112,253529,1,0,0:0:0:0:
208,192,253587,1,2,0:0:0:0:
208,192,253761,1,0,0:0:0:0:
304,112,253819,1,2,0:0:0:0:
304,112,253878,1,2,0:0:0:0:
208,192,253936,1,0,0:0:0:0:
208,192,254023,1,2,0:0:0:0:
208,192,254110,1,0,0:0:0:0:
208,192,254197,1,2,0:0:0:0:
208,192,254284,1,0,0:0:0:0:
208,192,254372,1,0,0:0:0:0:
208,192,254459,1,2,0:0:0:0:
208,192,254546,1,0,0:0:0:0:
208,192,254633,1,2,0:0:0:0:
208,192,254721,1,2,0:0:0:0:
208,192,254808,1,0,0:0:0:0:
208,192,254895,1,2,0:0:0:0:
208,192,254982,1,0,0:0:0:0:
208,192,255069,1,0,0:0:0:0:
208,192,255157,1,2,0:0:0:0:
208,192,255244,1,2,0:0:0:0:
288,128,255331,1,0,0:0:0:0:
192,160,255418,1,2,0:0:0:0:
208,192,255505,1,0,0:0:0:0:
320,128,255564,1,0,0:0:0:0:
320,128,255622,1,0,0:0:0:0:
320,128,255680,1,2,0:0:0:0:
320,128,255767,1,2,0:0:0:0:
320,128,255854,1,0,0:0:0:0:
48,224,255941,1,2,0:0:0:0:
208,192,256029,1,0,0:0:0:0:
208,128,256116,1,0,0:0:0:0:
208,64,256203,1,2,0:0:0:0:
320,128,256290,1,2,0:0:0:0:
320,128,256378,1,0,0:0:0:0:
320,128,256465,1,2,0:0:0:0:
320,128,256552,1,0,0:0:0:0:
16,192,256639,1,0,0:0:0:0:
320,128,256726,1,2,0:0:0:0:
256,160,256784,1,0,0:0:0:0:
256,160,256843,1,0,0:0:0:0:
256,160,256901,1,2,0:0:0:0:
256,160,256988,1,0,0:0:0:0:
256,160,257075,1,2,0:0:0:0:
256,160,257133,1,0,0:0:0:0:
256,160,257191,1,0,0:0:0:0:
256,160,257250,1,2,0:0:0:0:
256,160,257337,1,0,0:0:0:0:
256,160,257424,1,2,0:0:0:0:
256,160,257511,1,2,0:0:0:0:
256,160,257598,1,0,0:0:0:0:
256,160,257686,1,0,0:0:0:0:
256,160,257773,1,2,0:0:0:0:
256,160,257860,1,0,0:0:0:0:
256,160,257947,1,2,0:0:0:0:
256,160,258034,1,2,0:0:0:0:
256,160,258122,1,0,0:0:0:0:
240,176,258180,1,0,0:0:0:0:
240,176,258238,1,0,0:0:0:0:
240,176,258296,1,2,0:0:0:0:
240,176,258383,1,0,0:0:0:0:
240,176,258471,1,2,0:0:0:0:
240,176,258529,1,0,0:0:0:0:
240,176,258587,1,0,0:0:0:0:
240,176,258645,1,2,0:0:0:0:
240,176,258732,1,0,0:0:0:0:
112,128,258819,1,2,0:0:0:0:
208,208,258907,1,2,0:0:0:0:
208,208,258994,1,0,0:0:0:0:
208,208,259081,1,2,0:0:0:0:
208,208,259168,1,2,0:0:0:0:
208,208,259255,1,0,0:0:0:0:
208,208,259343,1,0,0:0:0:0:
208,208,259430,1,0,0:0:0:0:
320,128,259517,1,2,0:0:0:0:
256,160,259575,1,0,0:0:0:0:
256,160,259633,1,0,0:0:0:0:
256,160,259691,1,2,0:0:0:0:
256,160,259779,1,0,0:0:0:0:
256,160,259866,1,2,0:0:0:0:
256,160,259924,1,0,0:0:0:0:
256,160,259982,1,0,0:0:0:0:
256,160,260040,1,2,0:0:0:0:
256,160,260128,1,0,0:0:0:0:
256,160,260215,1,2,0:0:0:0:
256,160,260302,1,2,0:0:0:0:
256,160,260389,1,0,0:0:0:0:
256,160,260476,1,0,0:0:0:0:
256,160,260564,1,2,0:0:0:0:
256,160,260651,1,2,0:0:0:0:
256,160,260738,1,0,0:0:0:0:
256,160,260825,1,2,0:0:0:0:
256,160,260912,1,0,0:0:0:0:
240,176,260971,1,0,0:0:0:0:
240,176,261029,1,0,0:0:0:0:
240,176,261087,1,2,0:0:0:0:
240,176,261174,1,0,0:0:0:0:
240,176,261261,1,2,0:0:0:0:
240,176,261319,1,0,0:0:0:0:
240,176,261378,1,0,0:0:0:0:
240,176,261436,1,2,0:0:0:0:
240,176,261523,1,0,0:0:0:0:
112,128,261610,1,2,0:0:0:0:
208,208,261697,1,2,0:0:0:0:
208,208,261784,1,0,0:0:0:0:
208,208,261872,1,0,0:0:0:0:
208,208,261959,1,2,0:0:0:0:
208,208,262046,1,0,0:0:0:0:
208,208,262133,1,2,0:0:0:0:
208,208,262221,1,0,0:0:0:0:
320,128,262308,1,2,0:0:0:0:
256,160,262366,1,0,0:0:0:0:
256,160,262424,1,0,0:0:0:0:
256,160,262482,1,2,0:0:0:0:
256,160,262569,1,0,0:0:0:0:
256,160,262657,1,2,0:0:0:0:
256,160,262715,1,0,0:0:0:0:
256,160,262773,1,0,0:0:0:0:
256,160,262831,1,2,0:0:0:0:
256,160,262918,1,0,0:0:0:0:
256,160,263005,1,2,0:0:0:0:
256,160,263093,1,2,0:0:0:0:
256,160,263180,1,0,0:0:0:0:
256,160,263267,1,0,0:0:0:0:
256,160,263354,1,2,0:0:0:0:
256,160,263441,1,2,0:0:0:0:
256,160,263529,1,0,0:0:0:0:
256,160,263616,1,2,0:0:0:0:
256,160,263703,1,0,0:0:0:0:
240,176,263761,1,0,0:0:0:0:
240,176,263819,1,0,0:0:0:0:
240,176,263878,1,2,0:0:0:0:
240,176,263965,1,0,0:0:0:0:
240,176,264052,1,2,0:0:0:0:
240,176,264110,1,0,0:0:0:0:
240,176,264168,1,0,0:0:0:0:
240,176,264226,1,2,0:0:0:0:
240,176,264314,1,0,0:0:0:0:
112,128,264401,1,2,0:0:0:0:
208,208,264488,1,0,0:0:0:0:
208,208,264575,1,0,0:0:0:0:
208,208,264662,1,0,0:0:0:0:
208,208,264750,1,2,0:0:0:0:
208,208,264837,1,2,0:0:0:0:
208,208,264924,1,0,0:0:0:0:
208,208,265011,1,2,0:0:0:0:
208,208,265098,1,2,0:0:0:0:
192,176,265273,1,0,0:0:0:0:
160,176,265447,1,2,0:0:0:0:
192,176,265622,1,0,0:0:0:0:
176,176,265709,1,2,0:0:0:0:
160,208,265796,1,0,0:0:0:0:
144,224,265971,1,0,0:0:0:0:
144,224,266145,1,2,0:0:0:0:
144,80,266319,1,2,0:0:0:0:
144,80,266407,1,2,0:0:0:0:
240,192,266494,1,0,0:0:0:0:
192,128,266668,1,0,0:0:0:0:
240,192,266843,1,2,0:0:0:0:
192,128,267017,1,0,0:0:0:0:
192,128,267104,1,2,0:0:0:0:
240,192,267191,1,0,0:0:0:0:
240,192,267366,1,0,0:0:0:0:
240,192,267540,1,2,0:0:0:0:
224,288,267628,1,2,0:0:0:0:
176,288,267715,1,2,0:0:0:0:
240,192,267889,1,0,0:0:0:0:
192,128,268064,1,0,0:0:0:0:
240,192,268238,1,2,0:0:0:0:
192,128,268412,1,0,0:0:0:0:
192,128,268500,1,2,0:0:0:0:
240,192,268587,1,0,0:0:0:0:
240,192,268761,1,0,0:0:0:0:
240,192,268936,1,2,0:0:0:0:
256,160,269110,1,2,0:0:0:0:
256,160,269197,1,2,0:0:0:0:
256,240,269284,1,0,0:0:0:0:
256,240,269459,1,2,0:0:0:0:
144,144,269546,1,0,0:0:0:0:
256,240,269633,1,2,0:0:0:0:
224,256,269808,1,2,0:0:0:0:
144,112,269895,1,2,0:0:0:0:
256,240,269982,1,0,0:0:0:0:
160,288,270069,1,2,0:0:0:0:
160,288,270244,1,0,0:0:0:0:
176,224,270331,1,0,0:0:0:0:
176,224,270505,1,2,0:0:0:0:
176,224,270680,1,0,0:0:0:0:
96,144,270854,1,2,0:0:0:0:
112,176,271029,1,0,0:0:0:0:
96,144,271203,1,2,0:0:0:0:
80,144,271290,1,2,0:0:0:0:
112,192,271378,1,0,0:0:0:0:
240,160,271465,1,2,0:0:0:0:
112,192,271552,1,0,0:0:0:0:
112,192,271726,1,2,0:0:0:0:
144,160,271901,1,0,0:0:0:0:
256,128,271988,1,2,0:0:0:0:
112,192,272075,1,0,0:0:0:0:
96,192,272250,1,2,0:0:0:0:
96,192,272337,1,0,0:0:0:0:
272,240,272424,1,2,0:0:0:0:
272,240,272482,1,2,0:0:0:0:
272,240,272540,1,2,0:0:0:0:
288,256,272598,1,2,0:0:0:0:
304,144,272773,1,0,0:0:0:0:
304,144,272860,1,0,0:0:0:0:
304,144,272947,1,0,0:0:0:0:
304,144,273122,1,2,0:0:0:0:
304,144,273209,1,2,0:0:0:0:
304,144,273296,1,0,0:0:0:0:
304,144,273383,1,0,0:0:0:0:
304,144,273471,1,0,0:0:0:0:
320,192,273645,1,0,0:0:0:0:
320,192,273819,1,6,0:2:0:0:
320,192,274343,1,0,0:0:0:0:
320,192,274517,1,6,0:2:0:0:
320,192,275040,1,0,0:0:0:0:
320,192,275215,1,6,0:2:0:0:
320,160,275564,1,2,0:0:0:0:
320,160,275651,1,2,0:0:0:0:
320,160,275738,1,2,0:0:0:0:
320,160,275825,1,2,0:0:0:0:
320,160,275912,1,2,0:0:0:0:
320,160,276000,1,2,0:0:0:0:
320,160,276087,1,2,0:0:0:0:
320,160,276174,1,2,0:0:0:0:
320,160,276261,1,0,0:0:0:0:
208,144,276436,1,0,0:0:0:0:
192,256,276610,1,2,0:0:0:0:
208,144,276784,1,2,0:0:0:0:
192,144,276872,1,2,0:0:0:0:
176,256,276959,1,0,0:0:0:0:
208,144,277046,1,2,0:0:0:0:
176,256,277133,1,0,0:0:0:0:
176,256,277308,1,2,0:0:0:0:
208,144,277482,1,0,0:0:0:0:
224,176,277569,1,2,0:0:0:0:
176,256,277657,1,2,0:0:0:0:
208,144,277831,1,0,0:0:0:0:
240,176,277918,1,2,0:0:0:0:
336,144,278005,1,0,0:0:0:0:
208,144,278093,1,2,0:0:0:0:
336,144,278180,1,0,0:0:0:0:
192,192,278267,1,0,0:0:0:0:
336,144,278354,1,2,0:0:0:0:
336,144,278441,1,0,0:0:0:0:
336,144,278529,1,2,0:0:0:0:
304,112,278587,1,2,0:0:0:0:
304,128,278645,1,2,0:0:0:0:
304,128,278703,1,0,0:0:0:0:
288,144,278790,1,2,0:0:0:0:
464,144,278878,1,0,0:0:0:0:
384,112,278936,1,2,0:0:0:0:
384,112,278994,1,2,0:0:0:0:
384,112,279052,1,0,0:0:0:0:
208,176,279139,1,2,0:0:0:0:
208,176,279226,1,0,0:0:0:0:
208,176,279314,1,2,0:0:0:0:
208,176,279401,1,0,0:0:0:0:
208,176,279488,1,0,0:0:0:0:
208,176,279575,1,2,0:0:0:0:
208,176,279662,1,0,0:0:0:0:
208,176,279750,1,2,0:0:0:0:
208,176,279837,1,2,0:0:0:0:
208,176,279924,1,0,0:0:0:0:
208,176,280011,1,2,0:0:0:0:
208,176,280098,1,0,0:0:0:0:
208,176,280186,1,0,0:0:0:0:
208,176,280273,1,2,0:0:0:0:
208,176,280360,1,0,0:0:0:0:
336,176,280447,1,2,0:0:0:0:
336,192,280534,1,2,0:0:0:0:
320,192,280622,1,0,0:0:0:0:
192,240,280680,1,0,0:0:0:0:
192,240,280738,1,0,0:0:0:0:
192,240,280796,1,2,0:0:0:0:
320,144,280883,1,2,0:0:0:0:
320,144,280971,1,0,0:0:0:0:
320,144,281058,1,2,0:0:0:0:
352,240,281145,1,0,0:0:0:0:
352,240,281232,1,0,0:0:0:0:
352,240,281319,1,2,0:0:0:0:
80,192,281407,1,2,0:0:0:0:
240,192,281494,1,0,0:0:0:0:
240,192,281581,1,0,0:0:0:0:
240,192,281668,1,2,0:0:0:0:
240,192,281755,1,0,0:0:0:0:
320,128,281843,1,2,0:0:0:0:
256,160,281901,1,0,0:0:0:0:
256,160,281959,1,0,0:0:0:0:
256,160,282017,1,2,0:0:0:0:
256,160,282104,1,0,0:0:0:0:
256,160,282191,1,2,0:0:0:0:
256,160,282250,1,0,0:0:0:0:
256,160,282308,1,0,0:0:0:0:
256,160,282366,1,2,0:0:0:0:
256,160,282453,1,0,0:0:0:0:
256,160,282540,1,2,0:0:0:0:
256,160,282628,1,2,0:0:0:0:
256,160,282715,1,0,0:0:0:0:
256,160,282802,1,0,0:0:0:0:
256,160,282889,1,2,0:0:0:0:
256,160,282976,1,2,0:0:0:0:
256,160,283064,1,0,0:0:0:0:
256,160,283151,1,2,0:0:0:0:
256,160,283238,1,0,0:0:0:0:
240,176,283296,1,0,0:0:0:0:
240,176,283354,1,0,0:0:0:0:
240,176,283412,1,2,0:0:0:0:
240,176,283500,1,0,0:0:0:0:
240,176,283587,1,2,0:0:0:0:
240,176,283645,1,0,0:0:0:0:
240,176,283703,1,0,0:0:0:0:
240,176,283761,1,2,0:0:0:0:
240,176,283848,1,0,0:0:0:0:
112,128,283936,1,2,0:0:0:0:
208,208,284023,1,0,0:0:0:0:
208,208,284110,1,0,0:0:0:0:
208,208,284197,1,0,0:0:0:0:
208,208,284284,1,2,0:0:0:0:
208,208,284372,1,2,0:0:0:0:
208,208,284459,1,0,0:0:0:0:
208,208,284546,1,2,0:0:0:0:
208,208,284633,1,2,0:0:0:0:
128,224,284982,1,0,0:0:0:0:
128,224,285157,1,2,0:0:0:0:
128,224,285331,1,0,0:0:0:0:
64,192,285505,1,0,0:0:0:0:
128,224,285680,1,2,0:0:0:0:
128,224,286029,1,2,0:0:0:0:
128,224,286378,1,0,0:0:0:0:
128,224,286552,1,2,0:0:0:0:
128,224,286726,1,0,0:0:0:0:
208,128,286901,1,0,0:0:0:0:
128,224,287075,1,2,0:0:0:0:
128,224,287424,1,0,0:0:0:0:
128,224,287773,1,2,0:0:0:0:
128,224,287947,1,2,0:0:0:0:
128,224,288122,1,0,0:0:0:0:
192,128,288296,1,0,0:0:0:0:
128,224,288471,1,2,0:0:0:0:
144,224,288645,1,0,0:0:0:0:
128,224,288819,1,2,0:0:0:0:
128,224,289168,1,2,0:0:0:0:
128,224,289343,1,2,0:0:0:0:
192,32,289430,1,2,0:0:0:0:
128,224,289517,1,0,0:0:0:0:
112,160,289604,1,2,0:0:0:0:
192,128,289691,1,0,0:0:0:0:
176,112,289779,1,0,0:0:0:0:
128,224,289866,1,2,0:0:0:0:
112,160,289953,1,0,0:0:0:0:
192,128,290040,1,2,0:0:0:0:
112,160,290128,1,2,0:0:0:0:
128,224,290215,1,0,0:0:0:0:
208,224,290302,1,2,0:0:0:0:
160,128,290389,1,0,0:0:0:0:
256,208,290476,1,0,0:0:0:0:
160,144,290564,1,2,0:0:0:0:
160,144,290651,1,0,0:0:0:0:
192,112,290738,1,2,0:0:0:0:
192,112,290825,1,2,0:0:0:0:
160,144,290912,1,0,0:0:0:0:
192,112,291000,1,2,0:0:0:0:
192,112,291087,1,2,0:0:0:0:
160,144,291174,1,0,0:0:0:0:
192,112,291261,1,2,0:0:0:0:
192,112,291348,1,2,0:0:0:0:
160,144,291436,1,0,0:0:0:0:
192,112,291523,1,2,0:0:0:0:
192,112,291610,1,2,0:0:0:0:
160,144,291697,1,0,0:0:0:0:
192,112,291784,1,2,0:0:0:0:
192,112,291872,1,2,0:0:0:0:
160,144,291959,1,0,0:0:0:0:
192,112,292046,1,2,0:0:0:0:
192,112,292133,1,2,0:0:0:0:
160,144,292221,1,0,0:0:0:0:
192,112,292308,1,2,0:0:0:0:
192,112,292395,1,2,0:0:0:0:
160,144,292482,1,0,0:0:0:0:
160,144,292569,1,0,0:0:0:0:
128,208,292657,1,2,0:0:0:0:
288,208,292715,1,2,0:0:0:0:
288,208,292773,1,2,0:0:0:0:
288,208,292831,1,0,0:0:0:0:
256,160,293180,1,0,0:0:0:0:
256,160,293354,1,2,0:0:0:0:
256,160,293529,1,0,0:0:0:0:
256,160,293616,1,2,0:0:0:0:
256,160,293703,1,0,0:0:0:0:
256,160,293878,1,0,0:0:0:0:
256,160,294052,1,2,0:0:0:0:
256,160,294226,1,0,0:0:0:0:
176,96,294314,1,2,0:0:0:0:
256,160,294401,1,0,0:0:0:0:
256,160,294575,1,0,0:0:0:0:
256,160,294750,1,2,0:0:0:0:
256,160,294924,1,0,0:0:0:0:
176,112,295011,1,2,0:0:0:0:
256,160,295098,1,0,0:0:0:0:
256,160,295273,1,0,0:0:0:0:
256,160,295447,1,2,0:0:0:0:
96,160,295622,1,0,0:0:0:0:
96,160,295709,1,2,0:0:0:0:
96,160,295796,1,0,0:0:0:0:
96,160,295883,1,0,0:0:0:0:
96,160,295971,1,2,0:0:0:0:
96,160,296058,1,0,0:0:0:0:
96,160,296145,1,2,0:0:0:0:
96,160,296232,1,2,0:0:0:0:
96,160,296319,1,0,0:0:0:0:
96,160,296407,1,2,0:0:0:0:
96,160,296494,1,0,0:0:0:0:
96,160,296581,1,0,0:0:0:0:
96,160,296668,1,2,0:0:0:0:
96,160,296755,1,0,0:0:0:0:
96,160,296843,1,2,0:0:0:0:
96,160,296930,1,2,0:0:0:0:
96,160,297017,1,0,0:0:0:0:
96,160,297104,1,2,0:0:0:0:
96,160,297191,1,0,0:0:0:0:
128,160,297279,1,0,0:0:0:0:
128,160,297366,1,2,0:0:0:0:
288,176,297424,1,2,0:0:0:0:
288,176,297482,1,2,0:0:0:0:
128,160,297540,1,0,0:0:0:0:
128,160,297628,1,0,0:0:0:0:
128,160,297715,1,2,0:0:0:0:
288,176,297773,1,2,0:0:0:0:
288,176,297831,1,2,0:0:0:0:
128,160,297889,1,0,0:0:0:0:
128,160,297976,1,0,0:0:0:0:
128,160,298064,1,2,0:0:0:0:
288,176,298122,1,2,0:0:0:0:
288,176,298180,1,2,0:0:0:0:
128,160,298238,1,0,0:0:0:0:
128,160,298325,1,0,0:0:0:0:
128,160,298412,1,0,0:0:0:0:
128,176,298500,1,0,0:0:0:0:
256,192,298936,8,0,302424,0:0:0:0:
224,240,302773,5,4,0:0:0:0:
