osu file format v14

[General]
AudioFilename: HAELEQUIN (Extended ver.).mp3
AudioLeadIn: 0
PreviewTime: 219391
Countdown: 0
SampleSet: Soft
StackLeniency: 0.7
Mode: 0
LetterboxInBreaks: 0
WidescreenStoryboard: 0

[Editor]
Bookmarks: 297182
DistanceSpacing: 0.3
BeatDivisor: 4
GridSize: 4
TimelineZoom: 3.499998

[Metadata]
Title:HAELEQUIN (Extended ver.)
TitleUnicode:HAELEQUIN (Extended ver.)
Artist:orangentle / Yu_Asahina
ArtistUnicode:orangentle / Yu_Asahina
Creator:[ -Scarlet- ]
Version:the faith of truth
Source:BMS
Tags:sound voltex II SDVX bof2012 HAELEQ∩INZ HAELEQUINZ C87 THE OF FIGHTERS 2012 EIN NEUER HEILINGER KRIEG Dissociative Identity Disorder Memoirs
BeatmapID:866727
BeatmapSetID:398614

[Difficulty]
HPDrainRate:6
CircleSize:4
OverallDifficulty:8.5
ApproachRate:9.3
SliderMultiplier:1.9
SliderTickRate:1

[Events]
//Background and Video events
0,0,"Butterflyy.jpg",0,0
//Break Periods
//Storyboard Layer 0 (Background)
//Storyboard Layer 1 (Fail)
//Storyboard Layer 2 (Pass)
//Storyboard Layer 3 (Foreground)
//Storyboard Sound Samples

[TimingPoints]
-27,348.837209302326,4,2,1,50,1,0
-27,-133.333333333333,4,2,1,50,0,0
12531,-100,4,2,1,50,0,0
17414,-66.6666666666667,4,2,1,50,0,0
17763,-100,4,2,1,50,0,0
20902,-100,4,2,1,70,0,0
25786,-90.9090909090909,4,2,1,70,0,0
26484,-76.9230769230769,4,2,1,80,0,0
32066,-83.3333333333333,4,2,1,80,0,0
39042,-100,4,2,1,70,0,0
39391,-117.647058823529,4,2,1,70,0,0
68345,-83.3333333333333,4,1,1,70,0,0
69042,-100,4,2,1,80,0,0
75321,-66.6666666666667,4,2,1,80,0,0
75583,-100,4,2,1,80,0,0
75845,-83.3333333333333,4,2,1,80,0,0
78112,-100,4,2,1,80,0,0
83693,-66.6666666666667,4,2,1,80,0,0
85089,-100,4,2,1,80,0,0
89624,-66.6666666666667,4,2,1,80,0,0
89973,-100,4,2,1,80,0,0
90321,-66.6666666666667,4,2,1,80,0,0
90670,-100,4,2,1,80,0,0
91717,-100,4,2,1,70,0,0
94856,-83.3333333333333,4,2,1,80,0,0
96251,-100,4,2,1,80,0,0
96252,-66.6666666666667,4,2,1,80,0,0
97647,-100,4,2,1,80,0,0
125554,-83.3333333333333,4,2,1,80,0,0
126484,-90.9090909090909,4,2,1,80,0,0
126833,-100,4,2,1,80,0,0
127182,-111.111111111111,4,2,1,80,0,0
127531,-125,4,2,1,80,0,0
127879,-142.857142857143,4,2,1,80,0,0
128228,-166.666666666667,4,2,1,80,0,0
128344,-100,4,2,1,80,0,0
133752,-71.4285714285714,4,2,1,80,0,0
134449,-66.6666666666667,4,2,1,80,0,0
135147,-62.5,4,2,1,80,0,0
135845,-58.8235294117647,4,2,1,80,0,0
136717,-142.857142857143,4,2,1,80,0,0
137066,-100,4,2,1,70,0,0
147705,-66.6666666666667,4,2,1,70,0,0
148228,-100,4,2,1,70,0,0
164973,-100,4,2,1,80,0,0
166717,-83.3333333333333,4,2,1,80,0,0
167414,-66.6666666666667,4,2,1,80,0,0
167763,-100,4,2,1,80,0,0
169682,-66.6666666666667,4,2,1,80,0,0
170031,-100,4,2,1,80,0,0
172298,-66.6666666666667,4,2,1,80,0,0
172996,-100,4,2,1,80,0,0
178053,-55.5555555555556,4,2,1,80,0,0
179100,-100,4,2,1,80,0,0
180844,-83.3333333333333,4,2,1,80,0,0
181368,-66.6666666666667,4,2,1,80,0,0
181717,-100,4,2,1,80,0,0
183461,-66.6666666666667,4,2,1,80,0,0
183984,-100,4,2,1,80,0,0
188344,-125,4,2,1,80,0,0
189042,-100,4,2,1,80,0,0
194711,-66.6666666666667,4,2,1,80,0,0
195321,-100,4,2,1,80,0,0
200903,-66.6666666666667,4,2,1,80,0,0
201426,-100,4,2,1,80,0,0
202996,-66.6666666666667,4,2,1,80,0,0
203693,-100,4,2,1,80,0,0
207879,-66.6666666666667,4,2,1,80,0,0
208228,-100,4,2,1,80,0,0
208926,-66.6666666666667,4,2,1,80,0,0
209275,-100,4,2,1,80,0,0
209624,-95.2380952380952,4,2,1,80,0,0
209973,-90.9090909090909,4,2,1,80,0,0
210321,-86.9565217391304,4,2,1,80,0,0
210670,-83.3333333333333,4,2,1,80,0,0
211019,-80,4,2,1,80,0,0
211367,-76.9230769230769,4,2,1,80,0,0
212065,-66.6666666666667,4,1,1,80,0,0
212414,-62.5,4,1,1,80,0,0
212763,-58.8235294117647,4,1,1,80,0,0
213112,-55.5555555555556,4,1,1,80,0,0
213810,-54.054054054054,4,1,1,80,0,0
214159,-51.2820512820513,4,1,1,80,0,0
214507,-50,4,1,1,80,0,0
214856,-100,4,1,1,90,0,0
217996,-66.6666666666667,4,2,1,80,0,0
218345,-100,4,2,1,80,0,0
218693,-76.9230769230769,4,2,1,80,0,0
219042,-66.6666666666667,4,2,1,100,0,0
220438,-83.3333333333333,4,2,1,90,0,1
222531,-76.9230769230769,4,2,1,90,0,1
223926,-83.3333333333333,4,2,1,90,0,1
224624,-76.9230769230769,4,2,1,90,0,1
225321,-100,4,2,1,90,0,1
225496,-111.111111111111,4,2,1,90,0,1
225670,-125,4,2,1,90,0,1
225845,-142.857142857143,4,2,1,90,0,1
228112,-100,4,2,1,90,0,1
229159,-83.3333333333333,4,2,1,90,0,1
229333,-71.4285714285714,4,2,1,90,0,1
229682,-100,4,2,1,90,0,1
229856,-83.3333333333333,4,2,1,90,0,1
230031,-71.4285714285714,4,2,1,90,0,1
230379,-100,4,2,1,90,0,1
230554,-83.3333333333333,4,2,1,90,0,1
230728,-71.4285714285714,4,2,1,90,0,1
231600,-100,4,2,1,90,0,1
236833,-83.3333333333333,4,2,1,90,0,1
237007,-71.4285714285714,4,2,1,90,0,1
237879,-100,4,2,1,90,0,1
239973,-83.3333333333333,4,2,1,90,0,1
242066,-76.9230769230769,4,2,1,90,0,1
242414,-71.4285714285714,4,2,1,90,0,1
242763,-100,4,2,1,90,0,1
244159,-71.4285714285714,4,2,1,90,0,1
244856,-100,4,2,1,90,0,1
245031,-111.111111111111,4,2,1,90,0,1
245205,-125,4,2,1,90,0,1
245379,-142.857142857143,4,2,1,90,0,1
245554,-100,4,2,1,90,0,1
256368,-83.3333333333333,4,2,1,90,0,1
256542,-71.4285714285714,4,2,1,90,0,1
257414,-100,4,2,1,90,0,1
265089,-100,4,2,1,80,0,0
273112,-80,4,2,1,80,0,0
273460,-100,4,2,1,80,0,0
273809,-66.6666666666667,4,2,1,80,0,0
276252,-100,4,2,1,80,0,0
283228,-117.647058823529,4,2,1,80,0,0
283752,-83.3333333333333,4,2,1,80,0,0
284624,-100,4,2,1,80,0,0
290205,-66.6666666666667,4,2,1,80,0,0
290641,-55.5555555555556,4,2,1,80,0,0
290903,-62.5,4,2,1,80,0,0
291426,-55.5555555555556,4,2,1,80,0,0
291688,-62.5,4,2,1,80,0,0
292211,-55.5555555555556,4,2,1,80,0,0
292647,-100,4,2,1,80,0,0
293170,-83.3333333333333,4,2,1,90,0,0
302763,-100,4,2,1,20,0,0

[Colours]
Combo1 : 192,192,192
Combo2 : 128,0,0

[HitObjects]
216,96,670,6,0,P|156:56|80:65,1,142.500005435944
128,164,1193,1,0,0:0:0:0:
304,48,1368,5,4,1:0:0:0:
356,44,1455,1,0,0:0:0:0:
408,60,1542,1,2,0:0:0:0:
444,100,1629,1,0,0:0:0:0:
452,152,1717,2,0,L|444:216,1,35.625001358986,0|0,1:0|0:0,0:0:0:0:
500,264,1891,2,0,L|492:316,1,35.625001358986,2|0,0:0|0:0,0:0:0:0:
400,284,2066,5,0,0:0:0:0:
372,292,2153,1,0,0:0:0:0:
348,304,2240,1,2,0:0:0:0:
328,324,2327,1,0,0:0:0:0:
308,360,2414,5,0,1:0:0:0:
268,332,2502,1,0,0:0:0:0:
244,288,2589,1,2,0:0:0:0:
240,240,2676,1,0,0:0:0:0:
252,212,2763,5,0,0:0:0:0:
228,224,2850,1,0,0:0:0:0:
200,228,2938,1,2,0:0:0:0:
172,224,3025,1,0,0:0:0:0:
132,244,3112,5,0,1:0:0:0:
92,232,3199,1,0,0:0:0:0:
64,200,3286,1,2,0:0:0:0:
60,156,3374,1,0,0:0:0:0:
76,128,3461,5,0,0:0:0:0:
104,128,3548,1,0,0:0:0:0:
132,120,3635,1,2,0:0:0:0:
156,100,3723,1,0,0:0:0:0:
168,76,3810,2,0,L|232:60,3,35.625001358986,0|0|2|0,1:0|0:0|0:0|0:0,0:0:0:0:
272,116,4159,5,0,0:0:0:0:
296,128,4246,1,0,0:0:0:0:
324,132,4333,1,2,0:0:0:0:
352,132,4420,1,0,0:0:0:0:
380,124,4507,2,0,L|392:64,3,35.625001358986,0|0|2|0,1:0|0:0|0:0|0:0,0:0:0:0:
508,208,4856,5,0,0:0:0:0:
484,196,4943,1,0,0:0:0:0:
456,192,5030,1,2,0:0:0:0:
428,192,5117,1,0,0:0:0:0:
400,200,5205,2,0,L|388:264,3,35.625001358986,0|0|2|0,1:0|0:0|0:0|0:0,0:0:0:0:
304,264,5554,5,0,0:0:0:0:
308,292,5641,1,0,0:0:0:0:
320,316,5728,1,2,0:0:0:0:
340,336,5816,1,0,0:0:0:0:
364,348,5903,5,0,1:0:0:0:
400,324,5990,1,0,0:0:0:0:
420,284,6077,1,2,0:0:0:0:
420,240,6164,1,0,0:0:0:0:
400,200,6252,5,0,0:0:0:0:
388,176,6339,1,0,0:0:0:0:
384,148,6426,1,2,0:0:0:0:
392,120,6513,1,0,0:0:0:0:
408,96,6600,2,0,L|472:92,3,35.625001358986,0|0|2|0,1:0|0:0|0:0|0:0,0:0:0:0:
316,4,6949,5,0,0:0:0:0:
328,28,7036,1,0,0:0:0:0:
332,56,7123,1,2,0:0:0:0:
324,84,7210,1,0,0:0:0:0:
308,108,7298,2,0,L|244:112,3,35.625001358986,0|0|2|0,1:0|0:0|0:0|0:0,0:0:0:0:
240,188,7647,5,0,0:0:0:0:
228,212,7734,1,0,0:0:0:0:
224,240,7821,1,2,0:0:0:0:
228,268,7909,1,0,0:0:0:0:
240,292,7996,5,0,1:0:0:0:
284,268,8083,1,0,0:0:0:0:
332,256,8170,1,2,0:0:0:0:
380,264,8257,1,0,0:0:0:0:
420,292,8345,5,0,0:0:0:0:
408,264,8432,1,0,0:0:0:0:
404,236,8519,1,2,0:0:0:0:
412,208,8606,1,0,0:0:0:0:
432,188,8693,5,0,1:0:0:0:
460,232,8781,1,0,0:0:0:0:
464,280,8868,1,2,0:0:0:0:
448,328,8955,1,0,0:0:0:0:
408,356,9042,5,0,0:0:0:0:
384,340,9129,1,0,0:0:0:0:
356,332,9217,1,2,0:0:0:0:
328,328,9304,1,0,0:0:0:0:
300,328,9391,5,0,1:0:0:0:
256,352,9478,1,0,0:0:0:0:
208,360,9566,1,2,0:0:0:0:
160,344,9653,1,0,0:0:0:0:
120,312,9740,5,4,0:0:0:0:
256,192,9827,12,0,11833,0:0:0:0:
164,220,12182,5,8,0:0:0:0:
356,160,12356,1,0,1:0:0:0:
228,296,12531,5,4,1:0:0:0:
184,316,12618,1,0,0:0:0:0:
136,312,12705,1,2,0:0:0:0:
96,284,12792,1,0,0:0:0:0:
68,244,12880,2,0,L|80:172,1,47.5,8|0,0:0|0:0,0:0:0:0:
152,124,13054,2,0,L|140:72,1,47.5,2|0,0:0|0:0,0:0:0:0:
264,140,13228,5,0,1:0:0:0:
304,164,13315,1,0,0:0:0:0:
356,160,13402,1,2,0:0:0:0:
400,140,13489,1,0,0:0:0:0:
432,104,13577,2,0,L|444:32,1,47.5,8|0,0:0|0:0,0:0:0:0:
340,12,13751,2,0,L|333:67,1,47.5,2|0,0:0|0:0,0:0:0:0:
416,224,13926,5,0,1:0:0:0:
428,268,14013,1,0,0:0:0:0:
420,316,14100,1,2,0:0:0:0:
388,352,14188,1,0,0:0:0:0:
344,368,14275,2,0,L|260:352,1,47.5,8|0,0:0|0:0,0:0:0:0:
240,264,14449,2,0,L|184:276,1,47.5,2|0,0:0|0:0,0:0:0:0:
140,360,14624,5,0,1:0:0:0:
108,328,14711,1,0,0:0:0:0:
92,284,14798,1,2,0:0:0:0:
100,236,14886,1,0,0:0:0:0:
124,196,14973,2,0,L|92:136,1,47.5,8|0,0:0|0:0,0:0:0:0:
152,72,15147,2,0,L|156:24,1,47.5,2|0,0:0|0:0,0:0:0:0:
236,172,15321,5,0,1:0:0:0:
284,184,15409,1,0,0:0:0:0:
320,212,15496,1,2,0:0:0:0:
336,256,15583,1,0,0:0:0:0:
328,304,15670,2,0,L|400:328,1,47.5,8|0,0:0|0:0,0:0:0:0:
472,196,15845,2,0,L|387:165,1,47.5,2|0,0:0|0:0,0:0:0:0:
236,272,16019,5,0,1:0:0:0:
192,260,16106,1,0,0:0:0:0:
144,264,16193,1,2,0:0:0:0:
100,284,16281,1,0,0:0:0:0:
68,320,16368,2,0,L|84:380,1,47.5,8|0,0:0|0:0,0:0:0:0:
232,360,16542,2,0,L|235:312,1,47.5,2|0,0:0|0:0,0:0:0:0:
336,256,16717,5,0,1:0:0:0:
352,212,16804,1,0,0:0:0:0:
352,164,16891,1,2,0:0:0:0:
328,124,16978,1,0,0:0:0:0:
288,100,17066,2,0,L|224:120,1,47.5,8|0,0:0|0:0,0:0:0:0:
144,60,17240,2,0,L|64:40,1,47.5,2|0,0:0|0:0,0:0:0:0:
3,72,17414,6,0,B|145:60,1,142.500005435944,0|0,1:0|0:0,0:0:0:0:
216,96,17676,1,0,1:0:0:0:
242,113,17763,2,0,L|228:168,1,47.5,8|0,1:2|0:0,0:0:0:0:
104,212,17938,2,0,L|88:152,1,47.5,0|0,1:0|0:0,0:0:0:0:
128,320,18112,5,0,1:0:0:0:
144,308,18199,1,0,0:0:0:0:
164,304,18286,1,2,0:0:0:0:
184,308,18374,1,0,0:0:0:0:
200,316,18461,5,8,0:0:0:0:
252,344,18548,1,0,0:0:0:0:
308,344,18635,1,2,0:0:0:0:
364,324,18723,1,0,0:0:0:0:
408,288,18810,5,0,1:0:0:0:
400,304,18897,1,0,0:0:0:0:
400,324,18984,1,2,0:0:0:0:
404,344,19071,1,0,0:0:0:0:
412,360,19159,5,8,0:0:0:0:
452,320,19246,1,0,0:0:0:0:
468,264,19333,1,2,0:0:0:0:
464,208,19420,1,0,0:0:0:0:
444,156,19507,5,0,1:0:0:0:
428,164,19595,1,0,0:0:0:0:
408,164,19682,1,2,0:0:0:0:
388,160,19769,1,0,0:0:0:0:
372,152,19856,5,8,0:0:0:0:
344,124,19943,1,0,0:0:0:0:
308,108,20031,1,2,0:0:0:0:
272,108,20118,1,0,0:0:0:0:
236,124,20205,5,0,1:0:0:0:
220,132,20293,1,0,0:0:0:0:
200,132,20380,1,2,0:0:0:0:
180,128,20467,1,0,0:0:0:0:
164,120,20554,5,8,0:0:0:0:
136,92,20641,1,0,0:0:0:0:
100,76,20729,1,2,0:0:0:0:
64,76,20816,1,0,0:0:0:0:
36,104,20903,5,0,1:0:0:0:
52,128,20990,1,0,0:0:0:0:
56,156,21077,1,2,0:0:0:0:
48,184,21165,1,0,0:0:0:0:
32,208,21252,2,0,L|-48:208,3,47.5,8|0|2|0,0:0|0:0|0:0|0:0,0:0:0:0:
96,344,21600,5,0,1:0:0:0:
80,320,21687,1,0,0:0:0:0:
76,292,21774,1,2,0:0:0:0:
84,264,21862,1,0,0:0:0:0:
100,240,21949,2,0,L|180:240,3,47.5,8|0|2|0,0:0|0:0|0:0|0:0,0:0:0:0:
208,160,22298,53,4,1:0:0:0:
216,144,22386,1,0,0:0:0:0:
220,124,22473,1,0,0:0:0:0:
220,104,22560,1,0,0:0:0:0:
216,84,22647,1,0,0:0:0:0:
208,68,22734,1,0,0:0:0:0:
196,56,22821,1,0,0:0:0:0:
180,48,22909,1,0,0:0:0:0:
160,48,22996,5,2,0:0:0:0:
200,24,23083,1,0,0:0:0:0:
248,20,23170,1,0,0:0:0:0:
292,36,23258,1,0,0:0:0:0:
324,72,23345,1,0,0:0:0:0:
364,96,23432,1,0,0:0:0:0:
412,96,23519,1,0,0:0:0:0:
452,68,23606,1,0,0:0:0:0:
500,64,23694,5,2,0:0:0:0:
504,72,23781,1,0,0:0:0:0:
508,80,23868,2,0,L|500:128,1,47.5
424,168,24042,5,2,0:0:0:0:
428,176,24129,1,0,0:0:0:0:
432,184,24216,2,0,L|424:232,1,47.5
332,264,24391,5,2,0:0:0:0:
336,272,24478,1,0,0:0:0:0:
340,280,24565,2,0,L|332:328,1,47.5,2|0,0:0|0:0,0:0:0:0:
148,204,24740,6,0,L|156:158,1,47.5,2|0,0:0|0:0,0:0:0:0:
268,172,24914,2,0,L|260:220,1,47.5,2|0,0:0|0:0,0:0:0:0:
60,300,25089,1,2,0:0:0:0:
60,300,25786,6,0,L|46:279,6,26.1250007972718
128,260,26135,5,2,0:0:0:0:
172,200,26223,1,2,0:0:0:0:
172,128,26310,1,2,0:0:0:0:
140,64,26397,1,2,0:0:0:0:
72,36,26484,6,0,B|92:164,1,123.499994346619,4|0,0:0|0:0,0:0:0:0:
91,158,26746,1,0,0:0:0:0:
91,158,26833,1,0,1:0:0:0:
248,348,27007,2,0,B|268:220,1,123.499994346619,4|0,0:0|0:0,0:0:0:0:
267,226,27269,1,0,0:0:0:0:
267,226,27356,1,0,1:0:0:0:
440,36,27531,2,0,B|420:164,1,123.499994346619,4|0,0:0|0:0,0:0:0:0:
421,158,27793,1,0,0:0:0:0:
421,158,27880,1,0,1:0:0:0:
144,228,28054,6,0,P|88:248|8:188,1,123.499994346619,4|0,0:0|0:0,0:0:0:0:
91,158,28316,1,0,0:0:0:0:
91,158,28403,1,0,1:0:0:0:
364,96,28577,2,0,P|420:76|504:160,1,185.249991519928,4|0,0:0|0:0,0:0:0:0:
436,275,28926,2,0,P|415:218|420:157,1,123.499994346619,4|0,1:2|0:0,0:0:0:0:
200,68,29275,5,4,0:0:0:0:
420,156,29449,1,2,0:0:0:0:
284,40,29624,1,0,1:0:0:0:
160,204,29798,5,4,0:0:0:0:
392,64,29973,1,2,0:0:0:0:
244,232,30148,1,0,1:0:0:0:
104,80,30321,5,4,0:0:0:0:
420,157,30496,1,2,0:0:0:0:
184,32,30671,1,0,1:0:0:0:
64,184,30845,5,4,0:0:0:0:
408,72,31019,1,2,0:0:0:0:
116,276,31194,1,0,1:0:0:0:
200,88,31368,5,0,1:0:0:0:
156,120,31455,1,0,0:0:0:0:
100,128,31542,1,0,0:0:0:0:
48,112,31629,1,0,1:0:0:0:
8,72,31717,5,0,1:0:0:0:
24,108,31804,1,0,0:0:0:0:
28,144,31891,1,0,1:0:0:0:
24,180,31978,1,0,0:0:0:0:
4,208,32066,6,0,B|36:320,1,113.999996520996,4|0,1:0|0:0,0:0:0:0:
108,276,32327,1,0,0:0:0:0:
108,276,32414,2,0,L|172:284,1,56.9999982604981,10|0,0:0|0:0,0:0:0:0:
300,296,32589,1,0,0:0:0:0:
412,164,32763,1,2,1:2:0:0:
488,352,32938,1,2,0:0:0:0:
232,256,33112,6,0,L|224:180,1,56.9999982604981,10|0,0:0|0:0,0:0:0:0:
216,40,33286,1,0,0:0:0:0:
216,40,33374,1,0,0:0:0:0:
216,40,33461,1,2,1:2:0:0:
32,16,33635,1,0,0:0:0:0:
224,68,33810,6,0,L|296:60,1,56.9999982604981,10|0,0:0|0:0,0:0:0:0:
452,48,33984,1,0,0:0:0:0:
296,172,34159,1,2,1:2:0:0:
456,260,34333,1,2,0:0:0:0:
288,316,34507,6,0,L|216:324,1,56.9999982604981,10|0,0:0|0:0,0:0:0:0:
92,332,34681,1,0,0:0:0:0:
92,332,34769,1,0,0:0:0:0:
92,332,34856,1,2,1:2:0:0:
60,172,35030,1,0,0:0:0:0:
220,220,35205,6,0,L|288:208,1,56.9999982604981,10|0,0:0|0:0,0:0:0:0:
432,184,35379,1,0,0:0:0:0:
288,316,35554,1,2,1:2:0:0:
144,188,35728,1,2,0:0:0:0:
156,352,35903,2,0,L|152:296,1,56.9999982604981,8|0,0:0|0:0,0:0:0:0:
60,172,36077,5,2,0:0:0:0:
32,168,36164,1,2,0:0:0:0:
4,164,36252,1,2,0:0:0:0:
92,264,36600,5,2,0:0:0:0:
132,240,36688,1,0,0:0:0:0:
156,200,36775,1,0,0:0:0:0:
156,156,36862,1,0,0:0:0:0:
132,116,36949,5,2,0:0:0:0:
176,116,37036,1,0,0:0:0:0:
216,92,37123,1,0,0:0:0:0:
236,52,37211,1,0,0:0:0:0:
276,28,37298,5,2,0:0:0:0:
320,24,37385,1,0,0:0:0:0:
360,40,37472,1,0,0:0:0:0:
384,80,37560,1,0,0:0:0:0:
384,124,37647,5,2,0:0:0:0:
360,164,37734,1,0,0:0:0:0:
316,176,37821,1,0,0:0:0:0:
284,208,37909,1,0,0:0:0:0:
272,252,37996,5,8,3:0:0:0:
284,304,38083,1,4,3:0:0:0:
324,340,38170,1,0,0:0:0:0:
376,344,38257,1,8,3:0:0:0:
424,324,38345,6,0,L|488:332,3,56.9999982604981,4|0|4|0,3:0|0:0|3:0|0:0,0:0:0:0:
360,256,38693,5,2,0:0:0:0:
280,268,38781,1,2,0:0:0:0:
200,280,38868,1,2,0:0:0:0:
120,292,38955,1,2,0:0:0:0:
60,344,39042,6,0,B|36:208,1,95,4|2,1:0|0:0,0:0:0:0:
43,250,39304,1,0,0:0:0:0:
43,250,39391,1,10,0:0:0:0:
100,56,39566,6,0,P|152:148|128:204,1,161.500003080368,2|0,0:0|0:0,0:0:0:0:
48,144,40089,1,10,0:0:0:0:
232,80,40263,1,2,0:0:0:0:
316,140,40438,70,0,L|410:154,1,80.750001540184,2|0,0:0|0:0,0:0:0:0:
395,152,40699,1,0,0:0:0:0:
395,152,40787,1,10,0:0:0:0:
225,228,40962,2,0,P|256:155|232:80,1,161.500003080368,2|0,0:0|0:0,0:0:0:0:
152,96,41397,1,0,0:0:0:0:
132,80,41484,2,0,L|76:72,1,40.375000770092,10|0,0:0|0:0,0:0:0:0:
12,168,41659,2,0,L|51:162,1,40.375000770092,2|0,0:0|0:0,0:0:0:0:
104,260,41833,5,2,0:0:0:0:
225,228,42007,1,0,0:0:0:0:
104,260,42181,1,10,0:0:0:0:
252,136,42356,2,0,P|320:208|300:280,1,161.500003080368,2|0,0:0|0:0,0:0:0:0:
225,228,42792,1,0,0:0:0:0:
200,224,42879,2,0,L|148:232,1,40.375000770092,10|0,0:0|0:0,0:0:0:0:
224,60,43054,2,0,L|280:54,1,40.375000770092,2|0,0:0|0:0,0:0:0:0:
168,144,43228,6,0,P|140:112|136:60,1,80.750001540184,2|0,0:0|0:0,0:0:0:0:
133,75,43577,1,10,0:0:0:0:
396,56,43752,2,0,L|360:236,1,161.500003080368,2|0,0:0|0:0,0:0:0:0:
412,288,44188,1,0,0:0:0:0:
432,272,44275,2,0,P|444:256|448:228,1,40.375000770092,10|0,0:0|0:0,0:0:0:0:
288,142,44449,2,0,P|280:118|280:98,1,40.375000770092,2|0,0:0|0:0,0:0:0:0:
484,48,44624,37,2,0:0:0:0:
280,104,44798,1,0,0:0:0:0:
452,144,44973,1,10,0:0:0:0:
336,0,45147,2,0,L|176:16,1,161.500003080368,2|2,0:0|0:0,0:0:0:0:
175,16,45583,1,2,0:0:0:0:
175,16,45670,1,10,0:0:0:0:
324,148,45845,1,2,0:0:0:0:
192,236,46019,5,2,0:0:0:0:
188,244,46106,1,0,0:0:0:0:
184,252,46194,1,0,0:0:0:0:
180,260,46281,1,0,0:0:0:0:
176,268,46368,1,8,0:0:0:0:
172,276,46455,1,0,0:0:0:0:
168,284,46542,1,0,0:0:0:0:
164,292,46629,1,0,0:0:0:0:
160,300,46717,37,2,0:0:0:0:
192,344,46804,1,0,0:0:0:0:
248,356,46891,1,0,0:0:0:0:
304,348,46979,1,0,0:0:0:0:
352,320,47066,1,8,0:0:0:0:
380,272,47153,5,2,0:0:0:0:
332,220,47240,1,2,0:0:0:0:
324,148,47327,1,2,0:0:0:0:
344,76,47415,6,0,B|464:52|464:52|432:88,1,161.500003080368,2|8,0:0|0:0,0:0:0:0:
404,144,47850,1,2,0:0:0:0:
400,168,47938,1,2,0:0:0:0:
404,192,48025,1,2,0:0:0:0:
416,212,48112,1,2,0:0:0:0:
448,308,48287,1,2,0:0:0:0:
480,168,48461,1,8,0:0:0:0:
448,308,48636,1,2,0:0:0:0:
372,248,48810,6,0,P|328:240|280:256,1,80.750001540184,2|0,0:0|0:0,0:0:0:0:
293,248,49071,1,2,0:0:0:0:
293,248,49159,1,8,0:0:0:0:
88,304,49333,1,2,0:0:0:0:
120,332,49420,1,0,0:0:0:0:
160,340,49507,1,0,0:0:0:0:
200,328,49595,1,0,0:0:0:0:
232,304,49682,1,0,0:0:0:0:
156,175,49856,1,8,0:0:0:0:
156,256,50031,5,2,0:0:0:0:
156,256,50118,1,2,0:0:0:0:
156,256,50205,2,0,L|156:168,1,80.750001540184,2|0,0:0|0:0,0:0:0:0:
156,16,50554,1,8,0:0:0:0:
60,92,50729,21,2,0:0:0:0:
64,132,50816,1,2,0:0:0:0:
68,172,50903,1,0,0:0:0:0:
236,124,51077,1,2,0:0:0:0:
60,92,51252,1,8,0:0:0:0:
236,124,51426,1,2,0:0:0:0:
68,172,51600,6,0,B|48:216|48:216|52:280,1,80.750001540184,2|0,0:0|0:0,0:0:0:0:
124,320,51862,1,0,0:0:0:0:
124,320,51949,2,0,L|140:220,1,80.750001540184,8|0,0:0|0:0,0:0:0:0:
200,192,52211,1,0,0:0:0:0:
228,188,52298,1,0,0:0:0:0:
288,288,52473,6,0,L|296:336,1,40.375000770092,2|0,0:0|0:0,0:0:0:0:
376,300,52647,2,0,L|383:339,1,40.375000770092,10|0,0:0|0:0,0:0:0:0:
464,308,52821,2,0,L|471:347,1,40.375000770092,2|0,0:0|0:0,0:0:0:0:
412,220,52996,6,0,P|380:212|316:232,1,80.750001540184,2|0,0:0|0:0,0:0:0:0:
280,232,53257,2,0,L|278:181,1,40.375000770092,2|0,0:0|0:0,0:0:0:0:
335,47,53519,2,0,L|339:143,1,80.750001540184,2|0,0:0|0:0,0:0:0:0:
432,116,53868,1,0,0:0:0:0:
432,84,53955,1,0,0:0:0:0:
432,52,54043,5,8,0:0:0:0:
252,128,54217,1,2,0:0:0:0:
432,84,54391,1,2,0:0:0:0:
248,92,54566,1,0,0:0:0:0:
432,116,54740,1,10,0:0:0:0:
244,56,54914,1,2,0:0:0:0:
144,36,55089,6,0,P|124:28|72:28,1,40.375000770092
92,108,55263,2,0,P|60:104|32:120,1,40.375000770092
72,192,55438,2,0,P|40:196|17:219,1,40.375000770092,8|0,0:0|0:0,0:0:0:0:
64,356,55612,1,2,0:0:0:0:
64,356,55699,1,2,0:0:0:0:
64,356,55787,6,0,L|72:256,1,80.750001540184,2|0,0:0|0:0,0:0:0:0:
212,336,56136,1,8,0:0:0:0:
312,348,56310,1,2,0:0:0:0:
188,252,56484,1,2,0:0:0:0:
348,272,56659,1,0,0:0:0:0:
348,272,56746,2,0,P|392:320|384:388,1,121.125002310276,2|0,0:0|0:0,0:0:0:0:
340,196,57182,1,2,0:0:0:0:
340,196,57531,5,2,0:0:0:0:
320,172,57618,1,0,0:0:0:0:
312,140,57705,1,0,0:0:0:0:
316,108,57792,1,0,0:0:0:0:
332,80,57879,1,0,0:0:0:0:
360,60,57967,1,0,0:0:0:0:
392,56,58054,1,0,0:0:0:0:
424,68,58141,1,0,0:0:0:0:
448,88,58228,1,0,0:0:0:0:
460,120,58316,5,2,0:0:0:0:
388,132,58403,1,2,0:0:0:0:
312,140,58490,1,2,0:0:0:0:
240,148,58577,6,0,B|176:160|176:160|144:144|144:144|52:156,1,161.500003080368,2|8,0:0|0:0,0:0:0:0:
128,224,59013,1,2,0:0:0:0:
148,260,59100,1,2,0:0:0:0:
152,300,59188,1,2,0:0:0:0:
144,340,59275,5,2,0:0:0:0:
52,296,59449,1,2,0:0:0:0:
240,312,59624,1,8,0:0:0:0:
52,296,59798,1,2,0:0:0:0:
176,188,59973,102,0,P|184:148|160:92,1,80.750001540184,2|0,0:0|0:0,0:0:0:0:
144,72,60234,2,0,L|96:76,1,40.375000770092,2|8,0:0|0:0,0:0:0:0:
276,136,60496,1,2,0:0:0:0:
308,160,60583,1,0,0:0:0:0:
348,164,60670,1,0,0:0:0:0:
388,156,60757,1,0,0:0:0:0:
420,132,60845,1,0,0:0:0:0:
440,96,60932,1,0,0:0:0:0:
444,56,61019,1,8,0:0:0:0:
392,252,61194,1,2,0:0:0:0:
348,68,61368,6,0,B|288:56|288:56|205:69,1,121.125002310276,2|2,0:0|0:0,0:0:0:0:
288,140,61717,1,8,0:0:0:0:
312,316,61891,1,0,0:0:0:0:
288,140,62066,102,0,B|228:136|228:136|148:163,1,121.125002310276,2|2,0:0|0:0,0:0:0:0:
240,220,62415,1,8,0:0:0:0:
432,336,62589,1,0,0:0:0:0:
240,220,62763,6,0,L|60:240,1,161.500003080368,2|8,0:0|0:0,0:0:0:0:
216,316,63286,2,0,L|264:320,2,40.375000770092,0|0|2,0:0|0:0|0:0,0:0:0:0:
124,364,63635,1,0,0:0:0:0:
79,237,63810,2,0,L|92:136,1,80.750001540184,10|0,0:0|0:0,0:0:0:0:
32,96,64071,1,0,0:0:0:0:
32,96,64159,6,0,B|92:116|92:116|208:80,1,161.500003080368,2|8,0:0|0:0,0:0:0:0:
308,44,64682,1,2,0:0:0:0:
352,52,64769,1,2,0:0:0:0:
396,64,64856,1,2,0:0:0:0:
216,168,65031,1,2,0:0:0:0:
308,44,65205,1,8,0:0:0:0:
416,200,65380,1,2,0:0:0:0:
327,248,65554,102,0,P|320:287|320:327,1,80.750001540184,2|0,0:0|0:0,0:0:0:0:
320,327,65816,1,2,0:0:0:0:
416,200,65990,1,0,0:0:0:0:
416,200,66077,2,0,B|352:216|352:216|244:204,1,161.500003080368,2|0,0:0|0:0,0:0:0:0:
257,205,66513,1,0,0:0:0:0:
257,205,66600,1,8,0:0:0:0:
72,72,66775,5,2,0:0:0:0:
72,72,66862,1,2,0:0:0:0:
72,72,66949,2,0,P|60:116|80:176,1,80.750001540184,6|0,0:0|0:0,0:0:0:0:
140,192,67211,2,0,P|152:236|132:296,1,80.750001540184,2|0,0:0|0:0,0:0:0:0:
68,236,67473,1,0,0:0:0:0:
440,312,67647,6,0,P|452:268|432:208,1,80.750001540184,6|0,0:0|0:0,0:0:0:0:
372,192,67909,2,0,P|360:148|380:88,1,80.750001540184,2|0,0:0|0:0,0:0:0:0:
444,148,68170,1,2,0:0:0:0:
288,48,68345,6,0,L|148:60,1,113.999996520996,4|0,0:0|0:0,0:0:0:0:
96,76,68606,1,0,0:0:0:0:
96,76,68693,2,0,L|72:32,5,37.9999988403321
152,136,69043,38,0,P|165:163|165:190,1,47.5,0|0,1:0|0:0,0:0:0:0:
168,280,69217,2,0,P|137:278|114:264,1,47.5,0|0,1:0|0:0,0:0:0:0:
32,224,69391,2,0,P|48:198|72:185,1,47.5,0|0,1:0|0:0,0:0:0:0:
256,176,69566,1,0,1:0:0:0:
256,176,69653,1,0,1:0:0:0:
256,176,69740,6,0,B|312:188|352:148|352:148|396:144|452:176,1,190,0|8,1:0|1:2,0:0:0:0:
384,228,70176,1,2,0:0:0:0:
372,264,70263,1,2,0:0:0:0:
368,300,70350,1,2,0:0:0:0:
376,336,70438,1,2,1:2:0:0:
468,288,70612,1,2,0:0:0:0:
264,264,70786,1,8,1:2:0:0:
404,136,70961,1,2,0:0:0:0:
312,336,71135,6,0,P|268:352|212:332,1,95,2|0,1:2|0:0,0:0:0:0:
180,276,71397,2,0,L|88:288,1,47.5,2|8,0:0|1:2,0:0:0:0:
168,64,71659,1,2,0:0:0:0:
188,96,71746,1,0,0:0:0:0:
192,132,71833,1,0,1:0:0:0:
184,168,71920,1,0,0:0:0:0:
160,196,72007,1,2,0:0:0:0:
16,144,72182,2,0,L|112:124,1,95,8|2,1:2|0:0,0:0:0:0:
109,124,72443,1,2,0:0:0:0:
109,124,72531,5,2,1:2:0:0:
192,168,72705,1,0,0:0:0:0:
280,136,72879,1,8,1:2:0:0:
340,64,73054,1,2,0:0:0:0:
336,48,73141,1,2,0:0:0:0:
332,32,73228,5,2,1:2:0:0:
280,136,73403,1,2,0:0:0:0:
328,20,73578,1,8,1:2:0:0:
328,216,73752,1,2,0:0:0:0:
452,100,73926,6,0,P|397:159|384:84,1,190,2|8,1:2|1:2,0:0:0:0:
200,104,74449,1,2,0:0:0:0:
200,104,74536,1,0,0:0:0:0:
200,104,74624,1,0,1:0:0:0:
96,112,74798,6,0,P|100:80|124:48,1,47.5,2|0,0:0|0:0,0:0:0:0:
264,20,74973,2,0,P|289:39|305:76,1,47.5,10|0,1:2|0:0,0:0:0:0:
248,192,75147,2,0,P|218:204|178:199,1,47.5,2|0,0:0|0:0,0:0:0:0:
92,272,75321,6,0,B|148:268|148:268|172:288|172:288|232:284,1,142.500005435944,6|0,1:2|0:0,0:0:0:0:
112,352,75583,2,0,L|60:344,1,47.5,2|8,1:2|0:0,0:0:0:0:
203,205,75845,2,0,B|324:212,1,113.999996520996,2|0,1:2|0:0,0:0:0:0:
316,211,76106,1,0,0:0:0:0:
316,211,76193,1,2,0:0:0:0:
400,312,76368,5,8,1:2:0:0:
292,328,76542,1,0,0:0:0:0:
268,120,76717,2,0,P|324:108|396:144,1,113.999996520996,2|2,1:2|0:0,0:0:0:0:
228,100,76978,2,0,P|172:112|100:76,1,113.999996520996,0|0,1:2|0:0,0:0:0:0:
180,24,77240,1,2,1:2:0:0:
188,212,77414,5,2,1:2:0:0:
272,212,77589,2,0,P|268:188|260:168,2,37.9999988403321,0|0|0,1:0|1:0|1:0,1:0:0:0:
144,144,77763,2,0,P|125:158|111:175,2,37.9999988403321,8|0|0,1:2|1:0|1:0,1:0:0:0:
180,244,77938,1,0,1:0:0:0:
184,228,78025,1,0,1:0:0:0:
188,212,78112,6,0,L|164:48,1,142.5,2|0,1:2|0:0,0:0:0:0:
228,24,78461,1,8,1:2:0:0:
436,200,78635,2,0,P|460:152|440:88,1,95,2|2,0:0|1:2,0:0:0:0:
370,30,78984,1,0,1:0:0:0:
370,30,79071,2,0,L|194:22,1,142.5,2|0,1:2|1:0,0:0:0:0:
88,72,79507,1,2,1:2:0:0:
88,72,79856,5,2,1:2:0:0:
120,108,79943,1,0,0:0:0:0:
164,124,80031,1,0,0:0:0:0:
212,116,80118,1,0,0:0:0:0:
228,72,80205,5,0,0:0:0:0:
268,96,80292,1,0,0:0:0:0:
316,100,80379,1,0,0:0:0:0:
364,92,80467,1,0,0:0:0:0:
404,68,80554,1,0,1:0:0:0:
436,32,80641,5,2,0:0:0:0:
472,100,80728,1,2,1:2:0:0:
480,176,80816,1,2,0:0:0:0:
448,244,80903,6,0,B|352:340|352:340|348:244,1,190,2|8,1:2|1:2,0:0:0:0:
320,216,81339,1,2,0:0:0:0:
288,200,81426,1,2,0:0:0:0:
252,196,81513,1,2,0:0:0:0:
216,204,81600,1,0,1:0:0:0:
151,323,81775,1,2,0:0:0:0:
120,160,81949,1,8,1:2:0:0:
151,323,82124,1,2,0:0:0:0:
57,333,82298,6,0,L|177:321,1,95,2|0,1:2|0:0,0:0:0:0:
188,288,82560,2,0,L|240:296,1,47.5,2|8,0:0|1:2,0:0:0:0:
500,264,82821,1,2,0:0:0:0:
468,240,82909,1,0,0:0:0:0:
432,232,82996,1,0,1:0:0:0:
396,232,83083,1,0,0:0:0:0:
360,248,83170,1,0,0:0:0:0:
332,272,83257,1,0,0:0:0:0:
312,304,83345,6,0,L|328:352,1,47.5,8|0,1:2|0:0,0:0:0:0:
416,320,83519,1,2,1:2:0:0:
416,320,83606,1,2,0:0:0:0:
416,320,83693,6,0,P|432:240|396:156,1,142.500005435944,2|0,1:2|0:0,0:0:0:0:
432,64,83955,2,0,P|400:104|280:88,1,142.500005435944,2|0,1:2|0:0,0:0:0:0:
352,32,84217,1,2,1:2:0:0:
96,64,84391,6,0,P|80:144|116:228,1,142.500005435944,2|0,1:2|0:0,0:0:0:0:
80,320,84653,2,0,P|112:280|232:296,1,142.500005435944,2|0,1:2|0:0,0:0:0:0:
160,352,84915,1,2,1:2:0:0:
288,208,85089,6,0,B|368:192|368:192|408:204|408:204|480:188,1,190,2|8,1:2|0:0,0:0:0:0:
328,304,85612,6,0,L|264:296,1,47.5,2|2,0:0|0:0,0:0:0:0:
198,271,85786,1,2,1:2:0:0:
356,104,85961,2,0,L|360:152,2,31.6666666666667,2|0|0,0:0|0:0|0:0,0:0:0:0:
284,44,86135,2,0,P|272:64|264:100,1,47.5,10|0,1:2|0:0,0:0:0:0:
448,72,86310,2,0,P|436:51|409:26,1,47.5,2|0,0:0|0:0,0:0:0:0:
432,164,86484,6,0,B|358:103|358:103|296:204,1,190,2|8,1:2|1:2,0:0:0:0:
152,68,87007,1,2,0:0:0:0:
108,76,87095,1,2,0:0:0:0:
68,84,87182,1,2,1:2:0:0:
228,172,87356,1,2,0:0:0:0:
152,68,87531,1,8,1:2:0:0:
64,220,87705,1,2,0:0:0:0:
260,324,87879,6,0,P|280:280|260:212,1,95,2|0,1:2|0:0,0:0:0:0:
228,172,88141,2,0,L|144:184,1,47.5,2|8,0:0|1:2,0:0:0:0:
332,32,88403,2,0,L|440:48,1,95,2|0,0:0|1:2,0:0:0:0:
500,192,88752,1,0,0:0:0:0:
468,212,88839,1,0,0:0:0:0:
432,216,88926,1,10,1:2:0:0:
396,208,89013,1,2,0:0:0:0:
368,184,89100,1,2,0:0:0:0:
332,176,89188,1,2,0:0:0:0:
296,188,89275,6,0,L|304:260,1,47.5,2|0,1:2|0:0,0:0:0:0:
152,236,89449,2,0,L|147:181,1,47.5,2|0,1:2|0:0,1:2:0:0:
320,312,89624,6,0,B|272:328|232:280|232:280|192:352|96:320,1,213.750008153916,8|0,1:2|0:0,0:0:0:0:
105,245,89973,6,0,L|165:233,1,47.5,2|0,1:2|0:0,1:2:0:0:
273,82,90147,2,0,L|201:62,1,47.5,2|0,1:2|0:0,1:2:0:0:
32,76,90321,6,0,B|132:116|132:116|232:68,1,213.750008153916,8|0,1:2|0:0,0:0:0:0:
328,144,90670,1,0,1:0:0:0:
320,180,90757,1,0,1:0:0:0:
312,216,90845,6,0,L|328:260,2,31.6666666666667,2|0|0,1:2|1:0|1:0,1:0:0:0:
208,352,91019,1,8,1:2:0:0:
216,316,91106,1,0,1:0:0:0:
224,280,91194,6,0,L|208:236,2,31.6666666666667,2|0|0,1:2|1:0|1:0,1:0:0:0:
184,176,91368,1,0,1:0:0:0:
44,296,91542,1,2,0:0:0:0:
196,156,91717,6,0,L|188:88,1,47.5,8|0,1:2|1:0,1:2:0:0:
28,316,91891,2,0,L|36:384,1,47.5,0|0,1:0|1:0,1:2:0:0:
112,232,92066,1,4,1:0:0:0:
128,344,92240,5,2,0:0:0:0:
160,308,92327,1,0,0:0:0:0:
200,284,92414,1,2,0:0:0:0:
248,272,92502,1,0,0:0:0:0:
296,272,92589,1,2,0:0:0:0:
340,284,92676,1,0,0:0:0:0:
380,308,92763,1,2,0:0:0:0:
152,152,92938,5,2,0:0:0:0:
133,120,93025,1,0,0:0:0:0:
139,84,93112,1,2,0:0:0:0:
167,61,93199,1,0,0:0:0:0:
203,67,93286,1,2,0:0:0:0:
226,96,93374,1,0,0:0:0:0:
224,132,93461,1,6,0:0:0:0:
116,320,93635,5,2,0:0:0:0:
148,284,93722,1,0,0:0:0:0:
188,260,93809,1,2,0:0:0:0:
236,248,93897,1,0,0:0:0:0:
284,248,93984,1,2,0:0:0:0:
328,260,94071,1,0,0:0:0:0:
368,284,94158,1,2,0:0:0:0:
116,124,94333,6,0,P|108:92|128:44,1,47.5,2|0,0:0|0:0,0:0:0:0:
296,92,94507,2,0,P|296:115|289:138,1,47.5,2|0,0:0|0:0,0:0:0:0:
204,80,94682,6,0,L|212:32,2,31.6666666666667,2|0|0,2:0|1:0|1:0,1:0:0:0:
200,108,94856,1,2,1:2:0:0:
264,252,95031,5,2,0:0:0:0:
308,240,95118,1,0,0:0:0:0:
352,248,95205,1,2,0:0:0:0:
388,276,95292,1,0,0:0:0:0:
404,320,95379,1,2,0:0:0:0:
416,160,95554,5,2,0:0:0:0:
316,332,95728,1,2,0:0:0:0:
236,160,95903,1,2,0:0:0:0:
456,56,96077,1,2,0:0:0:0:
444,152,96252,6,0,P|380:120|368:28,1,142.500005435944,6|0,1:2|0:0,0:0:0:0:
256,136,96513,1,0,0:0:0:0:
256,176,96600,6,0,B|256:348,1,142.500005435944,6|0,1:2|0:0,0:0:0:0:
67,151,96862,1,0,0:0:0:0:
67,151,96949,6,0,P|129:121|151:55,1,142.500005435944,6|0,1:2|0:0,0:0:0:0:
148,240,97298,5,2,1:2:0:0:
160,268,97385,1,0,0:0:0:0:
160,296,97473,1,0,0:0:0:0:
152,324,97560,1,0,0:0:0:0:
136,340,97647,5,6,1:2:0:0:
176,320,97734,1,0,0:0:0:0:
220,324,97821,1,0,0:0:0:0:
264,336,97909,1,0,0:0:0:0:
308,336,97996,1,8,1:2:0:0:
352,320,98083,1,0,0:0:0:0:
384,288,98170,1,0,0:0:0:0:
400,244,98257,1,0,0:0:0:0:
400,200,98345,5,2,1:2:0:0:
384,184,98432,1,0,0:0:0:0:
376,164,98519,1,0,0:0:0:0:
380,140,98606,1,0,0:0:0:0:
388,124,98693,5,8,1:2:0:0:
408,104,98781,1,0,0:0:0:0:
416,76,98868,1,0,0:0:0:0:
408,48,98955,1,0,0:0:0:0:
388,28,99042,5,2,1:2:0:0:
356,56,99129,1,0,0:0:0:0:
316,68,99217,1,0,0:0:0:0:
272,64,99304,1,0,0:0:0:0:
236,40,99391,1,8,1:2:0:0:
196,28,99478,1,0,0:0:0:0:
156,40,99566,2,0,P|132:60|104:64,1,47.5
32,60,99740,5,2,1:2:0:0:
36,72,99798,1,2,0:0:0:0:
40,84,99856,1,2,0:0:0:0:
44,96,99914,2,2,L|36:136,3,31.6666666666667,2|2|2|10,0:0|0:0|0:0|1:2,0:0:0:0:
228,316,100438,5,2,1:2:0:0:
192,332,100525,1,0,0:0:0:0:
156,340,100612,1,0,0:0:0:0:
120,332,100699,1,0,0:0:0:0:
76,348,100786,5,8,1:2:0:0:
96,304,100874,1,0,0:0:0:0:
100,256,100961,1,0,0:0:0:0:
80,212,101048,1,0,0:0:0:0:
36,180,101135,5,2,1:2:0:0:
84,196,101223,1,0,0:0:0:0:
136,196,101310,1,0,0:0:0:0:
184,172,101397,1,0,0:0:0:0:
212,124,101484,5,10,1:2:0:0:
260,96,101571,1,0,0:0:0:0:
316,92,101659,1,0,1:2:0:0:
368,120,101746,1,0,0:0:0:0:
400,168,101833,5,0,1:2:0:0:
448,48,102007,2,8,L|436:0,2,47.5,8|8|8,3:0|3:0|3:0,3:0:0:0:
332,228,102356,1,2,0:0:0:0:
284,220,102443,1,2,0:0:0:0:
236,212,102531,1,2,1:2:0:0:
140,332,102705,6,0,L|132:260,1,47.5,2|0,1:2|0:0,0:0:0:0:
44,216,102879,2,0,L|37:159,2,31.6666666666667,2|0|0,1:2|0:0|0:0,0:0:0:0:
196,148,103054,2,0,L|189:91,1,47.5,0|0,1:0|1:0,0:0:0:0:
108,64,103228,6,0,L|123:205,1,142.5,4|0,1:2|0:0,0:0:0:0:
123,205,103577,1,8,0:0:0:0:
276,108,103752,1,2,0:0:0:0:
352,272,103926,5,2,0:0:0:0:
332,256,104013,1,0,0:0:0:0:
308,252,104100,1,0,0:0:0:0:
284,256,104188,1,0,0:0:0:0:
260,276,104275,5,8,0:0:0:0:
232,292,104362,1,0,0:0:0:0:
200,296,104449,1,0,0:0:0:0:
168,288,104536,1,0,0:0:0:0:
136,252,104624,5,2,0:0:0:0:
88,240,104711,1,0,0:0:0:0:
44,256,104798,1,2,0:0:0:0:
24,300,104885,1,0,0:0:0:0:
28,348,104973,6,0,P|52:360|84:360,1,47.5,10|0,0:0|0:0,0:0:0:0:
76,260,105147,2,0,P|102:258|130:242,1,47.5,2|0,0:0|0:0,0:0:0:0:
88,164,105321,2,0,P|97:142|98:118,1,47.5,2|0,0:0|0:0,0:0:0:0:
52,56,105496,1,2,0:0:0:0:
64,52,105583,1,0,0:0:0:0:
76,48,105670,1,10,0:0:0:0:
88,44,105757,1,0,0:0:0:0:
100,40,105845,1,2,0:0:0:0:
112,36,105932,1,0,0:0:0:0:
136,28,106019,5,2,0:0:0:0:
156,44,106106,1,0,0:0:0:0:
176,60,106193,1,0,0:0:0:0:
196,76,106281,1,0,0:0:0:0:
228,92,106368,5,8,0:0:0:0:
260,88,106455,1,0,0:0:0:0:
288,68,106542,1,2,0:0:0:0:
304,40,106629,1,0,0:0:0:0:
332,24,106717,1,2,0:0:0:0:
364,20,106804,1,0,0:0:0:0:
396,28,106891,1,0,0:0:0:0:
420,48,106978,1,0,0:0:0:0:
436,76,107066,2,0,L|504:64,3,47.5,8|0|0|0,0:0|0:0|0:0|0:0,0:0:0:0:
360,100,107414,5,2,0:0:0:0:
340,144,107502,1,0,0:0:0:0:
340,192,107589,1,0,0:0:0:0:
360,236,107676,1,0,0:0:0:0:
424,292,107763,5,10,0:0:0:0:
436,256,107850,1,0,0:0:0:0:
436,216,107938,1,0,0:0:0:0:
420,180,108025,1,0,0:0:0:0:
360,236,108112,5,2,0:0:0:0:
348,268,108199,1,0,0:0:0:0:
348,300,108286,1,0,0:0:0:0:
360,332,108374,1,0,0:0:0:0:
424,372,108461,5,10,0:0:0:0:
436,348,108548,1,0,0:0:0:0:
436,320,108635,1,2,0:0:0:0:
424,292,108723,1,0,0:0:0:0:
360,332,108810,6,0,P|340:344|300:340,3,47.5,2|0|0|0,0:0|0:0|0:0|0:0,0:0:0:0:
244,272,109159,2,0,P|243:248|267:216,3,47.5,10|0|2|0,0:0|0:0|0:0|0:0,0:0:0:0:
360,200,109507,2,0,P|380:211|396:247,3,47.5,2|0|0|0,0:0|0:0|0:0|0:0,0:0:0:0:
324,268,109856,1,10,0:0:0:0:
320,276,109943,1,0,0:0:0:0:
316,284,110031,1,0,0:0:0:0:
312,292,110118,1,0,0:0:0:0:
296,324,110205,5,2,0:0:0:0:
264,304,110292,1,0,0:0:0:0:
252,268,110379,1,2,0:0:0:0:
260,232,110467,1,0,0:0:0:0:
216,168,110554,5,10,0:0:0:0:
196,192,110641,1,0,0:0:0:0:
184,224,110728,1,2,0:0:0:0:
184,256,110816,1,0,0:0:0:0:
132,312,110903,5,2,0:0:0:0:
116,288,110990,1,0,0:0:0:0:
108,260,111077,1,2,0:0:0:0:
112,232,111164,1,0,0:0:0:0:
44,188,111252,5,10,0:0:0:0:
36,212,111339,1,0,0:0:0:0:
36,236,111426,1,2,0:0:0:0:
40,260,111513,1,0,0:0:0:0:
48,280,111600,6,0,L|60:332,1,47.5,2|0,0:0|0:0,0:0:0:0:
260,232,111775,2,0,L|244:172,1,47.5
52,141,111949,2,0,L|40:205,1,47.5,10|0,0:0|0:0,0:0:0:0:
208,80,112124,2,0,L|216:24,1,47.5,2|0,0:0|0:0,0:0:0:0:
356,16,112298,5,2,0:0:0:0:
360,40,112385,1,0,0:0:0:0:
364,64,112473,1,0,0:0:0:0:
368,88,112560,1,0,0:0:0:0:
372,112,112647,2,0,L|384:176,3,47.5,10|0|0|0,0:0|0:0|0:0|0:0,0:0:0:0:
320,216,112996,5,2,0:0:0:0:
284,248,113083,1,0,0:0:0:0:
240,260,113170,1,0,0:0:0:0:
192,256,113257,1,0,0:0:0:0:
152,228,113345,2,0,P|128:212|112:168,1,47.5,10|0,0:0|0:0,0:0:0:0:
364,280,113520,2,0,P|416:276|432:284,1,47.5
232,164,113693,5,2,0:0:0:0:
240,136,113781,1,0,0:0:0:0:
248,108,113868,1,0,0:0:0:0:
256,80,113955,1,0,0:0:0:0:
252,72,114042,5,10,0:0:0:0:
248,64,114129,1,0,0:0:0:0:
244,56,114217,1,2,0:0:0:0:
240,48,114304,1,0,0:0:0:0:
228,24,114391,5,2,0:0:0:0:
200,16,114478,1,0,0:0:0:0:
172,20,114566,1,0,0:0:0:0:
148,36,114653,1,0,0:0:0:0:
128,56,114740,1,10,0:0:0:0:
116,84,114827,1,0,0:0:0:0:
112,112,114914,1,2,0:0:0:0:
116,140,115002,1,0,0:0:0:0:
128,164,115089,6,0,L|144:220,3,47.5,2|0|0|0,0:0|0:0|0:0|0:0,0:0:0:0:
68,256,115438,2,0,L|88:320,1,47.5,10|0,0:0|0:0,0:0:0:0:
192,332,115612,2,0,L|168:260,1,47.5
288,264,115786,1,2,0:0:0:0:
324,292,115874,1,0,0:0:0:0:
372,300,115961,1,2,0:0:0:0:
420,288,116048,1,0,0:0:0:0:
448,264,116135,5,10,0:0:0:0:
440,228,116223,1,0,0:0:0:0:
440,192,116310,1,2,0:0:0:0:
460,160,116397,1,0,0:0:0:0:
452,128,116484,5,2,0:0:0:0:
420,116,116571,1,0,0:0:0:0:
400,88,116659,1,2,0:0:0:0:
392,56,116746,1,0,0:0:0:0:
396,36,116833,5,10,0:0:0:0:
380,44,116920,1,0,0:0:0:0:
364,52,117007,1,2,0:0:0:0:
348,60,117095,1,0,0:0:0:0:
328,68,117182,6,0,L|268:48,3,47.5,2|0|0|0,0:0|0:0|0:0|0:0,0:0:0:0:
200,24,117531,1,10,0:0:0:0:
196,60,117618,1,0,0:0:0:0:
208,96,117705,1,2,0:0:0:0:
236,120,117792,1,0,0:0:0:0:
272,132,117879,1,2,0:0:0:0:
312,128,117967,1,0,0:0:0:0:
348,112,118054,1,0,0:0:0:0:
372,80,118141,1,0,0:0:0:0:
380,44,118228,2,0,L|372:-12,3,47.5,10|0|0|0,0:0|0:0|0:0|0:0,0:0:0:0:
432,115,118577,5,2,0:0:0:0:
388,136,118664,1,0,0:0:0:0:
354,170,118752,1,0,0:0:0:0:
334,211,118839,1,0,0:0:0:0:
286,145,118926,5,10,0:0:0:0:
263,172,119013,1,0,0:0:0:0:
255,207,119100,1,0,0:0:0:0:
260,244,119188,1,0,0:0:0:0:
184,234,119275,5,2,0:0:0:0:
183,263,119362,1,0,0:0:0:0:
195,289,119449,1,0,0:0:0:0:
215,309,119536,1,0,0:0:0:0:
148,344,119624,5,10,0:0:0:0:
160,360,119711,1,0,0:0:0:0:
176,372,119798,1,2,0:0:0:0:
192,380,119885,1,0,0:0:0:0:
268,364,119973,6,0,L|324:356,3,47.5,2|0|0|0,0:0|0:0|0:0|0:0,0:0:0:0:
436,292,120321,2,0,L|380:284,3,47.5,10|0|2|0,0:0|0:0|0:0|0:0,0:0:0:0:
292,276,120670,1,2,0:0:0:0:
308,240,120757,1,0,0:0:0:0:
332,212,120845,1,0,0:0:0:0:
364,196,120932,1,0,0:0:0:0:
400,192,121019,5,10,0:0:0:0:
436,176,121106,1,0,0:0:0:0:
460,148,121193,1,0,0:0:0:0:
464,108,121281,1,0,0:0:0:0:
456,72,121368,2,0,P|400:24|320:44,1,142.5,2|0,0:0|0:0,0:0:0:0:
320,128,121717,5,10,0:0:0:0:
348,120,121804,1,2,0:0:0:0:
376,112,121891,2,0,L|384:172,1,47.5,2|0,0:0|0:0,0:0:0:0:
512,220,122066,5,2,0:0:0:0:
484,212,122153,1,2,0:0:0:0:
456,204,122240,2,0,L|448:264,1,47.5,2|0,0:0|0:0,0:0:0:0:
312,348,122414,5,10,0:0:0:0:
316,312,122501,1,2,0:0:0:0:
320,272,122589,1,2,0:0:0:0:
324,236,122676,1,0,0:0:0:0:
328,200,122763,6,0,L|308:132,1,47.5,0|0,1:0|0:0,0:0:0:0:
276,48,122938,1,0,0:0:0:0:
240,80,123025,1,0,0:0:0:0:
196,96,123112,1,8,0:0:0:0:
148,96,123199,1,0,0:0:0:0:
112,64,123286,1,0,0:0:0:0:
72,88,123374,1,0,0:0:0:0:
44,124,123461,6,0,P|32:160|36:208,1,47.5,0|0,1:0|0:0,0:0:0:0:
192,324,123635,1,0,0:0:0:0:
216,284,123723,1,0,0:0:0:0:
212,236,123810,1,8,0:0:0:0:
184,196,123897,1,0,0:0:0:0:
144,172,123984,1,0,0:0:0:0:
156,124,124071,1,0,0:0:0:0:
188,92,124159,6,0,L|268:84,1,47.5,0|0,1:0|0:0,0:0:0:0:
436,32,124333,1,0,0:0:0:0:
444,40,124420,1,0,0:0:0:0:
452,48,124507,6,0,L|444:112,1,47.5,8|0,1:2|0:0,0:0:0:0:
280,224,124682,1,0,0:0:0:0:
272,216,124769,1,0,0:0:0:0:
264,208,124856,6,0,L|252:156,1,47.5,0|0,1:0|0:0,0:0:0:0:
452,168,125031,2,0,L|440:224,1,47.5,0|0,1:0|0:0,0:0:0:0:
460,340,125205,5,8,1:2:0:0:
416,340,125292,1,0,1:0:0:0:
372,340,125379,1,0,1:0:0:0:
328,340,125467,1,0,1:0:0:0:
284,340,125554,6,0,B|212:312|212:312|120:348,1,151.999995361328,4|0,1:0|0:0,0:0:0:0:
120,192,125903,6,0,L|24:184,2,75.9999976806641,0|0|0,1:0|0:0|0:0,0:0:0:0:
292,76,126252,5,0,1:0:0:0:
252,68,126368,1,0,0:0:0:0:
212,60,126484,2,0,L|204:104,1,34.8333343963623
124,276,126600,5,0,1:0:0:0:
156,268,126717,1,0,0:0:0:0:
188,260,126833,2,0,L|192:204,1,31.6666666666667
340,152,126949,5,0,1:0:0:0:
312,148,127066,1,0,0:0:0:0:
284,144,127182,2,0,L|276:196,1,28.4999991302491
208,336,127298,5,0,1:0:0:0:
232,328,127414,1,0,0:0:0:0:
256,320,127531,2,0,L|260:272,1,25.3333333333333
396,232,127647,5,0,1:0:0:0:
372,228,127763,1,0,0:0:0:0:
348,224,127879,2,0,L|340:256,1,22.1666659901937
288,384,127996,5,0,1:0:0:0:
308,376,128112,1,0,0:0:0:0:
328,368,128228,2,0,L|328:336,1,18.999999420166
348,224,128345,6,0,B|300:160|352:88|352:88|348:116|388:144,1,190,0|0,1:0|1:0,0:0:0:0:
100,92,128868,6,0,L|120:44,6,31.6666666666667,0|0|0|0|0|0|0,0:0|0:0|0:0|1:0|0:0|0:0|0:0,0:0:0:0:
0,128,129391,5,0,1:0:0:0:
16,172,129478,1,0,0:0:0:0:
56,200,129566,1,0,0:0:0:0:
104,200,129653,1,0,0:0:0:0:
148,180,129740,6,0,P|156:220|148:252,1,63.3333333333333,0|0,1:0|0:0,0:0:0:0:
132,328,129973,1,2,0:0:0:0:
244,328,130089,6,0,P|236:288|244:256,1,63.3333333333333,0|0,1:0|0:0,0:0:0:0:
256,172,130322,1,2,0:0:0:0:
360,164,130438,6,0,P|368:204|360:236,1,63.3333333333333,0|0,1:0|0:0,0:0:0:0:
348,328,130671,1,2,0:0:0:0:
468,324,130786,6,0,P|460:284|468:252,1,63.3333333333333,0|0,1:0|0:0,0:0:0:0:
484,152,131019,1,2,0:0:0:0:
456,16,131135,6,0,L|356:24,1,95,6|0,1:2|0:0,0:0:0:0:
256,172,131484,1,8,0:0:0:0:
56,16,131659,2,0,L|156:24,1,95,2|0,0:0|0:0,0:0:0:0:
256,172,132007,1,2,0:0:0:0:
348,296,132182,1,10,0:0:0:0:
348,296,132269,1,2,0:0:0:0:
348,296,132356,2,0,P|396:304|448:296,1,95,2|0,0:0|0:0,0:0:0:0:
264,352,132705,6,0,L|217:361,1,47.5,2|0,0:0|0:0,0:0:0:0:
200,284,132879,2,0,L|116:304,1,47.5,10|0,0:0|0:0,0:0:0:0:
48,360,133054,2,0,L|184:376,1,95,2|0,0:0|0:0,0:0:0:0:
135,107,133403,1,2,0:0:0:0:
153,295,133577,1,10,0:0:0:0:
135,107,133752,6,0,B|157:165|133:209|133:209|145:221|145:221|129:257|153:295,1,199.499993911743,4|0,1:0|0:0,0:0:0:0:
224,252,134100,1,2,0:0:0:0:
405,318,134275,1,10,0:0:0:0:
224,252,134449,6,0,B|277:245|309:287|309:287|322:274|322:274|357:330|422:315,1,213.750008153916,4|0,1:0|0:0,0:0:0:0:
396,232,134798,1,2,0:0:0:0:
381,24,134973,1,10,0:0:0:0:
396,232,135147,6,0,B|412:184|388:140|388:140|412:104|412:104|364:64|388:0,1,228,4|0,1:0|0:0,0:0:0:0:
460,32,135496,1,2,0:0:0:0:
228,27,135670,1,10,0:0:0:0:
460,32,135845,6,0,B|409:51|369:27|369:27|325:39|325:39|276:4|226:29,1,242.250004620552,4|0,1:0|0:0,0:0:0:0:
264,108,136193,1,2,0:0:0:0:
328,296,136368,1,10,0:0:0:0:
352,52,136542,1,2,0:0:0:0:
352,52,136629,1,2,0:0:0:0:
352,52,136717,6,0,L|472:48,1,99.7499969558717,6|0,1:2|0:0,0:0:0:0:
428,148,137066,6,0,L|424:224,1,47.5,2|0,0:0|0:0,0:0:0:0:
328,296,137240,2,0,L|331:248,1,47.5
224,236,137414,1,2,0:0:0:0:
180,248,137502,1,0,0:0:0:0:
132,260,137589,1,0,0:0:0:0:
84,268,137676,1,0,0:0:0:0:
36,276,137763,5,2,0:0:0:0:
32,288,137850,1,0,0:0:0:0:
28,300,137938,1,2,0:0:0:0:
24,312,138025,1,0,0:0:0:0:
20,324,138112,5,2,0:0:0:0:
256,192,138199,12,2,139159,0:0:0:0:
212,112,139507,6,0,B|176:128|144:108|144:108|120:144|76:144,1,142.5,2|2,0:0|0:0,0:0:0:0:
20,90,139856,2,0,P|35:50|76:64,1,95,8|2,0:0|0:0,0:0:0:0:
172,208,140205,6,0,B|164:256|164:256|176:296|176:296|160:356,1,142.5,2|2,0:0|0:0,0:0:0:0:
92,312,140554,2,0,P|124:276|204:288,1,95,8|2,0:0|0:0,0:0:0:0:
452,280,140903,6,0,B|400:252|344:280|344:280|364:244,1,142.5,2|2,0:0|0:0,0:0:0:0:
400,192,141252,2,0,P|400:140|348:96,1,95,8|2,0:0|0:0,0:0:0:0:
392,348,141600,1,2,0:0:0:0:
178,159,141949,5,10,0:0:0:0:
120,348,142124,1,2,0:0:0:0:
208,292,142298,2,0,B|200:256|200:256|208:220|208:220|172:188|180:136,1,142.5,2|2,0:0|0:0,0:0:0:0:
257,70,142647,2,0,B|260:96|260:96|248:116|248:116|262:149|256:160,1,95,10|2,0:0|0:0,0:0:0:0:
320,372,142996,6,0,B|304:340|328:304|328:304|308:276|308:276|292:320,1,142.5,2|2,0:0|0:0,0:0:0:0:
396,348,143345,2,0,P|444:300|488:304,1,95,10|2,0:0|0:0,0:0:0:0:
396,200,143606,1,2,0:0:0:0:
384,164,143693,6,0,B|384:132|376:112|376:112|392:92|392:60|392:60|440:104,1,126.666666666667,2|0,0:0|0:0,0:0:0:0:
312,60,144042,2,0,B|248:72|248:72|204:56|204:56|108:80,1,190,10|2,0:0|0:0,0:0:0:0:
200,144,144566,1,0,0:0:0:0:
207,235,144740,2,0,B|216:190|216:190|197:140,1,95,10|0,0:0|0:0,0:0:0:0:
48,36,145089,6,0,B|38:80|38:80|55:127,1,95,2|0,0:0|0:0,0:0:0:0:
124,220,145438,2,0,L|136:272,1,47.5,10|0,0:0|0:0,0:0:0:0:
96,344,145612,1,0,0:0:0:0:
36,196,145786,1,2,0:0:0:0:
216,224,145961,1,0,0:0:0:0:
384,164,146135,6,0,L|400:216,1,47.5,10|0,0:0|0:0,0:0:0:0:
368,292,146310,1,0,0:0:0:0:
296,148,146484,1,2,0:0:0:0:
476,136,146659,1,0,0:0:0:0:
432,232,146833,6,0,P|452:328|356:376,2,190,10|2|10,0:0|0:0|0:0,0:0:0:0:
360,160,147705,6,0,B|312:156|280:104|280:104|220:128|220:128|196:108|168:104|168:104|188:84|188:40,1,285.000010871888,4|0,0:0|0:0,0:0:0:0:
364,72,148228,6,0,P|416:88|440:148,1,95,8|0,0:0|0:0,0:0:0:0:
360,160,148577,1,2,0:0:0:0:
364,64,148752,1,2,0:0:0:0:
360,172,148926,2,0,L|356:236,1,47.5,10|0,0:0|0:0,0:0:0:0:
352,312,149100,1,6,0:0:0:0:
240,196,149449,6,0,L|280:244,1,47.5,2|0,0:0|0:0,0:0:0:0:
444,232,149624,2,0,L|484:184,1,47.5,10|0,0:0|0:0,0:0:0:0:
352,312,149798,1,6,0:0:0:0:
232,284,150147,6,0,P|228:324|236:344,1,47.5,2|0,0:0|0:0,0:0:0:0:
464,332,150321,2,0,P|468:292|460:272,1,47.5,10|0,0:0|0:0,0:0:0:0:
352,312,150496,1,2,0:0:0:0:
352,312,150583,1,2,0:0:0:0:
352,312,150670,6,0,L|360:188,1,95,6|0,0:0|0:0,0:0:0:0:
232,284,151019,1,8,0:0:0:0:
56,344,151193,1,0,0:0:0:0:
224,189,151368,2,0,L|231:283,1,95,2|0,0:0|0:0,0:0:0:0:
280,120,151717,1,8,0:0:0:0:
136,260,151891,1,0,0:0:0:0:
280,120,152066,6,0,P|236:100|184:108,1,95,2|0,0:0|0:0,0:0:0:0:
432,292,152414,1,8,0:0:0:0:
224,189,152589,1,0,0:0:0:0:
280,344,152763,1,2,0:0:0:0:
432,292,152938,1,2,0:0:0:0:
260,250,153112,1,10,0:0:0:0:
360,132,153286,6,0,B|348:88|348:88|348:32,2,95,2|0|0,0:0|0:0|0:0,0:0:0:0:
280,344,153810,2,0,L|260:248,1,95,8|0,0:0|0:0,0:0:0:0:
436,176,154159,2,0,L|448:60,1,95
364,4,154507,5,10,0:0:0:0:
144,164,154682,1,2,0:0:0:0:
144,164,155031,1,0,0:0:0:0:
344,318,155205,5,10,0:0:0:0:
364,311,155554,1,2,0:0:0:0:
384,304,155903,1,10,0:0:0:0:
384,304,156252,5,4,1:0:0:0:
436,172,156426,1,2,0:0:0:0:
328,72,156600,1,0,1:0:0:0:
194,292,156775,2,0,L|390:304,1,190,6|0,0:0|0:0,0:0:0:0:
194,292,157298,1,0,1:0:0:0:
328,72,157473,6,0,B|272:132|300:196|300:196|336:172|392:184,1,190,6|0,0:0|0:0,0:0:0:0:
352,272,157996,1,0,1:0:0:0:
200,96,158170,2,0,B|168:136|104:116|104:116|56:108|16:148,1,190,6|0,0:0|1:0,0:0:0:0:
84,200,158606,1,0,1:0:0:0:
84,200,158693,1,0,1:0:0:0:
144,40,158868,6,0,B|200:60|200:60|236:52|236:52|288:68,1,142.5,6|0,0:0|0:0,0:0:0:0:
352,92,159217,1,2,0:0:0:0:
268,248,159391,1,2,1:2:0:0:
100,184,159566,6,0,P|165:160|231:184,1,142.5,6|0,0:0|0:0,0:0:0:0:
268,248,159914,1,2,0:0:0:0:
84,332,160089,1,2,1:2:0:0:
335,295,160263,6,0,P|349:227|304:176,1,142.5,6|0,0:0|0:0,0:0:0:0:
231,184,160612,1,2,0:0:0:0:
456,136,160786,1,2,1:2:0:0:
231,184,160961,6,0,L|59:172,1,142.5,6|0,0:0|0:0,0:0:0:0:
16,164,161310,1,2,0:0:0:0:
136,340,161484,1,2,1:2:0:0:
312,216,161659,2,0,P|320:188|308:156,1,47.5,0|0,1:0|1:0,0:0:0:0:
264,44,161833,1,4,1:0:0:0:
84,52,162182,5,0,1:0:0:0:
64,96,162269,1,0,0:0:0:0:
64,144,162356,1,0,0:0:0:0:
88,184,162443,1,0,0:0:0:0:
128,212,162531,1,0,1:0:0:0:
160,248,162618,1,0,0:0:0:0:
180,292,162705,1,0,0:0:0:0:
172,340,162792,1,0,0:0:0:0:
136,372,162879,5,0,1:0:0:0:
88,380,162967,1,0,0:0:0:0:
44,360,163054,1,0,0:0:0:0:
24,316,163141,1,0,0:0:0:0:
100,304,163228,5,0,1:0:0:0:
132,272,163316,1,0,0:0:0:0:
180,260,163403,1,0,0:0:0:0:
224,276,163490,1,0,0:0:0:0:
256,312,163577,5,0,1:0:0:0:
288,292,163664,1,0,0:0:0:0:
324,284,163752,1,0,0:0:0:0:
360,284,163839,1,0,0:0:0:0:
408,320,163926,5,0,1:0:0:0:
396,292,164013,1,0,0:0:0:0:
396,264,164100,1,0,0:0:0:0:
408,240,164188,1,0,0:0:0:0:
428,220,164275,1,0,1:0:0:0:
440,192,164362,1,0,0:0:0:0:
436,164,164449,1,0,0:0:0:0:
420,140,164536,1,0,0:0:0:0:
392,128,164624,6,0,L|340:144,3,47.5,0|0|0|0,1:0|0:0|0:0|0:0,0:0:0:0:
272,96,164973,5,0,1:0:0:0:
232,120,165060,1,0,0:0:0:0:
188,132,165147,1,0,0:0:0:0:
140,128,165234,1,0,0:0:0:0:
76,76,165321,5,0,1:0:0:0:
112,52,165409,1,0,0:0:0:0:
156,48,165496,1,0,0:0:0:0:
196,68,165583,1,0,0:0:0:0:
140,128,165670,5,0,1:0:0:0:
124,164,165757,1,0,0:0:0:0:
124,204,165845,1,0,0:0:0:0:
136,240,165932,1,0,0:0:0:0:
192,288,166019,5,0,1:0:0:0:
204,316,166106,1,0,0:0:0:0:
204,344,166193,1,0,0:0:0:0:
192,372,166281,1,0,0:0:0:0:
128,332,166368,6,0,L|68:336,1,47.5,0|0,1:0|0:0,0:0:0:0:
204,188,166542,2,0,L|260:192,1,47.5,0|0,1:0|0:0,0:0:0:0:
100,116,166717,6,0,P|96:92|100:60,1,56.9999982604981,0|0,1:0|0:0,0:0:0:0:
328,160,166891,2,0,P|332:184|328:216,1,56.9999982604981,0|0,1:0|0:0,0:0:0:0:
212,368,167066,2,0,P|208:344|212:312,1,56.9999982604981,0|0,1:0|0:0,0:0:0:0:
472,272,167240,1,0,1:0:0:0:
484,316,167327,1,0,1:0:0:0:
468,360,167414,6,0,B|408:336|408:336|320:352|320:352|364:344|392:272,1,213.750008153916,4|0,1:0|0:0,0:0:0:0:
304,280,167763,1,2,0:0:0:0:
376,100,167938,2,0,B|380:156|380:156|372:188|372:188|376:252,1,142.5,2|0,0:0|0:0,0:0:0:0:
304,280,168286,1,2,0:0:0:0:
84,180,168461,1,2,0:0:0:0:
72,332,168635,1,0,0:0:0:0:
256,156,168810,5,2,0:0:0:0:
84,180,168984,1,0,0:0:0:0:
272,76,169159,1,2,0:0:0:0:
180,248,169333,1,0,0:0:0:0:
340,132,169507,2,0,P|356:108|360:84,1,47.5,2|0,0:0|0:0,0:0:0:0:
472,66,169682,6,0,B|436:72|408:56|408:56|360:88|360:88|320:68|272:76,1,213.750008153916,2|0,1:2|0:0,0:0:0:0:
220,144,170031,2,0,P|192:156|144:144,1,47.5,0|0,1:0|0:0,0:0:0:0:
80,84,170205,6,0,L|196:72,1,95,2|0,1:2|0:0,0:0:0:0:
220,144,170467,1,2,0:0:0:0:
220,144,170554,1,0,0:0:0:0:
152,336,170728,6,0,B|100:356|44:312|44:312|96:296,1,142.5,2|0,0:0|0:0,0:0:0:0:
136,260,171077,1,2,0:0:0:0:
364,328,171252,1,2,0:0:0:0:
352,148,171426,2,0,L|344:116,2,31.6666666666667,2|0|0,1:2|1:0|1:0,1:0:0:0:
356,172,171600,5,6,1:2:0:0:
288,312,171775,1,0,0:0:0:0:
172,236,171949,1,2,0:0:0:0:
164,92,172124,1,0,0:0:0:0:
356,172,172298,6,0,P|304:148|216:216,1,142.500005435944,2|0,1:2|0:0,0:0:0:0:
172,236,172560,2,0,B|104:252|104:252|-4:216,1,142.500005435944,2|0,1:2|0:0,0:0:0:0:
35,229,172821,1,2,1:2:0:0:
296,236,172996,6,0,B|344:248|344:248|428:236,1,95,2|0,1:2|0:0,0:0:0:0:
416,236,173257,1,2,0:0:0:0:
244,348,173432,1,0,0:0:0:0:
248,312,173519,2,0,B|252:260|252:260|244:228|244:228|248:168,1,142.5,2|0,0:0|0:0,0:0:0:0:
252,136,173868,1,2,0:0:0:0:
20,152,174042,5,2,0:0:0:0:
160,44,174217,1,2,0:0:0:0:
200,168,174391,5,2,0:0:0:0:
44,68,174566,1,0,0:0:0:0:
8,244,174740,5,2,0:0:0:0:
200,168,174914,1,0,0:0:0:0:
328,288,175089,5,2,0:0:0:0:
320,316,175176,1,0,0:0:0:0:
112,208,175350,1,2,0:0:0:0:
104,176,175438,1,0,0:0:0:0:
280,146,175612,1,2,0:0:0:0:
132,104,175786,6,0,B|112:124|108:144|108:144|64:156|64:156|32:96|48:16|120:-24|212:12|228:68|224:136|184:164|184:164|232:140|232:140|288:148,1,570,4|0,1:0|0:0,0:0:0:0:
380,280,177007,1,0,0:0:0:0:
380,280,177095,1,0,0:0:0:0:
380,280,177182,6,0,B|400:260|404:240|404:240|448:228|448:228|480:288|464:368|392:408|300:372|284:316|288:248|328:220|328:220|280:244|280:244|224:236,1,570,4|0,1:0|0:0,0:0:0:0:
56,96,178577,6,0,P|92:48|216:84,1,170.999994781494,4|0,1:0|0:0,0:0:0:0:
194,55,178839,5,2,0:0:0:0:
194,55,178926,1,0,0:0:0:0:
172,216,179100,2,0,L|140:116,1,95,2|0,0:0|0:0,0:0:0:0:
88,248,179449,1,2,0:0:0:0:
76,296,179536,1,0,0:0:0:0:
64,340,179624,1,2,0:0:0:0:
172,216,179798,1,2,0:0:0:0:
336,288,179973,5,2,0:0:0:0:
176,288,180147,1,0,0:0:0:0:
256,220,180321,1,2,0:0:0:0:
256,348,180496,1,0,0:0:0:0:
448,340,180670,2,0,L|456:288,1,47.5,0|0,1:0|0:0,0:0:0:0:
340,216,180845,6,0,P|328:128|392:80,1,170.999994781494,2|0,1:2|0:0,0:0:0:0:
452,136,181193,2,0,P|416:160|380:160,1,56.9999982604981,0|0,1:2|0:0,0:0:0:0:
256,76,181368,6,0,B|216:72|216:72|176:56|176:56|140:76|100:80,1,142.500005435944,2|0,1:2|0:0,0:0:0:0:
48,120,181629,1,2,0:0:0:0:
80,148,181717,2,0,L|88:284,2,95,0|2|0,0:0|0:0|0:0,0:0:0:0:
380,236,182240,1,2,0:0:0:0:
408,340,182414,1,2,0:0:0:0:
284,316,182589,2,0,L|248:328,2,31.6666666666667,2|0|0,1:2|1:0|1:0,1:0:0:0:
300,308,182763,5,2,1:2:0:0:
220,228,182938,1,0,0:0:0:0:
88,232,183112,1,2,0:0:0:0:
4,328,183286,1,0,0:0:0:0:
220,228,183461,6,0,B|220:180|220:180|208:144|208:144|216:80,1,142.500005435944,2|0,1:2|0:0,0:0:0:0:
92,91,183723,2,0,B|100:148|100:148|88:184|88:184|88:232,1,142.500005435944,2|0,1:2|0:0,0:0:0:0:
160,328,183984,2,0,P|164:296|136:256,1,47.5,2|0,1:2|0:0,0:0:0:0:
76,308,184159,5,2,1:2:0:0:
240,304,184333,1,0,0:0:0:0:
260,292,184420,2,0,L|368:284,1,95,2|0,0:0|0:0,0:0:0:0:
476,292,184682,2,0,L|382:300,1,95,2|0,0:0|0:0,0:0:0:0:
416,176,185031,1,2,0:0:0:0:
424,40,185205,1,2,0:0:0:0:
376,148,185379,1,2,0:0:0:0:
304,76,185554,5,2,0:0:0:0:
168,216,185728,1,0,0:0:0:0:
344,216,185903,1,2,0:0:0:0:
208,76,186077,1,0,0:0:0:0:
80,32,186252,5,2,0:0:0:0:
88,64,186339,2,0,L|112:200,1,95,0|2,0:0|0:0,0:0:0:0:
104,244,186600,2,0,P|56:276|8:276,1,95,0|2,0:0|0:0,0:0:0:0:
376,240,186949,5,2,0:0:0:0:
464,116,187124,5,0,0:0:0:0:
476,92,187211,1,2,0:0:0:0:
272,152,187385,5,0,0:0:0:0:
280,180,187473,1,2,0:0:0:0:
480,280,187647,5,0,0:0:0:0:
492,256,187734,1,2,0:0:0:0:
268,300,187909,5,0,0:0:0:0:
276,328,187997,1,2,0:0:0:0:
280,180,188170,1,0,0:0:0:0:
280,180,188257,1,2,0:0:0:0:
280,180,188345,6,0,L|276:132,1,38,0|0,1:0|0:0,0:0:0:0:
380,80,188519,2,0,L|384:36,2,25.3333333333333
468,148,188693,6,0,L|472:196,1,38,0|0,1:0|0:0,0:0:0:0:
368,248,188867,2,0,L|364:292,2,25.3333333333333
352,168,189042,6,0,P|392:168|424:192,1,47.5,0|0,1:0|0:0,0:0:0:0:
444,304,189217,2,0,P|424:338|387:354,1,47.5,0|0,1:0|0:0,0:0:0:0:
296,268,189391,1,0,1:0:0:0:
260,236,189478,1,0,1:0:0:0:
212,232,189566,1,0,1:0:0:0:
168,252,189653,1,0,1:0:0:0:
140,292,189740,6,0,L|32:300,1,95,6|0,1:2|0:0,0:0:0:0:
45,299,190002,1,2,0:0:0:0:
45,299,190089,1,2,1:2:0:0:
216,172,190263,2,0,L|344:164,1,95,2|0,0:0|1:0,0:0:0:0:
224,324,190612,1,2,0:0:0:0:
224,324,190699,1,0,0:0:0:0:
224,324,190786,5,2,1:2:0:0:
48,208,190961,1,2,0:0:0:0:
224,240,191135,5,2,1:2:0:0:
28,188,191310,1,2,0:0:0:0:
224,148,191484,5,2,1:2:0:0:
12,172,191659,1,2,0:0:0:0:
160,60,191833,1,0,1:0:0:0:
160,60,191920,2,0,P|216:40|264:48,1,95,2|2,0:0|0:0,0:0:0:0:
304,96,192182,2,0,B|352:96|352:96|404:64,1,95,2|2,1:2|0:0,0:0:0:0:
416,292,192531,6,0,P|364:316|300:304,1,95,2|0,1:2|0:0,0:0:0:0:
204,236,192792,1,2,0:0:0:0:
224,212,192879,2,0,L|240:332,2,95,0|2|0,1:0|0:0|1:0,0:0:0:0:
112,320,193403,1,2,0:0:0:0:
84,172,193577,5,2,1:2:0:0:
224,212,193752,1,2,0:0:0:0:
92,152,193926,5,2,1:2:0:0:
296,88,194100,1,2,0:0:0:0:
100,132,194275,5,2,1:2:0:0:
244,188,194449,1,2,0:0:0:0:
76,56,194624,5,0,1:0:0:0:
52,72,194711,2,0,P|24:144|104:208,1,142.500005435944,2|2,0:0|0:0,0:0:0:0:
118,238,194973,2,0,B|160:200|160:200|200:208|244:188,1,142.500005435944,2|2,1:2|0:0,0:0:0:0:
388,108,195321,6,0,L|380:0,1,95,2|0,1:2|0:0,0:0:0:0:
380,13,195583,1,2,0:0:0:0:
380,13,195670,1,0,1:0:0:0:
324,236,195845,2,0,L|332:336,1,95,2|0,0:0|1:0,0:0:0:0:
331,330,196193,1,2,0:0:0:0:
444,240,196368,5,2,1:2:0:0:
388,108,196542,1,2,0:0:0:0:
504,152,196717,5,2,1:2:0:0:
308,208,196891,1,2,0:0:0:0:
352,364,197066,5,2,1:2:0:0:
316,240,197240,1,2,0:0:0:0:
448,308,197414,1,0,1:0:0:0:
448,308,197502,2,0,L|328:312,1,95,2|2,0:0|0:0,0:0:0:0:
324,312,197763,1,2,1:2:0:0:
263,174,197938,1,2,0:0:0:0:
64,308,198112,6,0,L|184:312,1,95,0|0,1:0|0:0,0:0:0:0:
232,288,198374,1,2,0:0:0:0:
256,264,198461,2,0,P|272:196|240:148,2,95,0|2|0,1:0|0:0|1:0,0:0:0:0:
80,208,198984,1,2,0:0:0:0:
64,116,199159,1,2,1:2:0:0:
48,24,199333,1,2,0:0:0:0:
148,52,199507,5,2,1:2:0:0:
148,52,199595,2,0,L|204:88,2,47.5,0|2|0,0:0|0:0|0:0,0:0:0:0:
316,40,199856,1,2,1:2:0:0:
316,40,199943,2,0,L|256:92,2,47.5,0|2|0,0:0|0:0|0:0,0:0:0:0:
240,152,200205,1,2,1:2:0:0:
232,200,200292,1,0,0:0:0:0:
236,248,200379,1,0,0:0:0:0:
260,292,200467,1,2,1:2:0:0:
300,320,200554,5,0,0:0:0:0:
256,348,200641,1,0,0:0:0:0:
204,364,200728,1,2,1:2:0:0:
152,360,200816,1,0,0:0:0:0:
103,343,200903,6,0,B|103:299|103:299|87:271|87:271|95:235|95:235|83:199|83:199|91:175|91:175|87:95,1,213.750008153916,2|0,1:2|0:0,0:0:0:0:
88,64,201252,1,2,1:2:0:0:
24,312,201426,6,0,P|88:260|168:288,1,142.5,2|0,0:0|0:0,0:0:0:0:
168,292,201775,1,2,0:0:0:0:
320,120,201949,5,2,1:2:0:0:
168,292,202124,1,2,0:0:0:0:
88,64,202298,5,2,1:2:0:0:
208,192,202473,1,2,0:0:0:0:
320,120,202647,5,2,1:2:0:0:
96,156,202821,1,2,0:0:0:0:
132,320,202996,2,0,P|176:252|144:176,1,142.500005435944,2|0,1:2|0:0,0:0:0:0:
96,156,203257,2,0,B|48:104|86:42|86:42|116:88,1,142.500005435944,2|0,1:2|0:0,0:0:0:0:
164,104,203519,1,2,1:2:0:0:
332,104,203693,6,0,P|372:76|452:84,1,95,2|0,1:2|0:0,0:0:0:0:
480,124,203955,1,2,0:0:0:0:
492,164,204042,2,0,L|464:276,2,95,0|2|0,1:0|0:0|1:0,0:0:0:0:
288,156,204566,1,2,0:0:0:0:
300,240,204740,1,2,1:2:0:0:
312,324,204914,1,2,0:0:0:0:
208,276,205089,5,2,1:2:0:0:
208,276,205176,2,0,L|152:280,2,47.5,0|2|0,0:0|0:0|0:0,0:0:0:0:
28,220,205438,1,2,1:2:0:0:
28,220,205525,2,0,L|96:212,2,47.5,0|2|0,0:0|0:0|0:0,0:0:0:0:
152,168,205786,1,2,1:2:0:0:
168,132,205874,1,0,0:0:0:0:
164,96,205961,1,0,0:0:0:0:
148,64,206048,1,2,1:2:0:0:
108,32,206135,5,0,0:0:0:0:
152,48,206223,1,0,0:0:0:0:
200,48,206310,1,2,1:2:0:0:
244,28,206397,1,0,0:0:0:0:
288,8,206484,6,0,P|352:8|400:40,1,95,6|0,1:2|0:0,0:0:0:0:
460,136,206833,1,0,1:2:0:0:
256,252,207007,1,2,1:2:0:0:
248,244,207095,1,0,1:0:0:0:
240,236,207182,6,0,L|228:188,1,47.5,2|0,1:2|0:0,0:0:0:0:
24,148,207356,2,0,L|12:208,1,47.5,2|0,1:2|0:0,1:2:0:0:
228,224,207531,6,0,L|216:176,1,47.5,2|0,1:2|0:0,0:0:0:0:
12,136,207705,2,0,L|0:196,1,47.5,2|0,1:2|0:0,1:2:0:0:
176,288,207879,6,0,B|116:252|116:252|32:284,1,142.500005435944,0|0,1:0|0:0,0:0:0:0:
108,352,208141,1,0,0:0:0:0:
108,352,208228,2,0,L|232:340,1,95,2|2,1:2|1:2,1:2:0:0:
256,268,208490,1,0,1:0:0:0:
276,256,208577,2,0,L|344:268,1,47.5,2|0,1:2|0:0,0:0:0:0:
472,280,208752,2,0,L|516:288,2,31.6666666666667,2|0|0,1:2|1:0|1:0,1:0:0:0:
440,360,208926,6,0,P|400:328|392:272,1,71.2500027179719,0|0,1:0|0:0,0:0:0:0:
312,184,209100,2,0,P|352:152|360:96,1,71.2500027179719,0|0,1:0|0:0,0:0:0:0:
216,48,209275,6,0,L|121:53,1,95,0|2,1:0|0:0,0:0:0:0:
36,136,209536,1,0,0:0:0:0:
65,163,209624,6,0,L|164:156,1,99.7499969558717,0|2,1:0|0:0,0:0:0:0:
248,240,209885,1,0,0:0:0:0:
218,267,209973,6,0,L|112:264,1,104.500003189087,0|2,1:0|0:0,0:0:0:0:
36,340,210234,1,0,0:0:0:0:
65,367,210322,6,0,L|184:360,1,109.250002083778,0|2,1:0|0:0,0:0:0:0:
312,300,210583,1,0,0:0:0:0:
352,292,210670,6,0,B|444:280|444:280|428:312,1,113.999996520996,0|2,1:0|0:0,0:0:0:0:
280,200,210932,1,0,0:0:0:0:
240,192,211019,6,0,B|144:176|144:176|164:212,1,118.75,0|2,1:0|0:0,0:0:0:0:
300,80,211281,1,0,0:0:0:0:
340,72,211368,6,0,B|436:60|436:60|416:92,1,123.499994346619,0|2,1:0|0:0,0:0:0:0:
232,124,211629,1,0,0:0:0:0:
184,116,211717,1,0,1:0:0:0:
136,108,211804,1,0,0:0:0:0:
88,100,211891,2,0,L|72:56,3,30.8749985866547,2|0|0|0,1:2|1:0|1:0|1:0,1:0:0:0:
36,172,212066,6,0,L|44:324,1,142.500005435944
208,332,212327,1,0,0:0:0:0:
204,300,212414,6,0,L|196:144,1,152
12,128,212676,1,0,0:0:0:0:
16,164,212763,6,0,L|24:332,1,161.500003080368
232,360,213025,1,0,0:0:0:0:
228,312,213112,6,0,L|216:136,1,170.999994781494
312,48,213374,1,0,0:0:0:0:
372,96,213461,6,0,L|472:80,1,85.4999973907472
506,153,213635,2,0,L|500:196,2,42.7499986953736
456,268,213810,6,0,L|336:288,1,87.8749996647835
289,305,213984,2,0,L|280:348,2,43.9374998323917
204,384,214159,6,0,L|112:368,1,92.6250003533363
57,309,214333,2,0,L|68:264,2,46.3125001766682
136,216,214507,6,0,L|229:231,1,95
288,172,214682,2,0,L|284:120,2,47.5
221,39,214856,5,4,0:0:0:0:
229,39,214943,1,0,0:0:0:0:
237,39,215031,1,0,0:0:0:0:
245,39,215118,1,0,0:0:0:0:
253,39,215205,1,0,0:0:0:0:
261,39,215292,1,0,0:0:0:0:
269,39,215379,1,0,0:0:0:0:
277,39,215467,1,0,0:0:0:0:
285,39,215554,5,0,0:0:0:0:
293,39,215641,1,0,0:0:0:0:
301,39,215728,1,0,0:0:0:0:
309,39,215816,1,0,0:0:0:0:
316,40,215903,1,0,0:0:0:0:
324,40,215990,1,0,0:0:0:0:
332,40,216077,1,0,0:0:0:0:
340,40,216164,1,0,0:0:0:0:
348,40,216252,5,0,0:0:0:0:
356,40,216339,1,0,0:0:0:0:
364,40,216426,1,0,0:0:0:0:
372,40,216513,1,0,0:0:0:0:
380,40,216600,1,0,0:0:0:0:
388,40,216688,1,0,0:0:0:0:
396,40,216775,1,0,0:0:0:0:
404,40,216862,1,0,0:0:0:0:
412,40,216949,5,0,0:0:0:0:
420,40,217036,1,0,0:0:0:0:
428,40,217124,1,0,0:0:0:0:
436,40,217211,1,0,0:0:0:0:
444,40,217298,1,0,0:0:0:0:
452,40,217385,1,0,0:0:0:0:
460,40,217473,1,0,0:0:0:0:
468,40,217560,1,0,0:0:0:0:
476,40,217647,5,0,0:0:0:0:
484,40,217734,1,0,0:0:0:0:
492,40,217821,1,0,0:0:0:0:
500,40,217909,1,0,0:0:0:0:
508,40,217996,6,0,L|504:92,2,47.5000018119813,2|0|0,0:0|0:0|0:0,0:0:0:0:
440,136,218170,2,0,L|436:188,2,47.5000018119813,2|0|0,0:0|0:0|0:0,0:0:0:0:
344,160,218345,6,0,L|292:184,2,31.6666666666667,2|0|0,0:0|0:0|0:0,0:0:0:0:
196,173,218519,2,0,L|168:160,2,31.6666666666667,2|0|0,0:0|0:0|0:0,0:0:0:0:
144,32,218693,6,0,L|180:56,2,41.1666647822063,2|0|0,0:0|0:0|0:0,0:0:0:0:
333,54,218868,2,0,L|368:32,2,41.1666647822063,2|0|0,0:0|0:0|0:0,0:0:0:0:
256,32,219042,6,0,B|256:260,1,213.750008153916,2|0,0:0|0:0,0:0:0:0:
79,212,219391,6,0,P|72:299|151:261,1,213.750008153916,4|0,1:0|0:0,0:0:0:0:
296,200,219740,6,0,P|256:124|216:204,1,213.750008153916,4|0,1:0|0:0,0:0:0:0:
360,261,220089,6,0,P|439:299|432:212,1,213.750008153916,4|0,1:0|0:0,0:0:0:0:
372,168,220438,5,4,1:2:0:0:
356,132,220525,1,0,0:0:0:0:
352,96,220612,1,0,0:0:0:0:
364,60,220699,1,0,0:0:0:0:
388,16,220786,5,8,1:2:0:0:
352,40,220874,1,0,0:0:0:0:
312,48,220961,1,0,0:0:0:0:
268,40,221048,1,0,0:0:0:0:
220,16,221135,5,0,1:0:0:0:
172,12,221223,1,0,0:0:0:0:
128,28,221310,1,0,0:0:0:0:
96,68,221397,1,0,0:0:0:0:
88,116,221484,1,8,1:2:0:0:
104,160,221571,1,0,0:0:0:0:
140,192,221659,1,0,0:0:0:0:
188,200,221746,1,0,0:0:0:0:
236,188,221833,6,0,B|292:176|292:176|400:188,1,113.999996520996,0|0,1:0|0:0,0:0:0:0:
408,240,222095,1,0,0:0:0:0:
408,240,222182,2,0,B|416:272|416:272|400:304,1,56.9999982604981,10|0,1:2|0:0,0:0:0:0:
292,320,222356,2,0,B|281:298|281:298|289:266,1,56.9999982604981,2|0,0:0|0:0,0:0:0:0:
416,236,222531,6,0,B|424:272|424:272|408:308,1,61.7499971733095,2|0,1:2|0:0,0:0:0:0:
284,324,222705,2,0,B|272:301|272:301|280:265,1,61.7499971733095,2|0,0:0|0:0,0:0:0:0:
400,148,222879,6,0,P|456:152|472:168,1,61.7499971733095,10|0,1:2|0:0,0:0:0:0:
200,212,223054,2,0,P|144:208|128:192,1,61.7499971733095,2|0,0:0|0:0,0:0:0:0:
112,48,223228,5,0,1:0:0:0:
144,68,223316,1,0,0:0:0:0:
164,100,223403,1,0,0:0:0:0:
176,136,223490,1,0,0:0:0:0:
120,112,223577,5,8,1:2:0:0:
168,84,223664,1,0,0:0:0:0:
224,76,223752,1,0,0:0:0:0:
280,84,223839,1,0,0:0:0:0:
332,108,223926,2,0,P|368:112|400:100,1,56.9999982604981,0|0,1:0|0:0,0:0:0:0:
495,224,224100,2,0,P|467:228|439:221,1,56.9999982604981
304,328,224275,5,10,1:2:0:0:
324,316,224333,1,2,0:0:0:0:
344,312,224391,1,2,0:0:0:0:
368,312,224449,1,2,0:0:0:0:
392,316,224507,1,2,0:0:0:0:
412,324,224566,1,2,0:0:0:0:
443,343,224624,6,0,B|451:267|451:267|431:187,1,123.499994346619,2|0,1:2|0:0,0:0:0:0:
384,164,224885,2,0,P|336:196|256:172,1,123.499994346619,0|0,1:0|0:0,0:0:0:0:
316,108,225147,1,0,1:0:0:0:
316,108,225234,1,0,0:0:0:0:
316,108,225321,6,0,L|320:52,1,47.5,0|0,1:0|0:0,0:0:0:0:
200,160,225496,2,0,L|196:204,1,42.7499986953736,0|0,1:0|0:0,0:0:0:0:
116,92,225670,2,0,L|120:40,1,38,8|0,1:2|0:0,0:0:0:0:
24,144,225845,2,0,L|20:188,1,33.2499989852906,0|0,1:0|0:0,0:0:0:0:
72,320,226019,5,0,1:0:0:0:
108,304,226106,1,0,0:0:0:0:
144,296,226193,1,0,0:0:0:0:
184,296,226281,1,0,0:0:0:0:
220,308,226368,1,8,1:2:0:0:
252,340,226455,1,0,0:0:0:0:
296,356,226542,1,0,0:0:0:0:
344,356,226629,1,0,0:0:0:0:
380,328,226717,5,0,1:0:0:0:
320,116,226891,1,0,0:0:0:0:
308,260,227066,1,8,1:2:0:0:
440,32,227240,1,0,0:0:0:0:
176,56,227414,1,0,1:0:0:0:
176,56,227763,5,8,1:2:0:0:
140,72,227850,1,0,0:0:0:0:
104,76,227938,1,0,0:0:0:0:
68,68,228025,1,0,0:0:0:0:
32,52,228112,6,0,L|20:104,1,47.5,0|0,1:0|0:0,0:0:0:0:
188,152,228286,2,0,L|200:204,1,47.5,0|0,0:0|1:0,0:0:0:0:
24,252,228461,2,0,L|14:299,1,47.5,8|0,1:2|0:0,0:0:0:0:
216,280,228635,1,0,1:0:0:0:
264,268,228723,1,0,0:0:0:0:
308,284,228810,6,0,L|360:272,1,47.5,4|0,1:0|0:0,0:0:0:0:
468,156,228984,6,0,P|480:144|484:116,2,31.6666666666667
408,100,229159,2,0,P|416:76|416:52,2,37.9999988403321,8|0|0,1:2|0:0|0:0,0:0:0:0:
336,60,229333,2,0,P|336:36|324:16,2,44.3333319803874
256,52,229507,5,4,1:0:0:0:
96,196,229682,6,0,P|82:204|74:218,2,31.6666666666667
95,332,229856,2,0,P|112:339|131:341,2,37.9999988403321,8|0|0,1:2|0:0|0:0,0:0:0:0:
215,260,230031,2,0,P|212:238|203:217,2,44.3333319803874
139,264,230205,5,4,1:0:0:0:
432,220,230379,6,0,P|420:204|396:196,2,31.6666666666667
296,220,230554,2,0,P|288:238|288:264,2,37.9999988403321,8|0|0,1:2|0:0|0:0,0:0:0:0:
368,340,230728,2,0,P|391:337|416:324,2,44.3333319803874
364,264,230903,5,4,1:0:0:0:
139,264,231077,1,0,1:0:0:0:
296,220,231252,1,8,1:2:0:0:
332,192,231339,1,0,1:0:0:0:
380,188,231426,1,0,1:0:0:0:
420,208,231513,1,0,1:0:0:0:
440,252,231600,5,4,1:0:0:0:
240,312,231775,1,0,0:0:0:0:
204,328,231862,1,0,0:0:0:0:
168,332,231949,1,8,1:2:0:0:
136,312,232036,1,0,0:0:0:0:
104,292,232124,1,0,0:0:0:0:
68,292,232211,1,0,0:0:0:0:
28,324,232298,5,0,1:0:0:0:
48,280,232385,1,0,0:0:0:0:
52,232,232473,1,0,0:0:0:0:
40,188,232560,1,0,0:0:0:0:
12,148,232647,6,0,P|12:120|24:92,1,47.5,8|0,1:2|0:0,0:0:0:0:
192,80,232821,2,0,P|208:108|212:140,1,47.5
116,144,232996,1,0,1:0:0:0:
180,240,233170,5,2,0:0:0:0:
176,260,233228,1,2,0:0:0:0:
172,280,233286,1,2,0:0:0:0:
168,300,233345,1,10,1:2:0:0:
272,160,233519,6,2,L|260:108,3,31.6666666666667,2|2|2|2,0:0|0:0|0:0|1:2,0:0:0:0:
368,240,233868,5,2,0:0:0:0:
364,260,233926,1,2,0:0:0:0:
360,280,233984,1,2,0:0:0:0:
356,300,234043,1,10,1:2:0:0:
400,116,234217,6,2,L|388:64,2,31.6666666666667
396,160,234391,5,6,1:2:0:0:
364,148,234478,1,0,0:0:0:0:
348,112,234566,1,0,0:0:0:0:
368,84,234653,1,0,0:0:0:0:
400,76,234740,1,8,1:2:0:0:
432,88,234827,1,0,0:0:0:0:
448,124,234915,1,0,0:0:0:0:
428,152,235002,1,0,0:0:0:0:
396,160,235089,5,4,1:2:0:0:
354,139,235176,1,0,0:0:0:0:
334,97,235263,1,0,0:0:0:0:
354,55,235350,1,0,0:0:0:0:
401,39,235438,1,8,1:2:0:0:
443,63,235525,1,0,0:0:0:0:
463,105,235612,1,0,0:0:0:0:
442,143,235699,1,0,0:0:0:0:
396,160,235786,6,0,L|272:144,1,95,4|0,1:2|0:0,0:0:0:0:
236,104,236048,1,0,0:0:0:0:
236,104,236135,6,0,L|224:48,2,31.6666666666667,8|0|0,1:2|0:0|0:0,0:0:0:0:
96,24,236310,2,0,L|72:45,2,31.6666666666667
116,180,236484,2,0,L|170:197,2,31.6666666666667,4|0|0,1:2|0:0|0:0,0:0:0:0:
156,100,236659,6,0,P|124:96|116:100,2,31.6666666666667
72,148,236833,2,0,P|28:160|12:176,2,37.9999988403321,8|0|0,1:2|0:0|0:0,0:0:0:0:
40,232,237007,2,0,P|8:240|-8:256,2,44.3333319803874
44,320,237182,6,2,L|36:376,11,44.3333319803874,6|2|2|2|2|2|10|2|2|2|2|2,1:2|0:2|0:2|0:2|0:2|0:2|1:2|0:2|0:2|0:2|0:2|0:2,0:2:0:0:
124,280,237879,5,2,1:2:0:0:
164,256,237967,1,0,0:0:0:0:
212,252,238054,1,2,0:0:0:0:
256,268,238141,1,0,0:0:0:0:
292,300,238228,1,10,1:2:0:0:
336,316,238316,1,0,0:0:0:0:
384,308,238403,1,2,1:2:0:0:
424,284,238490,1,0,0:0:0:0:
444,240,238577,5,4,1:2:0:0:
348,32,238752,1,0,1:0:0:0:
348,32,238839,1,0,1:0:0:0:
348,224,239013,1,0,1:0:0:0:
348,244,239100,2,0,L|348:280,3,23.75,0|0|0|0,1:0|1:0|1:0|1:0,1:0:0:0:
288,164,239275,5,6,1:2:0:0:
272,172,239362,1,0,1:0:0:0:
84,168,239536,1,0,1:0:0:0:
68,156,239624,2,2,L|12:168,3,47.5,6|2|2|2,1:2|0:0|0:0|0:0,0:0:0:0:
48,52,239973,5,4,1:0:0:0:
88,72,240060,1,0,0:0:0:0:
132,72,240147,1,0,0:0:0:0:
172,52,240234,1,0,0:0:0:0:
172,8,240321,5,8,1:2:0:0:
200,44,240409,1,0,0:0:0:0:
244,60,240496,1,0,0:0:0:0:
288,52,240583,1,0,0:0:0:0:
292,16,240670,5,0,1:0:0:0:
320,60,240758,1,0,0:0:0:0:
368,80,240845,1,0,0:0:0:0:
420,72,240932,1,0,0:0:0:0:
468,92,241019,1,8,1:2:0:0:
480,144,241106,1,0,0:0:0:0:
448,184,241194,1,0,0:0:0:0:
432,232,241281,1,0,0:0:0:0:
440,284,241368,6,0,L|320:276,1,113.999996520996,0|0,1:0|0:0,0:0:0:0:
248,240,241630,1,0,0:0:0:0:
248,240,241717,2,0,P|212:240|160:264,1,56.9999982604981,10|0,1:2|0:0,0:0:0:0:
100,280,241891,2,0,P|68:297|35:344,1,56.9999982604981,2|0,0:0|0:0,0:0:0:0:
32,152,242066,6,0,P|72:152|124:176,1,61.7499971733095,2|0,1:2|0:0,0:0:0:0:
199,202,242240,2,0,P|226:217|248:240,1,61.7499971733095,2|0,0:0|0:0,0:0:0:0:
264,68,242414,6,0,P|231:64|199:73,1,66.4999979705811,10|0,1:2|0:0,0:0:0:0:
83,113,242589,2,2,P|53:126|31:151,1,66.4999979705811,2|0,0:0|0:0,0:0:0:0:
328,128,242763,5,0,1:0:0:0:
336,92,242851,1,0,0:0:0:0:
328,56,242938,1,0,0:0:0:0:
304,24,243025,1,0,0:0:0:0:
264,68,243112,5,8,1:2:0:0:
308,96,243199,1,0,0:0:0:0:
360,104,243287,1,0,0:0:0:0:
408,88,243374,1,0,0:0:0:0:
456,64,243461,2,0,P|464:100|456:132,1,47.5,0|0,1:0|0:0,0:0:0:0:
276,208,243635,2,0,P|268:176|276:140,1,47.5
480,272,243810,5,10,1:2:0:0:
460,256,243868,1,2,0:0:0:0:
436,244,243926,1,2,0:0:0:0:
412,240,243984,1,2,0:0:0:0:
388,244,244042,1,2,0:0:0:0:
364,252,244101,1,2,0:0:0:0:
336,276,244159,6,0,B|184:284,1,132.999995941162,2|0,1:2|0:0,0:0:0:0:
128,312,244420,2,0,B|160:236|160:236|148:176,1,132.999995941162,0|0,1:0|0:0,0:0:0:0:
128,108,244682,1,0,1:0:0:0:
128,108,244769,1,0,0:0:0:0:
128,108,244856,6,0,L|184:116,1,47.5,0|0,1:0|0:0,0:0:0:0:
48,188,245031,2,0,L|-8:196,1,42.7499986953736,0|0,1:0|0:0,0:0:0:0:
120,264,245205,2,0,L|164:272,1,38,8|0,1:2|0:0,0:0:0:0:
40,324,245380,2,0,L|7:329,1,33.2499989852906,0|0,1:0|0:0,0:0:0:0:
228,240,245554,5,0,1:0:0:0:
268,228,245641,1,0,0:0:0:0:
312,232,245728,1,0,0:0:0:0:
348,252,245816,1,0,0:0:0:0:
376,288,245903,1,8,1:2:0:0:
420,276,245990,1,0,0:0:0:0:
456,244,246077,1,0,0:0:0:0:
468,200,246164,1,0,0:0:0:0:
468,152,246252,5,0,1:0:0:0:
248,56,246426,1,0,0:0:0:0:
312,232,246601,1,8,1:2:0:0:
392,36,246775,1,0,0:0:0:0:
180,124,246949,2,0,L|56:136,1,95,0|0,1:0|0:0,0:0:0:0:
40,64,247211,1,0,0:0:0:0:
40,64,247298,6,0,L|44:24,6,23.75,8|0|0|0|0|0|0,1:2|1:0|1:0|1:0|1:0|1:0|1:0,1:0:0:0:
148,56,247647,6,0,P|168:48|200:52,1,47.5,0|0,1:0|0:0,0:0:0:0:
256,132,247821,2,0,P|278:140|301:138,1,47.5,0|0,1:0|0:0,0:0:0:0:
376,72,247996,2,0,L|380:48,2,23.75,8|0|0,1:2|1:0|1:0,1:0:0:0:
284,56,248170,5,0,1:0:0:0:
284,56,248258,1,0,1:0:0:0:
284,56,248345,1,0,1:0:0:0:
108,208,248519,6,0,L|52:212,2,31.6666666666667,0|0|0,1:0|0:0|0:0,0:0:0:0:
168,256,248693,1,14,0:0:0:0:
176,280,248752,1,2,0:0:0:0:
176,304,248810,1,2,0:0:0:0:
168,328,248868,1,2,0:0:0:0:
88,292,249042,5,0,1:0:0:0:
228,168,249217,6,0,L|172:164,2,31.6666666666667,0|0|0,1:0|0:0|0:0,0:0:0:0:
288,120,249391,1,14,0:0:0:0:
296,96,249450,1,2,0:0:0:0:
296,72,249508,1,2,0:0:0:0:
288,48,249566,1,2,0:0:0:0:
208,84,249740,5,0,1:0:0:0:
384,208,249914,6,0,L|328:212,2,31.6666666666667,0|0|0,1:0|0:0|0:0,0:0:0:0:
444,256,250088,1,12,0:0:0:0:
452,280,250147,1,2,0:0:0:0:
452,304,250205,1,2,0:0:0:0:
444,328,250263,1,2,0:0:0:0:
364,292,250437,5,0,1:0:0:0:
328,304,250525,1,0,0:0:0:0:
292,308,250612,1,0,1:0:0:0:
256,300,250699,1,0,0:0:0:0:
224,280,250787,1,8,1:2:0:0:
188,264,250874,1,0,1:0:0:0:
152,260,250961,1,0,1:0:0:0:
116,268,251048,1,0,1:0:0:0:
84,288,251135,5,0,1:0:0:0:
292,200,251310,1,0,0:0:0:0:
276,168,251397,1,0,0:0:0:0:
272,132,251484,1,8,1:2:0:0:
280,96,251571,1,0,0:0:0:0:
304,68,251659,1,0,0:0:0:0:
340,60,251746,1,0,0:0:0:0:
376,64,251833,5,0,1:0:0:0:
344,24,251920,1,0,0:0:0:0:
292,12,252008,1,0,0:0:0:0:
240,20,252095,1,0,0:0:0:0:
200,52,252182,6,0,P|184:32|144:16,1,47.5,8|0,1:2|0:0,0:0:0:0:
20,68,252356,2,0,P|10:91|16:134,1,47.5
116,112,252531,1,0,1:0:0:0:
200,52,252705,5,2,0:0:0:0:
232,44,252763,1,2,0:0:0:0:
264,48,252821,1,2,0:0:0:0:
292,64,252880,1,10,1:2:0:0:
248,168,253054,6,2,L|240:136,3,31.6666666666667,2|2|2|2,0:0|0:0|0:0|1:2,0:0:0:0:
464,192,253403,5,2,0:0:0:0:
432,184,253461,1,2,0:0:0:0:
400,188,253519,1,2,0:0:0:0:
372,204,253578,1,10,1:2:0:0:
416,308,253752,6,2,L|424:276,2,31.6666666666667
420,352,253926,5,6,1:2:0:0:
452,340,254013,1,0,0:0:0:0:
468,304,254101,1,0,0:0:0:0:
448,276,254188,1,0,0:0:0:0:
416,268,254275,1,8,1:2:0:0:
384,280,254362,1,0,0:0:0:0:
368,316,254450,1,0,0:0:0:0:
388,344,254537,1,0,0:0:0:0:
420,352,254624,5,4,1:2:0:0:
462,332,254711,1,0,0:0:0:0:
482,290,254798,1,0,0:0:0:0:
461,248,254885,1,0,0:0:0:0:
414,231,254973,1,8,1:2:0:0:
372,256,255060,1,0,0:0:0:0:
352,298,255147,1,0,0:0:0:0:
373,336,255234,1,0,0:0:0:0:
420,352,255321,6,0,L|408:228,1,95,4|0,1:2|0:0,0:0:0:0:
400,176,255583,1,0,0:0:0:0:
400,176,255670,6,0,L|448:156,2,31.6666666666667,8|0|0,1:2|0:0|0:0,0:0:0:0:
324,136,255845,2,0,L|276:116,2,31.6666666666667
384,72,256019,2,0,L|432:52,2,31.6666666666667,4|0|0,1:2|0:0|0:0,0:0:0:0:
304,52,256194,6,0,L|308:16,2,31.6666666666667
220,64,256368,2,0,L|224:24,2,37.9999988403321,8|0|0,1:2|0:0|0:0,0:0:0:0:
136,76,256542,2,0,L|140:32,2,44.3333319803874
48,88,256717,6,2,L|52:44,11,44.3333319803874,6|2|2|2|2|2|10|2|2|2|2|2,1:2|0:0|0:0|0:0|0:0|0:0|1:2|0:0|0:0|0:0|0:0|0:0,0:0:0:0:
100,152,257414,5,0,1:0:0:0:
140,176,257502,1,0,0:0:0:0:
188,180,257589,1,0,0:0:0:0:
232,164,257676,1,0,0:0:0:0:
268,132,257763,1,8,1:2:0:0:
312,116,257851,1,0,0:0:0:0:
360,124,257938,1,0,1:0:0:0:
400,148,258025,1,0,0:0:0:0:
420,192,258112,6,0,L|440:248,5,31.6666666666667,4|0|0|0|0|0,1:2|0:0|0:0|0:0|0:0|0:0,0:0:0:0:
360,280,258461,2,0,L|356:336,5,31.6666666666667,8|0|0|0|0|0,1:2|0:0|0:0|0:0|0:0|0:0,0:0:0:0:
272,352,258810,6,0,P|240:360|204:356,1,47.5,2|0,1:2|0:0,0:0:0:0:
92,292,258984,2,0,P|124:300|160:296,1,47.5,2|0,0:0|0:0,0:0:0:0:
212,184,259159,2,0,P|179:180|146:164,1,47.5,10|0,1:2|0:0,0:0:0:0:
44,68,259333,2,0,P|71:86|106:95,1,47.5,2|0,0:0|0:0,0:0:0:0:
312,40,259508,6,0,L|320:-4,11,31.6666666666667,4|0|0|0|0|0|8|0|0|0|0|0,1:2|0:0|0:0|0:0|0:0|0:0|1:2|0:0|0:0|0:0|0:0|0:0,0:0:0:0:
364,104,260206,5,2,1:2:0:0:
376,148,260293,1,0,0:0:0:0:
356,192,260380,1,2,0:0:0:0:
328,228,260467,1,0,0:0:0:0:
312,272,260554,1,10,1:2:0:0:
320,320,260642,1,0,0:0:0:0:
348,360,260729,2,0,L|416:352,1,47.5,2|0,1:2|0:0,0:0:0:0:
476,224,260903,6,0,L|476:184,5,31.6666666666667,4|0|0|0|0|0,1:2|0:0|0:0|0:0|0:0|0:0,0:0:0:0:
328,196,261252,2,0,L|328:227,5,31.6666666666667,8|0|0|0|0|0,1:2|0:0|0:0|0:0|0:0|0:0,0:0:0:0:
400,132,261601,6,0,P|384:116|360:104,1,47.5,2|0,1:2|0:0,0:0:0:0:
280,112,261775,2,0,P|258:122|242:139,1,47.5,2|0,0:0|0:0,0:0:0:0:
0,80,261949,6,0,P|16:96|40:108,1,47.5,10|0,1:2|0:0,0:0:0:0:
160,104,262123,2,0,P|181:93|197:76,1,47.5,2|0,0:0|0:0,0:0:0:0:
104,24,262298,6,0,L|100:72,5,31.6666666666667,4|0|0|0|0|0,1:2|0:0|0:0|0:0|0:0|0:0,0:0:0:0:
104,156,262647,2,0,L|100:204,5,31.6666666666667,8|0|0|0|0|0,1:2|0:0|0:0|0:0|0:0|0:0,0:0:0:0:
36,268,262996,5,2,1:2:0:0:
80,288,263083,1,0,0:0:0:0:
128,284,263170,1,2,0:0:0:0:
168,256,263257,1,0,0:0:0:0:
208,232,263345,1,10,1:2:0:0:
256,224,263432,1,0,0:0:0:0:
304,236,263519,2,0,P|336:248|376:280,1,47.5,2|0,1:2|0:0,0:0:0:0:
260,320,263693,6,0,L|260:364,5,31.6666666666667,4|0|0|0|0|0,1:2|0:0|0:0|0:0|0:0|0:0,0:0:0:0:
164,332,264042,2,0,L|132:363,5,31.6666666666667,8|0|0|0|0|0,1:2|0:0|0:0|0:0|0:0|0:0,0:0:0:0:
80,280,264391,6,0,P|48:292|8:284,1,47.5,2|0,1:2|0:0,0:0:0:0:
204,204,264566,2,0,P|236:216|276:208,1,47.5,2|0,0:0|0:0,0:0:0:0:
40,152,264740,1,2,1:2:0:0:
44,104,264827,1,0,0:0:0:0:
72,64,264914,1,2,1:2:0:0:
116,44,265002,1,0,0:0:0:0:
164,52,265089,70,0,B|324:44,1,142.5,4|0,1:0|0:0,0:0:0:0:
380,88,265438,2,0,L|373:182,1,95,8|0,1:2|0:0,0:0:0:0:
152,220,265786,1,0,1:0:0:0:
152,220,265874,2,0,L|159:125,1,95,0|0,0:0|1:0,0:0:0:0:
164,52,266135,1,8,1:2:0:0:
220,272,266310,1,0,1:0:0:0:
424,256,266484,6,0,B|356:224|356:224|264:232,1,142.5,0|0,1:0|0:0,0:0:0:0:
220,272,266833,2,0,P|176:304|116:296,1,95,8|0,1:2|0:0,0:0:0:0:
20,160,267182,1,0,1:0:0:0:
20,160,267269,2,0,B|124:168,1,95,0|0,0:0|1:0,0:0:0:0:
156,228,267531,1,8,1:2:0:0:
272,72,267705,1,0,1:0:0:0:
452,152,267880,102,0,B|400:140|400:140|372:152|372:152|312:140,1,142.5,0|0,1:0|0:0,0:0:0:0:
272,72,268228,2,0,P|288:132|272:168,1,95,8|0,1:2|0:0,0:0:0:0:
176,360,268577,5,0,1:0:0:0:
176,360,268664,2,0,P|160:300|176:264,1,95,0|0,0:0|1:0,0:0:0:0:
216,212,268926,1,8,1:2:0:0:
376,332,269101,5,0,1:0:0:0:
376,332,269188,1,0,1:0:0:0:
376,332,269275,2,0,B|316:296|316:296|204:320,1,142.5,0|0,1:0|0:0,0:0:0:0:
170,271,269624,2,0,B|158:163,1,95,8|0,1:2|0:0,0:0:0:0:
264,36,269973,5,0,1:0:0:0:
264,36,270060,1,0,0:0:0:0:
76,124,270234,1,0,1:0:0:0:
76,124,270321,2,0,L|8:128,1,47.5,8|0,1:2|0:0,0:0:0:0:
268,208,270496,2,0,L|316:206,1,47.5,0|0,1:0|0:0,0:0:0:0:
108,308,270670,6,0,L|-20:328,1,95,0|0,1:0|0:0,0:0:0:0:
324,304,271019,1,8,1:2:0:0:
324,304,271106,2,0,L|376:308,2,47.5
248,348,271368,2,0,B|228:304|252:260|252:260|216:208|256:148,1,190,0|8,1:0|1:2,0:0:0:0:
416,208,271891,5,0,0:0:0:0:
416,208,271979,1,0,0:0:0:0:
416,208,272066,2,0,L|300:204,1,95,0|0,1:0|0:0,0:0:0:0:
245,166,272327,1,0,0:0:0:0:
245,166,272415,2,0,L|192:172,4,31.6666666666667,8|0|0|0|0,1:2|1:0|1:0|1:0|1:0,1:0:0:0:
304,56,272763,102,0,L|316:124,1,47.5,0|0,1:0|0:0,0:0:0:0:
496,112,272938,2,0,L|504:65,1,47.5,0|0,1:0|0:0,0:0:0:0:
404,136,273112,6,0,L|404:176,2,29.6875,8|0|0,1:2|1:0|1:0,1:0:0:0:
408,48,273286,5,0,1:0:0:0:
408,48,273374,1,0,1:0:0:0:
408,48,273461,1,0,1:0:0:0:
312,324,273636,5,0,1:0:0:0:
496,248,273810,2,0,B|456:264|416:248|416:248|380:268|380:268|340:224|284:240,1,213.750008153916,12|0,1:2|0:0,0:0:0:0:
312,324,274159,5,0,1:0:0:0:
268,68,274333,1,0,1:0:0:0:
48,104,274507,6,0,B|128:128|192:76|192:76|192:112|232:136,1,213.750008153916,12|0,1:2|0:0,0:0:0:0:
268,68,274856,5,0,1:0:0:0:
64,304,275031,1,0,1:0:0:0:
256,284,275205,6,0,B|200:268|156:292|156:292|140:220|52:212,1,213.750008153916,12|0,1:2|0:0,0:0:0:0:
44,140,275554,6,0,P|36:108|48:64,3,71.2500027179719,0|0|0|0,1:0|1:0|1:0|1:0,1:0:0:0:
124,108,275903,1,8,1:2:0:0:
160,140,275990,1,0,1:0:0:0:
208,152,276077,1,0,1:0:0:0:
256,144,276164,1,0,1:0:0:0:
300,116,276252,6,0,L|316:64,1,47.5,0|0,1:0|0:0,0:0:0:0:
492,136,276426,1,0,0:0:0:0:
492,136,276513,1,0,0:0:0:0:
492,136,276600,2,0,L|508:204,1,47.5,8|0,1:2|0:0,0:0:0:0:
432,292,276775,5,0,0:0:0:0:
432,292,276862,1,0,0:0:0:0:
432,292,276949,2,0,L|444:352,1,47.5,0|0,1:0|0:0,0:0:0:0:
284,204,277124,2,0,L|300:160,1,47.5
472,40,277298,5,10,1:2:0:0:
424,36,277385,1,0,0:0:0:0:
376,48,277473,1,0,0:0:0:0:
336,72,277560,1,0,0:0:0:0:
304,108,277647,5,2,1:2:0:0:
280,80,277734,1,0,0:0:0:0:
248,64,277821,1,0,0:0:0:0:
212,56,277909,1,0,0:0:0:0:
176,56,277996,5,10,1:2:0:0:
144,92,278083,1,0,0:0:0:0:
100,108,278170,1,0,0:0:0:0:
52,108,278257,1,0,0:0:0:0:
8,88,278345,5,2,1:2:0:0:
40,72,278432,1,0,0:0:0:0:
76,64,278519,1,0,0:0:0:0:
112,68,278606,1,0,0:0:0:0:
144,92,278693,2,0,P|152:116|150:139,1,47.5,10|0,1:2|0:0,0:0:0:0:
264,92,278868,2,0,P|259:68|264:45,1,47.5,2|0,0:0|0:0,0:0:0:0:
292,200,279042,5,4,1:2:0:0:
272,236,279129,1,0,0:0:0:0:
284,276,279217,1,0,0:0:0:0:
320,296,279304,1,0,0:0:0:0:
360,284,279391,1,10,1:2:0:0:
380,248,279478,1,2,0:0:0:0:
368,208,279566,1,2,0:0:0:0:
332,188,279653,1,2,0:0:0:0:
292,200,279740,5,4,1:2:0:0:
248,184,279827,1,0,0:0:0:0:
228,140,279914,1,0,0:0:0:0:
244,96,280002,1,0,0:0:0:0:
288,76,280089,1,10,1:2:0:0:
332,92,280176,1,2,0:0:0:0:
352,136,280263,1,2,0:0:0:0:
336,180,280350,1,2,0:0:0:0:
292,200,280438,5,4,1:2:0:0:
248,232,280525,1,0,0:0:0:0:
240,284,280612,1,0,0:0:0:0:
272,328,280699,1,0,0:0:0:0:
324,332,280786,1,10,1:2:0:0:
364,300,280874,1,2,0:0:0:0:
372,248,280961,1,2,0:0:0:0:
341,208,281048,1,2,0:0:0:0:
292,200,281135,5,4,1:2:0:0:
244,228,281222,1,0,0:0:0:0:
188,236,281309,1,0,0:0:0:0:
132,220,281396,1,0,0:0:0:0:
92,180,281483,5,10,1:2:0:0:
108,236,281571,1,2,0:0:0:0:
80,284,281658,1,2,0:0:0:0:
84,340,281745,1,2,0:0:0:0:
132,372,281833,6,0,L|180:368,5,31.6666666666667,4|0|0|0|0|0,1:2|0:0|0:0|0:0|0:0|0:0,0:0:0:0:
208,292,282182,2,0,L|176:289,5,31.6666666666667,8|0|0|0|0|0,1:2|0:0|0:0|0:0|0:0|0:0,0:0:0:0:
288,264,282531,1,0,1:2:0:0:
316,256,282618,1,0,0:0:0:0:
344,256,282705,1,0,0:0:0:0:
372,268,282792,1,0,0:0:0:0:
396,284,282879,1,8,1:2:0:0:
424,288,282967,1,0,0:0:0:0:
452,280,283054,1,0,1:2:0:0:
472,260,283141,1,0,0:0:0:0:
480,236,283228,6,0,L|476:188,5,26.9166671800613,6|0|0|0|0|0,1:2|0:0|0:0|0:0|0:0|0:0,0:0:0:0:
332,336,283577,2,0,L|336:388,2,26.9166671800613,8|0|0,1:2|0:0|0:0,0:0:0:0:
248,340,283752,1,0,1:0:0:0:
248,340,283839,6,0,B|192:360|192:360|112:340,1,113.999996520996,0|0,1:0|0:0,0:0:0:0:
104,332,284100,1,0,1:0:0:0:
216,180,284275,2,0,P|224:148|212:104,1,56.9999982604981,8|0,1:2|0:0,0:0:0:0:
116,52,284449,2,0,P|84:61|52:93,1,56.9999982604981,0|0,1:0|0:0,0:0:0:0:
136,144,284624,6,0,B|184:164|184:164|224:148|224:148|296:160,1,142.5,4|0,1:0|0:0,0:0:0:0:
344,120,284973,2,0,B|392:124|392:124|444:96,1,95,8|0,0:0|0:0,0:0:0:0:
172,64,285321,6,0,P|104:64|52:128,1,142.5,2|0,0:0|0:0,0:0:0:0:
168,160,285670,2,0,P|164:144|140:180,1,95,8|0,0:0|0:0,0:0:0:0:
328,276,286019,6,0,B|392:260|424:304|424:304|420:272|448:264,1,142.5,2|0,0:0|0:0,0:0:0:0:
360,352,286368,2,0,B|316:360|316:360|252:336,1,95,8|0,0:0|0:0,0:0:0:0:
140,264,286717,1,2,0:0:0:0:
72,336,286891,1,0,0:0:0:0:
40,208,287066,2,0,L|68:88,1,95,8|0,0:0|0:0,0:0:0:0:
304,56,287414,6,0,P|352:40|404:52,1,95,2|0,0:0|0:0,0:0:0:0:
392,272,287763,1,8,0:0:0:0:
356,144,287938,1,0,0:0:0:0:
188,240,288112,2,0,P|144:260|72:244,1,95,2|0,0:0|0:0,0:0:0:0:
40,72,288461,1,10,0:0:0:0:
128,172,288636,1,2,0:0:0:0:
288,76,288810,6,0,B|336:88|336:88|408:60,1,95,2|0,0:0|0:0,0:0:0:0:
460,80,289071,1,0,0:0:0:0:
472,108,289159,2,0,L|476:164,1,47.5,10|0,0:0|0:0,0:0:0:0:
356,180,289333,1,0,0:0:0:0:
360,208,289420,2,0,L|352:256,1,47.5,2|0,0:0|0:0,0:0:0:0:
156,180,289595,5,0,0:0:0:0:
152,208,289682,2,0,L|160:256,1,47.5,2|0,0:0|0:0,0:0:0:0:
52,80,289856,1,8,0:0:0:0:
40,108,289943,2,2,L|36:164,1,47.5,0|2,0:0|0:0,0:0:0:0:
236,136,290118,1,0,0:0:0:0:
248,164,290205,6,0,P|244:212|204:248,1,71.2500027179719,4|0,1:0|0:0,0:0:0:0:
64,336,290379,2,0,P|124:300|204:320,1,142.500005435944,0|0,1:0|0:0,1:0:0:0:
268,344,290641,2,0,P|352:360|432:268,1,170.999994781494,0|0,1:0|0:0,0:0:0:0:
308,240,290903,6,0,P|340:288|332:232,1,152,0|0,1:0|0:0,0:0:0:0:
296,244,291164,6,0,P|336:292|344:228,1,152,0|0,1:0|0:0,0:0:0:0:
244,180,291426,6,0,B|184:192|152:148|152:148|108:148|72:188,1,170.999994781494,0|0,1:0|0:0,0:0:0:0:
224,104,291688,6,0,P|236:52|256:112,1,152,0|0,1:0|0:0,0:0:0:0:
216,100,291949,6,0,P|236:48|276:104,1,152,0|0,1:0|0:0,0:0:0:0:
244,180,292211,6,0,B|304:192|340:148|340:148|380:148|416:188,1,170.999994781494,0|0,1:0|0:0,0:0:0:0:
420,192,292473,1,0,1:0:0:0:
232,288,292647,6,0,L|192:292,2,23.75,0|0|0,1:0|1:0|1:0,1:0:0:0:
280,348,292821,1,0,1:0:0:0:
68,144,293170,6,0,L|52:208,1,56.9999982604981,0|0,1:0|0:0,0:0:0:0:
232,288,293345,2,0,L|275:251,1,56.9999982604981,0|0,1:0|0:0,0:0:0:0:
188,68,293519,2,0,L|131:71,1,56.9999982604981,0|0,1:0|0:0,0:0:0:0:
96,280,293693,2,0,L|144:310,1,56.9999982604981,0|0,1:0|0:0,0:0:0:0:
288,164,293868,2,0,L|266:111,1,56.9999982604981,0|0,1:0|0:0,0:0:0:0:
460,100,294042,5,2,1:2:0:0:
460,100,294129,1,2,0:0:0:0:
460,100,294217,2,0,L|444:184,1,56.9999982604981,2|0,1:2|0:0,0:0:0:0:
332,80,294392,2,0,L|348:24,1,56.9999982604981,0|0,1:0|0:0,0:0:0:0:
164,25,294566,2,0,L|180:80,1,56.9999982604981,0|0,1:0|0:0,0:0:0:0:
62,155,294741,2,0,L|52:100,1,56.9999982604981,0|0,1:0|0:0,0:0:0:0:
7,290,294914,6,0,L|64:284,1,56.9999982604981,0|0,1:0|0:0,0:0:0:0:
143,352,295089,2,0,L|200:356,1,56.9999982604981,0|0,1:0|0:0,0:0:0:0:
312,356,295263,2,0,L|368:352,1,56.9999982604981,0|0,1:0|0:0,0:0:0:0:
448,284,295438,2,0,L|507:291,1,56.9999982604981,0|0,1:0|0:0,0:0:0:0:
364,84,295612,5,2,1:2:0:0:
364,84,295699,1,2,0:0:0:0:
364,84,295786,2,0,P|352:120|356:156,1,56.9999982604981,2|0,1:2|0:0,0:0:0:0:
376,276,295961,1,0,1:2:0:0:
332,252,296048,1,0,0:0:0:0:
280,252,296135,1,0,1:2:0:0:
240,284,296223,1,0,0:0:0:0:
204,328,296310,5,0,1:2:0:0:
164,368,296397,1,0,0:0:0:0:
108,376,296484,1,0,1:0:0:0:
56,352,296571,1,0,0:0:0:0:
32,300,296659,1,0,1:0:0:0:
44,244,296746,1,0,0:0:0:0:
88,208,296833,1,0,1:0:0:0:
104,152,296920,1,0,0:0:0:0:
80,100,297007,6,0,L|-4:112,1,56.9999982604981,2|0,1:2|0:0,0:0:0:0:
120,288,297182,2,0,L|204:276,1,56.9999982604981,2|0,1:2|0:0,0:0:0:0:
336,332,297356,6,0,L|328:376,2,28.4999991302491,2|0|0,1:2|1:0|1:0,1:0:0:0:
416,304,297531,2,0,L|416:240,1,56.9999982604981,2|0,1:2|0:0,0:0:0:0:
340,52,297705,6,0,L|348:8,2,28.4999991302491,2|0|0,1:2|1:0|1:0,1:0:0:0:
260,80,297880,2,0,L|260:144,1,56.9999982604981,2|0,1:2|0:0,0:0:0:0:
196,316,298054,6,0,L|180:348,2,28.4999991302491,2|0|0,1:2|1:0|1:0,1:0:0:0:
156,248,298228,5,0,0:0:0:0:
132,244,298286,5,2,0:0:0:0:
108,240,298345,5,2,0:0:0:0:
84,236,298403,5,2,0:0:0:0:
60,232,298461,5,2,0:0:0:0:
36,228,298519,5,2,0:0:0:0:
420,64,298926,5,4,0:0:0:0:
256,192,299013,12,4,302763,0:0:0:0:
