osu file format v14

[General]
AudioFilename: audio.mp3
AudioLeadIn: 0
PreviewTime: 14072
Countdown: 0
SampleSet: Soft
StackLeniency: 0.2
Mode: 0
LetterboxInBreaks: 0
WidescreenStoryboard: 1

[Editor]
Bookmarks: 14504,35398,51924,56159,70140,87455,104480,124809,138537,155715,167618,209626,216619,230680,244983,258680,272256,286316,299771
DistanceSpacing: 0.5
BeatDivisor: 16
GridSize: 32
TimelineZoom: 2.935999

[Metadata]
Title:Ruby no Kokoro
TitleUnicode:ルビィのこころ
Artist:orange pekoe
ArtistUnicode:orange pekoe
Creator:yeastiest
Version:Ruby in My Heart!
Source:
Tags:japanese jazz fusion grace instrumental Tomoko Nagashima Kazuma Fujimoto
BeatmapID:3648348
BeatmapSetID:1572466

[Difficulty]
HPDrainRate:5
CircleSize:5
OverallDifficulty:8.5
ApproachRate:9.2
SliderMultiplier:2
SliderTickRate:1

[Events]
//Background and Video events
0,0,"x4zx7p6slvk71.jpg",0,0
//Break Periods
2,190433,194499
//Storyboard Layer 0 (Background)
//Storyboard Layer 1 (Fail)
//Storyboard Layer 2 (Pass)
//Storyboard Layer 3 (Foreground)
//Storyboard Layer 4 (Overlay)
//Storyboard Sound Samples

[TimingPoints]
7000,431.654676258993,4,2,1,75,1,0
7567,438.756855575869,4,2,1,75,1,0
8005,-250,4,2,1,75,0,0
8499,-100,4,2,1,75,0,0
8883,-250,4,2,1,75,0,0
9322,433.212996389892,4,2,1,75,1,0
9755,-250,4,2,1,75,0,0
10242,-90.9090909090909,4,2,1,75,0,0
10621,-250,4,2,1,75,0,0
11057,433.212996389892,4,2,1,75,1,0
11111,-90.9090909090909,4,2,1,75,0,0
11490,-250,4,2,1,75,0,0
11977,-90.9090909090909,4,2,1,75,0,0
12356,-250,4,2,1,75,0,0
12898,-83.3333333333333,4,2,1,75,0,0
13223,-250,4,2,1,75,0,0
13710,-83.3333333333333,4,2,1,75,0,0
14089,-250,4,2,1,75,0,0
14525,439.560439560439,4,2,1,70,1,0
14525,-80,4,2,1,70,0,0
16283,437.158469945355,4,2,1,70,1,0
16720,-71.4285714285714,4,2,1,70,0,0
17594,434.782608695652,4,2,1,70,1,0
17594,-71.4285714285714,4,2,1,70,0,0
18028,-80,4,2,1,70,0,0
19767,431.654676258993,4,2,1,70,1,0
20198,-71.4285714285714,4,2,1,70,0,0
21061,-83.3333333333333,4,2,1,70,0,0
21496,437.158469945355,4,2,1,60,1,0
21496,-74.0740740740741,4,2,1,60,0,0
22806,427.807486631016,4,2,1,60,1,0
22806,-74.0740740740741,4,2,1,60,0,0
24102,436.363636363637,4,2,1,60,1,0
24102,-74.0740740740741,4,2,1,60,0,0
26726,428.571428571428,4,2,1,60,1,0
27154,-74.0740740740741,4,2,1,60,0,0
28443,432.432432432432,4,2,1,70,1,0
28551,-74.0740740740741,4,2,1,70,0,0
30064,-68.9655172413793,4,2,1,80,0,0
30172,441.176470588235,4,2,1,80,1,0
30613,-68.9655172413793,4,2,1,80,0,0
31054,432.432432432432,4,2,1,80,1,0
31054,-68.9655172413793,4,2,1,80,0,0
32783,439.56043956044,4,2,1,80,1,0
32783,-68.9655172413793,4,2,1,80,0,0
33648,430.879712746859,4,2,1,70,1,0
33755,-68.9655172413793,4,2,1,70,0,0
35374,437.158469945356,4,2,1,70,1,0
35374,-68.9655172413793,4,2,1,70,0,0
37122,432.432432432433,4,2,1,60,1,0
37122,-68.9655172413793,4,2,1,60,0,0
38851,433.996383363473,4,2,1,60,1,0
38851,-68.9655172413793,4,2,1,60,0,0
40586,437.956204379562,4,2,1,60,1,0
40586,-68.9655172413793,4,2,1,60,0,0
42341,436.363636363637,4,2,1,60,1,0
42341,-68.9655172413793,4,2,1,60,0,0
48884,434.782608695653,4,2,1,70,1,0
48884,-68.9655172413793,4,2,1,70,0,0
49321,439.560439560441,4,2,1,70,1,0
49760,-68.9655172413793,4,2,1,70,0,0
50641,430.107526881722,4,2,1,70,1,0
50856,-68.9655172413793,4,2,1,70,0,0
52791,438.756855575868,4,2,1,70,1,0
52791,-68.9655172413793,4,2,1,70,0,0
54533,438.756855575869,4,2,1,70,1,0
54533,-68.9655172413793,4,2,1,70,0,0
56288,431.654676258994,4,2,1,65,1,0
56719,-68.9655172413793,4,2,1,65,0,0
59741,437.956204379563,4,2,1,65,1,0
60397,-68.9655172413793,4,2,1,65,0,0
61497,433.212996389892,4,2,1,65,1,0
62038,-68.9655172413793,4,2,1,65,0,0
63221,431.654676258994,4,2,1,65,1,0
63328,-68.9655172413793,4,2,1,65,0,0
64947,428.57142857143,4,2,1,65,1,0
65375,-68.9655172413793,4,2,1,65,0,0
66658,428.571428571429,4,2,1,75,1,0
67086,431.654676258993,4,2,1,75,1,0
67086,-68.9655172413793,4,2,1,75,0,0
67521,437.956204379563,4,2,1,75,1,0
67521,-68.9655172413793,4,2,1,75,0,0
67962,425.531914893617,4,2,1,75,1,0
67962,-68.9655172413793,4,2,1,75,0,0
69686,487.804878048781,4,2,1,80,1,0
70131,442.80442804428,4,2,1,65,1,0
70131,-71.4285714285714,4,2,1,65,0,0
71460,428.571428571429,4,2,1,65,1,0
71460,-71.4285714285714,4,2,1,65,0,0
72748,430.879712746858,4,2,1,65,1,0
72855,-71.4285714285714,4,2,1,65,0,0
74471,429.338103756708,4,2,1,65,1,0
74471,-71.4285714285714,4,2,1,65,0,0
77047,435.57168784029,4,2,1,60,1,0
77047,-68.9655172413793,4,2,1,60,0,0
80531,434.782608695652,4,2,1,60,1,0
80965,-68.9655172413793,4,2,1,60,0,0
82270,428.571428571429,4,2,1,60,1,0
82377,-68.9655172413793,4,2,1,60,0,0
83984,433.996383363472,4,2,1,65,1,0
84200,-66.6666666666667,4,2,1,65,0,0
85665,-66.6666666666667,4,2,1,70,0,0
85721,434.782608695653,4,2,1,70,1,0
86155,-66.6666666666667,4,2,1,70,0,0
87460,427.046263345196,4,2,1,70,1,0
87460,-66.6666666666667,4,2,1,70,0,0
87887,-76.9230769230769,4,2,1,60,0,0
90022,424.028268551237,4,2,1,60,1,0
90022,-76.9230769230769,4,2,1,60,0,0
90446,424.028268551237,4,2,1,60,1,0
90446,-76.9230769230769,4,2,1,60,0,0
90874,422.535211267606,4,2,1,50,1,0
92124,535.714285714287,4,2,1,50,1,0
92669,419.58041958042,4,2,1,50,1,0
92859,434.782608695653,4,2,1,50,1,0
93395,430.107526881721,4,2,1,50,1,0
95115,423.280423280423,4,2,1,50,1,0
96384,430.107526881721,4,2,1,50,1,0
97674,427.046263345196,4,2,1,50,1,0
99363,428.57142857143,4,2,1,50,1,0
100964,422.535211267607,4,2,1,60,1,0
100964,-76.9230769230769,4,2,1,60,0,0
101493,426.287744227355,4,2,1,60,1,0
101493,-76.9230769230769,4,2,1,60,0,0
102771,-76.9230769230769,4,2,1,70,0,0
103198,428.57142857143,4,2,1,70,1,0
103198,-76.9230769230769,4,2,1,70,0,0
104483,430.87971274686,4,2,1,80,1,0
104590,-62.5,4,2,1,80,0,0
106206,424.778761061949,4,2,1,80,1,0
107055,-62.5,4,2,1,70,0,0
107904,421.052631578949,4,2,1,70,1,0
108746,-62.5,4,2,1,70,0,0
109285,409.556313993175,4,2,1,70,1,0
109285,-62.5,4,2,1,70,0,0
109592,420.315236427323,4,2,1,70,1,0
109697,-62.5,4,2,1,70,0,0
111275,435.571687840293,4,2,1,70,1,0
111710,-62.5,4,2,1,70,0,0
112152,415.944540727905,4,2,1,70,1,0
112152,-62.5,4,2,1,70,0,0
113815,424.778761061949,4,2,1,70,1,0
113815,-62.5,4,2,1,70,0,0
114770,-62.5,4,2,1,80,0,0
114823,-58.8235294117647,4,2,1,80,0,0
115514,418.848167539269,4,2,1,80,1,0
115514,-58.8235294117647,4,2,1,80,0,0
116456,-58.8235294117647,4,2,1,70,0,0
116770,424.028268551239,4,2,1,70,1,0
116770,-58.8235294117647,4,2,1,70,0,0
118044,422.535211267608,4,2,1,70,1,0
121107,441.176470588238,4,2,1,70,1,0
121440,419.580419580422,4,2,1,70,1,0
121440,-58.8235294117647,4,2,1,70,0,0
123123,430.87971274686,4,2,1,70,1,0
123338,-58.8235294117647,4,2,1,70,0,0
123553,-100,4,2,1,80,0,0
124200,-64.5161290322581,4,2,1,70,0,0
124738,-62.5,4,2,1,70,0,0
124851,424.028268551239,4,2,1,70,1,0
125275,-62.5,4,2,1,70,0,0
128241,428.571428571431,4,2,1,70,1,0
128669,-62.5,4,2,1,70,0,0
129901,-55.5555555555556,4,2,1,70,0,0
129956,430.87971274686,4,2,1,70,1,0
130386,-62.5,4,2,1,70,0,0
131679,425.531914893619,4,2,1,70,1,0
132104,-62.5,4,2,1,70,0,0
133806,427.807486631018,4,2,1,70,1,0
133806,-62.5,4,2,1,70,0,0
135089,424.028268551239,4,2,1,70,1,0
135089,-62.5,4,2,1,70,0,0
136785,429.338103756711,4,2,1,70,1,0
136785,-62.5,4,2,1,70,0,0
138091,472.440944881892,4,2,1,70,1,0
138091,-76.9230769230769,4,2,1,70,0,0
138528,437.956204379563,4,2,1,65,1,0
138528,-62.5,4,2,1,65,0,0
139841,427.046263345197,4,2,1,65,1,0
139841,-62.5,4,2,1,65,0,0
140695,-68.9655172413793,4,2,1,65,0,0
141976,428.571428571428,4,2,1,60,1,0
141976,-74.0740740740741,4,2,1,60,0,0
144547,-66.6666666666667,4,2,1,65,0,0
144976,-71.4285714285714,4,2,1,65,0,0
145404,437.158469945355,4,2,1,65,1,0
145404,-71.4285714285714,4,2,1,65,0,0
147043,-76.9230769230769,4,2,1,55,0,0
147152,433.212996389892,4,2,1,55,1,0
147585,-76.9230769230769,4,2,1,55,0,0
148776,-76.9230769230769,4,2,1,50,0,0
148878,428.571428571429,4,2,1,50,1,0
149306,-76.9230769230769,4,2,1,50,0,0
149728,426.287744227353,4,2,1,50,1,0
149728,-76.9230769230769,4,2,1,50,0,0
150584,426.287744227353,4,2,1,50,1,0
151010,-76.9230769230769,4,2,1,60,0,0
152182,-71.4285714285714,4,2,1,70,0,0
152289,433.212996389892,4,2,1,70,1,0
152722,-71.4285714285714,4,2,1,70,0,0
153893,436.363636363636,4,2,1,80,1,0
153893,-64.5161290322581,4,2,1,80,0,0
154438,429.338103756708,4,2,1,80,1,0
154438,-64.5161290322581,4,2,1,80,0,0
154867,434.782608695652,4,2,1,80,1,0
154867,-64.5161290322581,4,2,1,80,0,0
155739,436.363636363636,4,2,1,80,1,0
155739,-66.6666666666667,4,2,1,80,0,0
157049,426.287744227354,4,2,1,80,1,0
157049,-66.6666666666667,4,2,1,80,0,0
159180,421.052631578948,4,2,1,80,1,0
159180,-66.6666666666667,4,2,1,80,0,0
160443,423.280423280424,4,2,1,80,1,0
160443,-66.6666666666667,4,2,1,80,0,0
162453,-62.5,4,2,1,80,0,0
162559,421.792618629174,4,2,1,80,1,0
162980,-62.5,4,2,1,80,0,0
164246,421.052631578947,4,2,1,80,1,0
164351,-62.5,4,2,1,80,0,0
165930,424.778761061947,4,2,1,80,1,0
165930,-62.5,4,2,1,80,0,0
167629,480,4,2,1,70,1,0
167629,-200,4,2,1,70,0,0
168109,555.555555555556,4,2,1,35,1,0
168664,550.458715596331,4,2,1,35,1,0
168664,-200,4,2,1,35,0,0
170921,535.714285714286,4,2,1,35,1,0
171456,560.747663551402,4,2,1,35,1,0
171456,-400,4,2,1,35,0,0
172016,631.578947368421,4,2,1,35,1,0
172647,615.384615384616,4,2,1,35,1,0
172647,-400,4,2,1,35,0,0
173262,591.133004926109,4,2,1,35,1,0
173853,606.060606060607,4,2,1,35,1,0
173853,-250,4,2,1,35,0,0
174677,526.315789473685,4,2,1,35,1,0
174677,-250,4,2,1,35,0,0
176764,631.578947368422,4,2,1,35,1,0
177395,582.524271844661,4,2,1,35,1,0
177395,-333.333333333333,4,2,1,35,0,0
177977,555.555555555556,4,2,1,35,1,0
177977,-111.111111111111,4,2,1,35,0,0
178532,606.060606060607,4,2,1,35,1,0
178532,-333.333333333333,4,2,1,35,0,0
179138,566.037735849058,4,2,1,35,1,0
179138,-125,4,2,1,35,0,0
179704,571.428571428572,4,2,1,35,1,0
179704,-250,4,2,1,35,0,0
180132,567.375886524823,4,2,1,35,1,0
180132,-500,4,2,1,35,0,0
183534,545.454545454546,4,2,1,35,1,0
184079,555.555555555556,4,2,1,35,1,0
184356,-333.333333333333,4,2,1,35,0,0
186157,521.739130434783,4,2,1,35,1,0
186287,-166.666666666667,4,2,1,35,0,0
186548,-125,4,2,1,35,0,0
186678,582.524271844661,4,2,1,35,1,0
186969,-333.333333333333,4,2,1,35,0,0
189133,550.458715596331,4,2,1,35,1,0
189545,-166.666666666667,4,2,1,35,0,0
195936,666.666666666668,4,2,1,35,1,0
196602,588.235294117648,4,2,1,35,1,0
196602,-125,4,2,1,35,0,0
197190,-149.253731343284,4,2,1,35,0,0
197778,566.037735849057,4,2,1,35,1,0
197778,-133.333333333333,4,2,1,35,0,0
198344,550.458715596331,4,2,1,35,1,0
198344,-149.253731343284,4,2,1,35,0,0
198894,618.556701030929,4,2,1,35,1,0
199518,419.58041958042,4,2,1,35,1,0
199518,-250,4,2,1,35,0,0
201897,555.555555555556,4,2,1,35,1,0
201897,-124.269729018786,4,2,1,35,0,0
202452,600.000000000001,4,2,1,35,1,0
202452,-118.811235504612,4,2,1,35,0,0
203052,582.524271844661,4,2,1,35,1,0
203052,-119.047619047619,4,2,1,35,0,0
203634,652.173913043479,4,2,1,35,1,0
203634,-119.047619047619,4,2,1,35,0,0
204286,571.428571428572,4,2,1,35,1,0
204286,-135.135135135135,4,2,1,35,0,0
205286,571.428571428572,4,2,1,35,1,0
205286,-500,4,2,1,35,0,0
206231,-500,4,2,1,45,0,0
208000,-500,4,2,2,45,0,0
208967,540.540540540542,4,2,1,45,1,0
209372,-66.6666666666667,4,2,1,70,0,0
209507,480.000000000001,4,2,1,70,1,0
209867,-58.8235294117647,4,2,1,70,0,0
209987,-66.6666666666667,4,2,1,70,0,0
210467,437.956204379563,4,2,1,70,1,0
210467,-66.6666666666667,4,2,1,70,0,0
211014,-100,4,2,1,70,0,0
211233,-60.6060606060606,4,2,1,70,0,0
211671,-66.6666666666667,4,2,1,70,0,0
211780,451.127819548873,4,2,1,70,1,0
211780,-66.6666666666667,4,2,1,70,0,0
212231,-62.5,4,2,1,70,0,0
212682,437.956204379563,4,2,1,70,1,0
213010,-66.6666666666667,4,2,1,70,0,0
213995,-62.5,4,2,1,70,0,0
214433,-66.6666666666667,4,2,1,70,0,0
214871,436.363636363637,4,2,1,70,1,0
215307,-64.5161290322581,4,2,1,70,0,0
216616,441.988950276244,4,2,1,80,1,0
216616,-62.5,4,2,1,80,0,0
217062,451.977401129944,4,2,1,80,1,0
217062,-62.5,4,2,1,80,0,0
217513,451.127819548873,4,2,1,80,1,0
217513,-62.5,4,2,1,80,0,0
217964,458.015267175573,4,2,1,80,1,0
217964,-62.5,4,2,1,80,0,0
218422,447.761194029851,4,2,1,80,1,0
218422,-58.8235294117647,4,2,1,80,0,0
218869,441.176470588236,4,2,1,80,1,0
218869,-58.8235294117647,4,2,1,80,0,0
219199,-60.6060606060606,4,2,1,80,0,0
219310,446.096654275094,4,2,1,80,1,0
219533,-66.6666666666667,4,2,1,70,0,0
220202,442.804428044281,4,2,1,70,1,0
220202,-62.5,4,2,1,70,0,0
221087,-58.8235294117647,4,2,1,70,0,0
221973,432.432432432433,4,2,1,70,1,0
221973,-55.5555555555556,4,2,1,70,0,0
222729,-52.6315789473684,4,2,1,70,0,0
223594,-58.8235294117647,4,2,1,70,0,0
223810,-62.5,4,2,1,70,0,0
224621,-66.6666666666667,4,2,1,70,0,0
225108,-100,4,2,1,70,0,0
225324,-62.5,4,2,1,70,0,0
225432,434.782608695653,4,2,1,70,1,0
225649,-62.5,4,2,1,70,0,0
226301,-133.333333333333,4,2,1,70,0,0
227062,-62.5,4,2,1,70,0,0
227173,430.879712746858,4,2,1,70,1,0
227173,-66.6666666666667,4,2,1,70,0,0
227442,-62.5,4,2,1,70,0,0
228896,427.807486631016,4,2,1,70,1,0
228896,-55.5555555555556,4,2,1,70,0,0
229216,-52.6315789473684,4,2,1,70,0,0
229751,-50,4,2,1,70,0,0
230612,440.366972477065,4,2,1,80,1,0
230612,-58.8235294117647,4,2,1,80,0,0
232373,438.756855575869,4,2,1,80,1,0
232373,-58.8235294117647,4,2,1,80,0,0
233414,-58.8235294117647,4,2,1,82,0,0
233469,-58.8235294117647,4,2,1,84,0,0
233524,-58.8235294117647,4,2,1,86,0,0
233579,-58.8235294117647,4,2,1,88,0,0
233634,-58.8235294117647,4,2,1,90,0,0
233688,-58.8235294117647,4,2,1,92,0,0
233743,-58.8235294117647,4,2,1,94,0,0
234128,437.956204379562,4,2,1,70,1,0
234128,-58.8235294117647,4,2,1,70,0,0
235883,430.107526881721,4,2,1,70,1,0
235883,-58.8235294117647,4,2,1,70,0,0
236635,-50,4,2,1,70,0,0
237495,-58.8235294117647,4,2,1,70,0,0
237603,433.996383363472,4,2,1,70,1,0
237711,-58.8235294117647,4,2,1,70,0,0
239013,-100,4,2,1,70,0,0
239230,-58.8235294117647,4,2,1,70,0,0
239342,445.269016697589,4,2,1,70,1,0
239564,-58.8235294117647,4,2,1,70,0,0
239787,432.432432432433,4,2,1,70,1,0
239787,-58.8235294117647,4,2,1,70,0,0
240651,-62.5,4,2,1,70,0,0
241084,433.996383363473,4,2,1,70,1,0
241084,-62.5,4,2,1,70,0,0
242819,440.366972477065,4,2,1,70,1,0
242819,-62.5,4,2,1,70,0,0
244586,441.176470588236,4,2,1,70,1,0
244586,-62.5,4,2,1,70,0,0
246350,437.158469945356,4,2,1,70,1,0
246350,-62.5,4,2,1,70,0,0
248098,-55.5555555555556,4,2,1,70,0,0
249846,430.879712746858,4,2,1,70,1,0
249846,-52.6315789473684,4,2,1,70,0,0
251246,-100,4,2,1,70,0,0
251461,-55.5555555555556,4,2,1,70,0,0
251569,441.176470588235,4,2,1,70,1,0
251789,-55.5555555555556,4,2,1,70,0,0
253002,-100,4,2,1,70,0,0
253223,-55.5555555555556,4,2,1,70,0,0
253332,434.782608695652,4,2,1,70,1,0
253440,-55.5555555555556,4,2,1,70,0,0
254745,-100,4,2,1,70,0,0
254962,-58.8235294117647,4,2,1,80,0,0
255053,431.654676258993,4,2,1,80,1,0
255160,-58.8235294117647,4,2,1,80,0,0
255916,428.571428571429,4,2,1,80,1,0
256183,-58.8235294117647,4,2,1,80,0,0
256773,428.571428571429,4,2,1,80,1,0
256773,-58.8235294117647,4,2,1,80,0,0
258486,441.176470588236,4,2,1,80,1,0
258486,-62.5,4,2,1,80,0,0
260250,428.571428571429,4,2,1,80,1,0
260250,-58.8235294117647,4,2,1,80,0,0
261970,437.158469945355,4,2,1,70,1,0
261970,-62.5,4,2,1,70,0,0
262844,-58.8235294117647,4,2,1,70,0,0
263718,431.654676258993,4,2,1,70,1,0
263718,-58.8235294117647,4,2,1,70,0,0
264473,-52.6315789473684,4,2,1,70,0,0
265336,-62.5,4,2,1,70,0,0
265446,432.432432432432,4,2,1,70,1,0
265662,-62.5,4,2,1,70,0,0
266851,-100,4,2,1,70,0,0
267067,-62.5,4,2,1,70,0,0
268581,-100,4,2,1,70,0,0
268797,-62.5,4,2,1,70,0,0
268887,425.531914893617,4,2,1,70,1,0
268993,-62.5,4,2,1,70,0,0
270589,-55.5555555555556,4,2,1,80,0,0
271440,416.666666666667,4,2,1,80,1,0
271440,-55.5555555555556,4,2,1,80,0,0
271648,-40,4,2,1,80,0,0
271856,-55.5555555555556,4,2,1,80,0,0
272277,430.107526881721,4,2,1,80,1,0
272277,-55.5555555555556,4,2,1,80,0,0
273997,426.287744227354,4,2,1,80,1,0
273997,-55.5555555555556,4,2,1,80,0,0
275705,434.782608695652,4,2,1,70,1,0
275705,-55.5555555555556,4,2,1,70,0,0
277444,430.879712746858,4,2,1,70,1,0
277444,-55.5555555555556,4,2,1,70,0,0
278736,427.807486631016,4,2,1,70,1,0
278736,-58.8235294117647,4,2,1,70,0,0
279165,430.10752688172,4,2,1,70,1,0
279272,-58.8235294117647,4,2,1,70,0,0
282587,425.531914893617,4,2,1,70,1,0
282693,-60.6060606060606,4,2,1,70,0,0
283012,-71.4285714285714,4,2,1,80,0,0
284291,426.287744227353,4,2,1,80,1,0
284291,-66.6666666666667,4,2,1,80,0,0
285994,437.158469945355,4,2,1,70,1,0
285994,-60.6060606060606,4,2,1,70,0,0
287742,433.996383363472,4,2,1,70,1,0
287742,-60.6060606060606,4,2,1,70,0,0
289043,-76.9230769230769,4,2,1,70,0,0
289457,439.56043956044,4,2,1,70,1,0
289457,-60.6060606060606,4,2,1,70,0,0
291217,431.654676258993,4,2,1,70,1,0
291217,-60.6060606060606,4,2,1,70,0,0
291648,-62.5,4,2,1,70,0,0
291972,-60.6060606060606,4,2,1,70,0,0
292945,433.212996389892,4,2,1,70,1,0
292945,-62.5,4,2,1,70,0,0
294244,422.535211267606,4,2,1,70,1,0
294244,-62.5,4,2,1,70,0,0
295511,433.212996389892,4,2,1,70,1,0
295944,-64.5161290322581,4,2,1,70,0,0
296381,431.654676258993,4,2,1,70,1,0
296596,-66.6666666666667,4,2,1,70,0,0
298108,421.052631578948,4,2,1,55,1,0
298108,-68.9655172413793,4,2,1,55,0,0
299794,435.571687840291,4,2,1,60,1,0
299794,-71.4285714285714,4,2,1,60,0,0
300665,420.315236427321,4,2,1,50,1,0
300665,-74.0740740740741,4,2,1,50,0,0
301511,430.879712746858,4,2,1,40,1,0
301511,-76.9230769230769,4,2,1,40,0,0
302265,-80,4,2,1,40,0,0
303239,426.287744227353,4,2,1,35,1,0
304091,-111.111111111111,4,2,1,33,0,0
304944,428.571428571429,4,2,1,31,1,0
304944,-125,4,2,1,31,0,0
305694,-142.857142857143,4,2,1,29,0,0
305801,430.10752688172,4,2,1,29,1,0
306530,-100,4,2,1,27,0,0
306661,432.432432432432,4,2,1,27,1,0
307958,421.792618629174,4,2,1,27,1,0
308261,-100,4,2,1,23,0,0
308580,-100,4,2,1,19,0,0
308801,430.10752688172,4,2,1,19,1,0
310091,428.571428571429,4,2,1,19,1,0
311138,-100,4,2,1,8,0,0

[Colours]
Combo1 : 253,225,45
Combo2 : 255,107,53
Combo3 : 244,135,182
Combo4 : 144,166,255

[HitObjects]
39,299,7000,5,4,2:3:0:0:
174,311,7107,1,8,1:3:0:0:
60,318,7567,6,0,L|44:214,1,100,6|0,2:0|2:0,2:0:0:0:
0,384,7896,1,0,3:0:0:0:
64,339,8005,2,0,L|71:300,1,40,2|2,3:0|3:0,2:0:0:0:
101,134,8444,5,2,3:2:0:0:
101,134,8499,2,0,L|91:40,1,75,2|0,2:0|2:0,2:0:0:0:
40,201,8773,1,0,2:0:0:0:
105,159,8883,2,0,L|112:120,1,40,0|0,3:0|2:0,2:0:0:0:
86,14,9212,5,2,3:0:0:0:
167,0,9322,1,2,3:2:0:0:
167,0,9376,2,0,L|186:85,1,75,2|0,2:0|2:0,2:0:0:0:
317,85,9646,1,0,3:0:0:0:
247,97,9755,2,0,L|241:136,1,40,2|2,3:0|3:0,2:0:0:0:
198,287,10188,5,2,2:0:0:0:
198,287,10242,2,0,L|209:186,1,82.5,2|0,2:0|2:0,2:0:0:0:
102,279,10513,1,0,3:0:0:0:
167,308,10621,2,0,L|170:332,2,20,2|0|2,3:0|2:0|2:3,2:0:0:0:
344,370,10946,5,2,2:3:0:0:
285,332,11057,1,6,2:0:0:0:
285,332,11111,2,0,L|293:228,1,82.5,2|0,2:0|2:0,2:0:0:0:
494,313,11381,1,0,3:0:0:0:
421,345,11490,2,0,L|435:386,1,40,2|2,3:0|3:0,2:0:0:0:
359,175,11923,5,2,3:2:0:0:
359,175,11977,2,0,L|367:279,1,82.5,2|0,2:0|2:0,2:0:0:0:
512,178,12248,1,0,2:0:0:0:
437,156,12356,2,0,L|444:131,2,20,0|0|0,3:0|2:0|2:0,2:0:0:0:
435,0,12681,5,2,3:0:0:0:
512,13,12789,1,2,3:2:0:0:
438,12,12898,2,0,L|454:76,1,60,2|0,2:3|2:0,2:0:0:0:
386,91,13114,1,0,3:0:0:0:
316,88,13223,2,0,L|314:43,1,40,2|2,3:0|3:0,2:0:0:0:
171,0,13656,5,2,2:0:0:0:
171,0,13710,2,0,L|159:118,1,90,2|0,2:0|2:0,2:0:0:0:
83,150,13981,1,0,3:0:0:0:
151,111,14089,2,0,L|147:99,3,10,2|0|0|0,3:0|2:0|2:0|2:0,2:0:0:0:
139,74,14306,1,2,2:3:0:0:
0,24,14525,6,0,B|9:1|9:1|111:13,1,125,6|0,2:0|2:0,2:0:0:0:
285,99,14854,1,0,3:0:0:0:
344,137,14964,2,0,L|191:121,1,125,2|2,3:0|3:0,2:0:0:0:
0,226,15404,6,0,B|-24:219|-15:169|28:175|28:175|87:183,1,125,2|0,2:0|2:0,2:0:0:0:
225,202,15733,1,0,3:0:0:0:
282,238,15843,2,0,L|130:217,1,125,0|0,3:0|2:0,2:0:0:0:
0,349,16173,2,0,B|-4:373|44:387|58:346|58:346|90:239,1,186.6375,2|0,2:0|2:0,2:0:0:0:
244,325,16610,1,0,3:0:0:0:
278,382,16720,2,0,L|181:325,1,105,2|0,3:0|2:0,2:0:0:0:
155,281,16938,2,0,L|201:309,1,35,2|0,3:0|2:0,2:0:0:0:
348,384,17157,6,0,B|376:369|376:369|351:187,1,210,2|0,3:2|3:0,2:0:0:0:
424,269,17594,2,0,L|367:251,1,35,2|0,3:0|2:0,2:0:0:0:
346,132,17811,1,0,2:0:0:0:
417,82,17920,1,2,2:0:0:0:
443,8,18028,6,0,B|465:16|463:45|439:49|439:49|349:68,1,125,2|0,2:0|2:0,2:0:0:0:
228,21,18354,1,0,3:0:0:0:
159,59,18463,2,0,B|182:41|182:41|265:61,1,93.75,2|0,3:0|2:0,2:0:0:0:
261,82,18680,2,0,L|321:96,1,62.5,2|0,3:0|2:0,2:0:0:0:
495,117,18898,6,0,B|517:125|515:154|491:158|491:158|401:177,1,125,2|0,2:0|2:0,2:0:0:0:
189,128,19224,1,0,3:0:0:0:
120,166,19333,2,0,B|143:148|143:148|255:177,1,125,0|0,3:0|2:0,2:0:0:0:
378,311,19659,6,0,B|400:318|416:294|401:275|401:275|314:159,1,185.775,2|0,2:0|2:0,2:0:0:0:
62,225,20090,1,0,3:0:0:0:
35,293,20198,2,0,B|44:265|44:265|131:232,1,105,2|0,3:0|2:0,2:0:0:0:
140,254,20414,2,0,L|232:217,1,70,2|0,3:0|2:0,2:0:0:0:
386,371,20630,2,0,B|360:345|360:345|386:149,1,210,2|0,3:2|2:0,2:0:0:0:
288,254,21061,2,0,L|293:323,1,60,2|0,3:0|2:0,2:0:0:0:
211,384,21277,2,0,P|222:342|199:320,1,60,2|0,2:3|2:0,2:0:0:0:
92,309,21496,6,0,B|110:290|110:290|82:154,1,135,6|0,2:0|2:0,2:0:0:0:
247,161,21823,1,0,3:0:0:0:
247,85,21933,2,0,B|252:96|256:120|232:135|232:135|137:182,1,135,0|2,3:0|2:3,2:0:0:0:
256,331,22370,2,0,B|261:320|266:296|243:280|243:280|151:228,1,135,0|2,3:2|2:3,2:0:0:0:
0,26,22806,2,0,B|-5:36|-10:60|12:76|12:76|104:128,1,135,2|0,3:2|2:0,2:0:0:0:
63,192,23126,6,0,B|48:179|48:179|83:43,1,135,2|2,3:2|2:3,2:0:0:0:
218,60,23447,1,0,2:0:0:0:
154,90,23554,1,2,3:0:0:0:
225,56,23661,2,0,P|237:25|207:3,2,67.5,0|0|2,3:2|2:0|2:3,2:0:0:0:
273,207,24102,2,0,B|307:203|304:165|273:155|273:155|214:132,1,135,0|2,3:0|2:3,2:0:0:0:
355,97,24429,1,0,3:0:0:0:
359,17,24538,2,0,B|393:20|390:58|359:68|359:68|300:91,1,135,2|0,3:2|2:0,2:0:0:0:
462,91,24865,6,0,B|434:104|434:104|408:217,1,135,2|2,3:2|2:3,2:0:0:0:
454,350,25192,1,0,2:0:0:0:
393,292,25302,1,2,3:0:0:0:
461,353,25411,2,0,P|499:299|453:264,1,135,0|2,3:2|2:3,2:0:0:0:
246,384,25847,2,0,P|286:344|362:366,1,135,0|2,3:0|2:3,2:0:0:0:
270,267,26174,1,0,3:0:0:0:
334,247,26283,2,0,P|293:277|311:346,1,101.25,2|0,3:2|2:0,2:0:0:0:
97,318,26611,6,0,B|120:297|120:297|236:313,1,137.475000514984,2|2,3:2|2:3,2:0:0:0:
119,279,26940,1,0,2:0:0:0:
146,374,27047,1,2,3:0:0:0:
115,270,27154,2,0,B|78:281|54:238|74:207|99:199|99:199|139:189,1,135,0|2,3:2|2:3,2:0:0:0:
42,75,27583,2,0,B|4:64|-18:108|2:138|27:146|27:146|67:155,1,135,0|2,3:0|2:3,2:0:0:0:
110,100,27904,1,0,3:0:0:0:
172,80,28011,2,0,B|135:92|109:51|127:19|152:9|152:9|191:-2,1,135,2|0,3:2|2:0,2:0:0:0:
245,102,28333,6,0,B|247:79|247:79|316:58,1,69.3900002574921,6|0,1:2|3:0,2:0:0:0:
353,45,28551,2,0,L|345:-14,1,33.75,2|0,2:0|2:0,2:0:0:0:
508,152,28767,5,0,3:2:0:0:
445,127,28875,2,0,L|439:81,1,33.75,2|0,3:2|2:0,2:0:0:0:
361,47,29091,2,0,L|357:14,1,33.75,2|0,2:0|2:0,2:0:0:0:
404,200,29307,5,2,2:0:0:0:
330,226,29415,1,0,2:0:0:0:
412,196,29524,2,0,B|392:226|392:226|409:282,2,67.5,0|0|0,2:0|3:0|3:0,2:0:0:0:
443,318,29848,2,0,L|470:262,1,33.75,0|0,2:0|2:0,2:0:0:0:
443,343,30064,6,0,B|404:329|404:329|212:389,1,220.182506637573,2|2,3:2|2:3,2:0:0:0:
42,343,30502,1,2,3:2:0:0:
74,267,30613,2,0,B|51:285|46:303|65:347|108:332|108:332|237:293,1,217.5,0|0,3:0|2:0,2:0:0:0:
357,208,31054,2,0,B|374:231|374:250|344:287|307:261|307:261|192:190,1,217.5,2|0,3:2|3:2,2:0:0:0:
73,149,31486,2,0,B|73:178|84:193|130:205|145:162|145:162|171:98,1,145,2|2,3:2|2:3,2:0:0:0:
46,24,31810,1,2,2:0:0:0:
4,75,31918,6,0,B|25:50|25:50|128:62,1,108.75,0|0,3:0|2:0,2:0:0:0:
136,65,32135,1,0,1:3:0:0:
286,18,32351,1,0,3:0:0:0:
475,45,32567,1,0,3:0:0:0:
380,148,32783,6,0,L|368:61,1,72.5,2|0,2:3|2:0,2:0:0:0:
445,180,33002,1,2,2:3:0:0:
512,203,33112,1,0,1:0:0:0:
442,187,33222,1,0,3:0:0:0:
508,211,33332,2,0,L|504:259,1,36.25,0|0,2:0|2:0,2:0:0:0:
405,306,33442,1,2,2:3:0:0:
477,317,33552,2,0,L|499:386,1,63.9232522125245,0|0,3:0|2:0,2:0:0:0:
360,360,33755,2,0,L|288:384,1,72.5,2|0,2:3|2:0,2:0:0:0:
214,349,33971,5,0,3:2:0:0:
151,384,34078,2,0,B|182:373|182:373|203:238,1,145,2|0,3:2|3:2,2:0:0:0:
307,278,34509,2,0,B|290:269|290:269|267:200,1,72.5,2|0,1:2|2:0,2:0:0:0:
219,154,34725,1,0,3:0:0:0:
142,206,34832,1,0,3:0:0:0:
233,149,34940,2,0,B|209:139|209:139|193:19,1,145,2|2,3:2|2:3,2:0:0:0:
11,151,35374,6,0,B|43:157|43:157|138:80,1,145,6|0,3:2|2:0,2:0:0:0:
268,101,35701,1,2,2:3:0:0:
343,29,35811,2,0,B|367:34|376:68|355:96|326:93|326:93|271:76,1,145,0|2,3:0|3:0,2:0:0:0:
0,78,36248,6,0,B|32:84|32:84|123:6,1,145,2|2,3:2|2:3,2:0:0:0:
303,207,36576,1,0,3:0:0:0:
381,133,36685,2,0,B|405:138|414:172|393:200|364:197|364:197|309:180,1,145,0|0,3:0|2:0,2:0:0:0:
152,140,37013,5,2,3:2:0:0:
218,128,37122,2,0,B|194:112|194:112|212:-6,1,145,0|0,3:0|2:0,2:0:0:0:
30,230,37446,1,0,3:0:0:0:
98,211,37554,2,0,B|74:216|65:250|86:278|115:275|115:275|149:268,1,108.75,2|0,3:0|2:0,2:0:0:0:
153,266,37770,2,0,L|195:257,1,36.25,2|0,3:0|2:0,2:0:0:0:
325,291,37986,2,0,L|222:313,1,72.5,0|0,3:0|2:0,2:0:0:0:
73,346,38203,5,0,2:0:0:0:
0,384,38311,1,0,3:0:0:0:
63,338,38419,2,0,L|49:293,1,36.25,2|0,3:2|2:0,2:0:0:0:
195,370,38635,1,0,2:0:0:0:
276,384,38743,2,0,B|266:368|266:368|279:337,1,36.25,2|0,3:2|2:0,2:0:0:0:
285,320,38851,6,0,B|297:295|297:295|219:187,1,145,2|0,3:2|2:0,2:0:0:0:
164,110,39176,1,0,3:0:0:0:
104,31,39284,2,0,B|129:10|161:29|171:59|148:83|148:83|96:133,1,145,2|2,3:0|3:0,2:0:0:0:
387,359,39718,6,0,B|399:334|399:334|322:226,1,145,2|2,3:2|2:3,2:0:0:0:
284,128,40044,1,0,3:0:0:0:
224,49,40152,2,0,B|249:28|281:47|291:77|268:101|268:101|216:151,1,145,0|0,3:0|2:0,2:0:0:0:
403,183,40478,5,2,3:2:0:0:
499,150,40586,2,0,B|494:134|450:109|416:155|433:188|433:188|445:220,1,145,0|0,3:0|2:0,2:0:0:0:
491,338,40914,1,0,3:0:0:0:
371,371,41023,2,0,B|401:352|401:352|510:387,1,145,2|2,3:0|3:0,2:0:0:0:
296,382,41352,2,0,B|296:344|296:344|390:277,1,145,2|0,3:2|2:0,2:0:0:0:
320,213,41680,5,2,2:3:0:0:
244,194,41790,1,0,3:0:0:0:
310,199,41899,2,0,P|306:173|319:143,1,36.25,2|0,3:2|2:0,2:0:0:0:
231,33,42118,2,0,P|246:77|286:77,1,72.5,2|0,2:0|2:0,2:0:0:0:
349,86,42341,6,0,B|351:54|351:54|474:-3,1,145,6|0,2:0|2:0,2:0:0:0:
512,85,42668,1,0,3:0:0:0:
432,135,42777,2,0,B|440:163|471:168|504:147|490:106|490:106|472:45,1,145,0|2,3:0|2:3,2:0:0:0:
318,178,43104,1,0,2:0:0:0:
407,222,43213,2,0,B|398:250|367:255|334:234|348:193|348:193|366:132,1,145,0|2,3:2|2:3,2:0:0:0:
512,258,43541,1,0,3:0:0:0:
429,303,43650,2,0,B|437:331|468:336|501:315|487:274|487:274|469:213,1,145,2|0,3:2|2:0,2:0:0:0:
259,369,43977,6,0,B|284:353|284:353|422:392,1,145,2|2,3:2|2:3,2:0:0:0:
282,327,44304,1,0,2:0:0:0:
366,300,44413,1,2,3:0:0:0:
275,315,44522,2,0,P|220:291|262:232,1,145,0|2,3:2|2:3,2:0:0:0:
153,325,44850,1,0,2:0:0:0:
135,384,44959,2,0,P|112:328|52:368,1,145,0|2,3:0|2:3,2:0:0:0:
173,194,45395,2,0,P|150:249|90:209,1,145,2|0,3:2|2:0,2:0:0:0:
248,145,45722,6,0,B|229:140|229:140|191:-8,1,145,2|2,3:2|2:3,2:0:0:0:
73,130,46050,1,0,2:0:0:0:
166,171,46159,1,2,3:0:0:0:
65,137,46268,2,0,B|37:163|12:148|3:132|-2:114|12:94|12:94|40:61,1,145,0|2,3:2|2:3,2:0:0:0:
130,73,46595,1,0,2:0:0:0:
186,0,46704,2,0,B|150:-14|132:8|129:26|131:45|151:59|151:59|191:80,1,145,0|2,3:0|2:3,2:0:0:0:
311,152,47141,2,0,B|275:166|257:143|254:125|256:106|276:92|276:92|314:72,1,145,2|0,3:2|2:0,2:0:0:0:
512,135,47468,6,0,B|481:145|481:145|377:94,1,145,2|2,3:2|2:3,2:0:0:0:
445,32,47795,1,0,2:0:0:0:
494,90,47904,1,2,3:0:0:0:
435,25,48013,2,0,B|423:8|396:20|402:49|402:49|421:150,1,145,0|2,3:2|2:3,2:0:0:0:
373,297,48341,1,0,2:0:0:0:
356,384,48450,2,0,B|335:387|324:359|349:343|349:343|439:283,1,145,0|2,3:0|2:3,2:0:0:0:
493,205,48777,1,0,3:0:0:0:
492,132,48884,2,0,B|512:128|523:156|498:172|498:172|408:232,1,145,2|0,3:2|2:0,2:0:0:0:
491,331,49210,2,0,B|494:304|494:304|371:225,1,147.001004425049,4|0,1:2|2:0,2:0:0:0:
281,315,49540,5,0,2:0:0:0:
350,300,49650,1,0,3:0:0:0:
272,319,49760,2,0,B|278:305|278:305|255:226,1,72.5,0|0,3:0|2:0,2:0:0:0:
209,384,49980,5,2,2:3:0:0:
135,384,50090,1,0,2:0:0:0:
204,376,50200,2,0,B|195:353|195:353|205:292,1,72.5,2|0,2:0|2:0,2:0:0:0:
127,281,50419,6,0,L|135:235,1,36.25,0|0,2:0|2:0,2:0:0:0:
139,313,50529,2,0,B|121:291|121:291|6:254,1,145.000004425049,0|0,3:0|2:0,2:0:0:0:
52,179,50856,2,0,P|31:177|14:159,1,36.25,0|0,2:0|2:0,2:0:0:0:
7,161,50963,2,0,P|43:48|131:90,1,217.5,2|2,3:2|2:3,2:0:0:0:
373,14,51393,1,0,3:0:0:0:
377,90,51501,2,0,P|303:15|216:69,1,217.5,2|0,3:2|2:0,2:0:0:0:
349,203,51931,2,0,P|376:124|501:158,1,217.5,2|0,3:2|3:0,2:0:0:0:
508,281,52361,2,0,P|501:249|401:253,1,145,2|0,3:2|2:0,2:0:0:0:
400,320,52684,5,6,1:2:0:0:
480,381,52791,2,0,B|490:356|472:324|434:339|434:339|356:365,1,145,0|0,3:0|2:0,2:0:0:0:
329,274,53120,1,0,3:0:0:0:
233,325,53229,2,0,B|232:318|228:296|250:274|274:272|295:283|295:283|356:318,1,145,0|0,3:0|3:0,2:0:0:0:
15,384,53668,6,0,B|30:366|30:366|21:283,1,72.5,0|0,1:0|2:0,2:0:0:0:
163,293,53887,2,0,B|146:288|146:288|131:221,2,72.5,2|0|0,2:0|3:0|3:0,2:0:0:0:
78,173,54216,2,0,B|93:158|93:158|81:103,1,72.5,2|0,2:0|2:0,2:0:0:0:
198,85,54436,1,0,1:0:0:0:
174,7,54533,2,0,B|188:37|188:37|159:95,2,72.5,2|0|0,3:2|3:0|2:0,2:0:0:0:
257,204,54862,1,0,3:0:0:0:
247,277,54971,2,0,B|255:254|255:254|165:130,1,145,2|2,3:2|2:3,2:0:0:0:
300,11,55410,2,0,B|302:30|302:30|229:64,1,72.5,2|0,3:2|2:0,2:0:0:0:
367,172,55629,6,0,L|355:91,1,72.5,2|0,2:0|3:0,2:0:0:0:
472,187,55849,2,0,L|470:140,1,36.25,2|0,1:2|2:0,2:0:0:0:
381,184,55958,2,0,L|368:230,1,36.25,0|0,2:0|2:0,2:0:0:0:
426,0,56178,6,0,B|463:-8|482:38|446:62|446:62|302:149,1,214.85617330424,6|0,3:2|2:0,2:0:0:0:
496,280,56611,1,0,3:0:0:0:
405,274,56719,2,0,B|426:306|473:290|467:247|467:247|459:203,1,108.75,2|0,3:0|2:0,2:0:0:0:
457,207,56935,2,0,L|437:126,1,72.5,2|0,3:0|2:0,2:0:0:0:
512,384,57151,2,0,B|487:363|487:363|403:352,1,108.75,0|0,3:0|2:0,2:0:0:0:
334,383,57367,6,0,L|344:327,1,36.25,2|0,2:3|2:0,2:0:0:0:
187,323,57475,2,0,L|195:287,1,36.25,0|0,3:0|2:0,2:0:0:0:
315,342,57690,2,0,L|298:258,1,72.5,2|0,2:3|2:0,2:0:0:0:
14,348,57906,6,0,B|-9:366|6:393|31:388|31:388|193:304,1,217.5,2|0,3:2|2:0,2:0:0:0:
111,239,58338,1,0,3:0:0:0:
9,239,58446,2,0,B|17:202|67:199|78:241|78:241|88:284,1,108.75,2|0,3:0|2:0,2:0:0:0:
87,277,58662,2,0,L|107:356,1,72.5,2|0,3:0|2:0,2:0:0:0:
182,217,58877,2,0,B|181:187|181:187|114:154,1,72.5,2|0,3:2|2:0,2:0:0:0:
1,124,59093,6,0,P|25:80|25:80,1,36.25,0|0,2:0|3:0,2:0:0:0:
113,88,59201,2,0,L|89:43,1,36.25,0|2,2:0|3:2,2:0:0:0:
27,78,59417,2,0,L|30:5,1,72.5,2|0,2:3|2:0,2:0:0:0:
159,154,59633,6,0,B|156:166|167:195|218:228|272:182|272:130|238:97|238:97|146:14,1,293.359175516765,2|2,3:2|3:0,2:0:0:0:
323,29,60178,5,0,3:0:0:0:
219,38,60288,1,0,2:0:0:0:
339,24,60397,2,0,B|321:58|321:58|331:117,2,72.5,0|0|2,3:0|2:0|3:0,2:0:0:0:
466,164,60726,5,0,2:0:0:0:
496,64,60835,1,0,2:0:0:0:
463,175,60945,1,2,3:0:0:0:
493,73,61054,1,2,3:0:0:0:
461,185,61164,1,0,2:0:0:0:
461,185,61383,6,0,B|496:123|496:123|401:-6,1,218.824339970907,2|0,3:2|2:0,2:0:0:0:
374,156,61821,5,2,3:0:0:0:
288,147,61930,1,0,3:0:0:0:
387,150,62038,2,0,B|363:169|363:169|379:224,2,72.5,0|0|0,2:0|3:0|2:0,2:0:0:0:
265,317,62363,2,0,B|282:291|282:291|268:233,1,72.5,2|0,3:0|2:0,2:0:0:0:
338,384,62580,6,0,L|330:332,1,36.25,2|0,2:3|2:0,2:0:0:0:
429,276,62688,2,0,L|435:233,1,36.25,0|0,3:0|2:0,2:0:0:0:
345,357,62904,2,0,L|358:255,1,72.5,2|0,2:3|2:0,2:0:0:0:
451,372,63121,6,0,P|498:368|491:320,1,103,2|0,3:2|2:0,2:0:0:0:
429,276,63328,2,0,B|444:268|444:268|442:233,1,36.25,2|0,2:0|2:0,2:0:0:0:
265,317,63652,2,0,B|257:308|257:308|271:274,1,36.25,2|0,3:2|2:0,2:0:0:0:
0,384,64084,2,0,B|29:368|29:368|35:297,1,72.5,2|0,3:2|2:0,2:0:0:0:
134,298,64300,6,0,L|128:249,1,36.25,2|0,2:3|2:0,2:0:0:0:
9,223,64408,2,0,L|27:187,1,36.25,0|0,3:0|2:0,2:0:0:0:
115,287,64623,2,0,L|136:195,1,72.5,2|0,2:3|2:0,2:0:0:0:
37,116,64839,6,0,P|0:38|120:77,1,288.374675516765,2|0,3:2|3:0,2:0:0:0:
211,99,65375,2,0,B|228:83|228:83|217:50,1,36.25,2|0,3:2|2:0,2:0:0:0:
418,68,65697,1,0,2:0:0:0:
454,3,65804,2,0,B|438:14|438:14|459:109,1,72.5,2|0,3:2|2:0,2:0:0:0:
357,194,66018,6,0,L|375:156,1,36.25,2|0,2:3|2:0,2:0:0:0:
472,273,66125,2,0,L|467:229,1,36.25,0|0,3:0|2:0,2:0:0:0:
377,184,66339,2,0,L|360:79,1,72.5,2|0,2:3|2:0,2:0:0:0:
171,384,66554,6,0,B|216:378|216:378|254:183,1,215.440006637573,2|2,3:2|2:3,2:0:0:0:
512,121,67086,2,0,B|475:143|475:143|365:85,1,145,2|2,3:2|2:3,2:0:0:0:
202,325,67521,2,0,B|156:318|155:264|201:256|201:256|254:245,1,145,2|2,3:2|2:3,2:0:0:0:
359,62,67962,2,0,B|327:28|282:57|301:99|301:99|323:151,1,145,2|0,3:2|2:0,2:0:0:0:
0,159,68281,6,0,P|30:128|42:129,1,36.25,2|0,3:2|2:0,2:0:0:0:
64,128,68387,1,0,1:0:0:0:
175,175,68600,1,2,3:0:0:0:
350,188,68813,1,0,3:0:0:0:
512,262,69025,1,2,3:0:0:0:
333,167,69238,6,0,L|323:113,1,36.25,0|0,1:0|2:0,2:0:0:0:
333,167,69686,6,0,B|359:178|359:178|350:247,1,75,2|0,3:2|2:0,2:0:0:0:
371,249,69929,1,0,2:0:0:0:
473,362,70131,6,0,P|444:296|416:350,1,140,6|0,3:2|2:0,2:0:0:0:
346,374,70463,1,2,3:0:0:0:
272,308,70573,2,0,P|267:353|334:326,1,140,2|2,3:2|3:0,2:0:0:0:
483,274,71016,6,0,B|458:237|458:237|492:123,1,140,2|0,3:2|2:0,2:0:0:0:
316,187,71348,1,0,3:2:0:0:
373,229,71460,2,0,B|348:192|348:192|382:78,1,140,2|0,3:2|2:0,2:0:0:0:
440,119,71781,6,0,P|468:118|484:98,1,35,2|0,3:2|2:0,2:0:0:0:
487,101,71888,2,0,P|498:56|418:32,1,140,0|0,3:2|2:0,2:0:0:0:
256,37,72210,1,0,3:0:0:0:
301,79,72317,2,0,P|313:13|353:56,1,140,2|2,3:0|3:0,2:0:0:0:
260,163,72638,2,0,P|230:113|194:135,1,106.959996795654,2|0,2:3|2:0,2:0:0:0:
184,155,72855,6,0,B|199:169|199:169|196:197,1,35,2|0,2:0|2:0,2:0:0:0:
40,149,73071,1,0,3:2:0:0:
22,73,73178,2,0,B|7:87|7:87|21:149,1,70,2|0,3:2|2:0,2:0:0:0:
86,81,73394,1,0,2:0:0:0:
157,54,73502,2,0,B|165:30|165:30|139:9,1,35,2|0,3:2|2:0,2:0:0:0:
118,10,73609,6,0,B|102:31|102:31|128:163,1,140,2|0,3:2|2:0,2:0:0:0:
0,271,73932,1,2,3:0:0:0:
59,299,74040,2,0,P|57:230|95:242,1,105,0|0,3:0|2:0,2:0:0:0:
97,237,74256,2,0,L|139:260,1,35,2|0,2:3|2:0,2:0:0:0:
236,51,74471,6,0,B|220:72|220:72|246:204,1,140,2|2,3:2|2:3,2:0:0:0:
123,356,74793,1,0,3:0:0:0:
182,384,74900,2,0,P|157:347|179:322,2,70,0|0|0,3:0|2:0|2:0,2:0:0:0:
280,303,75222,6,0,B|246:270|246:270|285:104,1,210,2|0,3:2|2:0,2:0:0:0:
424,359,75651,1,2,3:0:0:0:
331,354,75759,2,0,P|360:322|378:390,1,140,0|2,3:0|2:3,2:0:0:0:
512,255,76081,2,0,P|472:196|462:286,1,210,2|2,3:2|2:3,2:0:0:0:
312,223,76510,1,0,3:0:0:0:
374,168,76617,2,0,P|352:139|342:140,7,35,2|0|0|0|2|0|0|0,3:2|2:0|2:0|2:0|3:2|2:0|3:0|2:0,2:0:0:0:
305,136,77047,6,0,B|326:112|326:112|313:-11,1,145,6|0,2:0|2:0,2:0:0:0:
445,94,77373,1,0,3:0:0:0:
497,8,77482,2,0,B|515:33|508:67|471:79|448:65|448:65|384:31,1,145,0|2,3:0|2:3,2:0:0:0:
213,147,77809,1,0,2:0:0:0:
161,61,77918,2,0,B|143:86|150:120|187:132|210:118|210:118|274:84,1,145,0|2,3:2|2:3,2:0:0:0:
445,225,78244,1,0,3:0:0:0:
497,139,78353,2,0,B|515:164|508:198|471:210|448:196|448:196|384:162,1,145,2|0,3:2|2:0,2:0:0:0:
302,225,78680,6,0,B|283:189|283:189|317:74,1,145,2|2,3:2|2:3,2:0:0:0:
154,256,79007,1,0,2:0:0:0:
256,191,79115,1,2,3:0:0:0:
144,266,79224,2,0,P|192:241|215:312,1,145,0|2,3:2|2:3,2:0:0:0:
55,301,79551,1,0,2:0:0:0:
120,351,79660,2,0,P|78:320|52:395,1,145,0|2,3:0|2:3,2:0:0:0:
80,229,79987,1,0,3:0:0:0:
0,193,80096,2,0,P|47:215|62:135,1,145,2|0,3:2|2:0,2:0:0:0:
217,0,80422,6,0,B|186:8|186:8|145:143,1,145.002629425049,2|2,3:2|2:3,2:0:0:0:
57,34,80748,1,0,2:0:0:0:
152,27,80857,1,2,3:0:0:0:
43,35,80965,2,0,B|28:30|6:49|2:79|44:96|44:96|102:117,1,145,0|2,3:2|2:3,2:0:0:0:
250,178,81291,1,0,2:0:0:0:
266,86,81400,2,0,B|280:79|302:98|306:128|264:145|264:145|206:166,1,145,0|2,3:0|2:3,2:0:0:0:
60,252,81726,1,0,3:0:0:0:
44,160,81835,2,0,B|30:153|8:172|4:202|46:219|46:219|104:240,1,145,2|0,3:2|2:0,2:0:0:0:
61,379,82161,6,0,B|36:367|36:367|-39:406,1,73.1670022125245,2|0,3:2|2:0,2:0:0:0:
11,338,82377,2,0,L|0:284,1,36.25,2|0,2:3|2:0,2:0:0:0:
167,375,82591,2,0,L|201:364,1,36.25,2|0,3:0|2:0,2:0:0:0:
278,353,82698,2,0,B|273:375|239:386|214:373|203:345|213:316|213:316|228:276,1,145,0|2,3:2|2:3,2:0:0:0:
398,241,83020,1,0,2:0:0:0:
302,277,83127,2,0,B|307:299|341:310|366:297|377:269|367:240|367:240|352:197,1,145,0|2,3:0|2:3,2:0:0:0:
413,336,83448,1,0,3:0:0:0:
509,372,83555,2,0,B|504:394|470:405|445:392|434:364|444:335|444:335|457:295,1,145,2|0,3:2|2:0,2:0:0:0:
337,177,83877,6,0,B|396:163|396:163|419:25,1,182.543338864644,2|0,3:2|2:0,2:0:0:0:
457,29,84200,2,0,B|445:23|445:23|451:-9,1,37.5,2|0,2:0|2:0,2:0:0:0:
422,132,84309,1,0,3:2:0:0:
512,172,84417,1,2,3:2:0:0:
411,126,84526,2,0,B|395:122|395:122|393:99,1,37.5,2|0,2:0|2:0,2:0:0:0:
225,44,84743,5,0,3:2:0:0:
179,1,84851,2,0,B|194:17|194:17|303:1,1,75,2|0,3:2|2:0,2:0:0:0:
251,106,85068,2,0,L|240:153,1,37.5,2|0,2:3|2:0,2:0:0:0:
329,57,85177,2,0,L|327:152,1,75,0|0,3:2|3:0,2:0:0:0:
257,210,85394,2,0,L|229:109,1,75,2|0,2:3|2:0,2:0:0:0:
34,186,85665,6,0,B|67:160|67:160|33:-17,1,188.882507152558,2|2,3:2|2:3,2:0:0:0:
208,227,86047,1,0,3:2:0:0:
144,189,86155,2,0,B|176:233|176:233|155:354,1,150,2|2,3:2|2:3,2:0:0:0:
39,314,86481,1,0,3:2:0:0:
5,370,86590,2,0,B|41:332|41:332|153:309,1,150,2|0,3:2|2:0,2:0:0:0:
293,384,86916,5,2,1:3:0:0:
469,345,87025,1,2,1:3:0:0:
217,384,87242,1,4,2:3:0:0:
217,384,87460,2,0,B|231:341|231:341|208:216,1,150,6|0,2:0|2:0,2:0:0:0:
173,148,87780,5,0,3:0:0:0:
116,120,87887,2,0,P|153:119|184:63,1,97.5,2|0,3:0|2:0,2:0:0:0:
175,53,88100,2,0,P|175:83|149:106,1,65,2|0,3:0|2:0,2:0:0:0:
272,199,88314,2,0,P|244:182|244:141,1,65,0|0,3:0|2:0,2:0:0:0:
253,117,88474,5,2,2:0:0:0:
253,117,88527,2,0,L|287:42,1,65,2|0,2:0|3:2,2:0:0:0:
355,94,88741,5,2,3:2:0:0:
355,94,88794,2,0,L|392:-2,1,97.5,2|0,2:0|2:0,2:0:0:0:
501,101,89061,1,2,3:0:0:0:
426,103,89168,2,0,B|459:117|459:117|487:187,1,97.5,0|2,3:0|2:0,2:0:0:0:
489,223,89381,2,0,B|463:235|463:235|461:255,1,32.5,0|0,2:0|2:0,2:0:0:0:
451,272,89488,1,0,3:0:0:0:
374,275,89595,2,0,L|394:399,1,97.5,0|0,3:0|2:0,2:0:0:0:
401,384,89808,2,0,L|390:319,1,65,2|0,2:3|2:0,2:0:0:0:
285,289,90022,6,0,L|310:224,1,65,2|0,3:2|2:0,2:0:0:0:
214,286,90234,1,2,2:0:0:0:
289,318,90340,1,2,2:0:0:0:
208,295,90446,2,0,L|193:337,1,32.5,2|0,2:0|2:0,2:0:0:0:
155,379,90552,2,0,B|167:366|167:366|151:292,1,65,2|0,2:0|2:0,2:0:0:0:
36,322,90764,2,0,L|92:264,1,67.452663691203,0|0,3:0|3:0,2:0:0:0:
22,205,90979,5,2,2:0:0:0:
78,184,91085,1,2,2:0:0:0:
107,124,91190,1,2,3:2:0:0:
95,60,91296,1,2,3:2:0:0:
95,60,91507,5,2,2:0:0:0:
143,128,91613,1,2,3:2:0:0:
242,148,91719,1,2,3:2:0:0:
310,83,91824,1,2,2:0:0:0:
306,1,91930,1,2,2:0:0:0:
306,1,91983,1,2,2:0:0:0:
234,58,92124,6,0,L|241:90,1,25,2|0,3:2|2:0,2:0:0:0:
375,26,92324,6,0,L|382:58,1,25,2|0,2:0|2:0,2:0:0:0:
506,0,92525,6,0,L|513:32,1,25,2|0,2:0|3:0,2:0:0:0:
443,64,92669,6,0,L|434:113,1,50,0|0,1:0|2:0,2:0:0:0:
393,172,92859,1,2,2:0:0:0:
446,182,92967,1,2,3:2:0:0:
483,207,93076,1,2,2:0:0:0:
497,234,93185,1,2,3:2:0:0:
488,384,93395,6,0,L|498:348,1,25,2|0,1:2|2:0,2:0:0:0:
333,339,93610,2,0,L|341:310,1,25,2|0,2:0|2:0,2:0:0:0:
315,275,93717,1,2,3:2:0:0:
247,257,93825,1,2,3:2:0:0:
194,306,93932,1,2,1:2:0:0:
213,370,94040,1,2,3:2:0:0:
224,377,94147,1,2,2:0:0:0:
235,384,94255,6,0,L|229:335,1,50,6|0,3:2|2:0,2:0:0:0:
53,384,94470,2,0,L|84:335,1,50,2|0,2:0|3:2,2:0:0:0:
119,259,94685,5,2,3:2:0:0:
12,292,94792,1,2,2:0:0:0:
133,255,94900,1,2,3:2:0:0:
77,156,95115,5,2,3:2:0:0:
77,156,95326,1,2,2:0:0:0:
10,130,95432,2,0,L|-2:70,1,50,2|0,3:2|3:0,2:0:0:0:
212,1,95644,1,2,2:0:0:0:
143,0,95749,1,2,2:0:0:0:
99,48,95855,2,0,L|130:93,1,50,2|0,3:2|3:2,2:0:0:0:
258,82,96384,6,0,L|253:38,1,25,2|0,3:2|2:0,2:0:0:0:
197,142,96491,1,2,2:0:0:0:
271,99,96599,2,0,L|260:0,1,100,2|0,3:2|3:0,2:0:0:0:
337,53,97029,6,0,L|342:-10,1,50,2|2,2:0|3:2,2:0:0:0:
488,50,97244,1,2,3:2:0:0:
498,121,97351,1,2,2:0:0:0:
441,161,97459,1,2,2:0:0:0:
382,130,97566,2,0,L|404:68,1,50.465,0|0,3:2|3:2,2:0:0:0:
366,139,97780,5,2,2:0:0:0:
301,162,97887,1,2,2:0:0:0:
345,300,98101,1,2,2:0:0:0:
345,300,98314,1,2,2:0:0:0:
485,239,98528,2,0,L|494:176,1,50,2|0,3:2|2:0,2:0:0:0:
512,307,98741,5,2,2:0:0:0:
470,249,98848,1,2,3:2:0:0:
335,306,99008,2,0,P|325:320|325:354,2,50,2|2|2,2:0|2:0|2:0,2:0:0:0:
168,352,99363,6,0,L|188:312,1,25,2|0,3:2|2:0,2:0:0:0:
241,363,99470,6,0,L|228:384,1,25,2|0,2:0|2:0,2:0:0:0:
2,268,99684,6,0,L|21:241,1,25,2|0,3:2|1:0,2:0:0:0:
239,221,99898,1,2,2:0:0:0:
173,204,100005,1,2,2:0:0:0:
121,254,100113,1,2,3:2:0:0:
133,328,100220,1,2,3:2:0:0:
0,384,100434,2,0,L|26:343,4,37.5,2|2|2|2|2,2:0|2:0|2:0|2:0|1:2,2:0:0:0:
20,211,100964,2,0,B|7:199|7:199|30:79,1,130,0|0,3:0|2:0,2:0:0:0:
13,56,101228,5,2,2:0:0:0:
230,112,101493,2,0,L|211:79,2,32.5,2|2|0,2:0|2:0|2:0,2:0:0:0:
291,10,101706,1,2,2:0:0:0:
47,0,101919,6,0,B|64:-3|64:-3|170:36,1,130,2|2,3:2|2:3,2:0:0:0:
230,112,102239,1,0,3:2:0:0:
244,181,102345,2,0,B|233:155|233:155|168:128,1,97.5,2|0,3:2|2:0,2:0:0:0:
0,150,102665,2,0,B|17:147|17:147|53:165,1,32.5,2|0,3:2|2:0,2:0:0:0:
45,176,102771,2,0,L|166:236,1,130,6|2,1:2|2:3,2:0:0:0:
244,317,103091,1,0,3:2:0:0:
273,384,103198,2,0,L|263:247,1,130,2|2,3:2|2:3,2:0:0:0:
470,252,103519,1,0,3:2:0:0:
512,307,103626,2,0,L|404:251,1,97.5,2|0,3:2|2:0,2:0:0:0:
408,230,103840,2,0,L|347:199,1,65,2|0,3:2|2:0,2:0:0:0:
339,139,104055,1,2,3:2:0:0:
424,121,104162,1,0,1:2:0:0:
324,143,104269,2,0,L|337:86,1,32.5,2|0,3:2|2:0,2:0:0:0:
249,144,104483,5,0,3:0:0:0:
242,0,104590,2,0,L|247:96,1,80,2|4,2:0|1:2,2:0:0:0:
70,225,104806,5,0,2:0:0:0:
63,32,104913,2,0,L|69:194,1,160,2|2,3:2|3:0,2:0:0:0:
297,384,105344,6,0,L|123:342,1,160,2|0,1:2|2:0,2:0:0:0:
314,289,105667,5,0,3:0:0:0:
500,335,105775,2,0,L|326:293,1,160,2|0,1:2|2:0,2:0:0:0:
0,127,106098,6,0,L|276:198,1,238,4|0,1:2|2:0,2:0:0:0:
370,219,106524,1,0,3:0:0:0:
413,274,106630,2,0,L|370:172,1,100,2|2,3:0|3:0,2:0:0:0:
94,26,107055,6,0,L|98:68,1,40,2|0,3:2|2:0,2:0:0:0:
8,55,107161,2,0,L|24:94,1,40,2|0,2:0|2:0,2:0:0:0:
273,89,107374,6,0,L|283:147,1,40,2|0,2:0|2:0,2:0:0:0:
499,114,107586,2,0,L|500:159,1,40,2|0,2:0|2:0,2:0:0:0:
74,240,107798,2,0,B|28:220|28:220|235:171,1,238.493333333333,6|0,1:2|2:0,2:0:0:0:
211,309,108219,5,0,3:0:0:0:
221,376,108325,2,0,L|239:307,1,50,2|0,3:0|2:0,2:0:0:0:
364,289,108535,2,0,L|313:264,1,50,2|0,3:0|2:0,2:0:0:0:
101,383,108746,2,0,B|116:326|116:326|87:251,1,120,2|0,2:0|2:0,2:0:0:0:
106,190,108956,2,0,B|90:208|90:208|97:262,3,40,2|2|2|2,2:0|2:0|2:0|2:0,2:0:0:0:
0,176,109285,2,0,L|23:258,1,80,2|0,2:0|2:0,2:0:0:0:
181,240,109489,2,0,L|163:329,1,80.7813333333333,2|0,2:0|3:0,2:0:0:0:
274,158,109697,2,0,L|249:-32,1,160,2|0,2:0|3:0,2:0:0:0:
196,167,110012,6,0,B|191:137|191:137|233:104,1,80,2|0,3:2|2:0,2:0:0:0:
357,52,110222,2,0,B|370:26|370:26|324:-2,1,80,2|0,2:0|2:0,2:0:0:0:
509,155,110432,1,2,2:0:0:0:
509,155,110485,2,0,L|500:103,1,40,2|0,2:0|2:0,2:0:0:0:
370,263,110642,2,0,L|387:203,1,40,2|0,2:0|2:0,2:0:0:0:
462,335,110747,1,0,1:2:0:0:
512,384,110852,2,0,L|487:288,2,80,2|0|0,1:2|1:2|2:0,2:0:0:0:
315,361,111168,2,0,B|341:353|341:353|414:387,1,81.5226666666667,2|4,3:2|3:2,2:0:0:0:
284,281,111383,5,2,2:0:0:0:
210,291,111492,1,2,2:0:0:0:
174,355,111601,1,2,3:2:0:0:
174,355,111656,1,2,2:0:0:0:
174,355,111710,2,0,L|156:301,1,40,2|0,3:2|2:0,2:0:0:0:
0,384,111928,2,0,L|3:327,1,40,2|0,2:0|2:0,2:0:0:0:
241,206,112152,2,0,L|272:75,1,120,2|0,3:2|2:0,2:0:0:0:
266,53,112359,2,0,L|253:114,1,40,2|0,2:0|2:0,2:0:0:0:
158,0,112567,2,0,L|180:162,1,160,2|0,3:2|2:0,2:0:0:0:
40,55,112879,2,0,B|19:27|19:27|166:60,1,160,2|0,3:2|2:0,2:0:0:0:
88,116,113191,5,2,2:3:0:0:
0,151,113295,1,0,3:2:0:0:
101,111,113399,1,0,3:0:0:0:
16,146,113503,2,0,L|36:192,1,40,2|0,2:0|2:0,2:0:0:0:
75,384,113815,6,0,L|109:214,1,160,2|0,2:0|2:0,2:0:0:0:
231,153,114133,2,0,L|183:-16,1,160,2|0,3:2|2:0,2:0:0:0:
49,384,114452,2,0,L|136:214,1,160,2|0,2:0|3:0,2:0:0:0:
275,41,114770,5,2,2:0:0:0:
275,41,114823,2,0,L|286:-21,1,42.5,0|0,2:0|2:0,2:0:0:0:
512,96,114983,2,0,L|506:51,1,42.5,2|0,3:2|2:0,2:0:0:0:
422,127,115089,2,0,L|434:76,1,42.5,2|0,3:2|2:0,2:0:0:0:
231,153,115301,2,0,L|262:237,1,85,2|0,2:0|2:0,2:0:0:0:
392,184,115514,2,0,L|391:139,1,42.5,2|0,3:2|2:0,2:0:0:0:
496,367,115723,2,0,L|490:320,1,42.5,2|0,2:0|2:0,2:0:0:0:
415,328,115828,2,0,L|454:211,1,85,2|0,3:2|3:2,2:0:0:0:
281,384,116037,2,0,L|339:364,1,42.5,2|0,2:0|2:0,2:0:0:0:
183,317,116246,2,0,L|100:336,1,85,2|0,3:2|3:2,2:0:0:0:
182,217,116456,2,0,L|268:182,1,85,2|0,2:3|2:0,2:0:0:0:
77,161,116665,1,2,3:2:0:0:
0,151,116770,2,0,L|147:115,1,127.5,2|0,3:2|2:0,2:0:0:0:
157,97,116982,2,0,L|101:110,1,42.5,2|0,2:0|2:0,2:0:0:0:
0,384,117194,2,0,L|161:290,1,170,2|0,3:2|2:0,2:0:0:0:
434,289,117512,2,0,L|265:222,1,170,2|0,3:2|2:0,2:0:0:0:
0,69,117830,2,0,L|141:171,1,171.60366990916,2|4,3:2|3:2,2:0:0:0:
66,293,118149,5,2,2:0:0:0:
119,238,118255,1,0,2:0:0:0:
74,285,118360,1,0,3:2:0:0:
182,271,118466,5,2,3:2:0:0:
157,348,118572,1,0,2:0:0:0:
179,283,118677,1,0,2:0:0:0:
285,367,118783,5,2,2:0:0:0:
260,282,118889,1,0,3:2:0:0:
281,354,118994,1,0,2:0:0:0:
324,236,119100,5,2,2:0:0:0:
405,285,119205,1,0,3:2:0:0:
333,243,119311,1,0,3:2:0:0:
419,139,119417,5,2,2:0:0:0:
338,170,119522,1,0,2:0:0:0:
431,135,119628,1,0,3:2:0:0:
350,90,119734,5,2,3:2:0:0:
399,200,119839,1,0,2:0:0:0:
354,101,119945,1,0,2:0:0:0:
263,222,120051,5,2,3:2:0:0:
274,99,120156,1,0,3:2:0:0:
263,210,120262,1,0,2:0:0:0:
206,66,120367,5,2,2:0:0:0:
127,175,120473,1,0,3:2:0:0:
199,77,120579,1,0,3:2:0:0:
36,85,120684,5,2,2:0:0:0:
158,17,120790,1,0,2:0:0:0:
46,79,120896,1,0,3:2:0:0:
83,1,121001,5,2,3:2:0:0:
61,154,121107,2,0,L|59:180,4,25,0|2|0|0|0,3:0|3:2|3:2|3:2|3:2,2:0:0:0:
47,302,121440,6,0,B|69:301|69:301|109:384,1,85,6|0,3:2|2:0,2:0:0:0:
0,241,121649,1,2,2:0:0:0:
250,236,121859,6,0,B|255:254|255:254|197:310,1,85,2|0,3:2|2:0,2:0:0:0:
297,175,122069,1,2,2:0:0:0:
135,93,122279,6,0,B|117:86|117:86|107:6,1,85,6|0,3:2|2:0,2:0:0:0:
149,186,122488,1,2,2:0:0:0:
310,23,122698,6,0,B|294:32|294:32|224:-7,1,85,2|0,3:2|2:0,2:0:0:0:
399,69,122908,1,0,2:0:0:0:
422,154,123013,2,0,B|417:113|417:113|478:0,1,176.48266990916,6|0,3:2|2:0,2:0:0:0:
333,203,123338,2,0,B|311:182|311:182|218:191,1,85,2|0,2:0|2:0,2:0:0:0:
434,282,123553,2,0,L|448:259,10,25,0|0|0|0|2|0|0|0|0|0|0,3:0|2:0|2:0|2:0|2:3|2:0|3:0|2:0|3:0|2:0|2:0,2:0:0:0:
345,309,124200,6,0,L|309:225,1,77.5,2|0,2:3|3:0,2:0:0:0:
265,384,124415,2,0,L|270:333,1,38.75,0|0,3:0|2:0,2:0:0:0:
363,332,124523,2,0,L|361:278,1,38.75,2|0,2:3|2:0,2:0:0:0:
276,53,124738,6,0,B|196:43|196:43|473:-7,1,320.514666666667,6|0,1:2|3:0,2:0:0:0:
444,338,125275,2,0,P|463:341|465:248,1,120,2|0,3:0|2:0,2:0:0:0:
483,243,125487,2,0,L|429:160,1,80,2|0,3:0|2:0,2:0:0:0:
301,361,125699,2,0,B|299:378|321:393|338:375|338:375|368:328,1,80,0|0,3:0|2:0,2:0:0:0:
319,163,125911,6,0,L|319:216,1,40,2|0,2:3|2:0,2:0:0:0:
228,238,126017,2,0,L|252:289,1,40,0|0,3:0|2:0,2:0:0:0:
309,175,126229,2,0,L|273:74,1,80,2|0,2:3|2:0,2:0:0:0:
177,41,126441,6,0,B|168:55|170:85|187:119|244:135|276:84|276:84|321:-20,1,240,2|0,3:2|2:0,2:0:0:0:
122,1,126865,1,0,3:0:0:0:
31,0,126971,2,0,P|103:30|58:97,1,160,2|2,3:2|3:0,2:0:0:0:
65,268,127395,2,0,P|12:260|20:209,1,80,2|0,3:2|2:0,2:0:0:0:
138,198,127607,6,0,L|127:146,1,40,2|0,2:3|2:0,2:0:0:0:
201,247,127713,2,0,L|215:202,1,40,0|0,3:0|2:0,2:0:0:0:
141,178,127925,2,0,L|157:82,1,80,2|0,2:3|2:0,2:0:0:0:
40,384,128137,6,0,B|-8:396|-12:358|-15:331|19:318|19:318|155:286,1,240,2|0,3:2|2:0,2:0:0:0:
177,384,128562,1,0,3:0:0:0:
283,335,128669,2,0,P|243:382|207:310,1,160,2|2,3:0|3:0,2:0:0:0:
335,293,128991,1,0,2:0:0:0:
426,281,129098,2,0,P|381:227|419:235,1,160,0|2,3:2|2:3,2:0:0:0:
512,348,129419,1,0,3:0:0:0:
429,373,129526,2,0,P|487:354|430:314,1,160,0|0,3:2|2:0,2:0:0:0:
367,0,129901,6,0,B|360:45|376:73|376:73|341:31|341:31|361:84|378:138,1,227.519993133545,2|0,3:1|2:0,2:0:0:0:
505,111,130279,1,2,3:2:0:0:
466,187,130386,2,0,P|486:137|436:138,1,120,0|0,3:2|2:0,2:0:0:0:
434,144,130602,2,0,L|421:225,1,80,2|0,3:2|2:0,2:0:0:0:
462,47,130817,2,0,B|450:26|450:26|465:-12,1,40,2|0,3:2|2:0,2:0:0:0:
265,137,131033,6,0,L|276:78,1,40,2|0,2:3|2:0,2:0:0:0:
351,221,131140,2,0,L|348:168,1,40,0|0,3:0|2:0,2:0:0:0:
279,142,131356,2,0,L|266:49,1,80,2|0,2:3|2:0,2:0:0:0:
108,95,131571,6,0,P|90:19|177:78,1,237.772,2|0,3:2|2:0,2:0:0:0:
0,148,131998,1,0,3:0:0:0:
62,161,132104,2,0,B|39:141|39:141|5:144,1,40,2|0,3:2|2:0,2:0:0:0:
0,271,132317,2,0,L|37:251,1,40,2|0,3:2|2:0,2:0:0:0:
177,160,132530,2,0,B|171:147|141:149|132:176|132:176|113:237,1,80,2|0,3:2|2:0,2:0:0:0:
228,324,132742,6,0,L|213:286,1,40,2|0,2:3|2:0,2:0:0:0:
292,258,132849,2,0,L|297:186,1,40,0|0,3:0|2:0,2:0:0:0:
221,296,133061,2,0,L|200:395,1,80,2|0,2:3|2:0,2:0:0:0:
16,364,133274,6,0,B|46:402|101:372|93:333|76:313|76:313|-18:211,1,240,2|0,3:2|2:0,2:0:0:0:
58,103,133700,1,0,3:0:0:0:
0,156,133806,2,0,P|38:128|37:216,1,160,2|2,3:2|3:0,2:0:0:0:
127,76,134126,1,0,2:0:0:0:
131,2,134233,2,0,P|141:50|189:41,1,80,2|0,3:2|2:0,2:0:0:0:
275,112,134447,6,0,L|255:59,1,40,2|0,2:3|2:0,2:0:0:0:
343,42,134554,2,0,L|353:-23,1,40,0|0,3:0|2:0,2:0:0:0:
247,69,134768,2,0,L|238:176,1,80,2|0,2:3|2:0,2:0:0:0:
446,90,134982,5,2,3:2:0:0:
511,121,135089,2,0,B|486:101|459:117|459:117|293:226,1,240,0|0,3:0|3:0,2:0:0:0:
71,254,135513,2,0,B|95:273|122:257|122:257|288:148,1,240,2|0,3:2|2:0,2:0:0:0:
382,328,135937,2,0,B|368:294|368:294|244:269,1,160,2|2,3:2|2:3,2:0:0:0:
96,308,136255,1,0,3:0:0:0:
69,368,136361,2,0,B|103:342|103:342|192:355,1,80,2|0,3:2|2:0,2:0:0:0:
326,245,136573,5,0,3:0:0:0:
247,269,136679,1,2,3:2:0:0:
341,241,136785,2,0,L|331:191,1,40,0|0,1:0|2:0,2:0:0:0:
433,165,136999,5,2,3:0:0:0:
512,189,137107,1,0,3:0:0:0:
417,160,137214,2,0,L|427:110,1,40,0|0,1:0|2:0,2:0:0:0:
317,104,137429,2,0,L|295:41,1,40,2|0,3:0|2:0,2:0:0:0:
416,39,137643,6,0,L|420:-18,1,40,0|0,1:0|2:0,2:0:0:0:
416,39,138091,6,0,B|388:23|388:23|473:39,1,97.5,4|0,1:2|2:0,2:0:0:0:
491,45,138327,1,2,2:0:0:0:
455,279,138528,2,0,B|441:244|441:244|492:131,1,160,6|0,3:2|2:0,2:0:0:0:
311,194,138856,1,2,2:3:0:0:
353,245,138965,2,0,B|339:210|339:210|390:97,1,160,0|2,3:0|3:0,2:0:0:0:
510,335,139403,2,0,B|477:307|441:321|441:321|345:367,1,160,2|2,3:2|2:3,2:0:0:0:
285,295,139732,1,0,3:0:0:0:
219,337,139841,2,0,B|252:309|288:323|288:323|303:330,2,80,0|0|0,3:0|2:0|2:0,2:0:0:0:
313,3,140161,6,0,B|336:32|336:32|313:184,1,160,2|2,3:2|2:0,2:0:0:0:
190,113,140481,1,0,2:0:0:0:
245,70,140588,1,0,3:0:0:0:
247,0,140695,2,0,B|224:-23|201:-8|203:10|203:10|216:101,1,145,2|2,3:2|3:0,2:0:0:0:
80,35,141015,1,0,2:0:0:0:
0,80,141122,6,0,B|24:58|24:58|94:66,1,72.5,2|0,3:2|2:0,2:0:0:0:
92,137,141335,1,0,2:0:0:0:
190,113,141442,1,0,3:0:0:0:
74,141,141549,2,0,B|107:158|107:158|123:279,1,145,0|0,3:2|2:0,2:0:0:0:
218,315,141869,1,0,3:2:0:0:
199,384,141976,6,0,P|162:323|128:354,1,135,2|0,3:2|2:0,2:0:0:0:
262,187,142297,1,0,3:0:0:0:
332,148,142404,2,0,B|301:157|301:157|266:265,1,135,2|2,3:0|3:0,2:0:0:0:
360,312,142726,1,0,2:0:0:0:
344,384,142833,6,0,P|307:323|275:355,1,135,2|2,3:2|2:3,2:0:0:0:
388,188,143154,1,0,3:0:0:0:
457,148,143261,2,0,B|426:157|426:157|391:270,1,135,0|0,3:0|2:0,2:0:0:0:
333,46,143583,6,0,B|324:83|324:83|424:154,1,135,2|0,3:2|2:0,2:0:0:0:
423,73,143904,1,0,2:0:0:0:
500,51,144011,1,0,3:0:0:0:
427,59,144118,2,0,B|387:34|387:34|281:85,1,135,2|2,3:0|3:0,2:0:0:0:
214,35,144440,1,0,2:0:0:0:
128,0,144547,2,0,B|176:12|176:12|241:189,1,225,0|0,3:0|3:0,2:0:0:0:
177,350,144976,6,0,L|266:321,1,70,2|0,3:2|2:0,2:0:0:0:
134,268,145190,2,0,L|99:295,1,35,2|0,2:0|2:0,2:0:0:0:
12,349,145297,1,0,3:0:0:0:
63,384,145404,6,0,B|50:346|50:346|80:232,1,140,6|0,3:2|2:0,2:0:0:0:
29,173,145731,1,0,3:0:0:0:
48,75,145841,2,0,P|69:114|-14:130,1,140,0|2,3:0|2:3,2:0:0:0:
121,0,146169,1,0,2:0:0:0:
140,98,146278,2,0,P|161:58|78:43,1,140,0|2,3:2|2:3,2:0:0:0:
169,205,146606,1,0,3:0:0:0:
217,112,146715,2,0,P|228:135|142:149,1,140,2|0,3:2|2:0,2:0:0:0:
321,82,147043,6,0,B|330:43|330:43|434:0,1,129.405244049073,2|0,3:2|2:0,2:0:0:0:
480,99,147368,1,2,2:3:0:0:
392,63,147476,1,0,2:0:0:0:
496,106,147585,2,0,P|503:147|485:164,2,65,0|0|2,3:2|2:0|2:3,2:0:0:0:
387,140,147910,1,0,3:0:0:0:
327,207,148018,2,0,B|313:195|308:160|340:137|364:144|384:161|384:161|407:189,1,130,0|0,3:2|2:0,2:0:0:0:
452,243,148343,1,0,3:0:0:0:
512,313,148451,2,0,B|526:301|531:266|499:243|475:250|455:267|455:267|429:292,1,130,2|0,3:2|2:0,2:0:0:0:
364,374,148776,6,0,B|329:343|329:343|471:377,1,189.915443879627,2|2,3:2|2:3,2:0:0:0:
459,331,149199,1,0,2:0:0:0:
364,374,149306,2,0,B|366:341|366:341|309:246,1,130,0|2,3:2|2:3,2:0:0:0:
215,326,149628,1,0,3:0:0:0:
295,375,149728,2,0,P|257:385|262:318,1,130,0|0,2:0|2:0,2:0:0:0:
359,181,150047,1,0,3:0:0:0:
286,238,150154,2,0,P|324:248|319:181,1,130,2|0,3:2|2:0,2:0:0:0:
215,326,150474,6,0,B|175:331|175:331|103:388,1,131.829744049073,2|0,3:2|2:0,2:0:0:0:
81,274,150797,1,2,2:3:0:0:
158,308,150903,1,0,2:0:0:0:
71,269,151010,2,0,P|78:243|-4:227,1,130,0|2,3:2|2:3,2:0:0:0:
148,200,151330,1,0,3:0:0:0:
176,122,151436,2,0,P|157:178|215:189,1,130,0|0,3:2|2:0,2:0:0:0:
83,82,151756,1,0,3:0:0:0:
0,49,151862,2,0,L|133:59,1,130,2|0,3:2|2:0,2:0:0:0:
250,0,152182,6,0,B|269:31|269:31|400:43,1,141.313662394206,6|0,3:2|2:0,2:0:0:0:
498,144,152505,1,2,2:3:0:0:
372,105,152613,1,0,3:0:0:0:
493,127,152722,2,0,L|470:39,1,70,2|0,3:2|2:0,2:0:0:0:
407,218,152938,2,0,L|436:131,1,70,0|0,3:0|2:0,2:0:0:0:
352,299,153155,1,2,3:2:0:0:
352,299,153209,2,0,B|381:282|381:282|403:284,1,35,0|0,2:0|2:0,2:0:0:0:
473,384,153372,6,0,B|463:321,1,35,2|0,2:3|2:0,2:0:0:0:
507,291,153480,2,0,L|479:216,1,70,0|0,3:0|3:0,2:0:0:0:
488,380,153696,2,0,L|412:330,1,70,2|0,2:3|2:0,2:0:0:0:
293,381,153893,6,0,B|343:391|380:347|363:291|319:277|319:277|170:229,1,310,2|0,3:2|3:2,2:0:0:0:
0,207,154438,2,0,B|0:156|51:128|102:157|107:203|107:203|120:300,1,232.5,2|0,3:2|3:2,2:0:0:0:
425,334,154867,2,0,B|453:291|426:240|367:235|338:270|338:270|278:344,1,232.5,2|0,3:2|3:2,2:0:0:0:
97,378,155301,2,0,B|55:371|55:371|167:342,1,155,2|2,3:2|2:3,2:0:0:0:
204,183,155627,1,0,2:0:0:0:
277,202,155739,6,0,P|249:179|276:130,1,75,6|0,1:2|2:0,2:0:0:0:
431,63,155957,1,2,2:3:0:0:
342,98,156066,1,0,3:0:0:0:
444,59,156175,2,0,L|306:21,1,112.5,0|0,3:0|2:0,2:0:0:0:
307,7,156393,2,0,L|382:28,1,75,0|0,3:0|2:0,2:0:0:0:
510,139,156611,2,0,P|474:130|451:173,1,75,2|0,1:3|2:0,2:0:0:0:
483,321,156829,1,0,2:0:0:0:
462,248,156939,1,0,3:0:0:0:
490,331,157049,2,0,L|344:386,1,150,0|0,3:0|2:0,2:0:0:0:
344,192,157368,1,0,3:0:0:0:
311,250,157475,2,0,P|293:196|266:184,2,75,0|0|0,2:0|2:0|2:0,2:0:0:0:
178,323,157795,1,0,3:0:0:0:
229,381,157901,2,0,L|189:242,1,112.5,2|0,3:0|2:0,2:0:0:0:
199,233,158114,2,0,L|220:305,1,75,2|0,3:0|2:0,2:0:0:0:
37,384,158327,2,0,B|0:383|0:383|132:336,1,150,2|0,1:3|2:0,2:0:0:0:
50,248,158647,1,0,3:0:0:0:
134,196,158754,2,0,P|81:235|132:276,1,150,2|0,3:0|2:0,2:0:0:0:
51,89,159073,1,0,3:0:0:0:
0,24,159180,2,0,B|11:0|11:0|27:131,1,150,0|2,3:0|2:3,2:0:0:0:
187,59,159495,1,0,3:0:0:0:
253,12,159601,2,0,L|120:42,1,112.5,0|0,3:0|2:0,2:0:0:0:
110,34,159811,2,0,L|194:12,1,75,0|0,3:0|2:0,2:0:0:0:
412,120,160022,2,0,B|451:124|451:124|368:60,1,112.5,2|0,1:3|2:0,2:0:0:0:
311,78,160232,1,0,2:0:0:0:
220,136,160337,1,0,3:0:0:0:
323,71,160443,2,0,B|311:46|311:46|295:178,1,150,2|0,3:0|2:0,2:0:0:0:
509,211,160760,1,0,3:0:0:0:
440,226,160866,2,0,L|534:251,2,75,0|0|0,3:0|3:0|2:0,2:0:0:0:
405,49,161183,1,0,3:0:0:0:
500,18,161289,2,0,P|452:9|476:89,2,150,2|2|2,3:0|3:0|3:2,2:0:0:0:
335,180,161924,1,2,3:2:0:0:
411,254,162030,1,0,3:2:0:0:
337,196,162136,1,2,3:2:0:0:
301,374,162241,1,2,3:2:0:0:
69,0,162453,2,0,B|30:33|30:33|164:-11,1,160,6|0,1:2|3:2,2:0:0:0:
137,97,162769,1,0,2:0:0:0:
5,46,162875,1,0,3:0:0:0:
152,102,162980,2,0,P|137:168|196:161,1,120,0|0,3:0|2:0,2:0:0:0:
182,169,163191,2,0,L|99:157,1,80,0|0,3:0|2:0,2:0:0:0:
0,230,163402,2,0,B|35:263|35:263|14:130,1,160,2|0,1:2|2:0,2:0:0:0:
150,301,163718,1,2,3:2:0:0:
150,301,163771,2,0,B|100:318|100:318|143:237,1,120,0|0,2:0|2:0,2:0:0:0:
59,86,164035,2,0,B|118:77|118:77|20:24,1,160.758666666667,2|0,3:2|3:2,2:0:0:0:
275,82,164351,2,0,B|236:85|236:85|336:138,1,120,2|0,3:2|3:2,2:0:0:0:
466,168,164667,1,2,3:2:0:0:
466,168,164719,2,0,B|489:156|489:156|422:124,1,80,0|2,2:0|2:0,2:0:0:0:
467,292,164930,1,0,2:0:0:0:
467,292,164982,1,0,3:0:0:0:
474,375,165088,2,0,B|436:386|436:386|524:267,1,160,0|2,3:0|3:2,2:0:0:0:
304,310,165403,1,2,3:2:0:0:
381,323,165509,1,2,3:2:0:0:
289,308,165614,1,2,2:0:0:0:
392,324,165719,1,2,2:0:0:0:
277,306,165824,1,2,3:2:0:0:
402,326,165930,2,0,B|426:338|426:338|388:262,1,80,6|0,3:2|2:0,2:0:0:0:
478,181,166142,1,2,2:0:0:0:
478,181,166195,1,2,2:0:0:0:
429,38,166354,1,2,3:2:0:0:
501,27,166460,1,2,2:0:0:0:
419,38,166567,1,0,2:0:0:0:
512,24,166673,1,2,3:2:0:0:
411,38,166779,2,0,B|426:24|426:24|403:105,1,80,6|2,3:2|3:2,2:0:0:0:
380,203,166991,1,0,2:0:0:0:
308,222,167098,1,0,3:2:0:0:
389,199,167204,2,0,L|336:191,7,40,0|0|0|0|0|0|0|0,3:0|3:0|3:0|3:0|3:0|3:0|3:0|3:0,2:0:0:0:
389,199,167629,6,0,B|381:188|381:188|389:254,1,75,4|0,3:2|2:0,2:0:0:0:
392,280,168109,1,2,2:0:0:0:
489,324,168664,2,0,L|513:309,2,25,2|2|2,2:3|2:3|2:3,2:0:0:0:
458,384,169076,2,0,L|411:379,2,37.5,2|2|2,2:3|2:3|2:3,2:3:0:0:
458,384,170921,6,0,P|428:327|324:323,1,175,2|0,2:0|2:0,2:0:0:0:
313,334,171456,2,0,L|286:364,1,37.5,2|0,2:0|2:0,2:0:0:0:
176,225,172016,6,0,P|223:277|174:363,1,175,2|0,2:0|2:0,2:0:0:0:
153,374,172647,2,0,L|113:387,1,37.5,2|0,2:0|2:0,2:0:0:0:
148,295,173262,6,0,P|98:309|39:202,1,175,2|0,2:0|2:0,2:0:0:0:
40,194,173853,2,0,L|54:148,1,40,2|0,2:0|2:0,2:0:0:0:
79,88,174307,2,0,P|55:75|54:69,1,30,2|0,2:0|2:0,2:0:0:0:
27,8,174677,2,0,L|1:1,3,20,0|0|0|0,2:3|2:3|2:3|2:3,2:3:0:0:
26,6,176764,6,0,P|-1:77|75:92,1,175,2|0,2:0|2:0,2:0:0:0:
87,82,177395,2,0,L|115:56,1,30,2|0,2:0|2:0,2:0:0:0:
270,103,177977,6,0,P|199:107|205:29,1,157.5,2|0,2:0|2:0,2:0:0:0:
215,20,178532,2,0,L|240:-2,1,30,2|0,2:0|2:0,2:0:0:0:
326,150,179138,6,0,P|372:152|366:74,1,140,2|0,2:0|2:0,2:0:0:0:
344,62,179704,2,0,L|301:45,1,40,2|0,2:0|2:0,2:0:0:0:
457,71,180132,2,0,P|444:9|512:28,1,160,2|0,2:0|2:0,2:0:0:0:
437,187,183534,5,2,2:0:0:0:
357,162,183738,1,2,2:0:0:0:
484,210,183943,2,0,B|463:210|463:210|431:241,1,50,2|0,2:0|2:0,2:0:0:0:
455,331,184217,1,2,2:0:0:0:
501,384,184356,2,0,P|457:351|397:361,1,120,2|0,2:0|2:0,2:0:0:0:
174,336,186157,5,2,2:0:0:0:
258,309,186287,2,0,B|245:304|245:304|259:286,1,29.9999999999999,2|0,2:0|2:0,2:0:0:0:
146,356,186548,2,0,B|149:345|149:345|109:333,1,40,2|0,2:0|2:0,2:0:0:0:
8,329,186823,1,2,2:0:0:0:
64,379,186969,2,0,B|37:390|18:361|36:331|36:331|61:290,1,120,2|0,2:0|2:0,2:0:0:0:
0,104,189133,5,2,2:0:0:0:
86,76,189270,1,2,2:0:0:0:
254,141,189545,6,0,L|247:105,1,29.9999999999999,2|0,2:0|2:0,2:0:0:0:
166,99,189821,1,2,2:3:0:0:
99,67,189958,2,0,L|118:-1,1,59.9999999999999,2|0,2:0|2:0,2:0:0:0:
492,202,195936,6,0,B|455:198|450:165|462:148|462:148|509:76,1,150,2|0,2:0|2:0,2:0:0:0:
418,0,196602,2,0,B|454:3|459:36|447:53|447:53|418:98,1,120,2|0,2:3|2:0,2:0:0:0:
356,38,197190,6,0,B|335:67|303:56|294:37|294:37|283:5,1,100.5,2|0,2:0|2:0,2:0:0:0:
241,76,197778,2,0,B|220:46|188:57|179:76|179:76|165:114,1,112.5,2|0,2:3|2:3,2:3:0:0:
91,181,198344,6,0,B|54:179|48:146|59:128|59:128|79:103,1,100.5,2|0,2:0|2:0,2:0:0:0:
0,10,198894,2,0,B|36:11|42:44|31:62|31:62|9:88,1,100,2|0,2:3|2:3,2:3:0:0:
138,61,199518,2,0,P|183:49|155:-1,1,120,2|0,2:0|2:0,2:0:0:0:
0,216,201897,6,0,B|26:226|26:226|55:314,1,120.705179921431,2|0,2:0|2:0,2:0:0:0:
164,381,202452,2,0,B|143:385|138:371|138:371|109:280,1,126.250686109713,2|0,2:3|2:3,2:3:0:0:
245,97,203052,6,0,B|250:124|250:124|182:197,1,126,2|0,2:0|2:0,2:0:0:0:
255,257,203634,2,0,B|238:241|220:251|220:251|185:288,1,84,2|0,2:3|2:3,2:3:0:0:
270,383,204286,6,0,B|295:373|295:373|319:280,1,111,2|0,2:0|2:0,2:0:0:0:
416,217,204857,6,0,B|397:212|390:226|390:226|377:276,1,74.0000000000001,2|0,2:3|2:3,2:3:0:0:
450,384,205286,2,2,P|425:332|510:353,1,190,2|0,2:0|2:0,2:0:0:0:
426,116,208967,5,2,2:0:0:0:
457,204,209169,1,2,2:0:0:0:
505,270,209372,6,0,B|461:344|461:344|463:251,1,141.675005722046,2|0,2:0|2:0,2:0:0:0:
304,312,209747,1,0,2:0:0:0:
360,382,209867,2,0,P|386:346|368:324,1,42.5,2|0,2:0|2:0,2:0:0:0:
371,321,209987,2,0,L|232:367,1,112.5,2|0,3:0|2:0,2:0:0:0:
210,362,210227,2,0,L|265:343,1,37.5,2|0,3:0|2:0,2:0:0:0:
470,214,210467,2,0,B|441:243|441:243|469:125,1,150,2|0,2:0|2:0,2:0:0:0:
421,267,210795,1,0,3:0:0:0:
391,91,210904,5,2,3:2:0:0:
400,157,211014,2,0,L|410:73,1,75,2|0,2:0|2:0,2:0:0:0:
476,58,211233,6,0,B|510:79|558:35|512:-21|462:-3|462:-3|434:14,1,165,2|0,3:2|2:0,2:0:0:0:
275,11,211561,1,0,2:0:0:0:
310,88,211671,2,0,P|325:81|344:42,1,37.5,0|0,3:2|2:0,2:0:0:0:
342,31,211780,2,0,L|210:75,1,112.5,2|0,3:2|2:0,2:0:0:0:
179,64,212005,2,0,L|226:49,1,37.5,2|0,2:3|2:0,2:0:0:0:
57,37,212231,2,0,B|95:7|95:7|45:207,1,240,6|0,3:2|3:0,2:0:0:0:
7,384,212682,5,2,3:2:0:0:
26,294,212791,2,0,L|27:382,1,75,2|0,2:0|2:0,2:0:0:0:
186,204,213010,6,0,P|164:207|147:226,1,37.5,0|0,3:0|2:0,2:0:0:0:
143,246,213119,2,0,L|117:146,1,75,0|2,3:2|2:0,2:0:0:0:
177,370,213338,1,0,2:0:0:0:
127,328,213448,2,0,L|223:358,2,75,2|2|0,3:2|3:2|2:0,2:0:0:0:
273,348,213776,2,0,L|219:330,1,37.5,0|0,3:2|2:0,2:0:0:0:
463,365,213995,2,0,B|427:390|427:390|448:260,1,160,2|0,3:2|2:0,2:0:0:0:
512,121,214324,1,0,3:0:0:0:
502,217,214433,2,0,L|482:126,2,75,2|0|0,3:2|2:0|2:0,2:0:0:0:
437,0,214762,5,2,3:2:0:0:
311,45,214871,1,0,1:0:0:0:
422,6,214980,1,0,1:0:0:0:
323,40,215089,1,0,2:0:0:0:
454,87,215198,1,0,3:0:0:0:
385,70,215307,2,0,P|420:89|357:172,1,155,2|0,3:2|2:0,2:0:0:0:
162,100,215634,1,0,3:2:0:0:
133,31,215743,2,0,P|190:76|227:45,1,116.25,2|0,3:2|2:0,2:0:0:0:
228,22,215961,1,0,3:0:0:0:
5,20,216180,2,0,B|43:33|43:33|67:152,1,155,6|0,1:2|2:0,2:0:0:0:
187,367,216616,6,0,B|143:397|108:351|134:313|134:313|225:196,1,240,6|0,1:2|2:0,2:0:0:0:
0,219,217062,2,0,B|-18:268|34:291|65:257|65:257|155:141,1,240,2|0,3:2|2:0,2:0:0:0:
116,47,217513,6,0,B|163:59|163:59|204:216,1,160,2|0,1:2|2:0,2:0:0:0:
257,74,217851,1,0,2:0:0:0:
311,0,217964,2,0,B|275:33|275:33|307:161,1,160,2|0,3:2|2:0,2:0:0:0:
274,338,218422,6,0,L|334:157,1,170,6|0,3:2|2:0,2:0:0:0:
410,384,218869,6,0,L|468:213,1,170,2|0,3:2|2:0,2:0:0:0:
471,123,219199,2,0,B|428:117|420:158|436:177|436:177|513:268,1,166.496001573563,6|0,3:2|2:0,2:0:0:0:
512,343,219533,2,0,L|422:321,2,75,0|0|0,2:0|2:0|3:0,2:0:0:0:
362,381,219979,2,0,L|350:295,1,75,0|0,2:0|3:0,2:0:0:0:
315,164,220202,6,0,B|377:-8,1,160,2|0,3:2|2:0,2:0:0:0:
461,116,220534,1,0,1:0:0:0:
457,212,220644,2,0,B|522:35,1,160,2|0,3:2|2:0,2:0:0:0:
186,218,221087,6,0,B|225:223|225:223|285:381,1,170,2|0,3:2|2:0,2:0:0:0:
360,150,221530,2,0,B|334:180|334:180|391:329,1,170,2|0,3:2|2:0,2:0:0:0:
2,111,221973,6,0,B|15:147|67:147|82:104|82:104|117:13,1,180,2|0,3:2|2:0,2:0:0:0:
207,193,222405,2,0,B|173:210|134:178|151:136|151:136|186:45,1,180,2|0,3:2|2:0,2:0:0:0:
499,89,222729,2,0,P|429:2|405:123,1,285,2|0,3:2|2:0,2:0:0:0:
512,384,223270,5,2,3:2:0:0:
491,298,223378,1,2,2:0:0:0:
317,143,223594,6,0,P|330:107|393:127,1,85,2|0,3:2|3:0,2:0:0:0:
425,206,223810,2,0,P|407:191|431:159,1,40,2|0,2:0|2:0,2:0:0:0:
503,188,223918,2,0,B|494:215|494:215|409:241,1,80,2|0,2:0|2:0,2:0:0:0:
368,384,224135,2,0,B|378:349|378:349|310:264,1,120,2|0,3:2|2:0,2:0:0:0:
288,255,224351,2,0,L|322:297,1,40,2|0,3:0|2:0,2:0:0:0:
181,348,224567,1,2,3:2:0:0:
181,348,224621,2,0,B|155:369|155:369|256:340,1,112.5,0|0,2:0|2:0,2:0:0:0:
135,283,224891,1,0,3:0:0:0:
145,124,225000,5,2,3:2:0:0:
185,214,225108,2,0,L|170:134,1,75,2|0,2:0|2:0,2:0:0:0:
53,147,225324,2,0,P|11:127|12:66,1,80,2|0,3:2|3:2,2:0:0:0:
168,16,225540,1,2,2:0:0:0:
76,51,225649,2,0,B|91:30|91:30|176:44,1,80,2|0,2:0|3:0,2:0:0:0:
305,17,225866,5,2,3:2:0:0:
294,103,225975,1,0,2:0:0:0:
307,0,226084,1,2,3:0:0:0:
487,128,226301,6,0,L|493:101,1,18.7500000000001,2|0,3:2|2:0,2:0:0:0:
403,100,226410,2,0,L|409:77,1,18.7500000000001,2|0,2:0|2:0,2:0:0:0:
231,165,226627,2,0,L|227:132,1,18.7500000000001,2|0,3:2|2:0,2:0:0:0:
20,190,226845,2,0,L|16:158,1,18.7500000000001,2|0,2:0|2:0,2:0:0:0:
109,220,227062,6,0,P|114:259|93:277,1,40,2|0,3:2|2:0,2:0:0:0:
95,286,227173,2,0,L|162:252,2,75,0|2|0,3:2|2:0|2:0,2:0:0:0:
3,345,227442,2,0,P|34:341|90:367,1,80,0|0,2:0|2:0,2:0:0:0:
140,384,227603,2,0,B|158:349|158:349|210:346,2,80,2|0|2,3:2|2:0|2:3,2:0:0:0:
274,317,227927,5,0,3:2:0:0:
326,377,228034,2,0,B|302:349|302:349|330:237,1,120,0|0,3:2|2:0,2:0:0:0:
348,112,228250,1,0,2:0:0:0:
375,212,228357,1,0,3:2:0:0:
340,97,228465,2,0,B|300:87|300:87|264:131,2,80,2|2|2,3:2|2:0|2:0,2:0:0:0:
445,79,228788,5,0,3:0:0:0:
497,0,228896,2,0,B|463:24|463:24|486:197,1,180,2|0,3:2|2:0,2:0:0:0:
415,277,229216,2,0,B|426:274|426:274|448:302,1,47.5,2|0,3:2|2:0,2:0:0:0:
423,383,229323,2,0,L|394:253,1,95,2|0,3:2|2:0,2:0:0:0:
297,0,229537,2,0,L|287:131,1,95,2|0,2:0|2:0,2:0:0:0:
217,342,229751,2,0,B|249:382|249:382|224:228,1,200,2|0,3:2|2:0,2:0:0:0:
28,226,230072,2,0,B|2:237|2:237|73:172,1,100,2|0,3:2|2:0,2:0:0:0:
289,148,230286,2,0,B|341:145|341:145|201:99,1,200,2|0,2:0|2:0,2:0:0:0:
50,36,230612,6,0,B|61:-4|61:-4|119:146,1,170,6|0,1:2|2:0,2:0:0:0:
76,284,230942,1,0,3:0:0:0:
95,375,231052,2,0,B|54:384|54:384|124:289,1,127.5,2|0,3:2|2:0,2:0:0:0:
159,265,231272,2,0,L|135:300,1,42.5,2|0,3:0|2:0,2:0:0:0:
118,48,231492,6,0,B|108:7|108:7|231:110,1,170,6|0,1:2|2:0,2:0:0:0:
273,253,231823,1,0,3:0:0:0:
333,323,231933,2,0,B|301:350|301:350|316:233,1,127.5,2|0,3:2|2:0,2:0:0:0:
336,195,232153,2,0,L|331:237,1,42.5,2|0,3:0|2:0,2:0:0:0:
216,35,232373,6,0,B|193:0|193:0|343:57,1,170,6|0,1:2|2:0,2:0:0:0:
430,167,232702,1,0,3:0:0:0:
509,214,232811,2,0,B|488:250|488:250|464:120,1,170,2|0,3:2|2:0,2:0:0:0:
303,5,233140,2,0,L|353:14,1,42.5,6|0,1:2|2:0,2:0:0:0:
487,94,233305,2,0,L|518:82,26,21.25,0|0|0|0|0|0|2|0|0|0|0|0|0|0|0|0|0|0|0|0|0|0|2|0|0|0|0,2:0|2:0|2:0|2:0|2:0|2:0|2:3|2:0|2:0|2:0|3:0|2:0|2:0|2:0|3:0|2:0|2:0|2:0|2:0|2:0|2:0|2:0|3:0|2:0|2:0|2:0|3:0,2:0:0:0:
476,18,234128,6,0,B|465:-3|436:-2|423:29|423:29|389:126,1,170,2|0,3:2|2:0,2:0:0:0:
451,206,234456,1,0,3:0:0:0:
424,306,234565,6,0,B|400:298|398:269|428:252|428:252|471:230,1,85,2|0,3:2|2:0,2:0:0:0:
310,101,234784,5,2,3:0:0:0:
192,118,234894,1,0,2:0:0:0:
325,97,235003,2,0,B|314:75|285:76|272:108|272:108|238:205,1,170,2|0,3:2|2:0,2:0:0:0:
302,284,235332,1,0,3:0:0:0:
275,384,235441,6,0,B|251:376|249:347|279:330|279:330|321:308,1,85,2|0,3:2|2:0,2:0:0:0:
143,41,235660,5,2,3:0:0:0:
30,60,235770,1,0,2:0:0:0:
163,35,235883,2,0,B|152:13|123:14|110:46|110:46|76:143,1,170,2|2,3:2|2:3,2:0:0:0:
151,224,236205,1,2,3:2:0:0:
124,324,236313,6,0,B|100:316|98:287|128:270|128:270|172:249,1,85,2|0,3:2|2:0,2:0:0:0:
208,108,236528,1,0,2:0:0:0:
373,110,236635,2,0,P|286:-13|304:149,1,400,2|0,3:2|3:2,2:0:0:0:
510,214,237173,5,2,3:2:0:0:
401,248,237334,1,2,2:0:0:0:
314,332,237495,2,0,P|328:363|403:374,1,85.7905016212464,2|0,3:2|3:0,2:0:0:0:
437,159,237711,2,0,P|463:141|474:96,1,42.5,2|0,2:0|2:0,2:0:0:0:
503,82,237819,2,0,B|485:94|485:94|476:189,1,85,2|0,2:0|2:0,2:0:0:0:
479,359,238036,2,0,B|467:332|467:332|499:297,1,42.5,2|0,3:2|2:0,2:0:0:0:
255,300,238253,2,0,B|280:284|280:284|261:251,1,42.5,2|0,3:0|2:0,2:0:0:0:
69,234,238470,2,0,B|43:245|43:245|69:397,1,170,2|0,3:2|2:0,2:0:0:0:
88,205,238796,1,0,3:0:0:0:
19,0,238904,5,2,3:2:0:0:
17,102,239013,2,0,L|37:22,1,75,2|0,2:0|2:0,2:0:0:0:
134,139,239230,2,0,P|156:112|220:97,1,88.1336682879131,2|0,3:2|3:2,2:0:0:0:
183,9,239453,1,0,2:0:0:0:
285,29,239564,2,0,B|255:5|255:5|177:33,1,85,0|0,2:0|2:0,2:0:0:0:
328,84,239787,2,0,B|301:114|301:114|329:151,2,85,2|0|0,3:2|2:0|2:0,2:0:0:0:
392,204,240111,2,0,B|464:153|464:153|395:-7,1,255,2|0,3:2|2:0,2:0:0:0:
483,306,240543,1,0,3:2:0:0:
488,383,240651,2,0,P|456:323|391:374,1,160,2|0,3:2|2:0,2:0:0:0:
314,320,240976,1,2,3:2:0:0:
310,246,241084,2,0,P|261:306|226:298,1,80,0|0,3:0|2:0,2:0:0:0:
193,206,241300,6,0,L|188:138,1,40,2|0,3:2|2:0,2:0:0:0:
49,208,241409,1,2,2:3:0:0:
178,219,241517,1,0,2:0:0:0:
36,199,241626,2,0,L|30:113,1,80,2|0,2:0|2:3,2:0:0:0:
143,80,241843,6,0,L|165:-20,1,80,2|0,3:2|3:0,2:0:0:0:
256,104,242060,2,0,L|270:65,1,40,2|0,2:0|2:0,2:0:0:0:
374,150,242168,1,2,2:3:0:0:
277,124,242277,1,0,3:2:0:0:
392,138,242385,6,0,L|382:49,1,80,2|0,3:2|2:0,2:0:0:0:
119,71,242602,2,0,L|148:157,1,80,2|0,2:0|3:2,2:0:0:0:
15,285,242819,6,0,L|-4:333,1,40,2|0,3:2|2:0,2:0:0:0:
138,325,242929,2,0,L|132:370,1,40,2|0,2:0|2:0,2:0:0:0:
272,321,243039,2,0,L|275:364,1,40,2|0,2:0|2:0,2:0:0:0:
161,309,243149,1,0,1:2:0:0:
256,301,243259,2,0,L|245:245,1,40,2|0,1:2|2:0,2:0:0:0:
354,271,243369,2,2,L|331:215,1,40,2|0,1:2|2:0,2:0:0:0:
465,75,243589,5,0,3:0:0:0:
509,0,243699,2,0,B|481:18|481:18|509:172,1,160,0|0,3:0|2:0,2:0:0:0:
432,311,244030,5,0,3:0:0:0:
479,384,244140,2,0,B|451:366|451:366|472:262,1,120,2|0,3:2|2:0,2:0:0:0:
478,252,244360,2,0,L|462:216,1,40,2|0,2:0|2:0,2:0:0:0:
316,79,244586,6,0,P|273:93|269:8,1,160,6|0,1:2|2:0,2:0:0:0:
314,293,244916,1,0,3:0:0:0:
372,372,245027,2,0,L|325:245,1,120,2|0,3:2|2:0,2:0:0:0:
331,191,245247,2,0,L|354:257,1,40,2|0,3:0|2:0,2:0:0:0:
252,93,245468,6,0,P|211:72|268:9,1,160,2|0,3:2|2:0,2:0:0:0:
141,268,245799,1,0,3:0:0:0:
126,365,245909,2,0,L|182:241,1,120,2|0,3:2|2:0,2:0:0:0:
224,209,246130,2,0,L|193:271,1,40,2|0,3:0|2:0,2:0:0:0:
207,71,246350,6,0,P|185:31|267:11,1,160,2|0,3:2|2:0,2:0:0:0:
87,159,246677,1,0,3:2:0:0:
0,166,246787,2,0,B|146:97,1,160,2|0,3:2|2:0,2:0:0:0:
266,9,247115,6,0,B|211:25|211:25|273:215,1,240,6|2,3:2|2:3,2:0:0:0:
140,269,247552,1,0,3:0:0:0:
199,225,247661,2,0,L|148:335,1,120,0|0,3:0|2:0,2:0:0:0:
98,380,247880,2,0,L|121:329,1,40,2|0,3:0|2:0,2:0:0:0:
0,154,248098,6,0,B|5:200|63:207|85:181|86:153|83:139|83:139|64:69,1,180,6|0,3:2|2:0,2:0:0:0:
133,34,248426,1,0,3:0:0:0:
243,67,248535,2,0,B|238:113|180:120|158:94|157:66|160:52|160:52|179:-4,1,180,2|2,3:2|3:0,2:0:0:0:
348,148,248863,1,0,2:0:0:0:
239,180,248972,2,0,B|244:226|302:233|324:207|325:179|322:165|322:165|303:95,1,180,2|0,3:2|2:0,2:0:0:0:
400,75,249300,1,0,3:0:0:0:
510,108,249410,2,0,B|505:154|447:161|425:135|422:108|427:93|427:93|446:37,1,180,2|2,3:2|3:0,2:0:0:0:
389,272,249737,5,0,2:0:0:0:
499,276,249846,2,0,B|522:306|522:306|367:222,1,190,2|0,3:2|2:0,2:0:0:0:
225,324,250169,1,0,3:2:0:0:
124,349,250276,2,0,B|110:384|110:384|235:258,1,190,2|0,3:2|2:0,2:0:0:0:
134,120,250600,2,0,P|60:2|47:150,1,380,2|0,3:2|3:0,2:0:0:0:
313,372,251138,5,2,3:2:0:0:
306,290,251246,2,0,L|325:364,1,75,0|0,2:0|2:0,2:0:0:0:
488,366,251461,2,0,P|454:342|376:336,1,90.8354972534181,6|0,3:2|3:2,2:0:0:0:
482,195,251679,1,0,2:0:0:0:
395,126,251789,2,0,B|440:105|460:153|452:171|452:171|425:238,1,135,2|0,2:0|2:0,2:0:0:0:
401,252,252010,6,0,L|409:199,1,45,0|0,3:0|2:0,2:0:0:0:
329,108,252120,2,0,L|311:15,1,89.9999999999999,2|0,2:0|2:0,2:0:0:0:
258,226,252341,1,0,3:2:0:0:
163,218,252451,2,0,B|139:238|139:238|292:187,1,180,2|0,3:2|2:0,2:0:0:0:
113,253,252782,1,0,1:3:0:0:
22,25,252892,5,2,3:2:0:0:
29,120,253002,2,0,L|43:38,1,75,2|0,2:0|2:0,2:0:0:0:
228,185,253223,2,0,P|195:154|151:146,1,89.1839999999999,2|0,3:2|3:2,2:0:0:0:
202,5,253440,2,0,P|185:36|154:55,1,45,2|0,2:0|2:0,2:0:0:0:
125,81,253549,2,0,B|258:51,1,89.9999999999999,2|0,2:0|2:0,2:0:0:0:
382,222,253766,6,0,B|406:193|406:193|274:109,1,180,2|2,3:2|3:0,2:0:0:0:
499,273,254092,2,0,B|462:273|462:273|508:152,1,135,2|0,3:2|2:0,2:0:0:0:
438,384,254364,2,0,B|462:380|462:380|405:326,1,89.9999999999999,2|0,2:0|3:2,2:0:0:0:
288,287,254636,5,2,3:2:0:0:
289,382,254745,2,0,L|272:293,1,75,2|0,2:0|2:0,2:0:0:0:
135,383,254962,2,0,P|153:372|149:321,1,71.5,2|0,2:0|3:0,2:0:0:0:
0,284,255160,2,0,P|19:285|48:309,1,42.5000008106232,2|0,2:0|2:0,2:0:0:0:
66,328,255268,2,0,B|56:307|56:307|75:213,1,85,2|0,2:0|1:0,2:0:0:0:
117,168,255484,5,2,3:2:0:0:
11,191,255592,1,2,2:0:0:0:
133,164,255700,1,2,2:0:0:0:
177,114,255808,2,0,L|260:136,2,85.0000016212464,2|2|2,3:2|3:2|2:0,2:0:0:0:
137,20,256130,1,2,2:0:0:0:
137,20,256183,2,0,B|123:43|123:43|156:59,1,42.5,2|0,2:0|3:0,2:0:0:0:
252,13,256291,2,0,B|246:33|246:33|266:55,1,42.5,2|0,2:0|3:0,2:0:0:0:
493,25,256505,1,2,2:0:0:0:
493,25,256558,1,2,2:0:0:0:
413,59,256666,1,2,2:0:0:0:
344,104,256773,2,0,B|318:97|318:97|341:14,1,85,2|0,2:0|2:0,2:0:0:0:
479,148,256987,2,0,B|506:141|506:141|494:229,1,85,2|0,2:0|1:0,2:0:0:0:
392,294,257201,1,0,3:0:0:0:
454,358,257308,2,0,B|499:337|499:337|345:319,1,170,2|0,2:0|3:2,2:0:0:0:
242,186,257630,2,0,B|263:171|263:171|200:310,1,170,2|0,3:2|3:0,2:0:0:0:
123,208,257951,2,0,L|171:218,8,42.5,2|0|0|0|0|0|0|0|0,3:2|3:0|3:0|3:0|3:0|3:0|3:0|3:0|3:0,2:0:0:0:
58,17,258486,6,0,B|41:6|8:19|30:65|30:65|80:162,1,160,6|0,1:2|2:0,2:0:0:0:
0,313,258816,1,0,3:0:0:0:
33,383,258927,2,0,B|13:354|13:354|58:253,1,120,2|0,3:2|2:0,2:0:0:0:
79,267,259147,2,0,L|106:210,1,40,2|0,3:0|2:0,2:0:0:0:
238,37,259368,6,0,B|221:26|188:39|210:85|210:85|260:182,1,160,6|0,1:2|2:0,2:0:0:0:
203,308,259699,1,0,3:0:0:0:
236,379,259809,2,0,B|216:350|216:350|261:249,1,120,2|0,3:2|2:0,2:0:0:0:
282,262,260030,2,0,L|309:205,1,40,2|0,3:0|2:0,2:0:0:0:
346,152,260140,1,0,2:0:0:0:
390,67,260250,6,0,B|373:56|340:69|362:115|362:115|413:219,1,170,6|0,1:2|2:0,2:0:0:0:
448,308,260571,1,0,3:0:0:0:
508,367,260678,2,0,B|472:330|472:330|357:354,1,170,2|0,3:2|2:0,2:0:0:0:
263,263,261000,2,0,B|334:292|334:292|492:178,1,255,6|2,1:2|2:3,2:0:0:0:
451,90,261428,1,0,3:0:0:0:
482,13,261535,2,0,L|388:115,1,127.5,0|0,3:0|2:0,2:0:0:0:
367,173,261750,2,0,L|403:128,1,42.5,2|0,3:0|2:0,2:0:0:0:
263,101,261970,6,0,P|317:95|288:-5,1,160,2|0,3:2|2:0,2:0:0:0:
147,128,262297,1,0,3:0:0:0:
137,212,262407,2,0,P|183:150|245:188,1,160,2|2,3:2|3:0,2:0:0:0:
91,60,262735,5,0,2:0:0:0:
11,19,262844,2,0,B|20:-2|59:-10|78:22|68:47|68:47|29:151,1,170,2|0,3:2|2:0,2:0:0:0:
268,314,263172,1,0,3:0:0:0:
188,355,263281,2,0,B|197:376|236:384|255:352|245:327|245:327|206:223,1,170,2|2,3:2|3:0,2:0:0:0:
101,310,263609,5,0,2:0:0:0:
1,320,263718,2,0,B|50:331|50:331|145:208,1,170,2|2,3:2|2:3,2:0:0:0:
191,71,264041,5,2,3:2:0:0:
91,60,264149,2,0,B|139:48|139:48|234:175,1,170,2|0,3:2|2:0,2:0:0:0:
512,154,264473,2,0,P|523:49|373:138,1,380,2|0,3:2|3:2,2:0:0:0:
512,365,265012,5,2,3:2:0:0:
427,294,265174,1,2,2:0:0:0:
296,340,265336,2,0,P|353:339|373:379,1,82.224,2|4,3:2|3:2,2:0:0:0:
338,252,265554,5,2,2:0:0:0:
354,138,265662,2,0,B|346:156|346:156|368:225,1,80,2|0,2:0|3:2,2:0:0:0:
216,380,265878,5,0,3:0:0:0:
209,275,265986,2,0,B|217:293|217:293|195:362,1,80,2|0,2:0|2:0,2:0:0:0:
0,291,266202,5,0,3:0:0:0:
15,183,266310,2,0,B|7:201|7:201|62:369,1,160,2|2,3:2|2:3,2:0:0:0:
82,207,266635,1,0,3:2:0:0:
255,102,266743,1,2,3:2:0:0:
171,143,266851,2,0,L|250:133,1,75,2|0,2:0|2:0,2:0:0:0:
88,22,267067,2,0,P|141:31|162:63,1,80,2|0,3:2|3:2,2:0:0:0:
176,237,267283,5,2,3:2:0:0:
149,333,267391,2,0,B|170:328|170:328|143:242,1,80,2|0,2:0|3:0,2:0:0:0:
373,276,267608,5,2,3:2:0:0:
419,363,267716,2,0,B|430:344|430:344|351:301,1,80,2|0,2:0|2:0,2:0:0:0:
447,106,267932,5,0,3:0:0:0:
484,16,268040,2,0,B|463:21|463:21|507:177,1,160,2|0,3:2|2:0,2:0:0:0:
422,16,268364,1,0,3:2:0:0:
281,74,268473,5,2,3:2:0:0:
366,70,268581,2,0,L|286:87,1,75,2|0,2:0|2:0,2:0:0:0:
180,83,268797,2,0,P|205:40|195:25,1,66.66,2|0,3:2|3:0,2:0:0:0:
97,129,268993,2,0,P|92:104|82:88,1,40,2|0,2:0|2:0,2:0:0:0:
0,88,269099,2,0,B|16:132|16:132|208:201,1,240,2|2,2:0|2:0,2:0:0:0:
96,358,269525,2,0,L|10:335,1,80,0|0,2:0|3:2,2:0:0:0:
151,384,269738,2,0,B|137:361|137:361|162:295,1,80,2|0,3:2|2:0,2:0:0:0:
281,322,269950,2,0,L|237:220,3,80,2|0|0|0,2:3|1:3|3:0|2:0,2:0:0:0:
332,137,270376,5,2,2:3:0:0:
238,117,270482,1,0,3:0:0:0:
345,131,270589,2,0,B|318:107|318:107|340:254,1,180,2|2,3:2|1:3,2:0:0:0:
141,152,270908,5,0,1:3:0:0:
166,8,271014,2,0,B|139:-16|139:-16|162:130,1,180,2|2,3:2|2:3,2:0:0:0:
469,170,271333,5,0,1:3:0:0:
479,67,271440,2,0,B|452:43|452:43|471:145,1,89.9999999999999,2|0,3:2|2:0,2:0:0:0:
69,160,271648,6,0,B|37:163|37:163|67:125|63:40,1,125,2|0,2:1|2:0,2:0:0:0:
41,254,271856,6,0,B|14:230|14:230|35:362,1,135,2|0,3:2|2:0,2:0:0:0:
46,381,272065,2,0,L|-2:372,2,45,2|0|0,1:3|2:0|1:3,2:0:0:0:
207,276,272277,6,0,B|187:289|153:278|147:248|152:228|152:228|186:122,1,180,6|0,3:2|2:0,2:0:0:0:
4,94,272599,1,0,3:0:0:0:
72,15,272707,2,0,B|52:1|18:12|12:42|17:62|17:62|51:168,1,180,2|2,3:2|3:0,2:0:0:0:
272,248,273029,1,0,2:0:0:0:
350,328,273137,2,0,B|330:341|296:330|290:300|295:280|295:280|329:174,1,180,2|0,3:2|2:0,2:0:0:0:
147,146,273459,1,0,3:0:0:0:
215,67,273567,2,0,B|195:53|161:64|155:94|160:114|160:114|194:220,1,180,2|2,3:2|3:0,2:0:0:0:
407,82,273889,5,2,3:0:0:0:
300,115,273997,2,0,P|361:111|335:18,1,180,2|0,3:2|2:0,2:0:0:0:
404,183,274316,5,0,3:2:0:0:
511,216,274423,2,0,P|450:212|476:116,1,180,2|0,3:2|2:0,2:0:0:0:
187,384,274743,2,0,B|190:339|190:339|348:280,1,180,2|0,3:2|2:0,2:0:0:0:
394,297,275062,1,2,2:3:0:0:
436,384,275169,1,0,3:0:0:0:
386,281,275275,1,0,3:0:0:0:
501,202,275382,1,0,2:0:0:0:
459,289,275489,1,2,3:0:0:0:
509,186,275595,1,0,2:0:0:0:
320,145,275705,6,0,B|341:107|396:107|410:156|410:156|428:221,1,180,2|0,3:2|2:0,2:0:0:0:
297,50,276031,1,0,3:0:0:0:
176,72,276139,2,0,B|197:109|252:109|266:60|266:60|284:-4,1,180,2|2,3:2|3:0,2:0:0:0:
342,252,276465,1,0,2:0:0:0:
222,224,276574,2,0,B|243:186|298:186|312:235|312:235|330:300,1,180,2|0,3:2|2:0,2:0:0:0:
120,103,276900,1,0,3:0:0:0:
0,106,277009,2,0,B|21:143|76:143|90:94|90:94|108:29,1,180,2|2,3:2|3:0,2:0:0:0:
125,337,277335,1,0,2:0:0:0:
18,368,277444,2,0,B|57:374|57:374|166:254,1,180,2|0,3:2|2:0,2:0:0:0:
412,205,277767,1,0,3:2:0:0:
504,142,277874,2,0,B|483:175|483:175|321:182,1,180,2|0,3:2|2:0,2:0:0:0:
35,138,278198,2,0,P|31:4|128:121,1,360,2|0,3:2|3:0,2:0:0:0:
294,221,278736,6,0,P|255:205|239:153,1,85,2|0,3:2|2:0,2:0:0:0:
234,99,278896,2,0,L|212:174,1,42.5,2|0,2:0|2:0,2:0:0:0:
34,376,279056,2,0,P|103:352|105:324,1,87.3842516212464,0|0,2:0|2:0,2:0:0:0:
114,320,279272,2,0,L|103:278,1,42.5,2|0,2:0|2:0,2:0:0:0:
105,184,279380,2,0,L|130:289,1,85,2|0,2:0|3:0,2:0:0:0:
245,327,279595,6,0,L|225:371,1,42.5,2|0,3:2|2:0,2:0:0:0:
408,362,279810,2,0,L|383:328,1,42.5,2|0,3:0|2:0,2:0:0:0:
467,192,280025,2,0,L|511:196,1,42.5,2|0,3:2|2:0,2:0:0:0:
339,74,280240,1,0,2:0:0:0:
342,0,280347,2,0,L|354:43,1,42.5,2|0,3:2|2:0,2:0:0:0:
491,128,280455,6,0,P|435:118|401:134,1,85,2|2,3:2|2:0,2:0:0:0:
375,164,280616,2,0,L|439:69,1,85,0|2,2:0|3:2,2:0:0:0:
240,248,280831,2,0,P|295:232|325:257,1,85,0|0,2:0|2:0,2:0:0:0:
344,276,280992,2,0,L|371:320,1,42.5,2|0,2:0|2:0,2:0:0:0:
428,384,281100,2,0,L|370:280,1,85,2|0,2:0|3:0,2:0:0:0:
276,149,281315,6,0,B|309:138|309:138|276:-15,1,170,2|2,3:2|3:0,2:0:0:0:
118,202,281638,1,0,2:0:0:0:
167,277,281745,2,0,B|134:266|134:266|167:108,1,170,2|0,3:2|2:0,2:0:0:0:
13,21,282068,5,0,1:0:0:0:
121,33,282175,2,0,P|78:20|31:115,1,170,2|0,3:2|2:0,2:0:0:0:
41,379,282498,2,0,P|91:360|93:340,1,70.8645012159348,2|0,1:2|3:0,2:0:0:0:
88,279,282693,2,0,L|82:231,1,41.25,0|0,2:0|2:0,2:0:0:0:
94,131,282799,2,0,L|111:244,1,82.5,2|0,2:0|3:2,2:0:0:0:
162,89,283012,6,0,L|166:38,1,35,2|0,3:2|2:0,2:0:0:0:
258,81,283118,2,0,L|253:127,1,35,2|0,2:0|2:0,2:0:0:0:
501,84,283331,2,0,L|471:13,1,70,2|0,3:2|3:2,2:0:0:0:
277,68,283544,2,0,L|296:-10,2,70,2|0|0,2:0|2:0|3:0,2:0:0:0:
408,314,283863,2,0,L|417:393,1,70,2|0,3:2|2:0,2:0:0:0:
503,99,284076,2,0,L|499:189,1,70,2|0,2:0|3:0,2:0:0:0:
403,343,284291,6,0,L|475:291,1,75,2|0,3:2|2:0,2:0:0:0:
285,320,284504,2,0,L|207:338,1,75,2|0,2:0|1:0,2:0:0:0:
433,219,284717,2,0,L|508:193,1,75,2|0,3:2|2:0,2:0:0:0:
147,293,284930,2,0,L|71:309,1,75,2|0,2:0|3:0,2:0:0:0:
407,143,285143,1,2,3:2:0:0:
407,143,285196,2,0,L|420:78,1,37.5,2|0,2:0|2:0,2:0:0:0:
99,201,285356,2,0,L|119:304,1,75,2|0,2:0|1:0,2:0:0:0:
505,85,285569,2,0,L|474:9,1,75,2|0,1:2|1:0,2:0:0:0:
45,293,285783,2,0,L|23:389,1,75,2|0,3:2|2:0,2:0:0:0:
391,63,285994,6,0,B|416:82|416:82|446:237,1,165,6|0,3:2|2:0,2:0:0:0:
290,93,286321,1,0,3:0:0:0:
222,15,286431,2,0,B|247:34|247:34|277:189,1,165,2|2,3:2|3:0,2:0:0:0:
473,259,286759,1,0,2:0:0:0:
512,370,286868,2,0,P|500:282|459:302,1,165,2|0,3:2|2:0,2:0:0:0:
330,331,287196,1,0,3:0:0:0:
371,220,287305,2,0,P|323:295|367:306,1,165,2|0,3:2|2:0,2:0:0:0:
150,280,287633,1,2,3:0:0:0:
219,383,287742,2,0,B|248:357|240:306|195:295|167:312|167:312|127:341,1,165,2|0,3:2|2:0,2:0:0:0:
10,298,288067,1,0,3:2:0:0:
79,195,288175,2,0,B|108:221|100:272|55:283|27:266|27:266|0:246,1,165,2|0,3:2|2:0,2:0:0:0:
192,180,288501,2,0,B|163:162|163:162|130:13,1,165,2|0,3:2|2:0,2:0:0:0:
30,134,288826,1,2,2:3:0:0:
127,87,288935,1,0,3:0:0:0:
13,144,289043,2,0,L|21:71,3,65,0|0|2|0,3:0|2:0|3:0|2:0,2:0:0:0:
392,87,289457,6,0,B|365:66|340:74|340:74|238:117,1,165,0|0,2:0|2:0,2:0:0:0:
226,213,289786,1,0,3:0:0:0:
134,259,289896,2,0,P|157:260|146:150,1,165,2|2,3:2|3:0,2:0:0:0:
393,170,290226,1,0,2:0:0:0:
500,174,290336,2,0,B|473:153|448:161|448:161|346:204,1,165,2|0,3:2|2:0,2:0:0:0:
95,325,290665,1,0,3:0:0:0:
3,371,290775,2,0,P|26:372|15:262,1,165,2|2,3:2|3:0,2:0:0:0:
277,316,291105,1,0,2:0:0:0:
359,378,291217,2,0,B|323:373|317:344|317:344|288:236,1,165,2|0,3:2|2:0,2:0:0:0:
353,172,291540,1,0,3:2:0:0:
442,219,291648,2,0,P|386:237|416:168,1,160,2|0,3:2|2:0,2:0:0:0:
474,135,291972,2,0,P|464:2|378:108,1,330,2|0,3:2|3:0,2:0:0:0:
193,125,292511,6,0,P|244:123|265:94,1,82.5,2|0,3:2|2:0,2:0:0:0:
297,28,292673,2,0,L|275:123,1,82.5,2|0,2:0|2:0,2:0:0:0:
7,143,292945,2,0,P|42:143|76:60,1,120,6|0,3:2|2:0,2:0:0:0:
74,0,293161,2,0,L|110:104,1,80,2|0,2:0|3:0,2:0:0:0:
234,255,293378,2,0,L|101:235,1,120,0|0,3:2|2:0,2:0:0:0:
85,211,293594,2,0,L|140:218,1,40,2|0,3:0|2:0,2:0:0:0:
53,367,293811,2,0,B|17:358|17:358|236:318,1,240,2|0,3:2|3:2,2:0:0:0:
512,343,294244,6,0,P|476:328|457:257,1,80,2|2,3:2|2:0,2:0:0:0:
453,226,294402,2,0,L|437:319,1,80,2|2,2:0|3:2,2:0:0:0:
262,129,294613,2,0,P|304:139|377:34,1,160,2|0,3:2|2:0,2:0:0:0:
391,0,294877,2,0,L|400:88,1,80,2|0,2:0|2:0,2:0:0:0:
342,266,295089,2,0,B|304:256|304:256|404:217,1,120,2|0,3:2|2:0,2:0:0:0:
485,196,295300,1,2,3:0:0:0:
512,70,295511,2,0,B|508:30|508:30|447:136,1,150,2|0,3:2|2:0,2:0:0:0:
196,48,295944,6,0,P|252:33|287:51,1,77.4999999999999,2|0,3:2|1:0,2:0:0:0:
320,93,296106,2,0,L|294:-4,1,77.4999999999999,2|0,2:0|2:0,2:0:0:0:
177,125,296323,2,0,P|150:142|188:262,1,157.000001182556,2|0,2:0|2:0,2:0:0:0:
216,291,296596,2,0,L|114:253,1,75,2|0,2:0|2:0,2:0:0:0:
9,237,296812,2,0,L|50:364,1,112.5,0|0,3:0|2:0,2:0:0:0:
42,374,297028,2,0,L|13:291,1,75,2|0,3:0|3:2,2:0:0:0:
43,139,297244,2,0,B|59:184|59:184|97:6,1,225,2|0,3:2|1:2,2:0:0:0:
177,125,297675,2,0,L|95:97,3,75,0|0|2|0,3:2|2:0|3:0|3:2,2:0:0:0:
317,37,298108,6,0,B|311:66,12,18.125,6|0|0|0|0|0|0|0|0|0|0|0|0,1:2|2:0|2:0|2:0|1:0|2:0|2:0|2:0|1:0|2:0|2:0|2:0|2:0,2:0:0:0:
512,91,298529,2,0,B|506:119,12,18.125,2|0|0|0|0|0|0|0|0|0|0|0|0,1:2|2:0|2:0|2:0|1:0|2:0|2:0|2:0|1:0|2:0|2:0|2:0|2:0,2:0:0:0:
196,199,298950,6,0,L|203:237,6,36.25,6|0|0|0|0|0|0,1:2|2:0|1:0|2:0|1:0|2:0|1:0,2:0:0:0:
12,227,299371,2,0,L|20:272,4,36.25,2|0|0|0|0,1:2|2:0|1:0|2:0|1:0,2:0:0:0:
74,82,299794,6,0,B|33:117|-9:75|15:38|15:38|42:0,1,140,6|0,3:2|2:0,2:0:0:0:
137,129,300120,1,0,3:0:0:0:
218,147,300229,2,0,B|177:112|135:154|159:191|159:191|186:229,1,140,2|2,3:2|3:0,2:0:0:0:
122,287,300665,2,0,B|81:322|39:280|63:243|63:243|87:206,1,135,6|0,3:2|2:0,2:0:0:0:
219,296,300980,1,0,3:0:0:0:
297,306,301085,2,0,B|256:271|214:313|238:350|238:350|263:383,1,135,2|2,3:2|2:3,2:0:0:0:
453,356,301511,2,0,B|476:366|497:344|495:317|495:317|488:247,1,130,6|0,3:2|2:0,2:0:0:0:
297,306,301941,2,0,B|320:316|341:294|339:267|339:267|331:197,1,130,2|0,3:2|2:0,2:0:0:0:
506,87,302265,6,0,B|508:137|508:137|422:172,1,125,6|0,3:2|2:0,2:0:0:0:
429,81,302588,2,0,L|361:51,2,62.5,2|0|0,2:3|3:0|3:0,2:0:0:0:
477,0,303019,1,2,3:0:0:0:
321,123,303239,6,0,P|282:114|289:59,1,100,6|0,3:2|2:0,2:0:0:0:
193,67,303665,2,0,P|200:21|156:6,1,100,2|2,3:2|3:0,2:0:0:0:
160,171,304091,6,0,P|130:163|137:108,1,90.0000000000001,2|0,3:2|2:0,2:0:0:0:
50,72,304517,2,0,P|55:33|13:19,1,90.0000000000001,2|2,3:2|3:0,2:0:0:0:
4,167,304837,1,0,2:0:0:0:
48,143,304944,2,0,L|11:233,1,80,2|0,3:2|2:0,2:0:0:0:
168,308,305372,2,0,L|83:298,1,80,2|0,2:0|2:0,2:0:0:0:
16,384,305694,2,0,P|34:308|75:363,1,175.653327992757,2|0,3:2|2:0,2:0:0:0:
256,192,306338,12,4,313519,2:0:0:0:
