osu file format v14

[General]
AudioFilename: audio.mp3
AudioLeadIn: 0
PreviewTime: 16024
Countdown: 0
SampleSet: None
StackLeniency: 0.6
Mode: 0
LetterboxInBreaks: 0
WidescreenStoryboard: 0

[Editor]
DistanceSpacing: 0.1
BeatDivisor: 4
GridSize: 4
TimelineZoom: 1

[Metadata]
Title:MEGALOVANIAVANIA
TitleUnicode:MEGALOVANIAVANIA
Artist:onyonreng
ArtistUnicode:g♪g
Creator:wolf3211
Version:Hell
Source:UNDERTALE
Tags:mashup toby fox undertale castlevania simon's quest bloody tears megalovania song boss battle sans
BeatmapID:1758897
BeatmapSetID:840272

[Difficulty]
HPDrainRate:6
CircleSize:4
OverallDifficulty:9
ApproachRate:9.5
SliderMultiplier:1.8
SliderTickRate:1

[Events]
//Background and Video events
0,0,"sansgenociderute.jpg",0,0
//Break Periods
//Storyboard Layer 0 (Background)
//Storyboard Layer 1 (Fail)
//Storyboard Layer 2 (Pass)
//Storyboard Layer 3 (Foreground)
//Storyboard Sound Samples

[TimingPoints]
87,250,4,2,1,40,1,0
87,-133.333333333333,4,2,1,40,0,0
8087,-133.333333333333,4,2,1,50,0,0
16087,-100,4,1,1,80,0,1
32116,250,4,1,1,80,1,1
35116,-133.333333333333,4,1,1,55,0,0
36116,-100,4,1,1,80,0,1
39116,-133.333333333333,4,1,1,55,0,0
40116,-100,4,1,1,80,0,1
43116,-133.333333333333,4,1,1,55,0,0
44116,-100,4,1,1,80,0,1
47116,-133.333333333333,4,1,1,55,0,0
48149,250,4,1,1,65,1,0
55149,-100,4,1,1,70,0,0
56149,-100,4,1,1,65,0,0
63149,-100,4,1,1,70,0,0
64149,-100,4,1,1,65,0,0
71149,-100,4,1,1,70,0,0
72149,-100,4,1,1,65,0,0
80149,500,4,2,2,50,1,0
80149,-153.846153846153,4,2,2,50,0,0
92149,250,4,2,2,50,1,0
92149,-200,4,2,2,50,0,0
96211,250,4,1,1,65,1,0
128211,-100,4,1,1,60,0,0
132211,-100,4,1,1,70,0,0
148211,-100,4,1,1,75,0,0
150211,-200,4,1,1,55,0,0
152272,250,4,1,1,80,1,1
168272,-100,4,1,1,70,0,0
183273,-100,4,1,1,50,0,0
183522,-100,4,1,1,30,0,0
183772,-100,4,1,1,50,0,0
184022,-100,4,1,1,30,0,0
184272,500,4,2,1,40,1,0

[Colours]
Combo1 : 0,64,128
Combo2 : 0,255,255
Combo3 : 187,0,0
Combo4 : 128,0,0

[HitObjects]
408,140,87,6,0,L|424:52,1,67.5000025749208
292,252,337,1,0,0:0:0:0:
316,280,587,2,0,B|244:268|244:268|176:280|176:280|108:268,1,202.500007724762
176,100,1212,1,0,0:0:0:0:
52,324,1462,6,0,P|20:276|60:208,1,135.000005149842
56,40,1837,1,0,0:0:0:0:
152,192,1962,1,0,0:0:0:0:
272,48,2087,6,0,L|264:144,1,67.5000025749208
316,224,2337,1,0,0:0:0:0:
472,152,2587,2,0,B|488:188|476:232|476:232|500:256|500:292|500:292|480:324|484:372,1,202.500007724762
380,188,3212,1,0,0:0:0:0:
320,336,3462,6,0,P|256:312|168:332,1,135.000005149842
60,264,3837,2,0,P|52:304|64:352,1,67.5000025749208
96,148,4087,6,0,P|96:116|72:60,1,67.5000025749208
208,208,4337,1,0,0:0:0:0:
384,104,4587,2,0,B|320:96|268:124|268:124|312:96|316:48,1,202.500007724762
376,236,5212,1,0,0:0:0:0:
440,44,5462,6,0,P|476:108|444:164,1,135.000005149842
444,340,5837,1,0,0:0:0:0:
288,232,5962,6,0,L|308:320,1,67.5000025749208
128,352,6212,2,0,L|136:268,1,67.5000025749208
28,120,6587,6,0,P|64:172|196:128,1,202.500007724762
356,96,7212,1,0,0:0:0:0:
120,44,7462,5,0,0:0:0:0:
212,264,7712,2,0,L|200:360,1,67.5000025749208
380,236,7962,1,0,0:0:0:0:
500,340,8087,6,0,P|440:324|360:332,1,135.000005149842,4|2,0:3|0:0,0:0:0:0:
288,112,8587,1,2,0:0:0:0:
428,224,8837,1,2,0:0:0:0:
376,36,9087,5,2,0:0:0:0:
300,272,9337,1,2,0:0:0:0:
156,192,9587,2,0,P|164:260|168:352,1,135.000005149842,2|2,0:0|0:0,0:0:0:0:
28,44,10087,5,2,0:0:0:0:
172,100,10337,1,2,0:0:0:0:
68,272,10587,1,2,0:0:0:0:
296,304,10837,6,0,B|320:344|320:344|392:264,1,135.000005149842,2|2,0:0|0:0,0:0:0:0:
424,172,11337,1,2,0:0:0:0:
464,44,11587,2,0,P|404:36|324:80,1,135.000005149842,2|2,0:0|0:0,0:0:0:0:
152,196,12087,6,0,P|212:204|296:152,2,135.000005149842,4|2|2,0:3|0:0|0:0,0:0:0:0:
212,76,12837,1,2,0:0:0:0:
76,272,13087,6,0,P|48:216|80:128,2,135.000005149842,2|2|2,0:0|0:0|0:0,0:0:0:0:
120,36,13837,1,2,0:0:0:0:
148,196,14087,1,4,0:3:0:0:
424,332,14337,6,0,L|272:324,1,135.000005149842,2|2,0:0|0:0,0:0:0:0:
72,228,14837,2,0,L|224:212,1,135.000005149842,2|2,0:0|0:0,0:0:0:0:
292,324,15337,1,2,0:0:0:0:
344,88,15587,1,2,0:0:0:0:
224,128,15712,5,2,0:1:0:0:
408,236,15837,1,8,0:1:0:0:
440,32,16086,6,0,P|456:72|448:144,1,90,4|0,0:1|0:0,0:0:0:0:
301,214,16337,2,0,P|310:165|358:113,1,90,8|0,0:0|0:0,0:0:0:0:
108,180,16586,2,0,B|152:236|136:304|136:304|64:260,1,180,0|8,0:0|0:0,0:0:0:0:
220,336,16962,6,0,B|252:300|252:300|312:336|392:292,1,180
456,208,17336,1,8,0:0:0:0:
356,48,17462,2,0,P|312:52|248:52,1,90
64,148,17712,2,0,P|120:156|196:156,1,90,0|8,0:0|0:0,0:0:0:0:
80,304,17961,5,0,0:0:0:0:
240,340,18087,2,0,P|296:332|352:336,1,90
460,124,18337,2,0,P|480:192|480:232,1,90,8|0,0:0|0:0,0:0:0:0:
284,89,18587,6,0,P|220:72|124:133,1,180,0|8,0:0|0:0,0:0:0:0:
228,312,18961,6,0,P|232:260|224:224,1,90
384,64,19211,2,0,P|376:112|400:176,1,90,0|8,0:0|0:0,0:0:0:0:
344,264,19461,1,0,0:0:0:0:
136,268,19586,6,0,P|92:248|28:248,1,90
76,48,19836,1,8,0:0:0:0:
208,120,19961,1,0,0:0:0:0:
384,168,20087,6,0,L|288:192,1,90
480,44,20337,2,0,B|436:128|512:128|468:236,1,180,8|0,0:0|0:0,0:0:0:0:
408,332,20712,1,0,0:0:0:0:
208,272,20837,2,0,P|196:224|220:160,1,90,8|0,0:0|0:0,0:0:0:0:
372,60,21087,6,0,P|300:68|252:52,1,90
144,104,21337,1,8,0:0:0:0:
4,44,21462,2,0,B|32:96|32:96|12:244,1,180
116,352,21837,2,0,L|104:252,1,90,8|0,0:0|0:0,0:0:0:0:
316,240,22087,6,0,B|364:232|400:256|400:256|436:224|516:232,1,180,4|8,0:2|0:0,0:0:0:0:
268,324,22462,2,0,P|228:288|252:164,1,180,4|0,0:2|0:0,0:0:0:0:
408,92,22837,2,0,P|360:92|312:80,1,90,8|0,0:0|0:0,0:0:0:0:
36,88,23087,6,0,P|84:40|196:48,1,180,4|8,0:2|0:0,0:0:0:0:
120,312,23462,2,0,B|132:268|116:232|116:232|140:192|140:192|128:124,1,180,4|0,0:2|0:0,0:0:0:0:
16,276,23837,1,8,0:0:0:0:
416,328,24087,6,0,P|328:320|232:336,1,180,4|8,0:0|0:0,0:0:0:0:
448,232,24462,2,0,P|400:228|348:212,1,90
164,96,24712,2,0,L|260:80,1,90,0|8,0:0|0:0,0:0:0:0:
416,44,24962,1,0,0:0:0:0:
232,208,25087,6,0,B|144:176|144:248|24:188,1,180,0|8,0:0|0:0,0:0:0:0:
140,84,25462,1,0,0:0:0:0:
64,328,25587,1,0,0:0:0:0:
248,112,25712,1,0,0:0:0:0:
192,296,25837,6,0,P|268:316|320:212,1,180,8|0,0:0|0:0,0:0:0:0:
416,72,26212,2,0,P|436:120|432:188,1,90,0|8,0:0|0:0,0:0:0:0:
456,288,26462,1,0,0:0:0:0:
304,128,26587,6,0,B|272:104|272:104|176:128|176:128|116:104,1,180,0|8,0:0|0:0,0:0:0:0:
268,216,26962,2,0,P|316:224|384:196,1,90
176,28,27212,2,0,P|132:20|56:48,1,90,0|8,0:0|0:0,0:0:0:0:
4,272,27462,6,0,P|28:176|-16:80,1,180
124,212,27837,2,0,P|120:272|132:324,1,90,8|0,0:0|0:0,0:0:0:0:
316,340,28087,6,0,P|276:316|216:312,1,90
420,280,28337,2,0,B|396:228|416:188|416:188|440:136|400:72,1,180,8|0,0:0|0:0,0:0:0:0:
304,28,28712,2,0,P|296:108|320:148,1,90,0|8,0:0|0:0,0:0:0:0:
172,288,28962,2,0,P|180:232|160:176,1,90
40,36,29212,2,0,L|52:160,1,90,0|8,0:0|0:0,0:0:0:0:
68,328,29462,6,0,P|148:308|244:344,1,180
392,332,29837,1,8,0:0:0:0:
432,192,29962,1,0,0:0:0:0:
320,124,30087,6,0,B|360:100|368:28|368:28|372:84|400:116,1,180,4|8,0:2|0:0,0:0:0:0:
244,48,30462,2,0,B|180:40|180:40|120:52|120:52|44:44,1,180,4|0,0:2|0:0,0:0:0:0:
40,160,30837,1,8,0:0:0:0:
72,280,30962,1,0,0:0:0:0:
296,264,31087,6,0,B|344:248|344:248|280:248|280:248|212:232,1,180,4|10,0:2|0:0,0:0:0:0:
416,164,31462,2,0,P|460:172|512:228,1,90,8|2,0:3|0:0,0:0:0:0:
340,60,31712,2,0,P|296:60|220:28,1,90,2|8,0:0|0:3,0:0:0:0:
135,165,31962,1,2,0:0:0:0:
119,335,32116,6,0,B|135:275|107:219|107:219|143:151,1,180,4|8,0:2|0:0,0:0:0:0:
392,32,32491,2,0,B|376:92|404:148|404:148|368:216,1,180,4|0,0:2|0:0,0:0:0:0:
480,88,32866,2,0,P|496:128|480:204,1,90,8|0,0:0|0:0,0:0:0:0:
280,324,33116,6,0,B|240:240|240:240|292:136,1,180,4|8,0:2|0:0,0:0:0:0:
56,76,33491,2,0,B|140:36|140:36|244:88,1,180,4|0,0:2|0:0,0:0:0:0:
400,104,33866,1,8,0:0:0:0:
243,250,33991,1,0,0:0:0:0:
132,152,34116,6,0,B|108:196|124:240|124:240|140:280|124:340,1,180,4|8,0:2|0:0,0:0:0:0:
408,264,34491,2,0,P|320:288|232:236,1,180,4|0,0:2|0:0,0:0:0:0:
316,96,34866,2,0,P|328:160|320:208,1,90,8|0,0:0|0:0,0:0:0:0:
204,44,35116,5,4,0:0:0:0:
128,72,35366,1,2,0:2:0:0:
132,152,35616,1,2,0:2:0:0:
104,228,35866,1,2,0:2:0:0:
24,296,36116,6,0,P|104:336|200:264,1,180,4|8,0:2|0:0,0:0:0:0:
444,264,36491,2,0,P|364:224|260:284,1,180,4|0,0:2|0:0,0:0:0:0:
360,336,36866,1,8,0:0:0:0:
248,152,36991,1,0,0:0:0:0:
408,48,37116,6,0,B|356:40|332:60|332:60|284:48|284:48|264:60|235:57,1,180,4|8,0:2|0:0,0:0:0:0:
60,208,37491,2,0,B|112:216|136:196|136:196|184:208|184:208|204:196|233:199,1,180,4|0,0:2|0:0,0:0:0:0:
339,177,37866,1,8,0:0:0:0:
432,312,37991,1,0,0:0:0:0:
512,168,38116,6,0,B|440:160|396:192|396:192|304:168,1,180,4|8,0:2|0:0,0:0:0:0:
88,84,38491,2,0,P|168:60|256:100,1,180,4|0,0:2|0:0,0:0:0:0:
144,284,38866,2,0,L|236:300,1,90,8|0,0:0|0:0,0:0:0:0:
8,272,39116,5,4,0:0:0:0:
40,200,39366,1,2,0:2:0:0:
12,124,39616,1,8,0:0:0:0:
12,124,39741,1,4,0:0:0:0:
312,348,40116,6,0,B|312:308|312:308|300:264|300:264|308:220|308:220|276:268,1,180,4|8,0:2|0:0,0:0:0:0:
408,136,40491,2,0,B|435:177|435:177|427:133|427:133|439:89|439:89|439:49,1,180,4|0,0:2|0:0,0:0:0:0:
288,56,40866,2,0,P|228:40|172:44,1,90,8|0,0:0|0:0,0:0:0:0:
84,168,41116,6,0,B|99:274|99:274|59:214,1,180,4|8,0:2|0:0,0:0:0:0:
280,260,41491,2,0,B|340:224|340:224|200:244,1,180,4|0,0:2|0:0,0:0:0:0:
188,104,41866,1,8,0:0:0:0:
100,272,41991,1,0,0:0:0:0:
384,296,42116,6,0,P|436:228|360:152,1,180,4|8,0:2|0:0,0:0:0:0:
152,32,42491,2,0,P|100:100|176:176,1,180,4|0,0:2|0:0,0:0:0:0:
36,332,42866,2,0,P|44:280|24:228,1,90,8|0,0:0|0:0,0:0:0:0:
148,304,43116,6,0,B|200:292|200:292|280:308,1,135.000005149842,4|8,0:0|0:3,0:0:0:0:
468,232,43616,2,0,B|416:244|416:244|336:228,1,135.000005149842,2|2,0:2|0:2,0:0:0:0:
240,84,44116,6,0,B|260:16|260:16|276:160,1,180,4|8,0:2|0:0,0:0:0:0:
364,288,44491,2,0,B|384:356|384:356|400:212,1,180,4|0,0:2|0:0,0:0:0:0:
464,60,44866,2,0,L|480:168,1,90,8|0,0:0|0:0,0:0:0:0:
240,248,45116,6,0,P|184:204|72:216,1,180,4|8,0:2|0:0,0:0:0:0:
180,56,45491,2,0,P|252:105|340:92,1,180,4|0,0:2|0:0,0:0:0:0:
120,292,45866,1,8,0:0:0:0:
320,224,45991,1,0,0:0:0:0:
488,336,46116,6,0,B|432:304|432:304|304:332,1,180,4|8,0:2|0:0,0:0:0:0:
116,144,46491,2,0,B|172:176|172:176|300:148,1,180,4|0,0:2|0:0,0:0:0:0:
496,220,46866,2,0,L|416:160,1,90,8|0,0:0|0:0,0:0:0:0:
196,44,47116,5,4,0:0:0:0:
176,124,47366,1,2,0:2:0:0:
236,176,47616,1,8,0:0:0:0:
104,304,47741,1,4,0:0:0:0:
104,304,47803,6,0,L|64:292,2,33.7500012874604,0|0|0,0:2|0:2|0:2,0:0:0:0:
156,324,47991,1,0,0:2:0:0:
192,320,48053,1,0,0:2:0:0:
260,348,48149,6,0,B|253:299|253:299|267:224|267:224|251:162,1,180,4|8,0:0|0:0,0:0:0:0:
416,96,48524,1,0,0:0:0:0:
396,256,48649,1,2,0:0:0:0:
116,88,48774,2,0,L|212:80,1,90,2|8,0:0|0:0,0:0:0:0:
28,60,49024,6,0,P|-4:140|44:240,1,180,2|2,0:0|0:0,0:0:0:0:
280,308,49399,2,0,P|228:300|172:304,1,90,8|2,0:0|0:0,0:0:0:0:
300,32,49649,2,0,P|308:108|300:164,1,90,2|2,0:0|0:0,0:0:0:0:
440,312,49899,2,0,P|452:256|440:192,1,90,8|0,0:0|0:0,0:0:0:0:
408,48,50149,5,2,0:0:0:0:
280,232,50274,1,2,0:0:0:0:
144,96,50399,2,0,L|136:212,1,90,8|0,0:0|0:0,0:0:0:0:
36,320,50649,1,2,0:0:0:0:
24,56,50774,2,0,L|36:172,1,90,2|8,0:0|0:0,0:0:0:0:
132,288,51024,6,0,P|212:284|240:164,1,180,2|2,0:0|0:0,0:0:0:0:
253,202,51336,1,0,0:0:0:0:
253,202,51399,1,8,0:0:0:0:
300,56,51524,1,0,0:0:0:0:
496,164,51649,6,0,P|448:156|384:152,1,90,2|2,0:0|0:0,0:0:0:0:
136,40,51899,1,8,0:0:0:0:
152,216,52024,1,0,0:0:0:0:
244,320,52149,6,0,P|280:312|356:328,1,90,2|2,0:0|0:0,0:0:0:0:
456,144,52399,1,8,0:0:0:0:
460,148,52524,2,0,P|472:196|456:268,1,90,0|2,0:0|0:0,0:0:0:0:
280,112,52774,2,0,P|264:56|276:4,1,90,2|8,0:0|0:0,0:0:0:0:
152,260,53024,2,0,P|128:304|132:380,1,90,2|0,0:0|0:0,0:0:0:0:
88,108,53274,2,0,P|81:63|59:24,1,90,2|8,0:0|0:0,0:0:0:0:
228,188,53524,6,0,P|280:208|368:112,1,180,2|2,0:0|0:0,0:0:0:0:
464,232,53899,1,8,0:0:0:0:
512,48,54024,1,2,0:0:0:0:
280,104,54149,6,0,B|236:84|236:84|80:136,1,180,4|8,0:2|0:0,0:0:0:0:
56,248,54524,1,4,0:2:0:0:
196,316,54649,2,0,B|240:312|240:312|308:320,1,90,2|2,0:0|0:0,0:0:0:0:
480,200,54899,2,0,B|436:204|436:204|368:196,1,90,8|2,0:0|0:0,0:0:0:0:
192,56,55149,6,0,B|280:4|280:96|396:44,1,180,12|10,0:2|0:0,0:0:0:0:
220,204,55524,2,0,P|136:196|52:260,1,180,12|10,0:2|0:0,0:0:0:0:
80,64,55899,1,8,0:0:0:0:
436,304,56149,6,0,L|332:292,1,90,4|0,0:0|0:0,0:0:0:0:
408,140,56399,1,8,0:0:0:0:
408,140,56524,2,0,L|497:128,1,90,0|2,0:0|0:0,0:0:0:0:
264,44,56774,2,0,P|284:84|288:168,1,90,2|8,0:0|0:0,0:0:0:0:
132,232,57024,6,0,P|112:272|108:356,1,90,2|0,0:0|0:0,0:0:0:0:
24,88,57274,1,2,0:0:0:0:
144,120,57399,1,8,0:0:0:0:
264,48,57524,5,0,0:0:0:0:
144,120,57649,1,2,0:0:0:0:
268,256,57774,1,2,0:0:0:0:
388,204,57899,2,0,P|436:228|480:272,1,90,8|0,0:0|0:0,0:0:0:0:
316,104,58149,6,0,P|380:72|416:32,1,90,2|2,0:0|0:0,0:0:0:0:
120,28,58399,2,0,P|140:68|144:136,1,90,8|0,0:0|0:0,0:0:0:0:
88,332,58649,1,2,0:0:0:0:
184,256,58774,1,2,0:0:0:0:
304,340,58899,1,8,0:0:0:0:
304,340,59024,6,0,B|316:288|288:252|288:252|328:212|316:140,1,180,2|2,0:0|0:0,0:0:0:0:
460,88,59399,1,8,0:0:0:0:
412,312,59524,2,0,P|328:268|232:316,1,180,2|2,0:0|0:0,0:0:0:0:
72,324,59899,1,8,0:0:0:0:
112,160,60024,1,0,0:0:0:0:
112,160,60149,6,0,L|96:56,1,90,2|2,0:0|0:0,0:0:0:0:
248,88,60399,2,0,P|240:28|224:-8,1,90,8|0,0:0|0:0,0:0:0:0:
368,168,60649,2,0,P|364:120|380:64,1,90,2|2,0:0|0:0,0:0:0:0:
460,232,60899,2,0,P|472:292|464:348,1,90,8|2,0:0|0:0,0:0:0:0:
280,280,61149,6,0,B|292:236|264:216|264:216|204:244|156:220,1,180,0|8,0:0|0:0,0:0:0:0:
36,96,61524,1,2,0:0:0:0:
200,144,61649,1,0,0:0:0:0:
148,36,61774,1,2,0:0:0:0:
56,316,61899,2,0,P|40:276|56:204,1,90,8|2,0:0|0:0,0:0:0:0:
236,112,62149,6,0,P|288:100|344:220,1,180,4|8,0:2|0:0,0:0:0:0:
456,96,62524,1,4,0:2:0:0:
508,304,62649,2,0,P|464:292|380:292,1,90,2|2,0:0|0:0,0:0:0:0:
240,208,62899,2,0,P|192:224|144:260,1,90,8|2,0:0|0:0,0:0:0:0:
72,40,63149,6,0,P|18:106|57:181,1,180,4|10,0:2|0:0,0:0:0:0:
196,72,63524,2,0,P|264:60|316:68,1,90,8|2,0:3|0:0,0:0:0:0:
488,168,63774,2,0,P|416:172|364:152,1,90,2|8,0:0|0:3,0:0:0:0:
428,40,64024,1,0,0:0:0:0:
360,296,64149,6,0,P|296:268|184:308,1,180,4|8,0:0|0:0,0:0:0:0:
84,160,64524,2,0,P|152:156|204:164,1,90,0|2,0:0|0:0,0:0:0:0:
280,336,64774,2,0,P|228:320|164:324,1,90,2|8,0:0|0:0,0:0:0:0:
448,280,65024,1,2,0:0:0:0:
368,100,65149,6,0,L|264:96,1,90,0|2,0:0|0:0,0:0:0:0:
84,24,65399,1,8,0:0:0:0:
140,216,65524,1,0,0:0:0:0:
140,216,65649,1,2,0:0:0:0:
16,120,65774,1,2,0:0:0:0:
44,336,65899,6,0,P|48:268|36:224,1,90,8|0,0:0|0:0,0:0:0:0:
264,296,66149,1,2,0:0:0:0:
304,288,66211,1,0,0:0:0:0:
344,276,66274,1,2,0:0:0:0:
380,288,66336,1,0,0:0:0:0:
380,288,66399,6,0,P|376:212|404:148,1,135,8|0,0:0|0:0,0:0:0:0:
468,124,66649,2,0,B|404:112|404:112|352:120|352:120|276:108,1,180,2|8,0:0|0:0,0:0:0:0:
136,60,67024,1,2,0:0:0:0:
176,216,67149,1,0,0:0:0:0:
344,32,67274,6,0,L|444:20,1,90,2|8,0:0|0:0,0:0:0:0:
512,216,67524,2,0,P|456:244|396:248,1,90,0|2,0:0|0:0,0:0:0:0:
312,324,67774,1,0,0:0:0:0:
312,324,67899,2,0,B|268:316|268:316|184:328,1,90,8|2,0:0|0:0,0:0:0:0:
64,160,68149,6,0,P|76:232|68:364,1,180,4|8,0:2|0:0,0:0:0:0:
184,152,68524,2,0,P|180:104|156:48,1,90,4|2,0:2|0:0,0:0:0:0:
312,216,68774,1,2,0:0:0:0:
416,40,68899,1,8,0:0:0:0:
472,200,69024,1,2,0:0:0:0:
328,304,69149,6,0,B|288:312|256:288|256:288|220:324|132:300,1,180,4|8,0:2|0:0,0:0:0:0:
160,88,69524,2,0,P|152:128|168:192,1,90,4|2,0:2|0:0,0:0:0:0:
40,336,69774,2,0,P|44:296|20:216,1,90,2|8,0:0|0:0,0:0:0:0:
52,36,70024,1,2,0:0:0:0:
288,136,70149,6,0,P|364:152|436:60,1,180,4|8,0:2|0:0,0:0:0:0:
504,276,70524,2,0,P|448:256|408:252,1,90,4|2,0:2|0:0,0:0:0:0:
340,52,70774,1,2,0:0:0:0:
196,148,70899,1,8,0:0:0:0:
68,84,71024,1,2,0:0:0:0:
92,352,71149,6,0,B|56:264|136:264|88:168,1,180,12|10,0:2|0:0,0:0:0:0:
199,295,71524,2,0,P|279:275|363:323,1,180,12|10,0:2|0:0,0:0:0:0:
400,152,71899,1,10,0:0:0:0:
272,64,72149,6,0,P|232:68|156:72,1,90,4|0,0:0|0:0,0:0:0:0:
28,232,72399,2,0,P|72:229|117:224,1,90,8|0,0:0|0:0,0:0:0:0:
176,344,72649,2,0,P|216:348|292:352,1,90,2|2,0:0|0:0,0:0:0:0:
352,224,72899,1,8,0:0:0:0:
452,308,73024,1,2,0:0:0:0:
488,168,73149,6,0,B|508:104|456:48|456:48|408:116,1,180,0|8,0:0|0:0,0:0:0:0:
268,188,73524,1,0,0:0:0:0:
92,36,73649,2,0,P|108:112|112:160,1,90,2|2,0:0|0:0,0:0:0:0:
256,32,73899,1,8,0:0:0:0:
144,236,74024,1,2,0:0:0:0:
12,324,74149,6,0,B|104:264|104:344|192:308,1,180,4|8,0:2|0:0,0:0:0:0:
396,268,74524,2,0,P|348:272|280:244,1,90,4|2,0:2|0:0,0:0:0:0:
176,112,74774,2,0,P|224:96|276:104,1,90,2|8,0:0|0:0,0:0:0:0:
392,152,75024,1,2,0:0:0:0:
452,36,75149,6,0,P|500:104|496:232,1,180,4|8,0:2|0:0,0:0:0:0:
440,332,75524,2,0,P|384:324|328:340,1,90,4|2,0:2|0:0,0:0:0:0:
224,220,75774,1,2,0:0:0:0:
84,348,75899,1,8,0:0:0:0:
32,148,76024,1,2,0:0:0:0:
128,60,76149,6,0,B|192:48|192:48|252:60|252:60|316:48,1,180,4|8,0:2|0:0,0:0:0:0:
468,224,76524,2,0,P|476:132|436:48,1,180,4|2,0:2|0:0,0:0:0:0:
340,184,76899,2,0,P|352:240|344:292,1,90,8|0,0:0|0:0,0:0:0:0:
468,224,77149,5,4,0:2:0:0:
349,272,77274,1,2,0:0:0:0:
220,232,77399,1,8,0:0:0:0:
96,288,77524,1,4,0:2:0:0:
88,152,77649,1,2,0:0:0:0:
88,152,77774,1,2,0:0:0:0:
12,32,77899,2,0,P|64:40|136:24,1,90,8|2,0:0|0:0,0:0:0:0:
232,100,78149,6,0,P|308:48|420:76,1,180,4|8,0:2|0:0,0:0:0:0:
504,116,78524,2,0,P|504:72|488:12,1,90,4|2,0:2|0:0,0:0:0:0:
336,168,78774,1,8,0:0:0:0:
428,248,78899,2,0,P|392:272|312:284,1,90,8|2,0:0|0:0,0:0:0:0:
200,228,79149,6,0,P|116:228|72:312,1,180,4|8,0:2|0:0,0:0:0:0:
32,148,79524,2,0,P|76:120|140:120,1,90,2|0,0:0|0:0,0:0:0:0:
168,320,79774,1,12,0:0:0:0:
504,224,80149,6,0,B|388:236|348:128|348:128|388:236|324:280,1,350.999983932496,6|2,0:0|0:0,0:0:0:0:
400,48,82149,6,0,P|304:48|276:180,1,233.999989288331,2|2,0:0|0:0,0:0:0:0:
163,227,83649,1,0,0:0:0:0:
76,264,84149,6,0,B|52:236|12:220|12:220|48:228|104:260|180:220,1,233.999989288331,2|2,0:0|0:0,0:0:0:0:
260,132,85649,1,0,0:0:0:0:
305,240,86149,6,0,B|285:200|293:156|333:148|337:96|313:68|265:68|237:92|269:156,1,233.999989288331,2|2,0:0|0:0,0:0:0:0:
415,275,87649,1,0,0:0:0:0:
296,352,88149,6,0,B|324:292|396:324|396:324|360:260|408:188|408:188|416:288,1,350.999983932496,6|2,0:0|0:0,0:0:0:0:
460,84,90149,6,0,B|404:112|364:76|364:76|356:96|356:96|304:56|232:88,1,233.999989288331,2|2,0:0|0:0,0:0:0:0:
252,80,91649,1,0,0:0:0:0:
72,64,92149,6,0,P|92:100|100:152,1,90,2|0,0:0|0:0,0:0:0:0:
36,280,92649,1,0,0:0:0:0:
36,280,93024,6,0,P|92:272|144:280,1,90,2|0,0:0|0:0,0:0:0:0:
204,312,93524,1,0,0:0:0:0:
284,272,93774,2,0,P|320:276|348:272,1,45,0|0,0:0|0:0,0:0:0:0:
416,328,94024,1,0,0:0:0:0:
456,232,94149,1,2,0:0:0:0:
488,80,94399,6,0,P|444:80|392:108,1,90,0|0,0:0|0:0,0:0:0:0:
200,44,95149,2,0,P|152:68|76:68,1,112.5,6|0,0:0|0:0,0:0:0:0:
48,44,95524,2,0,P|68:116|52:176,1,135,4|4,0:0|0:0,0:0:0:0:
164,296,96211,6,0,B|212:308|240:280|240:280|272:320|352:300,1,180,4|8,0:0|0:0,0:0:0:0:
468,236,96586,1,0,0:0:0:0:
336,48,96711,2,0,P|380:60|440:40,1,90,2|2,0:0|0:0,0:0:0:0:
284,212,96961,2,0,P|240:200|180:220,1,90,8|2,0:0|0:0,0:0:0:0:
64,56,97211,6,0,P|80:120|72:172,1,90,0|2,0:0|0:0,0:0:0:0:
48,280,97461,1,8,0:0:0:0:
228,56,97586,1,2,0:0:0:0:
348,160,97711,2,0,P|420:172|492:92,2,180,2|10|2,0:0|0:0|0:0,0:0:0:0:
484,312,98336,6,0,L|376:300,1,90,2|8,0:0|0:0,0:0:0:0:
156,248,98586,2,0,L|256:236,1,90,0|2,0:0|0:0,0:0:0:0:
396,88,98836,2,0,L|300:72,1,90,0|8,0:0|0:0,0:0:0:0:
160,32,99086,1,2,0:0:0:0:
56,188,99211,6,0,P|64:140|52:88,1,90,0|2,0:0|0:0,0:0:0:0:
156,248,99461,1,8,0:0:0:0:
296,156,99586,1,2,0:0:0:0:
204,352,99711,2,0,B|296:308|296:380|404:336,2,180,2|10|2,0:0|0:0|0:0,0:0:0:0:
348,268,100336,6,0,P|392:264|460:284,1,90,2|8,0:0|0:0,0:0:0:0:
400,104,100586,1,0,0:0:0:0:
280,52,100711,2,0,P|236:56|180:48,1,90,2|0,0:0|0:0,0:0:0:0:
36,32,100961,2,0,P|52:68|60:144,1,90,8|2,0:0|0:0,0:0:0:0:
256,216,101211,5,0,0:0:0:0:
112,292,101336,2,0,P|60:280|20:280,1,90,2|8,0:0|0:0,0:0:0:0:
148,136,101586,1,2,0:0:0:0:
228,336,101711,1,2,0:0:0:0:
384,180,101836,2,0,P|432:184|492:168,1,90,2|8,0:0|0:0,0:0:0:0:
352,64,102086,1,0,0:0:0:0:
336,284,102211,6,0,P|272:228|156:248,1,180,2|8,0:0|0:0,0:0:0:0:
56,64,102586,2,0,P|72:120|72:152,1,90,2|0,0:0|0:0,0:0:0:0:
200,28,102836,1,8,0:0:0:0:
336,104,102961,2,0,P|404:108|456:104,1,90,10|0,0:0|0:0,0:0:0:0:
500,268,103211,6,0,P|456:256|384:268,1,90,10|0,0:0|0:0,0:0:0:0:
236,312,103461,1,8,0:0:0:0:
160,144,103586,2,0,P|216:104|208:192,1,180,8|0,0:0|0:0,0:0:0:0:
72,336,103961,2,0,P|87:293|87:249,1,90,8|0,0:0|0:0,0:0:0:0:
92,72,104211,6,0,P|164:24|263:37,1,180,4|8,0:0|0:0,0:0:0:0:
348,124,104586,1,0,0:0:0:0:
472,56,104711,2,0,P|488:104|480:160,1,90,2|2,0:0|0:0,0:0:0:0:
436,324,104961,1,8,0:0:0:0:
240,256,105086,2,0,P|280:252|356:252,1,90,2|0,0:0|0:0,0:0:0:0:
136,144,105336,6,0,P|104:136|24:128,1,90,2|8,0:0|0:0,0:0:0:0:
116,324,105586,1,2,0:0:0:0:
228,152,105711,1,2,0:0:0:0:
240,176,105961,1,10,0:0:0:0:
308,92,106211,6,0,P|356:92|404:120,1,90,2|2,0:0|0:0,0:0:0:0:
496,324,106461,2,0,P|496:276|484:212,1,90,8|0,0:0|0:0,0:0:0:0:
336,184,106711,1,2,0:0:0:0:
232,272,106836,2,0,P|184:264|124:268,1,90,0|8,0:0|0:0,0:0:0:0:
60,80,107086,1,2,0:0:0:0:
28,288,107211,5,0,0:0:0:0:
156,128,107336,1,2,0:0:0:0:
304,332,107461,2,0,P|364:316|428:304,1,90,8|0,0:0|0:0,0:0:0:0:
472,84,107711,1,2,0:0:0:0:
480,112,107961,1,10,0:0:0:0:
348,32,108211,6,0,P|360:80|368:148,1,90,2|2,0:0|0:0,0:0:0:0:
264,256,108461,1,8,0:0:0:0:
152,176,108586,2,0,P|156:108|148:52,1,90,0|2,0:0|0:0,0:0:0:0:
64,20,108836,1,0,0:0:0:0:
20,176,108961,2,0,P|32:224|32:280,1,90,8|2,0:0|0:0,0:0:0:0:
164,340,109211,5,0,0:0:0:0:
340,320,109336,2,0,P|384:312|456:312,1,90,2|8,0:0|0:0,0:0:0:0:
424,184,109586,2,0,P|432:140|432:84,1,90,2|2,0:0|0:0,0:0:0:0:
432,94,109836,1,2,0:0:0:0:
312,104,109961,1,8,0:0:0:0:
208,164,110086,1,0,0:0:0:0:
116,52,110211,6,0,P|224:52|296:16,1,180,2|8,0:0|0:0,0:0:0:0:
204,168,110586,2,0,P|148:160|84:168,1,90,2|0,0:0|0:0,0:0:0:0:
56,276,110836,1,8,0:0:0:0:
188,308,110961,2,0,P|232:300|304:304,1,90,10|0,0:0|0:0,0:0:0:0:
512,208,111211,6,0,B|444:168|444:228|348:180,1,135,4|0,0:2|0:0,0:0:0:0:
336,164,111461,2,0,P|252:168|184:100,1,180,8|2,0:0|0:0,0:0:0:0:
364,64,111836,2,0,P|404:84|428:136,1,90,2|8,0:0|0:0,0:0:0:0:
344,300,112086,1,0,0:0:0:0:
512,316,112211,6,0,B|472:284|472:284|320:304,1,180,4|8,0:0|0:0,0:0:0:0:
216,268,112586,2,0,P|152:256|80:344,1,180,4|2,0:0|0:0,0:0:0:0:
44,192,112961,2,0,P|48:128|44:88,1,90,10|2,0:0|0:0,0:0:0:0:
160,152,113211,6,0,B|220:140|220:140|276:148|276:148|376:136,1,180,4|8,0:0|0:0,0:0:0:0:
480,80,113586,2,0,P|424:28|308:60,1,180,4|2,0:0|0:0,0:0:0:0:
296,224,113961,1,10,0:0:0:0:
192,60,114086,1,0,0:0:0:0:
44,216,114211,6,0,B|28:180|32:148|32:148|72:184|136:168,1,180,4|8,0:0|0:0,0:0:0:0:
124,332,114586,2,0,B|212:280|212:352|296:324,1,180,4|2,0:0|0:0,0:0:0:0:
444,280,114961,2,0,P|432:220|444:160,1,90,10|0,0:0|0:0,0:0:0:0:
312,36,115211,6,0,P|332:92|336:140,1,90,4|10,0:0|0:0,0:0:0:0:
220,180,115461,2,0,P|144:172|128:60,1,180,10|8,0:0|0:0,0:0:0:0:
328,304,115836,2,0,P|284:288|232:288,1,90,0|10,0:0|0:0,0:0:0:0:
160,372,116086,1,0,0:0:0:0:
32,312,116211,6,0,P|48:224|0:136,1,180,4|8,0:0|0:0,0:0:0:0:
188,108,116586,2,0,P|268:92|348:144,1,180,4|2,0:0|0:0,0:0:0:0:
388,28,116961,1,10,0:0:0:0:
252,184,117086,1,0,0:0:0:0:
444,320,117211,6,0,B|468:264|468:196|468:196|420:252,1,180,4|8,0:0|0:0,0:0:0:0:
316,324,117586,2,0,B|260:332|260:332|220:320|220:320|128:336,1,180,4|2,0:0|0:0,0:0:0:0:
52,160,117961,2,0,P|64:232|60:280,1,90,10|0,0:0|0:0,0:0:0:0:
16,64,118211,6,0,P|68:48|128:160,1,180,4|8,0:0|0:0,0:0:0:0:
248,72,118586,2,0,B|312:84|372:56|372:56|344:108,1,180,4|2,0:0|0:0,0:0:0:0:
456,272,118961,2,0,P|468:208|456:164,1,90,10|0,0:0|0:0,0:0:0:0:
296,240,119211,6,0,L|240:232,3,45,2|2|2|2,0:0|0:0|0:0|0:0,0:0:0:0:
204,200,119461,2,0,P|212:248|204:312,1,90,10|2,0:0|0:0,0:0:0:0:
120,364,119711,1,2,0:0:0:0:
68,208,119836,6,0,P|76:160|60:92,1,90,2|10,0:0|0:0,0:0:0:0:
12,8,120086,1,2,0:0:0:0:
180,88,120211,6,0,P|248:52|340:112,1,180,4|8,0:0|0:0,0:0:0:0:
464,232,120586,2,0,B|436:144|500:144|460:44,1,180,4|2,0:0|0:0,0:0:0:0:
368,224,120961,2,0,P|360:268|372:332,1,90,10|0,0:0|0:0,0:0:0:0:
236,148,121211,6,0,P|156:172|100:100,1,180,4|8,0:0|0:0,0:0:0:0:
32,292,121586,2,0,P|120:276|176:356,1,180,4|2,0:0|0:0,0:0:0:0:
364,312,121961,1,10,0:0:0:0:
400,104,122086,1,0,0:0:0:0:
180,92,122211,6,0,B|236:72|264:40|264:40|244:88|264:132,1,180,4|8,0:0|0:0,0:0:0:0:
488,160,122586,2,0,P|408:212|324:172,1,180,4|2,0:0|0:0,0:0:0:0:
176,204,122961,2,0,P|136:188|48:192,1,90,10|0,0:0|0:0,0:0:0:0:
232,312,123211,6,0,P|276:292|332:288,1,90,6|2,0:0|0:0,0:0:0:0:
488,156,123461,2,0,P|440:136|392:136,1,90,8|2,0:0|0:0,0:0:0:0:
264,40,123711,1,4,0:0:0:0:
144,192,123836,2,0,P|148:144|140:60,1,90,2|8,0:0|0:0,0:0:0:0:
40,64,124086,1,2,0:0:0:0:
80,280,124211,6,0,P|160:308|236:220,1,180,4|8,0:0|0:0,0:0:0:0:
364,132,124586,2,0,B|360:188|360:188|392:260|392:260|384:312,1,180,4|2,0:0|0:0,0:0:0:0:
476,152,124961,2,0,L|464:40,1,90,10|0,0:0|0:0,0:0:0:0:
280,272,125211,6,0,B|244:240|192:264|192:264|148:288|72:260,1,180,4|8,0:0|0:0,0:0:0:0:
0,72,125586,2,2,P|32:160|8:240,1,180,6|2,0:0|0:0,0:0:0:0:
116,92,125961,2,0,P|156:72|212:60,1,90,10|0,0:0|0:0,0:0:0:0:
312,176,126211,5,6,0:0:0:0:
424,40,126336,2,0,P|436:96|436:136,1,90,0|10,0:0|0:0,0:0:0:0:
468,280,126586,1,6,0:0:0:0:
328,308,126711,2,0,P|272:328|140:284,1,180,0|8,0:0|0:0,0:0:0:0:
44,192,127086,1,0,0:0:0:0:
76,40,127211,5,2,0:0:0:0:
80,44,127273,1,2,0:0:0:0:
120,44,127336,1,2,0:0:0:0:
156,60,127398,1,2,0:0:0:0:
188,84,127461,1,10,0:0:0:0:
332,32,127586,6,0,P|324:80|312:128,1,90,2|2,0:0|0:0,0:0:0:0:
496,56,127836,1,2,0:0:0:0:
456,212,127961,2,0,P|440:264|436:312,1,90,10|2,0:0|0:0,0:0:0:0:
288,324,128211,6,0,P|244:300|116:316,1,180,4|8,0:0|0:0,0:0:0:0:
40,132,128586,1,0,0:0:0:0:
168,200,128711,1,2,0:0:0:0:
352,140,128836,2,0,P|284:124|240:116,1,90,2|8,0:0|0:0,0:0:0:0:
364,264,129086,2,0,P|376:308|372:364,1,90,2|0,0:0|0:0,0:0:0:0:
472,172,129336,6,0,P|464:132|468:72,1,90,2|8,0:0|0:0,0:0:0:0:
320,16,129586,1,2,0:0:0:0:
136,64,129711,2,0,P|136:108|120:176,1,90,2|2,0:0|0:0,0:0:0:0:
60,352,129961,1,8,0:0:0:0:
24,216,130086,1,0,0:0:0:0:
192,304,130211,6,0,B|224:272|224:272|280:312|376:288,1,180,2|8,0:0|0:0,0:0:0:0:
488,224,130586,2,0,P|500:272|496:328,1,90,0|2,0:0|0:0,0:0:0:0:
396,132,130836,2,0,P|384:92|388:28,1,90,2|8,0:0|0:0,0:0:0:0:
288,200,131086,1,2,0:0:0:0:
216,72,131211,5,0,0:0:0:0:
84,40,131336,1,10,0:0:0:0:
84,40,131461,2,0,P|88:108|84:140,1,90,8|8,0:0|0:0,0:0:0:0:
24,288,131711,5,8,0:0:0:0:
60,272,131773,1,8,0:0:0:0:
100,256,131836,1,8,0:0:0:0:
164,204,131898,1,8,0:0:0:0:
200,220,131960,1,8,0:0:0:0:
236,236,132023,1,8,0:0:0:0:
284,304,132086,1,8,0:0:0:0:
324,292,132148,1,8,0:0:0:0:
360,308,132211,6,0,B|368:248|368:248|356:196|356:196|376:116,1,180,4|10,0:0|0:2,0:0:0:0:
480,228,132586,1,0,0:0:0:0:
304,44,132711,2,0,P|252:40|196:60,1,90,2|0,0:2|0:0,0:0:0:0:
60,176,132961,2,0,P|100:188|148:180,1,90,10|0,0:2|0:0,0:0:0:0:
76,340,133211,6,0,P|128:332|196:348,1,90,2|0,0:2|0:0,0:0:0:0:
360,224,133461,2,0,P|316:232|236:212,1,90,10|0,0:2|0:0,0:0:0:0:
100,80,133711,1,2,0:2:0:0:
308,120,133836,1,0,0:0:0:0:
512,48,133961,2,0,P|464:56|420:48,1,90,10|0,0:2|0:0,0:0:0:0:
208,64,134211,6,0,P|200:112|224:176,1,90,2|0,0:2|0:0,0:0:0:0:
436,280,134461,2,0,P|444:232|416:168,1,90,10|0,0:2|0:0,0:0:0:0:
216,280,134711,2,0,P|172:272|100:276,1,90,2|0,0:2|0:0,0:0:0:0:
24,124,134961,2,0,P|16:168|28:236,1,90,10|0,0:2|0:0,0:0:0:0:
212,64,135211,6,0,P|260:72|308:128,1,90,2|0,0:2|0:0,0:0:0:0:
344,244,135461,1,10,0:2:0:0:
448,140,135586,2,0,P|452:88|436:24,1,90,0|2,0:0|0:2,0:0:0:0:
216,180,135836,1,0,0:0:0:0:
92,40,135961,2,0,P|108:104|104:152,1,90,10|0,0:2|0:0,0:0:0:0:
56,316,136211,6,0,P|96:312|188:320,1,90,2|0,0:0|0:0,0:0:0:0:
276,104,136461,2,0,P|324:100|392:108,1,90,10|0,0:2|0:0,0:0:0:0:
512,248,136711,2,0,P|464:244|396:244,1,90,2|0,0:2|0:0,0:0:0:0:
168,188,136961,1,10,0:2:0:0:
280,8,137086,1,0,0:0:0:0:
64,88,137211,6,0,P|108:84|164:96,1,90,2|0,0:2|0:0,0:0:0:0:
220,264,137461,2,0,P|296:260|352:268,1,90,10|0,0:2|0:0,0:0:0:0:
500,144,137711,2,0,P|448:152|400:148,1,90,2|0,0:2|0:0,0:0:0:0:
392,308,137961,1,10,0:2:0:0:
500,56,138086,1,0,0:0:0:0:
284,84,138211,6,0,P|240:72|176:68,1,90,2|0,0:2|0:0,0:0:0:0:
48,224,138461,2,0,P|92:219|136:207,1,90,10|0,0:2|0:0,0:0:0:0:
76,332,138711,1,2,0:2:0:0:
260,256,138836,2,0,P|316:240|364:240,1,90,0|10,0:0|0:2,0:0:0:0:
452,312,139086,1,0,0:0:0:0:
480,56,139211,6,0,P|435:60|390:61,1,90,2|0,0:2|0:0,0:0:0:0:
232,136,139461,2,0,P|187:135|142:130,1,90,10|0,0:2|0:0,0:0:0:0:
8,64,139711,1,2,0:2:0:0:
64,304,139836,2,0,P|60:244|64:188,1,90,0|10,0:0|0:2,0:0:0:0:
180,32,140086,1,0,0:0:0:0:
276,240,140211,6,0,P|348:192|460:224,1,180,2|10,0:0|0:2,0:0:0:0:
368,64,140586,2,0,P|328:56|260:64,1,90,2|2,0:3|0:2,0:0:0:0:
72,136,140836,2,0,P|112:134|175:147,1,90,0|10,0:0|0:2,0:0:0:0:
368,276,141086,1,0,0:0:0:0:
156,352,141211,5,2,0:2:0:0:
24,216,141336,2,0,P|32:284|32:316,1,90,0|10,0:0|0:2,0:0:0:0:
132,88,141586,2,0,P|180:92|240:84,1,90,0|2,0:0|0:2,0:0:0:0:
456,132,141836,2,0,P|416:140|348:148,1,90,0|10,0:0|0:2,0:0:0:0:
300,328,142086,1,0,0:0:0:0:
512,272,142211,6,0,P|468:272|404:280,1,90,2|0,0:2|0:0,0:0:0:0:
224,232,142461,1,10,0:2:0:0:
124,340,142586,1,0,0:0:0:0:
44,176,142711,2,0,P|40:116|52:60,1,90,2|0,0:2|0:0,0:0:0:0:
208,108,142961,2,0,P|272:112|324:132,1,90,10|0,0:2|0:0,0:0:0:0:
456,32,143211,6,0,P|444:96|452:152,1,90,2|0,0:2|0:0,0:0:0:0:
396,348,143461,2,0,P|388:292|396:236,1,90,10|0,0:2|0:0,0:0:0:0:
264,280,143711,2,0,P|224:264|156:264,1,90,2|0,0:2|0:0,0:0:0:0:
60,40,143961,5,8,0:0:0:0:
48,80,144023,1,8,0:0:0:0:
44,120,144086,1,8,0:0:0:0:
52,160,144148,1,8,0:0:0:0:
56,200,144211,6,0,P|64:248|64:328,1,90,2|0,0:2|0:0,0:0:0:0:
128,376,144461,1,10,0:2:0:0:
176,104,144711,2,0,P|264:104|332:184,1,180,2|10,0:2|0:2,0:0:0:0:
436,80,145086,1,0,0:0:0:0:
432,204,145211,2,0,P|436:268|444:312,1,90,2|0,0:2|0:0,0:0:0:0:
224,280,145461,6,0,P|228:216|220:160,1,90,10|0,0:2|0:0,0:0:0:0:
144,40,145711,1,2,0:2:0:0:
88,232,145836,2,0,P|92:288|88:336,1,90,0|10,0:0|0:2,0:0:0:0:
328,136,146086,6,0,P|336:192|336:244,1,90,0|2,0:0|0:2,0:0:0:0:
448,72,146336,1,0,0:0:0:0:
416,304,146461,2,0,P|336:356|252:308,1,180,10|2,0:2|0:2,0:0:0:0:
148,200,146836,2,0,P|76:196|32:212,1,90,0|10,0:0|0:2,0:0:0:0:
132,80,147086,2,0,P|176:88|248:64,1,90,0|2,0:0|0:2,0:0:0:0:
416,152,147336,5,0,0:0:0:0:
316,260,147461,2,0,P|272:248|220:252,1,90,10|0,0:2|0:0,0:0:0:0:
412,352,147711,2,0,P|416:304|400:248,1,90,2|0,0:2|0:0,0:0:0:0:
356,80,147961,1,10,0:2:0:0:
356,80,148086,1,0,0:0:0:0:
228,168,148211,5,0,0:0:0:0:
84,56,148336,2,0,P|88:112|100:128,1,45,2|2,0:0|0:0,0:0:0:0:
60,204,148461,1,10,0:0:0:0:
68,244,148523,1,2,0:0:0:0:
52,280,148586,6,0,P|132:288|180:380,1,180,6|2,0:0|0:0,0:0:0:0:
279,296,148898,2,0,P|287:276|271:220,1,45,2|10,0:0|0:0,0:0:0:0:
248,132,149023,1,2,0:0:0:0:
284,116,149086,2,0,P|340:124|420:28,1,180,6|6,0:0|0:0,0:0:0:0:
320,28,149398,6,0,P|296:28|256:40,1,45,2|2,0:0|0:0,0:0:0:0:
120,80,149523,1,2,0:0:0:0:
120,80,149586,2,0,P|153:124|160:146,1,45,2|2,0:0|0:0,0:0:0:0:
144,288,149711,6,0,P|180:284|220:288,1,45,10|10,0:0|0:0,0:0:0:0:
308,216,149836,1,8,0:0:0:0:
308,216,149898,2,0,P|336:220|368:216,1,45,8|8,0:0|0:0,0:0:0:0:
484,136,150086,1,8,0:0:0:0:
448,324,150211,1,4,0:0:0:0:
256,192,150273,12,2,151961,0:0:0:0:
192,280,152272,6,0,P|252:276|288:288,1,90,4|0,0:0|0:0,0:0:0:0:
480,248,152522,2,0,P|484:192|472:144,1,90,8|0,0:0|0:0,0:0:0:0:
376,48,152772,2,0,P|304:80|208:44,1,180,2|8,0:3|0:0,0:0:0:0:
40,16,153147,2,0,B|-4:100|84:100|36:212,1,180
120,348,153522,6,0,P|132:304|116:240,1,90,8|2,0:0|0:3,0:0:0:0:
248,12,153772,2,0,P|240:60|256:108,1,90
332,284,154022,1,8,0:0:0:0:
416,132,154147,1,0,0:0:0:0:
472,328,154272,6,0,L|456:224,1,90
488,52,154522,2,0,B|400:32|400:32|296:108,1,180,8|0,0:0|0:0,0:0:0:0:
164,188,154897,2,0,L|260:224,1,90,0|8,0:0|0:0,0:0:0:0:
168,52,155147,2,0,P|68:80|48:168,1,180
108,328,155522,5,8,0:0:0:0:
312,272,155647,2,0,B|316:224|316:224|304:164,1,90,0|8,0:0|0:0,0:0:0:0:
476,40,155897,2,0,P|420:32|376:36,1,90,0|8,0:0|0:0,0:0:0:0:
424,168,156147,5,0,0:0:0:0:
484,336,156272,2,0,P|436:328|364:344,1,90,4|0,0:0|0:0,0:0:0:0:
208,224,156522,1,8,0:0:0:0:
132,72,156647,1,0,0:0:0:0:
132,72,156772,6,0,P|56:60|108:128,1,180,2|8,0:3|0:0,0:0:0:0:
68,300,157147,2,0,B|104:316|144:292|144:292|180:332|244:312,1,180
236,128,157522,6,0,P|240:80|228:20,1,90,8|2,0:0|0:3,0:0:0:0:
388,144,157772,2,0,P|372:196|372:272,1,90
500,96,158022,1,8,0:0:0:0:
460,336,158147,1,0,0:0:0:0:
368,36,158272,6,0,P|312:44|268:44,1,90
104,92,158522,2,0,B|128:148|128:148|128:204|128:204|156:280,1,180,8|0,0:0|0:0,0:0:0:0:
16,152,158897,2,0,L|36:244,1,90,0|8,0:0|0:0,0:0:0:0:
240,332,159147,6,0,L|340:312,1,90,0|2,0:0|0:0,0:0:0:0:
328,314,159335,1,2,0:0:0:0:
328,314,159397,1,2,0:0:0:0:
328,314,159460,1,2,0:0:0:0:
328,314,159522,1,10,0:0:0:0:
508,192,159647,6,0,L|404:164,1,90,2|2,0:0|0:0,0:0:0:0:
348,32,159897,1,2,0:0:0:0:
212,112,160022,2,0,L|236:216,1,90,10|2,0:0|0:0,0:0:0:0:
108,28,160272,5,4,0:0:0:0:
108,28,160397,2,0,B|88:72|88:72|80:136,1,90,0|8,0:0|0:0,0:0:0:0:
44,312,160647,1,0,0:0:0:0:
180,284,160772,2,0,P|228:304|300:208,1,180,2|8,0:3|0:0,0:0:0:0:
404,24,161147,2,0,P|400:96|404:144,1,90
500,328,161397,6,0,P|500:264|492:224,1,90,0|8,0:0|0:0,0:0:0:0:
376,356,161647,1,0,0:0:0:0:
224,224,161772,1,2,0:3:0:0:
188,96,161897,1,0,0:0:0:0:
264,4,162022,1,8,0:0:0:0:
40,52,162147,1,0,0:0:0:0:
144,264,162272,6,0,P|132:216|156:152,1,90
412,108,162522,2,0,P|360:92|316:100,1,90,8|0,0:0|0:0,0:0:0:0:
232,288,162772,2,0,P|192:340|72:288,1,180,2|8,0:3|0:0,0:0:0:0:
216,96,163147,1,0,0:0:0:0:
352,232,163272,6,0,L|456:248,1,90,4|0,0:0|0:0,0:0:0:0:
305,88,163522,2,0,L|213:96,1,90,10|0,0:3|0:0,0:0:0:0:
388,8,163772,2,0,L|480:36,1,90,4|0,0:0|0:0,0:0:0:0:
232,204,164022,2,0,L|140:192,1,90,10|0,0:3|0:0,0:0:0:0:
8,352,164272,6,0,B|0:288|0:288|12:244|12:244|4:168,1,180,4|8,0:0|0:0,0:0:0:0:
144,288,164647,1,0,0:0:0:0:
236,108,164772,2,0,P|319:123|336:206,1,180,2|8,0:3|0:0,0:0:0:0:
452,36,165147,2,0,P|440:92|460:140,1,90
248,312,165397,6,0,P|248:264|236:216,1,90,0|8,0:0|0:0,0:0:0:0:
92,28,165647,1,2,0:3:0:0:
24,264,165772,1,0,0:0:0:0:
112,156,165897,1,0,0:0:0:0:
238,223,166022,1,8,0:0:0:0:
352,40,166147,1,0,0:0:0:0:
512,292,166272,6,0,P|464:296|396:308,1,90
204,144,166522,2,0,B|252:136|252:136|280:152|280:152|400:144,1,180,8|0,0:0|0:0,0:0:0:0:
240,304,166897,2,0,P|196:296|124:308,1,90,0|8,0:0|0:0,0:0:0:0:
52,184,167147,1,0,0:0:0:0:
116,52,167272,1,0,0:0:0:0:
336,52,167397,6,0,P|380:48|436:32,1,90,2|8,0:0|0:0,0:0:0:0:
328,192,167647,2,0,P|284:180|239:176,1,90,2|0,0:0|0:0,0:0:0:0:
156,112,167897,1,2,0:0:0:0:
80,232,168022,1,8,0:0:0:0:
20,28,168147,1,2,0:0:0:0:
8,280,168272,6,0,P|72:320|156:264,1,180,4|10,0:0|0:2,0:0:0:0:
304,152,168647,2,0,P|348:144|412:168,1,90,0|2,0:0|0:2,0:0:0:0:
472,316,168897,2,0,P|424:316|372:292,1,90,0|10,0:0|0:2,0:0:0:0:
212,104,169147,2,0,P|200:152|216:200,1,90,0|2,0:0|0:2,0:0:0:0:
472,48,169397,6,0,B|428:40|428:40|368:44,1,90,0|10,0:0|0:2,0:0:0:0:
208,288,169647,2,0,B|252:292|252:292|305:283,1,90,0|2,0:0|0:2,0:0:0:0:
64,216,169897,1,0,0:0:0:0:
24,64,170022,2,0,B|52:32|104:28|104:28|132:80|212:88,1,180,10|2,0:2|0:2,0:0:0:0:
456,136,170397,6,0,P|416:120|348:124,1,90,0|10,0:0|0:2,0:0:0:0:
248,212,170647,1,0,0:0:0:0:
84,144,170772,2,0,L|96:256,1,90,2|0,0:2|0:0,0:0:0:0:
280,16,171022,2,0,L|272:112,1,90,10|0,0:2|0:0,0:0:0:0:
60,292,171272,6,0,L|64:164,1,90,2|0,0:2|0:0,0:0:0:0:
312,68,171522,2,0,L|324:164,1,90,10|0,0:2|0:0,0:0:0:0:
476,320,171772,2,0,L|488:224,1,90,2|0,0:2|0:0,0:0:0:0:
352,0,172022,2,0,P|268:4|236:96,1,180,10|2,0:2|0:0,0:0:0:0:
160,308,172397,5,0,0:0:0:0:
384,240,172522,2,0,P|339:236|295:245,1,90,10|0,0:2|0:0,0:0:0:0:
64,172,172772,2,0,P|108:176|168:160,1,90,2|0,0:2|0:0,0:0:0:0:
312,68,173022,1,10,0:2:0:0:
196,16,173147,1,0,0:0:0:0:
432,24,173272,6,0,P|424:84|440:148,1,90,2|0,0:2|0:0,0:0:0:0:
372,336,173522,2,0,P|376:288|364:236,1,90,10|0,0:2|0:0,0:0:0:0:
120,132,173772,2,0,P|172:160|320:116,1,180,2|10,0:2|0:2,0:0:0:0:
152,256,174147,1,0,0:0:0:0:
168,56,174272,6,0,P|124:44|60:56,1,90,2|0,0:2|0:0,0:0:0:0:
52,328,174522,1,10,0:2:0:0:
120,132,174647,1,0,0:0:0:0:
264,244,174772,1,2,0:2:0:0:
432,40,174897,1,0,0:0:0:0:
388,288,175022,6,0,B|396:244|396:244|388:196,1,90,10|0,0:2|0:0,0:0:0:0:
256,24,175272,2,0,B|263:68|263:68|255:112,1,90,2|0,0:2|0:0,0:0:0:0:
284,336,175522,1,10,0:2:0:0:
104,232,175647,2,0,B|110:190|110:190|106:142,1,90,0|2,0:0|0:2,0:0:0:0:
0,280,175897,1,0,0:0:0:0:
48,52,176022,2,0,P|96:32|164:48,1,90,10|0,0:2|0:0,0:0:0:0:
180,296,176272,6,0,B|188:236|188:236|184:180|184:180|200:108,1,180,4|10,0:0|0:2,0:0:0:0:
336,208,176647,1,0,0:0:0:0:
452,96,176772,2,0,L|344:88,1,90,2|0,0:2|0:0,0:0:0:0:
472,332,177022,2,0,L|368:312,1,90,10|0,0:2|0:0,0:0:0:0:
260,40,177272,6,0,P|184:20|116:108,1,180,2|10,0:2|0:2,0:0:0:0:
40,272,177647,1,0,0:0:0:0:
204,112,177772,2,0,P|212:152|212:208,1,90,2|0,0:2|0:0,0:0:0:0:
328,348,178022,2,0,P|324:303|332:258,1,90,10|0,0:2|0:0,0:0:0:0:
484,112,178272,6,0,B|392:72|392:140|292:96,1,180,2|10,0:2|0:2,0:0:0:0:
428,180,178647,2,0,P|440:220|424:304,1,90,0|2,0:0|0:2,0:0:0:0:
236,148,178897,2,0,P|220:104|252:44,1,90,0|10,0:0|0:2,0:0:0:0:
88,200,179147,2,0,P|76:240|108:320,1,90,0|6,0:0|0:2,0:0:0:0:
56,40,179397,1,0,0:0:0:0:
312,104,179522,1,10,0:2:0:0:
204,264,179647,6,0,P|248:252|300:264,1,90,2|6,0:3|0:2,0:0:0:0:
408,212,179897,1,0,0:0:0:0:
464,24,180022,2,0,P|456:80|468:136,1,90,10|0,0:2|0:0,0:0:0:0:
512,328,180272,6,0,B|528:308|520:272|480:260|480:260|448:312|368:300,1,180,4|10,0:2|0:2,0:0:0:0:
300,108,180772,2,0,P|388:128|388:228,1,180,2|10,0:2|0:2,0:0:0:0:
220,56,181147,2,0,P|208:104|224:152,1,90,0|2,0:0|0:2,0:0:0:0:
156,284,181397,5,0,0:0:0:0:
320,188,181522,2,0,L|292:296,1,90,10|0,0:2|0:0,0:0:0:0:
36,332,181772,2,0,L|44:220,1,90,2|0,0:2|0:0,0:0:0:0:
136,56,182022,1,10,0:2:0:0:
0,128,182147,1,0,0:0:0:0:
239,179,182272,6,0,B|295:187|327:123|327:123|295:187|347:215,1,180,2|10,0:2|0:2,0:0:0:0:
440,48,182772,1,2,0:2:0:0:
468,272,183022,1,10,0:2:0:0:
256,192,183272,12,0,184272,0:0:0:0:
352,84,184522,6,0,L|464:96,1,90
272,248,185147,2,0,L|176:256,1,90
124,312,185647,2,0,P|96:248|128:172,1,135
188,152,186272,6,0,P|188:104|164:60,2,90
264,56,187147,1,0,0:0:0:0:
336,108,187397,1,0,0:0:0:0:
420,72,187647,2,0,B|452:40|452:40|432:156,1,135
480,196,188272,6,0,P|432:208|368:172,1,90
320,232,188772,2,0,P|272:224|196:264,1,135
136,312,189397,1,0,0:0:0:0:
72,260,189647,2,0,B|80:216|80:216|68:116,1,135
60,44,190272,6,0,B|104:48|104:48|156:36,1,90
216,80,190772,1,0,0:0:0:0:
324,28,191147,2,0,B|332:72|332:72|324:144,1,90
280,184,191647,2,0,P|308:232|308:296,1,90
372,328,192022,1,0,0:0:0:0:
436,164,192147,1,0,0:0:0:0:
