osu file format v14

[General]
AudioFilename: audio.mp3
AudioLeadIn: 0
PreviewTime: 89585
Countdown: 0
SampleSet: Soft
StackLeniency: 0.2
Mode: 0
LetterboxInBreaks: 0
WidescreenStoryboard: 0

[Editor]
Bookmarks: 28961,39761,60161,67398,89585,110682,131082,149082,170157
DistanceSpacing: 0.3
BeatDivisor: 4
GridSize: 8
TimelineZoom: 3.399999

[Metadata]
Title:LIBIDO
TitleUnicode:LIBIDO
Artist:onumi
ArtistUnicode:ă‚Șヌミ
Creator:Lunicia
Version:Desire
Source:
Tags:instrumental electronic featured artist fa jasontime12345
BeatmapID:2875310
BeatmapSetID:1392711

[Difficulty]
HPDrainRate:5
CircleSize:4
OverallDifficulty:8.5
ApproachRate:9.4
SliderMultiplier:1.8
SliderTickRate:1

[Events]
//Background and Video events
0,0,"EuRYofkVIAc3our.jpg",0,0
//Break Periods
2,60361,62021
2,65161,66858
//Storyboard Layer 0 (Background)
//Storyboard Layer 1 (Fail)
//Storyboard Layer 2 (Pass)
//Storyboard Layer 3 (Foreground)
//Storyboard Layer 4 (Overlay)
//Storyboard Sound Samples

[TimingPoints]
161,300,4,2,1,40,1,0
28961,-133.333333333333,4,2,1,40,0,0
30386,-133.333333333333,4,2,1,5,0,0
30461,-133.333333333333,4,2,1,40,0,0
32786,-133.333333333333,4,2,1,5,0,0
32861,-133.333333333333,4,2,1,40,0,0
33761,-66.6666666666667,4,2,1,40,0,0
33986,-66.6666666666667,4,2,1,5,0,0
34061,-100,4,2,1,40,0,0
35261,-66.6666666666667,4,2,1,40,0,0
35486,-66.6666666666667,4,2,1,5,0,0
35561,-100,4,2,1,40,0,0
35786,-100,4,2,1,5,0,0
35861,-100,4,2,1,40,0,0
36161,-1000,4,2,1,40,0,0
36686,-1000,4,2,1,5,0,0
36761,-66.6666666666667,4,2,1,40,0,0
36986,-1000,4,2,1,5,0,0
37061,-200,4,2,1,40,0,0
37286,-1000,4,2,1,5,0,0
37361,-1000,4,2,1,40,0,0
37961,-25,4,2,1,40,0,0
39461,-333.333333333333,4,2,1,60,0,0
39686,-333.333333333333,4,2,1,5,0,0
39761,-33.3333333333333,4,2,1,80,0,0
40286,-33.3333333333333,4,2,1,5,0,0
40361,-40,4,2,1,80,0,0
40661,-50,4,2,1,80,0,0
41186,-33.3333333333333,4,2,1,5,0,0
41261,-50,4,2,1,80,0,0
41486,-40,4,2,1,5,0,0
41561,-40,4,2,1,80,0,0
41786,-40,4,2,1,5,0,0
41861,-100,4,2,1,80,0,0
42161,-33.3333333333333,4,2,1,80,0,0
42686,-33.3333333333333,4,2,1,5,0,0
42761,-40,4,2,1,80,0,0
43061,-50,4,2,1,80,0,0
44486,-50,4,2,1,5,0,0
44561,-33.3333333333333,4,2,1,80,0,0
45086,-33.3333333333333,4,2,1,5,0,0
45161,-40,4,2,1,80,0,0
45461,-50,4,2,1,80,0,0
45986,-50,4,2,1,5,0,0
46061,-50,4,2,1,80,0,0
46286,-50,4,2,1,5,0,0
46361,-40,4,2,1,80,0,0
46586,-40,4,2,1,5,0,0
46661,-66.6666666666667,4,2,1,80,0,0
46961,-133.333333333333,4,2,1,80,0,0
48161,-200,4,2,1,80,0,0
48386,-200,4,2,1,5,0,0
48461,-50,4,2,1,80,0,0
48686,-33.3333333333333,4,2,1,5,0,0
48761,-40,4,2,1,80,0,0
48986,-33.3333333333333,4,2,1,5,0,0
49061,-50,4,2,1,80,0,0
49586,-50,4,2,1,5,0,0
49661,-50,4,2,1,80,0,0
49961,-40,4,2,1,80,0,0
50186,-33.3333333333333,4,2,1,5,0,0
50261,-200,4,2,1,80,0,0
50486,-33.3333333333333,4,2,1,5,0,0
50561,-50,4,2,1,80,0,0
50786,-50,4,2,1,5,0,0
50861,-50,4,2,1,80,0,0
51086,-50,4,2,1,5,0,0
51161,-40,4,2,1,80,0,0
51386,-50,4,2,1,5,0,0
51461,-100,4,2,1,80,0,0
51761,-200,4,2,1,80,0,0
51986,-50,4,2,1,5,0,0
52061,-100,4,2,1,80,0,0
52361,-50,4,2,1,80,0,0
52586,-50,4,2,1,5,0,0
52661,-200,4,2,1,80,0,0
52886,-50,4,2,1,5,0,0
52961,-50,4,2,1,80,0,0
53786,-50,4,2,1,5,0,0
53861,-40,4,2,1,80,0,0
54086,-50,4,2,1,5,0,0
54161,-33.3333333333333,4,2,1,80,0,0
54686,-50,4,2,1,5,0,0
54761,-40,4,2,1,80,0,0
55061,-50,4,2,1,80,0,0
55586,-50,4,2,1,5,0,0
55661,-50,4,2,1,80,0,0
55886,-50,4,2,1,5,0,0
55961,-40,4,2,1,80,0,0
56186,-50,4,2,1,5,0,0
56261,-50,4,2,1,80,0,0
56561,-133.333333333333,4,2,1,80,0,0
67398,458.015267175573,4,2,1,80,1,0
67398,-33.3333333333333,4,2,1,80,0,0
69115,-33.3333333333333,4,2,1,5,0,0
69230,-33.3333333333333,4,2,1,80,0,0
70260,-33.3333333333333,4,2,1,5,0,0
70375,451.127819548873,4,2,1,80,1,0
70375,-33.3333333333333,4,2,1,80,0,0
70713,-33.3333333333333,4,2,1,5,0,0
70826,-33.3333333333333,4,2,1,80,0,0
71164,-33.3333333333333,4,2,1,5,0,0
71277,-33.3333333333333,4,2,1,80,0,0
71615,-33.3333333333333,4,2,1,5,0,0
71728,-33.3333333333333,4,2,1,80,0,0
72066,-33.3333333333333,4,2,1,5,0,0
72179,434.782608695653,4,2,1,80,1,0
73048,-40,4,2,1,80,0,0
73918,419.58041958042,4,2,1,80,1,0
74757,-50,4,2,1,80,0,0
75071,-50,4,2,1,5,0,0
75176,-50,4,2,1,80,0,0
75491,-50,4,2,1,5,0,0
75596,404.040404040405,4,2,1,80,1,0
75596,-33.3333333333333,4,2,1,80,0,0
76303,-33.3333333333333,4,2,1,5,0,0
76404,-33.3333333333333,4,2,1,80,0,0
76707,-33.3333333333333,4,2,1,5,0,0
76808,-33.3333333333333,4,2,1,80,0,0
77212,389.610389610391,4,2,1,80,1,0
78770,375.000000000001,4,2,1,80,1,0
78770,-200,4,2,1,80,0,0
79051,-200,4,2,1,5,0,0
79145,-40,4,2,1,80,0,0
79426,-40,4,2,1,5,0,0
79520,-40,4,2,1,80,0,0
80270,363.636363636364,4,2,1,80,1,0
80906,-100,4,2,1,5,0,0
80997,-100,4,2,1,80,0,0
81542,-40,4,2,1,80,0,0
81724,352.941176470589,4,2,1,80,1,0
81724,-33.3333333333333,4,2,1,80,0,0
82341,-33.3333333333333,4,2,1,5,0,0
82429,-33.3333333333333,4,2,1,80,0,0
83047,-33.3333333333333,4,2,1,5,0,0
83135,342.857142857144,4,2,1,80,1,0
83135,-33.3333333333333,4,2,1,80,0,0
83392,-33.3333333333333,4,2,1,5,0,0
83477,-33.3333333333333,4,2,1,80,0,0
83735,-33.3333333333333,4,2,1,5,0,0
83820,-33.3333333333333,4,2,1,80,0,0
84077,-33.3333333333333,4,2,1,5,0,0
84162,-33.3333333333333,4,2,1,80,0,0
84420,-33.3333333333333,4,2,1,5,0,0
84506,331.491712707183,4,2,1,80,1,0
84506,-33.3333333333333,4,2,1,80,0,0
85666,-100,4,2,1,80,0,0
85831,320.855614973263,4,2,1,80,1,0
85991,-33.3333333333333,4,2,1,80,0,0
86151,-40,4,2,1,80,0,0
86472,-200,4,2,1,80,0,0
86713,-200,4,2,1,5,0,0
86793,-200,4,2,1,80,0,0
87034,-200,4,2,1,5,0,0
87114,314.136125654451,4,2,1,80,1,0
87114,-33.3333333333333,4,2,1,80,0,0
87349,-33.3333333333333,4,2,1,5,0,0
87428,-33.3333333333333,4,2,1,80,0,0
87663,-33.3333333333333,4,2,1,5,0,0
87742,-33.3333333333333,4,2,1,80,0,0
87977,-33.3333333333333,4,2,1,5,0,0
88056,-50,4,2,1,80,0,0
88370,303.797468354431,4,2,1,80,1,0
88977,-133.333333333333,4,2,1,80,0,0
89585,300.000000000001,4,2,1,80,1,0
89585,-100,4,2,1,80,0,1
99185,-100,4,2,1,80,0,0
108282,300.000000000001,4,2,1,80,1,0
110532,-100,4,2,1,5,0,0
110682,-25,4,2,1,80,0,0
110907,-25,4,2,1,5,0,0
110982,-200,4,2,1,80,0,0
111207,-25,4,2,1,5,0,0
111282,-25,4,2,1,80,0,0
111507,-25,4,2,1,5,0,0
111582,-200,4,2,1,80,0,0
111807,-25,4,2,1,5,0,0
111882,-25,4,2,1,80,0,0
112107,-25,4,2,1,5,0,0
112182,-200,4,2,1,80,0,0
112407,-25,4,2,1,5,0,0
112482,-25,4,2,1,80,0,0
112707,-25,4,2,1,5,0,0
112782,-200,4,2,1,80,0,0
113007,-25,4,2,1,5,0,0
113082,-25,4,2,1,80,0,0
113307,-25,4,2,1,5,0,0
113382,-200,4,2,1,80,0,0
113607,-25,4,2,1,5,0,0
113682,-25,4,2,1,80,0,0
113907,-25,4,2,1,5,0,0
113982,-100,4,2,1,80,0,0
114282,-25,4,2,1,80,0,0
114507,-25,4,2,1,5,0,0
114582,-200,4,2,1,80,0,0
114807,-25,4,2,1,5,0,0
114882,-25,4,2,1,80,0,0
115107,-25,4,2,1,5,0,0
115182,-100,4,2,1,80,0,0
115482,-25,4,2,1,80,0,0
115707,-25,4,2,1,5,0,0
115782,-200,4,2,1,80,0,0
116007,-25,4,2,1,5,0,0
116082,-25,4,2,1,80,0,0
116307,-25,4,2,1,5,0,0
116382,-200,4,2,1,80,0,0
116607,-25,4,2,1,5,0,0
116682,-25,4,2,1,80,0,0
116907,-25,4,2,1,5,0,0
116982,-200,4,2,1,80,0,0
117207,-25,4,2,1,5,0,0
117282,-25,4,2,1,80,0,0
117507,-25,4,2,1,5,0,0
117582,-200,4,2,1,80,0,0
117807,-25,4,2,1,5,0,0
117882,-25,4,2,1,80,0,0
118107,-25,4,2,1,5,0,0
118182,-200,4,2,1,80,0,0
118407,-25,4,2,1,5,0,0
118482,-25,4,2,1,80,0,0
118707,-25,4,2,1,5,0,0
118782,-200,4,2,1,80,0,0
119007,-25,4,2,1,5,0,0
119082,-25,4,2,1,80,0,0
119307,-25,4,2,1,5,0,0
119382,-100,4,2,1,80,0,0
119682,-25,4,2,1,80,0,0
119907,-25,4,2,1,5,0,0
119982,-200,4,2,1,80,0,0
120207,-25,4,2,1,5,0,0
120282,-25,4,2,1,80,0,0
120507,-25,4,2,1,5,0,0
120582,-200,4,2,1,80,0,0
120807,-25,4,2,1,5,0,0
120882,-25,4,2,1,80,0,0
121107,-25,4,2,1,5,0,0
121182,-200,4,2,1,80,0,0
121407,-25,4,2,1,5,0,0
121482,-25,4,2,1,80,0,0
121707,-25,4,2,1,5,0,0
121782,-200,4,2,1,80,0,0
122007,-25,4,2,1,5,0,0
122082,-25,4,2,1,80,0,0
122307,-25,4,2,1,5,0,0
122382,-200,4,2,1,80,0,0
122607,-25,4,2,1,5,0,0
122682,-25,4,2,1,80,0,0
122907,-25,4,2,1,5,0,0
122982,-200,4,2,1,80,0,0
123207,-25,4,2,1,5,0,0
123282,-25,4,2,1,80,0,0
123507,-25,4,2,1,5,0,0
123582,-100,4,2,1,80,0,0
123882,-25,4,2,1,80,0,0
124107,-25,4,2,1,5,0,0
124182,-100,4,2,1,80,0,0
124482,-25,4,2,1,80,0,0
124707,-25,4,2,1,5,0,0
124782,-200,4,2,1,80,0,0
125007,-25,4,2,1,5,0,0
125082,-25,4,2,1,80,0,0
125307,-25,4,2,1,5,0,0
125382,-100,4,2,1,80,0,0
125682,-25,4,2,1,80,0,0
125907,-25,4,2,1,5,0,0
125982,-100,4,2,1,80,0,0
126282,-25,4,2,1,80,0,0
126507,-25,4,2,1,5,0,0
126582,-200,4,2,1,80,0,0
126807,-25,4,2,1,5,0,0
126882,-25,4,2,1,80,0,0
127107,-25,4,2,1,5,0,0
127182,-200,4,2,1,80,0,0
127407,-25,4,2,1,5,0,0
127482,-1000,4,2,1,40,0,0
128007,-25,4,2,1,5,0,0
128082,-66.6666666666667,4,2,1,40,0,0
128307,-25,4,2,1,5,0,0
128382,-200,4,2,1,40,0,0
128607,-25,4,2,1,5,0,0
128682,-25,4,2,1,40,0,0
129582,-100,4,2,1,60,0,0
130782,-333.333333333333,4,2,1,60,0,0
131007,-333.333333333333,4,2,1,5,0,0
131082,-33.3333333333333,4,2,1,80,0,0
131607,-33.3333333333333,4,2,1,5,0,0
131682,-40,4,2,1,80,0,0
131982,-50,4,2,1,80,0,0
132507,-33.3333333333333,4,2,1,5,0,0
132582,-50,4,2,1,80,0,0
132807,-40,4,2,1,5,0,0
132882,-40,4,2,1,80,0,0
133107,-40,4,2,1,5,0,0
133182,-100,4,2,1,80,0,0
133482,-33.3333333333333,4,2,1,80,0,0
134007,-33.3333333333333,4,2,1,5,0,0
134082,-40,4,2,1,80,0,0
134382,-50,4,2,1,80,0,0
135807,-50,4,2,1,5,0,0
135882,-33.3333333333333,4,2,1,80,0,0
136407,-33.3333333333333,4,2,1,5,0,0
136482,-40,4,2,1,80,0,0
136782,-50,4,2,1,80,0,0
137307,-50,4,2,1,5,0,0
137382,-50,4,2,1,80,0,0
137607,-50,4,2,1,5,0,0
137682,-40,4,2,1,80,0,0
137907,-40,4,2,1,5,0,0
137982,-66.6666666666667,4,2,1,80,0,0
138282,-133.333333333333,4,2,1,80,0,0
139482,-200,4,2,1,80,0,0
139707,-200,4,2,1,5,0,0
139782,-50,4,2,1,80,0,0
140007,-33.3333333333333,4,2,1,5,0,0
140082,-40,4,2,1,80,0,0
140307,-33.3333333333333,4,2,1,5,0,0
140382,-50,4,2,1,80,0,0
140907,-50,4,2,1,5,0,0
140982,-50,4,2,1,80,0,0
141282,-40,4,2,1,80,0,0
141507,-33.3333333333333,4,2,1,5,0,0
141582,-200,4,2,1,80,0,0
141807,-33.3333333333333,4,2,1,5,0,0
141882,-50,4,2,1,80,0,0
142107,-50,4,2,1,5,0,0
142182,-50,4,2,1,80,0,0
142407,-50,4,2,1,5,0,0
142482,-40,4,2,1,80,0,0
142707,-50,4,2,1,5,0,0
142782,-100,4,2,1,80,0,0
143082,-200,4,2,1,80,0,0
143307,-50,4,2,1,5,0,0
143382,-100,4,2,1,80,0,0
143682,-50,4,2,1,80,0,0
143907,-50,4,2,1,5,0,0
143982,-200,4,2,1,80,0,0
144207,-50,4,2,1,5,0,0
144282,-50,4,2,1,80,0,0
145107,-50,4,2,1,5,0,0
145182,-40,4,2,1,80,0,0
145407,-50,4,2,1,5,0,0
145482,-33.3333333333333,4,2,1,80,0,0
146007,-50,4,2,1,5,0,0
146082,-40,4,2,1,80,0,0
146382,-50,4,2,1,80,0,0
146907,-50,4,2,1,5,0,0
146982,-50,4,2,1,80,0,0
147207,-50,4,2,1,5,0,0
147282,-40,4,2,1,80,0,0
147507,-50,4,2,1,5,0,0
147582,-50,4,2,1,80,0,0
147882,-133.333333333333,4,2,1,80,0,0
149082,-100,4,2,1,80,0,1
158682,-133.333333333333,4,2,1,40,0,0
160107,-133.333333333333,4,2,1,5,0,0
160182,-133.333333333333,4,2,1,40,0,0
162507,-133.333333333333,4,2,1,5,0,0
162582,-133.333333333333,4,2,1,40,0,0
163482,-66.6666666666667,4,2,1,40,0,0
163707,-66.6666666666667,4,2,1,5,0,0
163782,-100,4,2,1,40,0,0
164982,-66.6666666666667,4,2,1,40,0,0
165207,-133.333333333333,4,2,1,5,0,0
165282,-133.333333333333,4,2,1,40,0,0
167832,-333.333333333333,4,2,1,20,0,0
170157,-133.333333333333,4,2,1,40,0,0

[Colours]
Combo1 : 170,58,97
Combo2 : 204,182,191

[HitObjects]
152,304,28961,5,2,0:0:0:0:
94,234,29261,1,0,0:0:0:0:
125,149,29561,1,2,0:0:0:0:
10,26,29861,1,0,0:0:0:0:
10,26,30011,1,0,0:0:0:0:
162,79,30161,6,0,P|112:70|66:95,1,101.250003862381,2|0,0:0|0:0,0:0:0:0:
126,165,30461,2,0,L|124:136,6,16.8750006437302,0|0|0|0|0|0|0,1:0|1:0|1:0|1:0|1:0|1:0|1:0,1:0:0:0:
94,234,30761,1,2,0:0:0:0:
258,194,30911,1,2,0:0:0:0:
418,140,31061,1,2,0:0:0:0:
434,152,31211,1,0,0:0:0:0:
319,254,31361,6,0,B|289:181|336:200|301:112,2,135.000005149842,2|0|2,0:0|0:0|0:0,0:0:0:0:
443,360,32261,1,0,0:0:0:0:
443,360,32411,1,0,0:0:0:0:
264,301,32561,6,0,P|307:292|361:331,1,101.250003862381,2|0,0:0|0:0,0:0:0:0:
299,384,32861,2,0,L|297:357,6,16.8750006437302,0|0|0|0|0|0|0,1:0|1:0|1:0|1:0|1:0|1:0|1:0,1:0:0:0:
264,301,33161,1,2,0:0:0:0:
318,141,33311,1,2,0:0:0:0:
196,24,33461,1,2,0:0:0:0:
185,44,33611,1,0,0:0:0:0:
81,171,33761,6,0,B|31:171|32:132|74:108|138:116|163:146|174:201,1,202.500007724762,2|0,0:0|0:0,0:0:0:0:
230,283,34061,2,0,P|220:217|268:90,2,180,2|2|2,0:0|0:0|0:0,0:0:0:0:
53,369,34961,5,0,0:0:0:0:
0,287,35261,2,0,B|46:247|107:275|89:289|150:317|196:266,1,202.500007724762,2|0,0:0|0:0,0:0:0:0:
367,345,35561,2,0,P|306:360|268:290,1,135,2|0,0:0|0:0,0:0:0:0:
398,355,35861,2,0,L|402:392,6,22.5,0|0|0|0|0|0|0,1:0|1:0|1:0|1:0|1:0|1:0|1:0,1:0:0:0:
473,281,36161,6,0,B|465:284|465:284|457:275|457:275|446:279,1,31.5,2|0,0:0|0:0,0:0:0:0:
373,220,36761,6,0,B|411:260|411:260|401:83,1,202.500007724762,8|0,0:0|0:0,0:0:0:0:
461,32,37061,6,0,P|435:12|401:9,1,67.5,2|0,0:0|0:0,0:0:0:0:
500,119,37361,5,4,0:0:0:0:
170,31,37961,5,0,3:0:0:0:
153,147,38111,1,0,3:0:0:0:
96,85,38261,5,0,3:0:0:0:
142,295,38411,1,0,3:0:0:0:
375,262,38561,5,0,3:0:0:0:
359,245,38711,1,0,3:0:0:0:
337,239,38861,1,0,3:0:0:0:
315,243,39011,1,0,3:0:0:0:
512,0,39161,5,8,0:0:0:0:
456,188,39311,1,2,0:0:0:0:
456,188,39386,1,2,0:0:0:0:
456,188,39461,2,0,L|451:137,1,40.4999987640381,2|0,0:0|0:0,0:0:0:0:
364,44,39761,6,0,B|369:69|369:69|355:44|355:44|359:69|359:69|344:45|344:45|350:69|350:69|335:47|335:47|339:71|339:71|326:50|326:50|330:74|330:74|317:54|317:54|321:79|321:79|309:60|309:60|314:85|314:85|303:68|303:68|308:92|308:92|298:77|298:77|303:100|303:100|294:85|294:85|300:110|300:110|291:95|291:95|296:119|296:119|288:103|288:103|292:128|292:128|284:113|284:113|288:137|288:137|278:121|278:121|283:145|283:145|271:127|271:127|276:152|276:152|263:133|263:133|268:157|268:157|254:137|254:137|259:161|259:161|245:139|245:139|250:163|250:163|235:140|235:140|239:165|239:165|225:141|225:141|230:165|230:165|216:141|216:141|220:165,1,945.000036048891,6|0,3:2|0:0,0:0:0:0:
96,250,40361,2,0,B|72:236|80:182|136:182|181:239|160:312|98:412,1,225,10|0,0:0|0:0,0:0:0:0:
42,21,40661,6,0,P|82:-4|139:10,1,90,0|0,3:0|0:0,0:0:0:0:
62,108,40811,2,0,P|106:112|143:87,1,90,0|0,3:0|0:0,0:0:0:0:
392,250,40961,6,0,P|409:160|323:235,1,270,2|0,3:2|0:0,0:0:0:0:
490,322,41261,2,0,P|391:296|246:379,1,270,2|0,0:0|0:0,0:0:0:0:
13,259,41561,2,0,B|45:300|45:300|181:310|332:214,1,337.5,10|0,0:0|0:0,0:0:0:0:
407,55,41861,6,0,L|404:30,6,22.5,0|0|0|0|0|0|0,1:0|1:0|1:0|1:0|1:0|1:0|1:0,1:0:0:0:
319,36,42161,6,0,B|296:45|296:45|319:45|319:45|297:54|297:54|321:55|321:55|297:63|297:63|321:64|321:64|299:73|299:73|322:74|322:74|299:82|299:82|322:83|322:83|300:92|300:92|324:93|324:93|300:101|300:101|324:102|324:102|301:110|301:110|325:112|325:112|302:120|302:120|326:121|326:121|303:129|303:129|327:131|327:131|304:138|304:138|327:140|327:140|305:148|305:148|328:149|328:149|305:157|305:157|329:159|329:159|306:167|306:167|330:168|330:168|306:176|306:176|330:177|330:177|308:186|308:186|332:187|332:187|308:195|308:195|332:196|332:196|310:205|310:205|334:205|334:205|310:214|310:214|334:214|334:214|311:224|311:224|335:224|335:224|311:233,1,945.000036048891,6|0,3:2|0:0,0:0:0:0:
393,361,42761,2,0,B|430:311|430:311|266:369,1,225,10|0,0:0|0:0,0:0:0:0:
86,64,43061,6,0,L|98:153,1,90,0|0,3:0|0:0,0:0:0:0:
193,163,43211,2,0,L|181:74,1,90,0|0,3:0|0:0,0:0:0:0:
108,339,43361,6,0,B|170:318|170:318|209:179|209:179|265:159,1,270,2|0,3:2|0:0,0:0:0:0:
431,50,43661,5,2,0:0:0:0:
387,40,43736,1,2,0:0:0:0:
428,73,43811,1,2,0:0:0:0:
384,63,43886,1,2,0:0:0:0:
385,171,43961,6,0,B|586:120|454:-25|357:-70|162:-53|111:109|266:159,1,630,10|0,0:0|0:0,0:0:0:0:
467,277,44561,6,0,B|471:300|471:300|459:270|459:270|463:294|463:294|451:265|451:265|455:288|455:288|443:260|443:260|446:284|446:284|434:256|434:256|438:280|438:280|424:254|424:254|428:277|428:277|415:252|415:252|418:276|418:276|406:252|406:252|409:275|409:275|396:253|396:253|400:276|400:276|386:254|386:254|390:277|390:277|377:257|377:257|380:280|380:280|368:261|368:261|372:284|372:284|360:265|360:265|363:289|363:289|352:271|352:271|355:294|355:294|345:277|345:277|348:301|348:301|338:284|338:284|342:308|342:308|332:292|332:292|336:316|336:316|327:301|327:301|332:325|332:325|324:309|324:309|327:333|327:333|321:319|321:319|325:342|325:342|320:329|320:329|323:352,1,945.000036048891,6|0,3:2|0:0,0:0:0:0:
114,347,45161,2,0,B|158:324|175:255|175:255|165:327|208:375,1,225,10|0,0:0|0:0,0:0:0:0:
401,129,45461,6,0,B|358:149|358:149|301:137,1,90,2|0,3:2|0:0,0:0:0:0:
387,42,45611,2,0,B|345:33|345:33|302:53,1,90,2|0,3:2|0:0,0:0:0:0:
98,48,45761,6,0,B|135:11|135:11|120:184|120:184|94:147,1,270,2|0,3:2|0:0,0:0:0:0:
8,247,46061,2,0,P|109:235|197:363,1,270,2|0,0:0|0:0,0:0:0:0:
360,346,46361,2,0,B|311:332|311:332|243:213|309:34,1,337.5,10|0,0:0|0:0,0:0:0:0:
445,253,46661,6,0,P|409:259|378:243,1,67.5000025749208,0|0,3:0|0:0,0:0:0:0:
394,152,46811,2,0,P|430:146|461:162,1,67.5000025749208,0|0,3:0|0:0,0:0:0:0:
197,360,46961,5,0,3:0:0:0:
204,379,47261,1,0,3:0:0:0:
219,279,47411,1,0,3:0:0:0:
48,317,47561,2,0,L|53:391,2,67.5000025749208,8|0|0,0:0|3:0|3:0,0:0:0:0:
134,81,48161,6,0,P|99:82|70:61,1,67.5,2|0,3:2|0:0,0:0:0:0:
219,22,48461,6,0,P|178:89|177:285,1,270,2|0,0:0|0:0,0:0:0:0:
7,358,48761,2,0,B|32:321|32:321|174:285|318:354,1,337.5,10|0,0:0|0:0,0:0:0:0:
476,344,49061,6,0,L|469:238,1,90,0|0,3:0|0:0,0:0:0:0:
397,375,49211,2,0,L|390:269,1,90,0|0,3:0|0:0,0:0:0:0:
288,136,49361,6,0,B|331:83|331:83|383:127|383:127|340:179|340:179|288:136,1,270,2|0,3:2|0:0,0:0:0:0:
52,95,49661,6,0,P|100:71|148:95,1,90,0|0,3:0|0:0,0:0:0:0:
65,183,49811,2,0,P|108:191|145:168,1,90,0|0,3:0|0:0,0:0:0:0:
219,22,49961,2,0,B|182:47|182:47|146:189|215:333,1,337.5,10|0,0:0|0:0,0:0:0:0:
36,278,50261,6,0,P|70:289|95:314,1,67.5,2|0,0:0|0:0,0:0:0:0:
303,372,50561,6,0,B|243:385|213:328|213:328|261:251|368:313,1,270,2|0,3:2|0:0,0:0:0:0:
489,330,50861,2,0,B|513:344|505:398|449:398|404:341|419:246|489:173,1,270,2|0,0:0|0:0,0:0:0:0:
393,55,51161,2,0,B|416:3|491:14|491:92|411:154|280:127|220:59,1,337.5,10|0,0:0|0:0,0:0:0:0:
80,99,51461,6,0,L|78:77,6,22.5,0|0|0|0|0|0|0,1:0|1:0|1:0|1:0|1:0|1:0|1:0,1:0:0:0:
182,171,51761,6,0,P|167:185|176:171,1,67.5,2|0,3:2|0:0,0:0:0:0:
99,293,52061,6,0,L|97:271,6,22.5,0|0|0|0|0|0|0,1:0|1:0|1:0|1:0|1:0|1:0|1:0,1:0:0:0:
4,318,52361,6,0,B|144:255|111:419|268:357,1,270,10|0,0:0|0:0,0:0:0:0:
396,298,52661,2,0,P|362:303|343:336,1,67.5,2|0,0:0|0:0,0:0:0:0:
251,363,52961,6,0,B|240:233|240:233|234:223|234:223|223:86,1,270,2|0,3:2|0:0,0:0:0:0:
431,50,53261,5,2,0:0:0:0:
387,40,53336,1,2,0:0:0:0:
428,73,53411,1,2,0:0:0:0:
384,63,53486,1,2,0:0:0:0:
379,177,53561,6,0,B|348:192|289:158|307:79|383:65|460:95|471:182,1,270,10|0,0:0|0:0,0:0:0:0:
455,371,53861,2,0,B|420:335|420:335|395:236|433:39,1,337.5,2|0,0:0|0:0,0:0:0:0:
284,15,54161,6,0,B|290:46|290:46|269:17|269:17|275:47|275:47|253:18|253:18|260:49|260:49|239:20|239:20|244:50|244:50|223:21|223:21|230:53|230:53|212:28|212:28|217:58|217:58|205:41|205:41|212:72|212:72|199:55|199:55|205:86|205:86|193:68|193:68|199:100|199:100|186:83|186:83|193:113|193:113|180:96|180:96|186:128|186:128|173:110|173:110|180:141|180:141|162:117|162:117|168:147|168:147|146:118|146:118|153:149|153:149|132:120|132:120|138:152|138:152|116:122|116:122|123:153,1,945.000036048891,6|0,3:2|0:0,0:0:0:0:
0,305,54761,2,0,B|44:282|61:213|61:213|51:285|94:333,1,225,10|0,0:0|0:0,0:0:0:0:
370,230,55061,6,0,B|328:239|328:239|285:219,1,90,0|0,3:0|0:0,0:0:0:0:
273,333,55211,2,0,B|315:325|315:325|358:345,1,90,0|0,3:0|0:0,0:0:0:0:
496,114,55361,6,0,B|469:70|469:70|422:150|422:150|464:223|464:223|496:181,1,270,2|0,3:2|0:0,0:0:0:0:
511,310,55661,2,0,B|464:269|464:269|362:256|273:332,1,270,2|0,0:0|0:0,0:0:0:0:
28,183,55961,2,0,B|67:226|67:226|209:244|333:138,1,337.5,10|0,0:0|0:0,0:0:0:0:
198,21,56261,6,0,P|153:28|116:52,1,90,0|0,3:0|0:0,0:0:0:0:
147,144,56411,2,0,P|191:137|229:113,1,90,0|0,3:0|0:0,0:0:0:0:
28,183,56561,5,0,3:0:0:0:
20,202,56861,1,0,3:0:0:0:
1,103,57011,1,0,3:0:0:0:
117,269,57161,2,0,L|109:344,2,67.5000025749208,8|0|0,0:0|3:0|3:0,0:0:0:0:
256,192,57761,12,8,60161,0:0:0:0:
256,192,62561,12,8,64961,0:0:0:0:
86,122,67398,6,0,B|95:157|95:157|98:119|98:119|107:153|107:153|111:116|111:116|120:150|120:150|123:113|123:113|132:147|132:147|136:111|136:111|145:145|145:145|149:110|149:110|158:144|158:144|162:110|162:110|171:144|171:144|175:112|175:112|184:146|184:146|188:115|188:115|196:149|196:149|199:119|199:119|208:154|208:154|211:126|211:126|220:161|220:161|220:134|220:134|229:169|229:169|229:144|229:144|238:178|238:178|238:154|238:154|246:189|246:189|245:165|245:165|254:199|254:199|252:175|252:175|261:210|261:210|260:186|260:186|269:220|269:220|269:195|269:195|277:230|277:230|278:204|278:204|287:239|287:239|289:212|289:212|297:246|297:246|300:218|300:218|309:252|309:252|313:222|313:222|321:257|321:257|325:225|325:225|334:260|334:260|338:226|338:226|346:261|346:261|351:227|351:227|360:262|360:262|364:226|364:226|372:261|372:261|377:225|377:225|386:260|386:260|390:223|390:223|398:258|398:258|402:221|402:221|411:256|411:256|416:218|416:218|424:253|424:253|428:216|428:216|437:250,1,2025.00007724762,6|0,3:2|0:0,0:0:0:0:
284,68,69230,6,0,B|253:75|253:75|283:80|283:80|251:87|251:87|281:92|281:92|251:99|251:99|280:104|280:104|249:111|249:111|279:117|279:117|248:123|248:123|278:129|278:129|247:136|247:136|277:141|277:141|245:148|245:148|275:153|275:153|244:160|244:160|274:165|274:165|243:172|243:172|273:178|273:178|241:184|241:184|271:189|271:189|241:197|241:197|270:202|270:202|240:208|240:208|270:214|270:214|238:221|238:221|268:226|268:226|237:233|237:233|267:238|267:238|235:245|235:245|266:250|266:250|234:257|234:257|264:263|264:263|233:269|233:269|263:274|263:274|232:282|232:282|261:287|261:287|231:293|231:293|260:299|260:299|230:306|230:306|260:311|260:311|228:318,1,1215.00004634857,10|0,0:0|0:0,0:0:0:0:
39,275,70375,6,0,B|49:291|49:291|41:260|41:260|51:275|51:275|46:245|46:245|55:260|55:260|54:231|54:231|63:247|63:247|65:219|65:219|74:235|74:235|77:211|77:211|88:226|88:226|91:205|91:205|102:220|102:220|108:202|108:202|117:218|117:218|123:203|123:203|133:219|133:219|138:206|138:206|149:223|149:223|152:214|152:214|162:230,1,405.000015449525,2|0,3:2|0:0,0:0:0:0:
232,306,70826,2,0,B|242:290|242:290|234:321|234:321|244:306|244:306|239:336|239:336|248:321|248:321|247:350|247:350|256:334|256:334|258:362|258:362|267:346|267:346|270:370|270:370|281:355|281:355|284:376|284:376|295:361|295:361|301:379|301:379|310:363|310:363|316:378|316:378|326:362|326:362|331:375|331:375|342:358|342:358|345:367|345:367|355:351,1,405.000015449525,2|0,0:0|0:0,0:0:0:0:
452,303,71277,6,0,B|438:300|438:300|451:297|451:297|437:294|437:294|451:291|451:291|437:288|437:288|450:285|450:285|436:282|436:282|450:279|450:279|436:277|436:277|449:273|449:273|435:271|435:271|449:267|449:267|435:265|435:265|448:261|448:261|434:259|434:259|448:255|448:255|434:253|434:253|448:250|448:250|434:247|434:247|447:243|447:243|433:241|433:241|447:238|447:238|433:235|433:235|446:232|446:232|432:229|432:229|445:226|445:226|432:224|432:224|445:220|445:220|431:218|431:218|444:214|444:214|431:212,1,405.000015449525,10|0,0:0|0:0,0:0:0:0:
309,170,71728,2,0,B|322:172|322:172|309:175|309:175|323:178|323:178|309:181|309:181|323:184|323:184|310:187|310:187|324:190|324:190|310:193|310:193|324:195|324:195|311:199|311:199|325:201|325:201|311:205|311:205|325:207|325:207|312:211|312:211|326:213|326:213|312:217|312:217|326:219|326:219|312:222|312:222|326:225|326:225|313:229|313:229|327:231|327:231|313:234|313:234|327:237|327:237|314:240|314:240|328:243|328:243|315:246|315:246|328:248|328:248|315:252|315:252|329:254|329:254|316:258|316:258|329:260,1,405.000015449525,2|0,0:0|0:0,0:0:0:0:
402,106,72179,5,0,3:0:0:0:
96,47,72613,5,2,0:0:0:0:
162,108,72722,1,2,0:0:0:0:
117,185,72831,1,2,0:0:0:0:
178,251,72940,1,2,0:0:0:0:
137,350,73048,6,0,B|123:374|69:366|69:310|126:265|210:274|273:357|273:357|376:344|368:225,1,450,10|0,0:0|0:0,0:0:0:0:
254,36,73700,5,2,0:0:0:0:
256,48,73755,5,2,0:0:0:0:
258,60,73809,5,2,0:0:0:0:
260,72,73863,5,2,0:0:0:0:
262,84,73918,5,0,3:0:0:0:
339,38,74337,1,0,0:0:0:0:
114,203,74757,6,0,B|147:163|147:163|256:150|361:219,1,270,10|0,0:0|0:0,0:0:0:0:
507,281,75176,2,0,B|474:241|474:241|365:228|260:297,1,270,2|0,0:0|0:0,0:0:0:0:
138,358,75596,6,0,B|118:356|118:356|133:351|133:351|112:350|112:350|128:345|128:345|107:343|107:343|124:338|124:338|103:336|103:336|119:332|119:332|98:330|98:330|114:326|114:326|93:323|93:323|115:318|115:318|94:317|94:317|118:311|118:311|97:309|97:309|121:304|121:304|101:302|101:302|125:296|125:296|104:294|104:294|128:289|128:289|107:287|107:287|131:282|131:282|111:279|111:279|135:274|135:274|114:272|114:272|138:267|138:267|118:265|118:265|142:259|142:259|121:258|121:258|145:252|145:252|124:250|124:250|148:245|148:245|128:243|128:243|152:237|152:237|131:235|131:235|152:231|152:231|132:228|132:228|148:224|148:224|127:222|127:222|142:218|142:218|122:216|122:216|137:211|137:211|116:209|116:209|133:205|133:205|112:203|112:203|127:199|127:199|107:196,1,945.000036048891,6|0,3:2|0:0,0:0:0:0:
14,97,76404,6,0,B|20:110|20:110|15:91|15:91|20:103|20:103|17:85|17:85|22:97|22:97|19:80|19:80|25:92|25:92|22:75|22:75|28:87|28:87|27:71|27:71|32:83|32:83|32:67|32:67|37:80|37:80|37:64|37:64|43:77|43:77|43:63|43:63|48:75|48:75|49:62|49:62|55:74|55:74|55:63|55:63|60:75|60:75|61:64|61:64|67:76|67:76|67:66|67:66|72:78|72:78|72:69|72:69|77:81|77:81|76:73|76:73|82:85|82:85|80:77|80:77|86:90,1,405.000015449525,10|0,0:0|0:0,0:0:0:0:
218,177,76808,5,0,0:0:0:0:
158,99,76942,5,2,0:0:0:0:
256,81,77077,5,2,0:0:0:0:
211,120,77212,5,0,3:0:0:0:
191,138,77601,1,0,3:0:0:0:
205,22,77796,1,0,3:0:0:0:
361,69,77991,2,0,L|368:158,2,90,8|0|0,0:0|3:0|3:0,0:0:0:0:
432,336,78770,6,0,P|400:318|362:325,1,67.5,2|0,0:0|0:0,0:0:0:0:
246,362,79145,6,0,B|303:375|337:313|337:313|304:246|190:245|125:330,1,337.5,2|0,0:0|0:0,0:0:0:0:
370,320,79520,1,10,0:0:0:0:
414,244,79895,1,0,0:0:0:0:
351,176,80270,6,0,B|387:136|442:151|442:151|397:103|320:128|341:142|284:172|217:117,1,315,2|0,0:0|0:0,0:0:0:0:
290,57,80997,1,10,0:0:0:0:
83,174,81360,5,2,0:0:0:0:
82,164,81406,5,2,0:0:0:0:
81,155,81451,5,2,0:0:0:0:
80,145,81497,5,2,0:0:0:0:
80,136,81542,6,0,B|51:86|51:86|45:144,1,112.5,2|0,0:0|0:0,0:0:0:0:
225,266,81724,6,0,B|229:289|229:289|217:259|217:259|221:283|221:283|209:254|209:254|213:277|213:277|201:249|201:249|204:273|204:273|192:245|192:245|196:269|196:269|182:243|182:243|186:266|186:266|173:241|173:241|176:265|176:265|164:241|164:241|167:264|167:264|154:242|154:242|158:265|158:265|144:243|144:243|148:266|148:266|135:246|135:246|138:269|138:269|126:250|126:250|130:273|130:273|118:254|118:254|121:278|121:278|110:260|110:260|113:283|113:283|103:266|103:266|106:290|106:290|96:273|96:273|100:297|100:297|90:281|90:281|94:305|94:305|85:290|85:290|90:314|90:314|82:298|82:298|85:322|85:322|79:308|79:308|83:331|83:331|78:318|78:318|81:341,1,945.000036048891,6|0,3:2|0:0,0:0:0:0:
296,347,82429,2,0,B|272:363|272:363|291:335|291:335|268:351|268:351|288:324|288:324|263:339|263:339|284:312|284:312|259:327|259:327|281:300|281:300|257:315|257:315|279:287|279:287|254:303|254:303|276:275|276:275|252:291|252:291|274:263|274:263|249:278|249:278|272:251|272:251|248:266|248:266|271:239|271:239|247:253|247:253|271:227|271:227|246:241|246:241|271:214|271:214|246:229|246:229|271:202|271:202|246:217|246:217|272:189|272:189|247:205|247:205|273:177|273:177|248:192|248:192|275:164|275:164|250:180,1,945.000036048891,8|0,0:0|0:0,0:0:0:0:
253,44,83135,6,0,B|260:29|260:29|267:40|267:40|273:24|273:24|280:38|280:38|288:22|288:22|295:39|295:39|302:23|302:23|309:42|309:42|315:27|315:27|322:48|322:48|328:32|328:32|333:57|333:57|340:41|340:41|343:67|343:67|349:51|349:51|350:79|350:79|357:63|357:63|355:91|355:91|362:77|362:77|357:106|357:106|365:90,1,405.000015449525,2|0,3:2|0:0,0:0:0:0:
443,76,83477,2,0,B|459:79|459:79|451:88|451:88|468:90|468:90|456:101|456:101|473:104|473:104|459:115|459:115|476:117|476:117|460:129|460:129|475:132|475:132|457:143|457:143|474:145|474:145|452:157|452:157|468:159|468:159|444:169|444:169|461:171|461:171|434:179|434:179|452:182|452:182|424:187|424:187|440:189|440:189|410:193|410:193|427:196,1,405.000015449525,2|0,0:0|0:0,0:0:0:0:
337,358,83820,6,0,B|316:357|316:357|336:347|336:347|315:345|315:345|335:335|335:335|314:334|314:334|334:324|334:324|313:323|313:323|334:313|334:313|312:312|312:312|333:302|333:302|312:300|312:300|332:290|332:290|311:289|311:289|332:279|332:279|310:278|310:278|331:268|331:268|310:267|310:267|330:257|330:257|309:255|309:255|329:245|329:245|308:244,1,405.000015449525,10|0,0:0|0:0,0:0:0:0:
411,193,84163,2,0,B|431:193|431:193|411:203|411:203|432:205|432:205|412:215|412:215|433:216|433:216|413:226|413:226|434:227|434:227|413:237|413:237|435:238|435:238|414:248|414:248|435:250|435:250|415:260|415:260|436:261|436:261|415:271|415:271|437:272|437:272|416:282|416:282|437:283|437:283|417:293|417:293|438:295|438:295|418:305|418:305|439:306,1,405.000015449525,2|0,0:0|0:0,0:0:0:0:
235,207,84506,5,0,3:0:0:0:
118,310,84837,6,0,B|118:324|118:324|126:314|126:314|117:319|117:319|126:308|126:308|117:312|117:312|125:302|125:302|116:307|116:307|125:296|125:296|116:300|116:300|124:290|124:290|115:294,1,67.5000025749208,2|0,0:0|0:0,0:0:0:0:
77,285,84920,2,0,B|63:284|63:284|73:292|73:292|68:283|68:283|79:292|79:292|75:283|75:283|85:291|85:291|80:282|80:282|91:291|91:291|87:282|87:282|97:290|97:290|92:281,1,67.5000025749208,2|0,0:0|0:0,0:0:0:0:
106,249,85003,2,0,B|106:236|106:236|98:246|98:246|107:241|107:241|98:252|98:252|107:248|107:248|99:258|99:258|108:253|108:253|99:264|99:264|108:260|108:260|100:270|100:270|108:265,1,67.5000025749208,2|0,0:0|0:0,0:0:0:0:
147,274,85086,2,0,B|160:274|160:274|150:266|150:266|155:275|155:275|144:266|144:266|148:275|148:275|138:267|138:267|143:276|143:276|132:267|132:267|136:276|136:276|126:268|126:268|130:276,1,67.5000025749208,2|0,0:0|0:0,0:0:0:0:
197,362,85168,5,10,0:0:0:0:
252,296,85500,1,0,0:0:0:0:
98,131,85666,6,0,L|100:162,2,22.5,0|0|0,1:0|1:0|1:0,1:0:0:0:
92,42,85831,2,0,L|91:20,2,22.5,0|0|0,1:0|1:0|1:0,1:0:0:0:
239,107,85991,6,0,B|197:51|197:51|191:124,1,135.000005149842,2|0,0:0|0:0,0:0:0:0:
423,81,86151,6,0,B|372:53|372:53|319:90,1,112.5,2|0,0:0|0:0,0:0:0:0:
326,118,86312,2,0,B|377:146|377:146|430:109,1,112.5,2|0,0:0|0:0,0:0:0:0:
448,324,86472,6,0,L|453:247,1,67.5,10|0,0:0|0:0,0:0:0:0:
374,227,86793,2,0,L|369:304,1,67.5,2|0,0:0|0:0,0:0:0:0:
273,361,87114,6,0,B|277:347|277:347|263:361|263:361|267:346|267:346|253:360|253:360|257:345|257:345|243:357|243:357|247:343|247:343|234:354|234:354|238:340|238:340|226:348|226:348|230:334|230:334|220:340|220:340|224:325|224:325|215:331|215:331|219:317|219:317|211:322|211:322|215:308|215:308|206:314|206:314|210:299|210:299|200:306|200:306|204:291|204:291|192:299|192:299|197:285|197:285|184:294|184:294|188:280|188:280|175:291|175:291|178:276|178:276|165:288|165:288|169:274|169:274|155:287|155:287|159:272,1,405.000015449525,6|0,3:2|0:0,0:0:0:0:
39,271,87428,2,0,B|35:257|35:257|49:271|49:271|45:256|45:256|59:270|59:270|55:255|55:255|69:267|69:267|65:253|65:253|78:264|78:264|74:250|74:250|86:258|86:258|82:244|82:244|92:250|92:250|88:235|88:235|97:241|97:241|93:227|93:227|101:232|101:232|97:218|97:218|106:224|106:224|102:209|102:209|112:216|112:216|108:201|108:201|120:209|120:209|115:195|115:195|128:204|128:204|124:190|124:190|137:201|137:201|134:186|134:186|147:198|147:198|143:184|143:184|157:197|157:197|153:182,1,405.000015449525,2|0,0:0|0:0,0:0:0:0:
256,209,87742,2,0,B|242:210|242:210|255:201|255:201|242:202|242:202|254:193|254:193|241:194|241:194|254:186|254:186|241:186|241:186|254:177|254:177|240:179|240:179|253:170|253:170|239:171|239:171|253:162|253:162|239:163|239:163|252:154|252:154|239:155|239:155|251:146|251:146|238:148|238:148|251:139|251:139|238:139|238:139|251:131|251:131|237:132|237:132|250:123|250:123|237:124|237:124|250:115|250:115|237:117|237:117|249:108|249:108|236:108|236:108|249:100|249:100|235:101|235:101|249:92|249:92|235:93,1,405.000015449525,10|0,0:0|0:0,0:0:0:0:
67,105,88056,6,0,P|114:106|152:75,1,90,0|0,3:0|0:0,0:0:0:0:
123,0,88213,2,0,P|75:-1|37:29,1,90,0|0,3:0|0:0,0:0:0:0:
248,101,88370,5,0,3:0:0:0:
378,184,88673,1,0,3:0:0:0:
443,122,88825,1,0,3:0:0:0:
339,27,88977,2,0,L|344:94,2,67.5000025749208,8|0|0,0:0|3:0|3:0,0:0:0:0:
425,307,89585,6,0,B|375:345|330:315|341:303|286:277|240:319,1,180,6|2,0:0|0:0,0:0:0:0:
101,357,90035,1,0,0:0:0:0:
36,310,90185,2,0,P|116:279|176:339,1,180,10|2,0:0|0:0,0:0:0:0:
293,80,90785,6,0,L|305:274,1,180,2|2,3:2|0:0,0:0:0:0:
259,194,91235,1,0,0:0:0:0:
381,120,91385,2,0,L|388:245,2,90,10|0|2,0:0|0:0|0:0,0:0:0:0:
36,107,91985,6,0,P|111:123|153:19,1,180,2|2,3:2|0:0,0:0:0:0:
255,108,92435,1,0,0:0:0:0:
87,52,92585,2,0,B|91:138|91:138|95:145|95:145|102:245,1,180,10|2,0:0|0:0,0:0:0:0:
425,307,93185,6,0,B|375:345|330:315|341:303|286:277|240:319,2,180,2|2|10,3:2|0:0|0:0,0:0:0:0:
466,226,93935,1,0,0:0:0:0:
412,154,94085,1,2,0:0:0:0:
50,294,94385,6,0,P|98:311|178:209,1,180,2|2,3:2|0:0,0:0:0:0:
256,147,94835,1,0,0:0:0:0:
389,237,94985,2,0,P|341:254|261:152,1,180,10|2,0:0|0:0,0:0:0:0:
91,53,95585,6,0,L|103:247,1,180,2|2,3:2|0:0,0:0:0:0:
207,372,96035,1,0,0:0:0:0:
244,302,96185,2,0,P|199:292|156:311,2,90,10|0|2,0:0|0:0|0:0,0:0:0:0:
472,339,96785,6,0,P|398:335|360:234,1,180,2|2,3:2|0:0,0:0:0:0:
387,163,97235,1,0,0:0:0:0:
438,263,97385,2,0,B|432:178|432:178|427:171|427:171|423:84,1,180,10|2,0:0|0:0,0:0:0:0:
276,23,97835,1,0,3:0:0:0:
216,75,97985,6,0,P|262:101|354:12,1,180,2|2,0:0|0:0,0:0:0:0:
192,52,98435,1,0,0:0:0:0:
87,132,98585,2,0,L|79:37,2,90,10|0|2,0:0|0:0|0:0,0:0:0:0:
104,326,99185,5,2,0:0:0:0:
163,259,99485,1,0,0:0:0:0:
228,320,99785,1,10,0:0:0:0:
287,253,100085,1,0,0:0:0:0:
287,253,100235,1,0,0:0:0:0:
408,370,100385,5,2,0:0:0:0:
401,280,100685,1,0,0:0:0:0:
393,190,100985,2,0,L|401:285,2,90,10|0|2,0:0|0:0|0:0,0:0:0:0:
97,81,101585,5,2,0:0:0:0:
186,68,101885,1,0,0:0:0:0:
255,124,102185,1,10,0:0:0:0:
247,213,102485,1,0,0:0:0:0:
247,213,102635,1,0,0:0:0:0:
59,170,102785,5,2,0:0:0:0:
65,259,103085,1,0,0:0:0:0:
72,348,103385,2,0,L|64:253,2,90,10|0|2,0:0|0:0|0:0,0:0:0:0:
255,124,103985,5,2,0:0:0:0:
381,34,104285,2,0,P|366:57|342:73,1,45,2|0,0:0|0:0,0:0:0:0:
383,146,104435,2,0,P|356:151|327:145,1,45,2|0,0:0|0:0,0:0:0:0:
470,99,104585,1,10,0:0:0:0:
410,234,104885,1,0,0:0:0:0:
255,124,105185,5,2,0:0:0:0:
105,33,105485,2,0,L|111:77,1,45,2|0,0:0|0:0,0:0:0:0:
169,144,105635,2,0,L|162:188,1,45,2|0,0:0|0:0,0:0:0:0:
21,264,105785,2,0,P|75:243|141:296,1,135,10|0,0:0|0:0,0:0:0:0:
76,341,106085,2,0,L|71:309,6,22.5,0|0|0|0|0|0|0,1:0|1:0|1:0|1:0|1:0|1:0|1:0,1:0:0:0:
158,362,106385,5,2,0:0:0:0:
225,303,106685,1,0,0:0:0:0:
413,238,106985,5,10,0:0:0:0:
346,179,107285,1,0,0:0:0:0:
102,203,107585,5,2,0:0:0:0:
169,144,107885,1,0,0:0:0:0:
256,384,108282,5,12,0:0:0:0:
256,192,109482,12,0,110532,0:0:0:0:
152,56,110682,6,0,B|138:72|138:72|142:59|142:59|133:73|133:73|133:61|133:61|129:74|129:74|124:63|124:63|124:76|124:76|114:66|114:66|119:77|119:77|105:69|105:69|115:78|115:78|96:71|96:71|110:79|110:79|87:74|87:74|105:81|105:81|91:80|91:80|108:84|108:84|98:87|98:87|111:86|111:86|105:93|105:93|115:90|115:90|112:100|112:100|118:93|118:93|119:107|119:107|121:97|121:97|126:114|126:114|125:101|125:101|133:121|133:121|128:103|128:103|136:112|136:112|130:99|130:99|139:102|139:102|131:94|131:94|142:93|142:93|133:90|133:90|144:83|144:83|134:85|134:85|147:74|147:74|135:81|135:81|150:65|150:65|136:76,1,540,6|0,3:2|0:0,0:0:0:0:
328,240,110982,2,0,L|344:168,1,67.5,2|0,0:0|0:0,0:0:0:0:
87,74,111282,6,0,B|107:78|107:78|94:81|94:81|111:82|111:82|101:88|101:88|115:85|115:85|107:94|107:94|118:89|118:89|115:102|115:102|121:92|121:92|122:109|122:109|125:95|125:95|128:115|128:115|128:99|128:99|135:122|135:122|132:103|132:103|138:115|138:115|133:98|133:98|141:105|141:105|134:94|134:94|143:96|143:96|135:89|135:89|145:86|145:86|136:85|136:85|148:77|148:77|138:80|138:80|150:67|150:67|139:75|139:75|152:58|152:58|140:71|140:71|143:60|143:60|135:71|135:71|133:62|133:62|131:73|131:73|124:64|124:64|126:74|126:74|115:67|115:67|121:76|121:76|105:69|105:69|117:76|117:76|96:71|96:71|112:78,1,540,10|0,0:0|0:0,0:0:0:0:
368,48,111582,2,0,L|298:70,1,67.5,2|0,0:0|0:0,0:0:0:0:
95,221,111882,6,0,B|96:233|96:233|101:225|101:225|102:237|102:237|108:229|108:229|109:241|109:241|116:232|116:232|116:244|116:244|123:235|123:235|123:246|123:246|130:236|130:236|130:248|130:248|138:237|138:237|138:249|138:249|146:237|146:237|146:249|146:249|153:236|153:236|153:249|153:249|161:236|161:236|161:247|161:247|168:233|168:233|169:245|169:245|176:230|176:230|176:243|176:243|183:227|183:227|183:239|183:239|189:223|189:223|190:235|190:235|195:218|195:218|196:230|196:230|201:213|201:213|201:224|201:224|206:207|206:207|206:218|206:218|210:201|210:201|211:212|211:212|214:194|214:194|215:206|215:206|217:187|217:187|218:199|218:199|220:180|220:180|221:192,1,540,2|0,3:2|0:0,0:0:0:0:
372,21,112182,2,0,L|302:43,1,67.5,2|0,0:0|0:0,0:0:0:0:
102,245,112482,6,0,B|103:257|103:257|108:249|108:249|109:261|109:261|115:253|115:253|116:265|116:265|123:256|123:256|123:268|123:268|130:259|130:259|130:270|130:270|137:260|137:260|137:272|137:272|145:261|145:261|145:273|145:273|153:261|153:261|153:273|153:273|160:260|160:260|160:273|160:273|168:260|168:260|168:271|168:271|175:257|175:257|176:269|176:269|183:254|183:254|183:266|183:266|190:251|190:251|190:263|190:263|196:247|196:247|197:259|197:259|202:242|202:242|203:254|203:254|208:237|208:237|208:248|208:248|213:231|213:231|213:242|213:242|217:225|217:225|218:236|218:236|221:218|221:218|222:230|222:230|224:211|224:211|225:223|225:223|227:204|227:204|228:216,1,540,10|0,0:0|0:0,0:0:0:0:
166,6,112782,2,0,L|150:78,1,67.5,2|0,0:0|0:0,0:0:0:0:
341,297,113082,6,0,B|357:310|357:310|344:280|344:280|360:293|360:293|348:263|348:263|363:276|363:276|351:248|351:248|367:261|367:261|355:231|355:231|371:244|371:244|359:215|359:215|375:228|375:228|362:198|362:198|378:211|378:211|366:182|366:182|382:195|382:195|370:166|370:166|386:179|386:179|374:149|374:149|389:162|389:162|377:133|377:133|393:146,1,540,2|0,3:2|0:0,0:0:0:0:
140,17,113382,2,0,L|124:89,1,67.5,2|0,0:0|0:0,0:0:0:0:
367,327,113682,6,0,B|383:340|383:340|370:310|370:310|386:323|386:323|374:293|374:293|389:306|389:306|377:278|377:278|393:291|393:291|381:261|381:261|397:274|397:274|385:245|385:245|401:258|401:258|388:228|388:228|404:241|404:241|392:212|392:212|408:225|408:225|396:196|396:196|412:209|412:209|400:179|400:179|415:192|415:192|403:163|403:163|419:176,1,540,10|0,0:0|0:0,0:0:0:0:
158,159,113982,2,0,L|150:195,6,22.5,0|0|0|0|0|0|0,1:0|1:0|1:0|1:0|1:0|1:0|1:0,1:0:0:0:
78,319,114282,6,0,B|80:335|80:335|93:321|93:321|94:337|94:337|107:321|107:321|109:337|109:337|122:320|122:320|124:336|124:336|136:316|136:316|138:332|138:332|148:308|148:308|151:325|151:325|160:299|160:299|161:314|161:314|170:288|170:288|171:303|171:303|179:277|179:277|182:293|182:293|192:268|192:268|193:285|193:285|205:262|205:262|207:278|207:278|219:258|219:258|221:274|221:274|233:256|233:256|236:272|236:272|248:256|248:256|251:272|251:272|263:256|263:256|265:272|265:272|278:258|278:258|280:274,1,540,2|0,3:2|0:0,0:0:0:0:
105,20,114582,2,0,L|89:92,1,67.5,2|0,0:0|0:0,0:0:0:0:
435,65,114882,6,0,B|433:49|433:49|420:63|420:63|419:47|419:47|406:63|406:63|404:47|404:47|391:64|391:64|389:48|389:48|377:68|377:68|375:52|375:52|365:76|365:76|362:59|362:59|353:85|353:85|352:70|352:70|343:96|343:96|342:81|342:81|334:107|334:107|331:91|331:91|321:116|321:116|320:99|320:99|308:122|308:122|306:106|306:106|294:126|294:126|292:110|292:110|280:128|280:128|277:112|277:112|265:128|265:128|262:112|262:112|250:128|250:128|248:112|248:112|235:126|235:126|233:110,1,540,10|0,0:0|0:0,0:0:0:0:
408,364,115182,1,2,0:0:0:0:
422,274,115332,2,0,L|427:237,2,22.5,2|0|0,0:0|0:0|0:0,0:0:0:0:
152,264,115482,6,0,B|172:278|172:278|154:279|154:279|173:286|173:286|157:295|157:295|175:293|175:293|160:310|160:310|176:301|176:301|163:326|163:326|177:309|177:309|178:323|178:323|185:308|185:308|194:320|194:320|193:306|193:306|209:318|209:318|201:305|201:305|225:315|225:315|209:303|209:303|222:299|222:299|207:296|207:296|219:284|219:284|206:288|206:288|217:268|217:268|204:280|204:280|214:252|214:252|203:272|203:272|198:255|198:255|195:274|195:274|183:258|183:258|187:275|187:275|167:261|167:261|180:276,1,540,6|0,3:2|0:0,0:0:0:0:
90,85,115782,2,0,P|58:85|26:109,1,67.5,2|0,0:0|0:0,0:0:0:0:
225,315,116082,6,0,B|204:300|204:300|222:299|222:299|203:292|203:292|219:283|219:283|201:285|201:285|216:268|216:268|200:277|200:277|213:252|213:252|199:269|199:269|198:255|198:255|191:270|191:270|182:258|182:258|183:272|183:272|167:260|167:260|175:273|175:273|151:263|151:263|167:275|167:275|154:279|154:279|169:282|169:282|157:294|157:294|170:290|170:290|159:310|159:310|172:298|172:298|162:326|162:326|173:306|173:306|178:323|178:323|181:304|181:304|193:320|193:320|189:303|189:303|209:317|209:317|196:302,1,540,10|0,0:0|0:0,0:0:0:0:
432,366,116382,2,0,L|422:292,1,67.5,2|0,0:0|0:0,0:0:0:0:
195,152,116682,6,0,B|187:161|187:161|196:159|196:159|188:168|188:168|198:166|198:166|190:176|190:176|202:174|202:174|193:183|193:183|204:181|204:181|197:189|197:189|209:187|209:187|200:195|200:195|214:193|214:193|205:202|205:202|219:199|219:199|211:207|211:207|225:203|225:203|216:212|216:212|231:209|231:209|223:217|223:217|238:212|238:212|230:221|230:221|245:215|245:215|236:224|236:224|252:218|252:218|244:226|244:226|260:219|260:219|252:229|252:229|267:220|267:220|260:229|260:229|275:221|275:221|267:229|267:229|283:220|283:220|275:228|275:228|290:219|290:219|283:227|283:227|298:217|298:217|290:226|290:226|305:214|305:214|297:223|297:223|312:211|312:211|304:220,1,540,2|0,3:2|0:0,0:0:0:0:
192,47,116982,2,0,P|160:47|128:71,1,67.5,2|0,0:0|0:0,0:0:0:0:
321,297,117282,6,0,B|330:304|330:304|328:295|328:295|337:303|337:303|335:293|335:293|345:301|345:301|343:289|343:289|352:298|352:298|350:287|350:287|358:294|358:294|356:282|356:282|364:291|364:291|362:277|362:277|371:286|371:286|368:272|368:272|376:280|376:280|372:266|372:266|381:275|381:275|378:260|378:260|386:268|386:268|381:253|381:253|390:261|390:261|384:246|384:246|393:255|393:255|387:239|387:239|395:247|395:247|388:231|388:231|398:239|398:239|389:224|389:224|398:231|398:231|390:216|390:216|398:224|398:224|389:208|389:208|397:216|397:216|388:201|388:201|396:208|396:208|386:193|386:193|395:201|395:201|383:186|383:186|392:194|392:194|380:179|380:179|389:187,1,540,10|0,0:0|0:0,0:0:0:0:
98,155,117582,2,0,L|107:221,1,67.5,2|0,0:0|0:0,0:0:0:0:
425,73,117882,6,0,B|438:89|438:89|408:76|408:76|421:92|421:92|391:80|391:80|404:95|404:95|376:83|376:83|389:99|389:99|359:87|359:87|372:103|372:103|343:91|343:91|356:107|356:107|326:94|326:94|339:110|339:110|310:98|310:98|323:114|323:114|294:102|294:102|307:118|307:118|277:106|277:106|290:121|290:121|261:109|261:109|274:125,1,540,2|0,3:2|0:0,0:0:0:0:
89,305,118182,2,0,P|121:308|158:288,1,67.5,2|0,0:0|0:0,0:0:0:0:
48,1,118482,6,0,B|64:-12|64:-12|51:18|51:18|67:5|67:5|55:35|55:35|70:22|70:22|58:50|58:50|74:37|74:37|62:67|62:67|78:54|78:54|66:83|66:83|82:70|82:70|69:100|69:100|85:87|85:87|73:116|73:116|89:103|89:103|77:132|77:132|93:119|93:119|81:149|81:149|96:136|96:136|84:165|84:165|100:152,1,540,10|0,0:0|0:0,0:0:0:0:
338,265,118782,2,0,L|324:190,1,67.5,2|0,0:0|0:0,0:0:0:0:
75,344,119082,6,0,B|77:360|77:360|90:346|90:346|91:362|91:362|104:346|104:346|106:362|106:362|119:345|119:345|121:361|121:361|133:341|133:341|135:357|135:357|145:333|145:333|148:350|148:350|157:324|157:324|158:339|158:339|167:313|167:313|168:328|168:328|176:302|176:302|179:318|179:318|189:293|189:293|190:310|190:310|202:287|202:287|204:303|204:303|216:283|216:283|218:299|218:299|230:281|230:281|233:297|233:297|245:281|245:281|248:297|248:297|260:281|260:281|262:297|262:297|275:283|275:283|277:299,1,540,2|0,3:2|0:0,0:0:0:0:
332,80,119382,2,0,P|309:79|279:94,1,45,2|0,0:0|0:0,0:0:0:0:
230,28,119532,2,0,P|213:43|202:75,1,45,2|0,0:0|0:0,0:0:0:0:
317,358,119682,6,0,B|319:374|319:374|332:360|332:360|333:376|333:376|346:360|346:360|348:376|348:376|361:359|361:359|363:375|363:375|375:355|375:355|377:371|377:371|387:347|387:347|390:364|390:364|399:338|399:338|400:353|400:353|409:327|409:327|410:342|410:342|418:316|418:316|421:332|421:332|431:307|431:307|432:324|432:324|444:301|444:301|446:317|446:317|458:297|458:297|460:313|460:313|472:295|472:295|475:311|475:311|487:295|487:295|490:311|490:311|502:295|502:295|504:311|504:311|517:297|517:297|519:313,1,540,10|0,0:0|0:0,0:0:0:0:
133,120,119982,2,0,L|141:187,1,67.5,2|0,0:0|0:0,0:0:0:0:
407,218,120282,6,0,B|401:197|401:197|410:208|410:208|403:192|403:192|413:199|413:199|405:188|405:188|417:191|417:191|406:183|406:183|420:181|420:181|408:178|408:178|423:172|423:172|410:175|410:175|426:163|426:163|412:170|412:170|429:154|429:154|413:165|413:165|422:154|422:154|409:165|409:165|412:155|412:155|405:167|405:167|412:160|412:160|400:168|400:168|393:159|393:159|396:168|396:168|384:161|384:161|391:169|391:169|374:163|374:163|385:170|385:170|364:165|364:165|382:171|382:171|370:172|370:172|384:175|384:175|376:180|376:180|387:179|387:179|382:188|382:188|390:182|390:182|389:195|389:195|393:186|393:186|395:203|395:203|396:189|396:189|400:211|400:211|399:193,1,540,6|0,0:0|0:0,0:0:0:0:
500,375,120582,2,0,L|492:308,1,67.5,2|0,0:0|0:0,0:0:0:0:
364,166,120882,6,0,B|384:171|384:171|370:173|370:173|387:176|387:176|376:181|376:181|390:179|390:179|382:188|382:188|393:182|393:182|389:196|389:196|396:187|396:187|395:203|395:203|399:190|399:190|401:210|401:210|402:194|402:194|407:217|407:217|406:198|406:198|411:211|411:211|407:194|407:194|414:201|414:201|408:190|408:190|410:199|410:199|410:185|410:185|420:183|420:183|411:181|411:181|424:174|424:174|414:176|414:176|427:165|427:165|416:171|416:171|430:155|430:155|416:167|416:167|421:156|421:156|412:167|412:167|411:158|411:158|407:168|407:168|401:159|401:159|402:168|402:168|391:161|391:161|397:170|397:170|382:162|382:162|393:170|393:170|373:164|373:164|388:172,1,540,10|0,0:0|0:0,0:0:0:0:
249,39,121182,2,0,L|257:106,1,67.5,2|0,0:0|0:0,0:0:0:0:
85,208,121482,6,0,B|86:196|86:196|91:204|91:204|92:192|92:192|98:200|98:200|99:188|99:188|106:197|106:197|106:185|106:185|113:194|113:194|113:183|113:183|120:193|120:193|120:181|120:181|128:192|128:192|128:180|128:180|136:192|136:192|136:180|136:180|143:193|143:193|143:180|143:180|151:193|151:193|151:182|151:182|158:196|158:196|159:184|159:184|166:199|166:199|166:186|166:186|173:202|173:202|173:190|173:190|179:206|179:206|180:194|180:194|185:211|185:211|186:199|186:199|191:216|191:216|191:205|191:205|196:222|196:222|196:211|196:211|200:228|200:228|201:217|201:217|204:235|204:235|205:223|205:223|207:242|207:242|208:230|208:230|210:249|210:249|211:237,1,540,2|0,3:2|0:0,0:0:0:0:
142,358,121782,2,0,L|134:291,1,67.5,2|0,0:0|0:0,0:0:0:0:
420,315,122082,6,0,B|419:327|419:327|414:319|414:319|413:331|413:331|407:323|407:323|406:335|406:335|399:326|399:326|399:338|399:338|392:329|392:329|392:340|392:340|385:330|385:330|385:342|385:342|377:331|377:331|377:343|377:343|369:331|369:331|369:343|369:343|362:330|362:330|362:343|362:343|354:330|354:330|354:341|354:341|347:327|347:327|346:339|346:339|339:324|339:324|339:337|339:337|332:321|332:321|332:333|332:333|326:317|326:317|325:329|325:329|320:312|320:312|319:324|319:324|314:307|314:307|314:318|314:318|309:301|309:301|309:312|309:312|305:295|305:295|304:306|304:306|301:288|301:288|300:300|300:300|298:281|298:281|297:293|297:293|295:274|295:274|294:286,1,540,10|0,0:0|0:0,0:0:0:0:
363,165,122382,2,0,L|371:232,1,67.5,2|0,0:0|0:0,0:0:0:0:
133,290,122682,6,0,B|152:296|152:296|130:272|130:272|149:279|149:279|127:255|127:255|146:262|146:262|125:240|125:240|145:247|145:247|123:223|123:223|143:229|143:229|121:206|121:206|141:213|141:213|118:189|118:189|138:196|138:196|117:173|117:173|136:180|136:180|115:156|115:156|134:163|134:163|113:139|113:139|131:146|131:146|110:123|110:123|130:130,1,540,2|0,3:2|0:0,0:0:0:0:
384,173,122982,2,0,L|392:240,1,67.5,2|0,0:0|0:0,0:0:0:0:
99,283,123282,6,0,B|118:289|118:289|96:265|96:265|115:272|115:272|93:248|93:248|112:255|112:255|91:233|91:233|111:240|111:240|89:216|89:216|109:222|109:222|87:199|87:199|107:206|107:206|84:182|84:182|104:189|104:189|83:166|83:166|102:173|102:173|81:149|81:149|100:156|100:156|79:132|79:132|97:139|97:139|76:116|76:116|96:123,1,540,10|0,0:0|0:0,0:0:0:0:
303,33,123582,2,0,L|307:66,6,22.5,0|0|0|0|0|0|0,1:0|1:0|1:0|1:0|1:0|1:0|1:0,1:0:0:0:
392,240,123882,6,0,B|390:256|390:256|377:242|377:242|376:258|376:258|363:242|363:242|361:258|361:258|348:241|348:241|346:257|346:257|334:237|334:237|332:253|332:253|322:229|322:229|319:246|319:246|310:220|310:220|309:235|309:235|300:209|300:209|299:224|299:224|291:198|291:198|288:214|288:214|278:189|278:189|277:206|277:206|265:183|265:183|263:199|263:199|251:179|251:179|249:195|249:195|237:177|237:177|234:193|234:193|222:177|222:177|219:193|219:193|207:177|207:177|205:193|205:193|192:179|192:179|190:195,1,540,2|0,3:2|0:0,0:0:0:0:
322,18,124182,2,0,L|326:51,6,22.5,0|0|0|0|0|0|0,1:0|1:0|1:0|1:0|1:0|1:0|1:0,1:0:0:0:
285,310,124482,6,0,B|269:308|269:308|283:295|283:295|267:294|267:294|283:281|283:281|267:279|267:279|284:266|284:266|268:264|268:264|288:252|288:252|272:250|272:250|296:240|296:240|279:237|279:237|305:228|305:228|290:227|290:227|316:218|316:218|301:217|301:217|327:209|327:209|311:206|311:206|336:196|336:196|319:195|319:195|342:183|342:183|326:181|326:181|346:169|346:169|330:167|330:167|348:155|348:155|332:152|332:152|348:140|348:140|332:137|332:137|348:125|348:125|332:123|332:123|346:110|346:110|330:108,1,540,10|0,0:0|0:0,0:0:0:0:
70,50,124782,2,0,L|78:117,1,67.5,2|0,0:0|0:0,0:0:0:0:
110,332,125082,6,0,B|105:307|105:307|119:319|119:319|110:301|110:301|128:306|128:306|114:295|114:295|136:293|136:293|119:288|119:288|146:280|146:280|124:282|124:282|133:271|133:271|117:277|117:277|119:262|119:262|110:273|110:273|107:253|107:253|104:268|104:268|94:244|94:244|97:264|97:264|85:257|85:257|93:270|93:270|76:270|76:270|88:276|88:276|66:283|66:283|84:283|84:283|57:296|57:296|79:290|79:290|71:305|71:305|86:294|86:294|83:314|83:314|93:299|93:299|97:323|97:323|98:303,1,540,6|0,3:2|0:0,0:0:0:0:
289,332,125382,2,0,L|283:300,6,22.5,0|0|0|0|0|0|0,1:0|1:0|1:0|1:0|1:0|1:0|1:0,1:0:0:0:
94,245,125682,6,0,B|98:269|98:269|84:257|84:257|93:275|93:275|75:270|75:270|89:281|89:281|67:283|67:283|84:288|84:288|57:296|57:296|79:294|79:294|70:305|70:305|86:299|86:299|84:314|84:314|93:303|93:303|96:323|96:323|99:308|99:308|109:332|109:332|106:312|106:312|118:319|118:319|110:306|110:306|127:306|127:306|115:300|115:300|137:293|137:293|119:293|119:293|146:280|146:280|124:286|124:286|132:271|132:271|117:282|117:282|120:262|120:262|110:277|110:277|106:253|106:253|105:273,1,540,10|0,0:0|0:0,0:0:0:0:
70,50,125982,1,2,0:0:0:0:
80,140,126132,2,0,L|82:169,2,22.5,2|0|0,0:0|0:0|0:0,0:0:0:0:
395,272,126282,6,0,B|394:284|394:284|389:276|389:276|388:288|388:288|382:279|382:279|381:292|381:292|374:282|374:282|374:295|374:295|368:286|368:286|367:296|367:296|360:286|360:286|361:298|361:298|352:287|352:287|352:300|352:300|344:288|344:288|344:299|344:299|337:286|337:286|337:299|337:299|329:286|329:286|329:298|329:298|322:284|322:284|321:296|321:296|315:281|315:281|315:293|315:293|308:278|308:278|308:289|308:289|301:273|301:273|300:286|300:286|296:269|296:269|294:280|294:280|289:264|289:264|289:275|289:275|284:257|284:257|284:269|284:269|280:252|280:252|279:262|279:262|276:245|276:245|275:257|275:257|273:238|273:238|272:250|272:250|270:230|270:230|269:243,1,540,2|0,3:2|0:0,0:0:0:0:
345,74,126582,2,0,L|353:141,1,67.5,2|0,0:0|0:0,0:0:0:0:
80,140,126882,6,0,B|80:127|80:127|85:135|85:135|86:123|86:123|92:132|92:132|93:119|93:119|100:129|100:129|100:116|100:116|106:125|106:125|107:115|107:115|114:125|114:125|113:113|113:113|122:124|122:124|122:111|122:111|130:123|130:123|130:112|130:112|137:125|137:125|137:112|137:112|145:125|145:125|145:113|145:113|152:127|152:127|153:115|153:115|159:130|159:130|159:118|159:118|166:133|166:133|166:122|166:122|173:138|173:138|174:125|174:125|178:142|178:142|180:131|180:131|185:147|185:147|185:136|185:136|190:154|190:154|190:142|190:142|194:159|194:159|195:149|195:149|198:166|198:166|199:154|199:154|201:173|201:173|202:161|202:161|204:181|204:181|205:168,1,540,10|0,0:0|0:0,0:0:0:0:
130,338,127182,2,0,L|122:271,1,67.5,2|0,0:0|0:0,0:0:0:0:
256,0,127482,6,0,B|259:8|259:8|250:16|250:16|254:27,1,31.5,2|2,0:0|0:0,0:0:0:0:
429,145,128082,6,0,B|470:111|470:111|293:121,1,202.500007724762,8|0,0:0|0:0,0:0:0:0:
244,282,128382,6,0,P|279:283|313:255,1,67.5,2|0,0:0|0:0,0:0:0:0:
256,192,128682,5,4,0:0:0:0:
90,39,129582,5,0,3:0:0:0:
96,65,129732,1,0,3:0:0:0:
102,91,129882,1,0,3:0:0:0:
56,189,130032,5,0,3:0:0:0:
160,336,130182,1,0,3:0:0:0:
328,271,130332,1,0,3:0:0:0:
243,32,130482,5,8,0:0:0:0:
203,241,130632,1,2,0:0:0:0:
203,241,130707,1,2,0:0:0:0:
203,241,130782,2,0,L|198:191,1,40.4999987640381,2|0,0:0|0:0,0:0:0:0:
416,248,131082,6,0,B|421:223|421:223|407:248|407:248|411:223|411:223|396:247|396:247|402:223|402:223|387:245|387:245|391:221|391:221|378:242|378:242|382:218|382:218|369:238|369:238|373:213|373:213|361:232|361:232|366:207|366:207|355:224|355:224|360:200|360:200|350:215|350:215|355:192|355:192|346:207|346:207|352:182|352:182|343:197|343:197|348:173|348:173|340:189|340:189|344:164|344:164|336:179|336:179|340:155|340:155|330:171|330:171|335:147|335:147|323:165|323:165|328:140|328:140|315:159|315:159|320:135|320:135|306:155|306:155|311:131|311:131|297:153|297:153|302:129|302:129|287:152|287:152|291:127|291:127|277:151|277:151|282:127|282:127|268:151|268:151|272:127,1,945.000036048891,6|0,3:2|0:0,0:0:0:0:
90,155,131682,2,0,B|136:118|136:29|136:29|136:89|188:112,1,225,10|0,0:0|0:0,0:0:0:0:
217,333,131982,6,0,P|174:354|127:346,1,90,0|0,3:0|0:0,0:0:0:0:
119,257,132132,2,0,P|161:235|208:243,1,90,0|0,3:0|0:0,0:0:0:0:
407,325,132282,6,0,B|373:358|373:358|396:194|396:194|418:253,1,270,2|0,3:2|0:0,0:0:0:0:
488,94,132582,2,0,P|412:148|224:119,1,270,2|0,0:0|0:0,0:0:0:0:
11,283,132882,2,0,B|38:240|38:240|195:172|323:265,1,337.5,10|0,0:0|0:0,0:0:0:0:
404,362,133182,6,0,L|400:398,6,22.5,0|0|0|0|0|0|0,1:0|1:0|1:0|1:0|1:0|1:0|1:0,1:0:0:0:
462,283,133482,6,0,B|466:306|466:306|454:276|454:276|458:300|458:300|446:271|446:271|450:294|450:294|438:266|438:266|441:290|441:290|429:262|429:262|433:286|433:286|419:260|419:260|423:283|423:283|410:258|410:258|413:282|413:282|401:258|401:258|404:281|404:281|391:259|391:259|395:282|395:282|381:260|381:260|385:283|385:283|372:263|372:263|375:286|375:286|363:267|363:267|367:290|367:290|355:271|355:271|358:295|358:295|347:277|347:277|350:300|350:300|340:283|340:283|343:307|343:307|333:290|333:290|337:314|337:314|327:298|327:298|331:322|331:322|322:307|322:307|327:331|327:331|319:315|319:315|322:339|322:339|316:325|316:325|320:348|320:348|315:335|315:335|318:358,1,945.000036048891,6|0,3:2|0:0,0:0:0:0:
157,325,134082,2,0,B|210:369|210:369|196:191,1,225,10|0,0:0|0:0,0:0:0:0:
431,60,134382,6,0,L|341:53,1,90,0|0,3:0|0:0,0:0:0:0:
410,154,134532,2,0,L|321:148,1,90,0|0,3:0|0:0,0:0:0:0:
81,135,134682,6,0,P|75:37|176:99,1,270,2|0,3:2|0:0,0:0:0:0:
157,325,134982,5,2,0:0:0:0:
113,335,135057,1,2,0:0:0:0:
154,302,135132,1,2,0:0:0:0:
110,312,135207,1,2,0:0:0:0:
240,272,135282,6,0,B|168:278|168:278|104:283|96:196|160:190|160:190|359:173|359:173|423:167|415:79|352:85|352:85|256:93,1,630,10|0,0:0|0:0,0:0:0:0:
320,260,135882,6,0,B|329:282|329:282|328:259|328:259|338:281|338:281|338:257|338:257|347:281|347:281|347:257|347:257|357:279|357:279|357:256|357:256|366:279|366:279|366:256|366:256|376:278|376:278|376:254|376:254|385:277|385:277|385:253|385:253|394:276|394:276|395:252|395:252|404:275|404:275|404:251|404:251|413:274|413:274|414:250|414:250|422:273|422:273|423:250|423:250|432:272|432:272|432:249|432:249|441:271|441:271|442:247|442:247|451:270|451:270|451:246|451:246|460:270|460:270|460:246|460:246|470:268|470:268|470:244|470:244|479:268|479:268|479:244|479:244|489:266|489:266|488:242|488:242|498:265|498:265|497:241|497:241|508:264|508:264|507:240|507:240|517:264,1,945.000036048891,6|0,3:2|0:0,0:0:0:0:
404,127,136482,2,0,B|380:141|388:195|444:195|489:138|468:65|406:-35,1,225,10|0,0:0|0:0,0:0:0:0:
79,86,136782,6,0,B|122:66|122:66|179:78,1,90,0|0,3:0|0:0,0:0:0:0:
93,173,136932,2,0,B|135:182|135:182|178:162,1,90,0|0,3:0|0:0,0:0:0:0:
320,260,137082,6,0,B|287:205|287:205|304:359|304:359|268:299,1,270,0|0,3:0|0:0,0:0:0:0:
82,373,137382,2,0,P|91:277|174:365,1,270,2|0,0:0|0:0,0:0:0:0:
446,380,137682,2,0,B|410:335|410:335|388:190|511:79,1,337.5,10|0,0:0|0:0,0:0:0:0:
396,22,137982,6,0,L|309:35,1,67.5000025749208,0|0,3:0|0:0,0:0:0:0:
286,125,138132,2,0,L|199:112,1,67.5000025749208,0|0,3:0|0:0,0:0:0:0:
131,32,138282,5,0,0:0:0:0:
114,20,138582,1,0,3:0:0:0:
49,98,138732,1,0,3:0:0:0:
123,253,138882,2,0,L|136:166,2,67.5000025749208,8|0|0,0:0|3:0|3:0,0:0:0:0:
446,380,139482,6,0,P|418:361|382:363,1,67.5,2|0,3:2|0:0,0:0:0:0:
255,364,139782,6,0,B|286:379|345:345|327:266|251:252|174:282|163:369,1,270,2|0,0:0|0:0,0:0:0:0:
13,362,140082,2,0,B|64:338|64:338|106:210|39:55,1,337.5,10|0,0:0|0:0,0:0:0:0:
156,37,140382,6,0,P|204:14|253:30,1,90,0|0,3:0|0:0,0:0:0:0:
173,129,140532,2,0,P|216:134|255:112,1,90,0|0,3:0|0:0,0:0:0:0:
456,126,140682,6,0,B|437:19|437:19|370:69|370:69|386:168,1,270,2|0,3:2|0:0,0:0:0:0:
414,344,140982,6,0,P|457:349|496:327,1,90,0|0,3:0|0:0,0:0:0:0:
479,235,141132,2,0,P|435:230|397:252,1,90,0|0,3:0|0:0,0:0:0:0:
208,319,141282,2,0,B|259:295|259:295|301:167|234:12,1,337.5,10|0,0:0|0:0,0:0:0:0:
100,140,141582,6,0,P|127:158|160:155,1,67.5,2|0,0:0|0:0,0:0:0:0:
112,40,141882,6,0,B|48:45|48:45|64:256,1,270,2|0,3:2|0:0,0:0:0:0:
0,336,142182,2,0,P|88:296|226:391,1,270,2|0,0:0|0:0,0:0:0:0:
416,344,142482,2,0,B|365:320|365:320|323:192|390:37,1,337.5,10|0,0:0|0:0,0:0:0:0:
243,5,142782,6,0,L|246:36,6,22.5,0|0|0|0|0|0|0,1:0|1:0|1:0|1:0|1:0|1:0|1:0,1:0:0:0:
225,184,143082,6,0,B|243:156|243:156|249:195,1,67.5,2|0,3:2|0:0,0:0:0:0:
219,347,143382,6,0,L|216:324,6,22.5,0|0|0|0|0|0|0,1:0|1:0|1:0|1:0|1:0|1:0|1:0,1:0:0:0:
104,273,143682,6,0,B|244:210|211:374|368:312,1,270,10|0,0:0|0:0,0:0:0:0:
491,381,143982,2,0,P|451:379|427:354,1,67.5,2|0,0:0|0:0,0:0:0:0:
366,211,144282,6,0,B|362:152|417:125|417:125|478:186|419:280,1,270,2|0,3:2|0:0,0:0:0:0:
263,177,144582,5,2,0:0:0:0:
219,187,144657,1,2,0:0:0:0:
260,154,144732,1,2,0:0:0:0:
216,164,144807,1,2,0:0:0:0:
224,82,144882,6,0,B|235:210|235:210|241:220|241:220|252:350,1,270,10|0,0:0|0:0,0:0:0:0:
65,215,145182,2,0,B|100:167|100:167|252:127|375:217,1,337.5,2|0,0:0|0:0,0:0:0:0:
470,341,145482,6,0,B|442:334|442:334|478:327|478:327|447:319|447:319|482:312|482:312|451:306|451:306|486:298|486:298|456:291|456:291|486:284|486:284|455:278|455:278|477:274|477:274|445:265|445:265|466:261|466:261|436:254|436:254|457:250|457:250|425:242|425:242|447:239|447:239|416:231|416:231|437:226|437:226|406:220|406:220|426:216|426:216|397:208|397:208|427:202|427:202|395:195|395:195|430:188|430:188|401:180|401:180|436:173|436:173|405:166|405:166|441:159|441:159|411:151|411:151|446:145|446:145|416:137,1,945.000036048891,6|0,3:2|0:0,0:0:0:0:
448,16,146082,2,0,B|488:64|488:64|304:24,1,225,10|0,0:0|0:0,0:0:0:0:
210,301,146382,6,0,B|190:258|190:258|202:201,1,90,0|0,3:0|0:0,0:0:0:0:
297,287,146532,2,0,B|306:245|306:245|286:202,1,90,0|0,3:0|0:0,0:0:0:0:
190,52,146682,6,0,B|119:21|119:21|70:76|70:76|134:108|134:108|190:60,1,270,2|0,3:2|0:0,0:0:0:0:
210,301,146982,2,0,P|131:196|1:193,1,270,2|0,0:0|0:0,0:0:0:0:
305,384,147282,2,0,B|352:345|352:345|386:203|279:75,1,337.5,10|0,0:0|0:0,0:0:0:0:
71,76,147582,6,0,L|82:165,1,90,0|0,3:0|0:0,0:0:0:0:
181,166,147732,2,0,L|169:76,1,90,0|0,3:0|0:0,0:0:0:0:
64,308,147882,5,0,3:0:0:0:
55,334,148182,1,0,3:0:0:0:
17,240,148332,1,0,3:0:0:0:
210,301,148482,2,0,L|198:390,2,67.5000025749208,8|0|0,0:0|3:0|3:0,0:0:0:0:
445,85,149082,6,0,B|395:123|350:93|361:81|306:55|260:97,1,180,6|2,3:2|0:0,0:0:0:0:
144,117,149532,1,0,0:0:0:0:
181,18,149682,2,0,B|187:102|187:102|191:109|191:109|198:209,1,180,10|2,0:0|0:0,0:0:0:0:
462,262,150282,6,0,P|376:244|331:318,1,180,2|2,3:2|0:0,0:0:0:0:
230,369,150732,1,0,0:0:0:0:
165,278,150882,2,0,P|211:285|251:262,2,90,10|0|2,0:0|0:0|0:0,0:0:0:0:
395,133,151482,6,0,L|406:312,1,180,2|2,3:2|0:0,0:0:0:0:
439,229,151932,1,0,0:0:0:0:
454,81,152082,2,0,P|375:55|316:128,1,180,10|2,0:0|0:0,0:0:0:0:
78,264,152682,6,0,B|128:302|173:272|162:260|217:234|263:276,2,180,2|2|10,3:2|0:0|0:0,0:0:0:0:
28,189,153432,1,0,0:0:0:0:
74,112,153582,1,2,0:0:0:0:
291,352,153882,6,0,B|286:267|286:267|282:260|282:260|277:173,1,180,2|2,3:2|0:0,0:0:0:0:
375,48,154332,1,0,0:0:0:0:
424,111,154482,2,0,P|358:126|297:39,1,180,10|2,0:0|0:0,0:0:0:0:
28,189,155082,6,0,P|94:204|152:116,1,180,2|2,3:2|0:0,0:0:0:0:
224,195,155532,1,0,0:0:0:0:
77,129,155682,2,0,L|71:37,2,90,10|0|2,0:0|0:0|0:0,0:0:0:0:
330,242,156282,6,0,P|264:227|206:315,1,180,2|2,3:2|0:0,0:0:0:0:
75,286,156732,1,0,0:0:0:0:
127,371,156882,2,0,B|123:284|123:284|118:277|118:277|112:192,1,180,10|2,0:0|0:0,0:0:0:0:
66,39,157332,1,0,3:0:0:0:
17,101,157482,6,0,P|83:116|141:28,1,180,2|2,0:0|0:0,0:0:0:0:
215,107,157932,1,0,0:0:0:0:
299,46,158082,2,0,L|307:141,2,90,10|0|2,0:0|0:0|0:0,0:0:0:0:
442,250,158682,5,2,0:0:0:0:
377,313,158982,1,0,0:0:0:0:
302,263,159282,1,2,0:0:0:0:
184,361,159582,1,0,0:0:0:0:
184,361,159732,1,0,0:0:0:0:
53,227,159882,6,0,P|95:200|157:215,1,101.250003862381,2|0,0:0|0:0,0:0:0:0:
114,294,160182,2,0,L|112:278,6,16.8750006437302,0|0|0|0|0|0|0,1:0|1:0|1:0|1:0|1:0|1:0|1:0,1:0:0:0:
87,366,160482,1,2,0:0:0:0:
9,216,160632,1,2,0:0:0:0:
130,98,160782,1,2,0:0:0:0:
146,128,160932,1,0,0:0:0:0:
304,171,161082,6,0,L|296:37,2,135.000005149842,2|0|2,0:0|0:0|0:0,0:0:0:0:
373,287,161982,1,0,0:0:0:0:
373,287,162132,1,0,0:0:0:0:
184,236,162282,6,0,P|226:234|274:278,1,101.250003862381,2|0,0:0|0:0,0:0:0:0:
206,325,162582,2,0,L|204:303,6,16.8750006437302,0|0|0|0|0|0|0,1:0|1:0|1:0|1:0|1:0|1:0|1:0,1:0:0:0:
127,357,162882,1,2,0:0:0:0:
116,189,163032,1,2,0:0:0:0:
107,21,163182,1,2,0:0:0:0:
83,45,163332,1,0,0:0:0:0:
210,126,163482,6,0,B|253:166|310:135|292:117|361:92|409:138,1,202.500007724762,2|0,0:0|0:0,0:0:0:0:
512,161,163782,2,0,P|473:97|497:-3,2,180,2|2|2,0:0|0:0|0:0,0:0:0:0:
256,282,164682,5,0,0:0:0:0:
421,324,164982,2,0,B|440:375|364:388|343:345|349:260|431:220,1,202.500007724762,2|0,0:0|0:0,0:0:0:0:
445,172,165282,1,2,0:0:0:0:
445,172,165432,1,0,0:0:0:0:
256,192,165882,12,2,167832,0:0:0:0:
197,259,168282,6,0,B|158:270|158:270|185:241,1,80.9999975280763,2|0,0:0|0:0,0:0:0:0:
343,209,168882,2,0,B|372:237|372:237|333:228,1,80.9999975280763,2|0,0:0|0:0,0:0:0:0:
227,107,169482,2,0,B|237:68|237:68|248:106,1,80.9999975280763,2|0,0:0|0:0,0:0:0:0:
256,192,170157,5,2,0:0:0:0:
