osu file format v14

[General]
AudioFilename: audio.mp3
AudioLeadIn: 0
PreviewTime: 97871
Countdown: 0
SampleSet: None
StackLeniency: 0.7
Mode: 3
LetterboxInBreaks: 0
SpecialStyle: 0
WidescreenStoryboard: 0

[Editor]
DistanceSpacing: 0.8
BeatDivisor: 4
GridSize: 16
TimelineZoom: 2.5

[Metadata]
Title:REGRET PART TWO
TitleUnicode:惋 (二)
Artist:onumi
ArtistUnicode:オヌミ
Creator:Vent
Version:collapse
Source:Childhood Friend
Tags:
BeatmapID:1969677
BeatmapSetID:943174

[Difficulty]
HPDrainRate:8
CircleSize:4
OverallDifficulty:8
ApproachRate:5
SliderMultiplier:1.4
SliderTickRate:1

[Events]
//Background and Video events
0,0,"regret part two.png",0,0
//Break Periods
//Storyboard Layer 0 (Background)
//Storyboard Layer 1 (Fail)
//Storyboard Layer 2 (Pass)
//Storyboard Layer 3 (Foreground)
//Storyboard Sound Samples

[TimingPoints]
184,250,4,2,0,50,1,0
82184,500,4,2,0,50,1,0
97934,-50,4,2,0,100,0,0
98184,500,3,2,0,50,1,0
98184,-50,4,2,0,100,0,0

[HitObjects]
192,192,184,5,0,0:0:0:0:
320,192,246,1,0,0:0:0:0:
448,192,309,128,0,434:0:0:0:0:
192,192,434,1,0,0:0:0:0:
320,192,496,1,0,0:0:0:0:
448,192,559,128,0,684:0:0:0:0:
192,192,684,1,0,0:0:0:0:
320,192,746,1,0,0:0:0:0:
448,192,809,128,0,934:0:0:0:0:
192,192,934,1,0,0:0:0:0:
320,192,996,1,0,0:0:0:0:
448,192,1059,128,0,1184:0:0:0:0:
64,192,1184,128,0,1309:0:0:0:0:
320,192,1309,128,0,1371:0:0:0:0:
448,192,1371,1,0,0:0:0:0:
192,192,1434,1,0,0:0:0:0:
448,192,1496,1,0,0:0:0:0:
192,192,1559,1,0,0:0:0:0:
448,192,1621,1,0,0:0:0:0:
192,192,1684,1,0,0:0:0:0:
448,192,1746,1,0,0:0:0:0:
192,192,1809,1,0,0:0:0:0:
448,192,1871,1,0,0:0:0:0:
192,192,1934,1,0,0:0:0:0:
448,192,1996,1,0,0:0:0:0:
320,192,2059,1,0,0:0:0:0:
192,192,2100,1,0,0:0:0:0:
64,192,2142,1,0,0:0:0:0:
448,192,2184,1,0,0:0:0:0:
320,192,2225,1,0,0:0:0:0:
192,192,2267,1,0,0:0:0:0:
448,192,2309,1,0,0:0:0:0:
64,192,2350,1,0,0:0:0:0:
192,192,2392,1,0,0:0:0:0:
448,192,2434,1,0,0:0:0:0:
320,192,2434,1,0,0:0:0:0:
320,192,2559,1,0,0:0:0:0:
320,192,2684,1,0,0:0:0:0:
320,192,2809,1,0,0:0:0:0:
192,192,2934,1,0,0:0:0:0:
192,192,3059,1,0,0:0:0:0:
192,192,3184,1,0,0:0:0:0:
192,192,3309,1,0,0:0:0:0:
320,192,3434,1,0,0:0:0:0:
320,192,3559,1,0,0:0:0:0:
320,192,3684,1,0,0:0:0:0:
320,192,3809,1,0,0:0:0:0:
448,192,3934,1,0,0:0:0:0:
64,192,3975,1,0,0:0:0:0:
192,192,4017,1,0,0:0:0:0:
320,192,4059,1,0,0:0:0:0:
448,192,4100,1,0,0:0:0:0:
192,192,4142,1,0,0:0:0:0:
64,192,4184,1,0,0:0:0:0:
320,192,4225,1,0,0:0:0:0:
448,192,4267,1,0,0:0:0:0:
64,192,4309,1,0,0:0:0:0:
192,192,4350,1,0,0:0:0:0:
448,192,4392,1,0,0:0:0:0:
192,192,4434,1,0,0:0:0:0:
320,192,4434,1,0,0:0:0:0:
320,192,4559,1,0,0:0:0:0:
320,192,4684,1,0,0:0:0:0:
320,192,4809,1,0,0:0:0:0:
192,192,4934,1,0,0:0:0:0:
192,192,5059,1,0,0:0:0:0:
192,192,5184,1,0,0:0:0:0:
192,192,5309,1,0,0:0:0:0:
320,192,5434,1,0,0:0:0:0:
320,192,5559,1,0,0:0:0:0:
320,192,5684,1,0,0:0:0:0:
320,192,5809,1,0,0:0:0:0:
448,192,5934,1,0,0:0:0:0:
64,192,6017,1,0,0:0:0:0:
448,192,6059,1,0,0:0:0:0:
192,192,6100,1,0,0:0:0:0:
320,192,6142,1,0,0:0:0:0:
64,192,6184,1,0,0:0:0:0:
192,192,6225,1,0,0:0:0:0:
320,192,6267,1,0,0:0:0:0:
448,192,6309,1,0,0:0:0:0:
192,192,6350,1,0,0:0:0:0:
64,192,6392,1,0,0:0:0:0:
448,192,6434,1,0,0:0:0:0:
320,192,6434,1,0,0:0:0:0:
320,192,6559,1,0,0:0:0:0:
320,192,6684,1,0,0:0:0:0:
448,192,6684,128,0,6809:0:0:0:0:
320,192,6809,1,0,0:0:0:0:
192,192,6934,1,0,0:0:0:0:
64,192,6934,128,0,7059:0:0:0:0:
192,192,7059,1,0,0:0:0:0:
192,192,7184,1,0,0:0:0:0:
448,192,7184,128,0,7309:0:0:0:0:
192,192,7309,1,0,0:0:0:0:
320,192,7434,1,0,0:0:0:0:
64,192,7434,128,0,7559:0:0:0:0:
320,192,7559,1,0,0:0:0:0:
320,192,7684,1,0,0:0:0:0:
448,192,7684,128,0,7809:0:0:0:0:
320,192,7809,1,0,0:0:0:0:
448,192,7934,1,0,0:0:0:0:
64,192,8017,1,0,0:0:0:0:
192,192,8058,1,0,0:0:0:0:
320,192,8100,1,0,0:0:0:0:
448,192,8142,1,0,0:0:0:0:
192,192,8184,1,0,0:0:0:0:
64,192,8225,1,0,0:0:0:0:
320,192,8267,1,0,0:0:0:0:
448,192,8309,1,0,0:0:0:0:
64,192,8350,1,0,0:0:0:0:
192,192,8392,1,0,0:0:0:0:
320,192,8434,1,0,0:0:0:0:
448,192,8434,1,0,0:0:0:0:
320,192,8559,1,0,0:0:0:0:
320,192,8684,1,0,0:0:0:0:
448,192,8684,128,0,8809:0:0:0:0:
320,192,8809,1,0,0:0:0:0:
192,192,8934,1,0,0:0:0:0:
64,192,8934,128,0,9059:0:0:0:0:
192,192,9059,1,0,0:0:0:0:
192,192,9184,1,0,0:0:0:0:
448,192,9184,128,0,9309:0:0:0:0:
192,192,9309,1,0,0:0:0:0:
320,192,9434,1,0,0:0:0:0:
64,192,9434,128,0,9559:0:0:0:0:
320,192,9559,1,0,0:0:0:0:
320,192,9684,1,0,0:0:0:0:
448,192,9684,128,0,9809:0:0:0:0:
320,192,9809,1,0,0:0:0:0:
448,192,9934,1,0,0:0:0:0:
64,192,10017,1,0,0:0:0:0:
192,192,10059,1,0,0:0:0:0:
320,192,10100,1,0,0:0:0:0:
448,192,10142,1,0,0:0:0:0:
64,192,10184,1,0,0:0:0:0:
192,192,10184,1,0,0:0:0:0:
320,192,10225,1,0,0:0:0:0:
192,192,10267,1,0,0:0:0:0:
448,192,10309,1,0,0:0:0:0:
64,192,10350,1,0,0:0:0:0:
192,192,10392,1,0,0:0:0:0:
320,192,10434,1,0,0:0:0:0:
448,192,10434,128,0,10559:0:0:0:0:
320,192,10559,1,0,0:0:0:0:
320,192,10684,1,0,0:0:0:0:
448,192,10684,128,0,10809:0:0:0:0:
320,192,10809,1,0,0:0:0:0:
192,192,10934,1,0,0:0:0:0:
448,192,10934,128,0,11059:0:0:0:0:
192,192,11059,1,0,0:0:0:0:
192,192,11184,1,0,0:0:0:0:
448,192,11184,128,0,11309:0:0:0:0:
64,192,11184,1,0,0:0:0:0:
192,192,11309,1,0,0:0:0:0:
64,192,11309,1,0,0:0:0:0:
320,192,11434,1,0,0:0:0:0:
64,192,11434,1,0,0:0:0:0:
448,192,11434,128,0,11559:0:0:0:0:
320,192,11559,1,0,0:0:0:0:
64,192,11559,1,0,0:0:0:0:
320,192,11684,1,0,0:0:0:0:
192,192,11684,1,0,0:0:0:0:
448,192,11684,128,0,11809:0:0:0:0:
320,192,11809,1,0,0:0:0:0:
192,192,11809,1,0,0:0:0:0:
448,192,11934,1,0,0:0:0:0:
192,192,12017,1,0,0:0:0:0:
64,192,12059,1,0,0:0:0:0:
448,192,12100,1,0,0:0:0:0:
320,192,12142,1,0,0:0:0:0:
192,192,12184,1,0,0:0:0:0:
64,192,12225,1,0,0:0:0:0:
320,192,12267,1,0,0:0:0:0:
448,192,12309,1,0,0:0:0:0:
64,192,12350,1,0,0:0:0:0:
192,192,12392,1,0,0:0:0:0:
320,192,12434,1,0,0:0:0:0:
448,192,12434,128,0,12559:0:0:0:0:
320,192,12559,1,0,0:0:0:0:
320,192,12684,1,0,0:0:0:0:
448,192,12684,128,0,12809:0:0:0:0:
320,192,12809,1,0,0:0:0:0:
192,192,12934,1,0,0:0:0:0:
448,192,12934,128,0,13059:0:0:0:0:
192,192,13059,1,0,0:0:0:0:
192,192,13184,1,0,0:0:0:0:
64,192,13184,1,0,0:0:0:0:
448,192,13184,128,0,13309:0:0:0:0:
192,192,13309,1,0,0:0:0:0:
64,192,13309,1,0,0:0:0:0:
64,192,13434,1,0,0:0:0:0:
320,192,13434,1,0,0:0:0:0:
448,192,13434,128,0,13559:0:0:0:0:
64,192,13559,1,0,0:0:0:0:
320,192,13559,1,0,0:0:0:0:
320,192,13684,1,0,0:0:0:0:
448,192,13684,128,0,13809:0:0:0:0:
192,192,13684,1,0,0:0:0:0:
320,192,13809,1,0,0:0:0:0:
192,192,13809,1,0,0:0:0:0:
448,192,13934,1,0,0:0:0:0:
320,192,14017,1,0,0:0:0:0:
192,192,14059,1,0,0:0:0:0:
64,192,14100,1,0,0:0:0:0:
448,192,14142,1,0,0:0:0:0:
320,192,14184,1,0,0:0:0:0:
192,192,14184,1,0,0:0:0:0:
192,192,14309,1,0,0:0:0:0:
320,192,14350,1,0,0:0:0:0:
448,192,14392,1,0,0:0:0:0:
64,192,14434,1,0,0:0:0:0:
192,192,14434,1,0,0:0:0:0:
64,192,14559,1,0,0:0:0:0:
192,192,14559,1,0,0:0:0:0:
64,192,14684,1,0,0:0:0:0:
192,192,14684,1,0,0:0:0:0:
64,192,14809,1,0,0:0:0:0:
192,192,14809,1,0,0:0:0:0:
320,192,14934,1,0,0:0:0:0:
448,192,14934,1,0,0:0:0:0:
320,192,15059,1,0,0:0:0:0:
448,192,15059,1,0,0:0:0:0:
320,192,15184,1,0,0:0:0:0:
448,192,15184,1,0,0:0:0:0:
320,192,15309,1,0,0:0:0:0:
448,192,15309,1,0,0:0:0:0:
64,192,15434,1,0,0:0:0:0:
192,192,15434,1,0,0:0:0:0:
64,192,15559,1,0,0:0:0:0:
192,192,15559,1,0,0:0:0:0:
64,192,15684,1,0,0:0:0:0:
192,192,15684,1,0,0:0:0:0:
64,192,15809,1,0,0:0:0:0:
192,192,15809,1,0,0:0:0:0:
320,192,15934,1,0,0:0:0:0:
448,192,15934,1,0,0:0:0:0:
320,192,16059,1,0,0:0:0:0:
448,192,16059,1,0,0:0:0:0:
320,192,16184,1,0,0:0:0:0:
448,192,16184,1,0,0:0:0:0:
320,192,16309,1,0,0:0:0:0:
448,192,16309,1,0,0:0:0:0:
64,192,16434,1,0,0:0:0:0:
192,192,16434,1,0,0:0:0:0:
64,192,16559,5,0,0:0:0:0:
192,192,16559,1,0,0:0:0:0:
64,192,16684,1,0,0:0:0:0:
192,192,16684,1,0,0:0:0:0:
64,192,16809,1,0,0:0:0:0:
192,192,16809,1,0,0:0:0:0:
320,192,16934,1,0,0:0:0:0:
448,192,16934,1,0,0:0:0:0:
320,192,17059,1,0,0:0:0:0:
448,192,17059,1,0,0:0:0:0:
320,192,17184,1,0,0:0:0:0:
448,192,17184,1,0,0:0:0:0:
320,192,17309,1,0,0:0:0:0:
448,192,17309,1,0,0:0:0:0:
64,192,17434,1,0,0:0:0:0:
192,192,17434,1,0,0:0:0:0:
64,192,17559,1,0,0:0:0:0:
192,192,17559,1,0,0:0:0:0:
448,192,17684,5,0,0:0:0:0:
320,192,17684,1,0,0:0:0:0:
192,192,17684,1,0,0:0:0:0:
64,192,17684,1,0,0:0:0:0:
192,192,17934,1,0,0:0:0:0:
320,192,17934,1,0,0:0:0:0:
448,192,17996,1,0,0:0:0:0:
64,192,18059,1,0,0:0:0:0:
192,192,18059,1,0,0:0:0:0:
320,192,18121,1,0,0:0:0:0:
448,192,18121,1,0,0:0:0:0:
64,192,18184,1,0,0:0:0:0:
192,192,18184,1,0,0:0:0:0:
192,192,18309,1,0,0:0:0:0:
320,192,18371,1,0,0:0:0:0:
64,192,18434,1,0,0:0:0:0:
192,192,18434,1,0,0:0:0:0:
448,192,18434,1,0,0:0:0:0:
320,192,18559,1,0,0:0:0:0:
192,192,18621,1,0,0:0:0:0:
448,192,18684,1,0,0:0:0:0:
320,192,18684,1,0,0:0:0:0:
64,192,18684,1,0,0:0:0:0:
192,192,18809,1,0,0:0:0:0:
320,192,18871,1,0,0:0:0:0:
192,192,18934,1,0,0:0:0:0:
64,192,18934,1,0,0:0:0:0:
448,192,18934,1,0,0:0:0:0:
320,192,19059,1,0,0:0:0:0:
192,192,19121,1,0,0:0:0:0:
448,192,19184,1,0,0:0:0:0:
320,192,19184,1,0,0:0:0:0:
64,192,19184,1,0,0:0:0:0:
192,192,19309,1,0,0:0:0:0:
320,192,19371,1,0,0:0:0:0:
192,192,19434,1,0,0:0:0:0:
64,192,19434,1,0,0:0:0:0:
448,192,19434,1,0,0:0:0:0:
320,192,19559,1,0,0:0:0:0:
192,192,19621,1,0,0:0:0:0:
320,192,19684,1,0,0:0:0:0:
448,192,19684,1,0,0:0:0:0:
64,192,19684,1,0,0:0:0:0:
192,192,19809,1,0,0:0:0:0:
320,192,19871,1,0,0:0:0:0:
192,192,19934,1,0,0:0:0:0:
64,192,19934,1,0,0:0:0:0:
448,192,19934,1,0,0:0:0:0:
320,192,20059,1,0,0:0:0:0:
192,192,20121,1,0,0:0:0:0:
448,192,20184,1,0,0:0:0:0:
320,192,20184,1,0,0:0:0:0:
64,192,20184,1,0,0:0:0:0:
64,192,20309,1,0,0:0:0:0:
448,192,20371,1,0,0:0:0:0:
64,192,20434,1,0,0:0:0:0:
192,192,20434,1,0,0:0:0:0:
320,192,20434,1,0,0:0:0:0:
448,192,20559,1,0,0:0:0:0:
64,192,20621,1,0,0:0:0:0:
192,192,20684,1,0,0:0:0:0:
448,192,20684,1,0,0:0:0:0:
320,192,20684,1,0,0:0:0:0:
64,192,20809,1,0,0:0:0:0:
448,192,20871,1,0,0:0:0:0:
192,192,20934,1,0,0:0:0:0:
64,192,20934,1,0,0:0:0:0:
320,192,20934,1,0,0:0:0:0:
448,192,21059,1,0,0:0:0:0:
64,192,21121,1,0,0:0:0:0:
192,192,21184,1,0,0:0:0:0:
320,192,21184,1,0,0:0:0:0:
448,192,21184,1,0,0:0:0:0:
64,192,21309,1,0,0:0:0:0:
448,192,21371,1,0,0:0:0:0:
320,192,21434,1,0,0:0:0:0:
192,192,21434,1,0,0:0:0:0:
64,192,21434,1,0,0:0:0:0:
448,192,21559,1,0,0:0:0:0:
64,192,21621,1,0,0:0:0:0:
192,192,21684,1,0,0:0:0:0:
448,192,21684,1,0,0:0:0:0:
320,192,21684,1,0,0:0:0:0:
64,192,21809,1,0,0:0:0:0:
448,192,21871,1,0,0:0:0:0:
320,192,21934,1,0,0:0:0:0:
64,192,21934,1,0,0:0:0:0:
192,192,21934,1,0,0:0:0:0:
448,192,21996,1,0,0:0:0:0:
64,192,22059,1,0,0:0:0:0:
192,192,22059,1,0,0:0:0:0:
320,192,22121,1,0,0:0:0:0:
64,192,22184,1,0,0:0:0:0:
192,192,22184,1,0,0:0:0:0:
448,192,22184,1,0,0:0:0:0:
320,192,22309,1,0,0:0:0:0:
192,192,22371,1,0,0:0:0:0:
320,192,22434,1,0,0:0:0:0:
448,192,22434,1,0,0:0:0:0:
64,192,22434,1,0,0:0:0:0:
192,192,22559,1,0,0:0:0:0:
320,192,22621,1,0,0:0:0:0:
192,192,22684,1,0,0:0:0:0:
64,192,22684,1,0,0:0:0:0:
448,192,22684,1,0,0:0:0:0:
320,192,22809,1,0,0:0:0:0:
192,192,22871,1,0,0:0:0:0:
64,192,22934,1,0,0:0:0:0:
320,192,22934,1,0,0:0:0:0:
448,192,22934,1,0,0:0:0:0:
192,192,23059,1,0,0:0:0:0:
320,192,23121,1,0,0:0:0:0:
64,192,23184,1,0,0:0:0:0:
192,192,23184,1,0,0:0:0:0:
448,192,23184,1,0,0:0:0:0:
320,192,23309,1,0,0:0:0:0:
192,192,23371,1,0,0:0:0:0:
64,192,23434,1,0,0:0:0:0:
320,192,23434,1,0,0:0:0:0:
448,192,23434,1,0,0:0:0:0:
192,192,23559,1,0,0:0:0:0:
320,192,23621,1,0,0:0:0:0:
192,192,23684,1,0,0:0:0:0:
64,192,23684,1,0,0:0:0:0:
448,192,23684,1,0,0:0:0:0:
320,192,23809,1,0,0:0:0:0:
192,192,23871,1,0,0:0:0:0:
320,192,23934,1,0,0:0:0:0:
448,192,23934,1,0,0:0:0:0:
64,192,23934,1,0,0:0:0:0:
192,192,24059,1,0,0:0:0:0:
320,192,24121,1,0,0:0:0:0:
192,192,24184,1,0,0:0:0:0:
64,192,24184,1,0,0:0:0:0:
448,192,24184,1,0,0:0:0:0:
448,192,24309,1,0,0:0:0:0:
64,192,24371,1,0,0:0:0:0:
192,192,24434,1,0,0:0:0:0:
320,192,24434,1,0,0:0:0:0:
448,192,24434,1,0,0:0:0:0:
64,192,24559,1,0,0:0:0:0:
448,192,24621,1,0,0:0:0:0:
64,192,24684,1,0,0:0:0:0:
192,192,24684,1,0,0:0:0:0:
320,192,24684,1,0,0:0:0:0:
448,192,24809,1,0,0:0:0:0:
64,192,24871,1,0,0:0:0:0:
192,192,24934,1,0,0:0:0:0:
320,192,24934,1,0,0:0:0:0:
448,192,24934,1,0,0:0:0:0:
64,192,25059,1,0,0:0:0:0:
448,192,25121,1,0,0:0:0:0:
320,192,25184,1,0,0:0:0:0:
192,192,25184,1,0,0:0:0:0:
64,192,25184,1,0,0:0:0:0:
448,192,25309,1,0,0:0:0:0:
64,192,25371,1,0,0:0:0:0:
192,192,25434,1,0,0:0:0:0:
320,192,25434,1,0,0:0:0:0:
448,192,25434,1,0,0:0:0:0:
64,192,25559,1,0,0:0:0:0:
448,192,25621,1,0,0:0:0:0:
320,192,25684,1,0,0:0:0:0:
192,192,25684,1,0,0:0:0:0:
64,192,25684,1,0,0:0:0:0:
448,192,25809,1,0,0:0:0:0:
64,192,25871,1,0,0:0:0:0:
320,192,25934,1,0,0:0:0:0:
192,192,25934,1,0,0:0:0:0:
448,192,25996,1,0,0:0:0:0:
64,192,26059,1,0,0:0:0:0:
192,192,26059,1,0,0:0:0:0:
448,192,26121,1,0,0:0:0:0:
64,192,26184,1,0,0:0:0:0:
192,192,26184,1,0,0:0:0:0:
320,192,26184,1,0,0:0:0:0:
320,192,26309,1,0,0:0:0:0:
448,192,26371,1,0,0:0:0:0:
64,192,26434,1,0,0:0:0:0:
192,192,26434,1,0,0:0:0:0:
320,192,26434,1,0,0:0:0:0:
192,192,26559,1,0,0:0:0:0:
448,192,26621,1,0,0:0:0:0:
64,192,26684,1,0,0:0:0:0:
192,192,26684,1,0,0:0:0:0:
320,192,26684,1,0,0:0:0:0:
320,192,26809,1,0,0:0:0:0:
448,192,26871,1,0,0:0:0:0:
192,192,26934,1,0,0:0:0:0:
64,192,26934,1,0,0:0:0:0:
320,192,26934,1,0,0:0:0:0:
192,192,27059,1,0,0:0:0:0:
448,192,27121,1,0,0:0:0:0:
192,192,27184,1,0,0:0:0:0:
64,192,27184,1,0,0:0:0:0:
320,192,27184,1,0,0:0:0:0:
320,192,27309,1,0,0:0:0:0:
448,192,27371,1,0,0:0:0:0:
320,192,27434,1,0,0:0:0:0:
64,192,27434,1,0,0:0:0:0:
192,192,27434,1,0,0:0:0:0:
192,192,27559,1,0,0:0:0:0:
448,192,27621,1,0,0:0:0:0:
320,192,27684,1,0,0:0:0:0:
192,192,27684,1,0,0:0:0:0:
64,192,27684,1,0,0:0:0:0:
320,192,27809,1,0,0:0:0:0:
448,192,27871,1,0,0:0:0:0:
320,192,27934,1,0,0:0:0:0:
192,192,27934,1,0,0:0:0:0:
64,192,27934,1,0,0:0:0:0:
192,192,28059,1,0,0:0:0:0:
64,192,28121,1,0,0:0:0:0:
320,192,28184,1,0,0:0:0:0:
192,192,28184,1,0,0:0:0:0:
448,192,28184,1,0,0:0:0:0:
320,192,28309,1,0,0:0:0:0:
64,192,28371,1,0,0:0:0:0:
320,192,28434,1,0,0:0:0:0:
192,192,28434,1,0,0:0:0:0:
448,192,28434,1,0,0:0:0:0:
192,192,28559,1,0,0:0:0:0:
64,192,28621,1,0,0:0:0:0:
320,192,28684,1,0,0:0:0:0:
192,192,28684,1,0,0:0:0:0:
448,192,28684,1,0,0:0:0:0:
320,192,28809,1,0,0:0:0:0:
64,192,28871,1,0,0:0:0:0:
192,192,28934,1,0,0:0:0:0:
320,192,28934,1,0,0:0:0:0:
448,192,28934,1,0,0:0:0:0:
192,192,29059,1,0,0:0:0:0:
64,192,29121,1,0,0:0:0:0:
192,192,29184,1,0,0:0:0:0:
448,192,29184,1,0,0:0:0:0:
320,192,29184,1,0,0:0:0:0:
320,192,29309,1,0,0:0:0:0:
64,192,29371,1,0,0:0:0:0:
192,192,29434,1,0,0:0:0:0:
320,192,29434,1,0,0:0:0:0:
448,192,29434,1,0,0:0:0:0:
192,192,29559,1,0,0:0:0:0:
64,192,29621,1,0,0:0:0:0:
192,192,29684,1,0,0:0:0:0:
448,192,29684,1,0,0:0:0:0:
320,192,29684,1,0,0:0:0:0:
320,192,29809,1,0,0:0:0:0:
64,192,29871,1,0,0:0:0:0:
192,192,29934,1,0,0:0:0:0:
320,192,29934,1,0,0:0:0:0:
448,192,29934,1,0,0:0:0:0:
192,192,30059,1,0,0:0:0:0:
448,192,30121,1,0,0:0:0:0:
320,192,30184,1,0,0:0:0:0:
192,192,30184,1,0,0:0:0:0:
64,192,30184,1,0,0:0:0:0:
320,192,30309,1,0,0:0:0:0:
448,192,30371,1,0,0:0:0:0:
320,192,30434,1,0,0:0:0:0:
192,192,30434,1,0,0:0:0:0:
64,192,30434,1,0,0:0:0:0:
192,192,30559,1,0,0:0:0:0:
448,192,30621,1,0,0:0:0:0:
320,192,30684,1,0,0:0:0:0:
192,192,30684,1,0,0:0:0:0:
64,192,30684,1,0,0:0:0:0:
320,192,30809,1,0,0:0:0:0:
448,192,30871,1,0,0:0:0:0:
320,192,30934,1,0,0:0:0:0:
192,192,30934,1,0,0:0:0:0:
64,192,30934,1,0,0:0:0:0:
192,192,31059,1,0,0:0:0:0:
448,192,31121,1,0,0:0:0:0:
320,192,31184,1,0,0:0:0:0:
192,192,31184,1,0,0:0:0:0:
64,192,31184,1,0,0:0:0:0:
320,192,31309,1,0,0:0:0:0:
448,192,31371,1,0,0:0:0:0:
320,192,31434,1,0,0:0:0:0:
192,192,31434,1,0,0:0:0:0:
64,192,31434,1,0,0:0:0:0:
192,192,31559,1,0,0:0:0:0:
448,192,31621,1,0,0:0:0:0:
320,192,31684,1,0,0:0:0:0:
192,192,31684,1,0,0:0:0:0:
64,192,31684,1,0,0:0:0:0:
320,192,31809,1,0,0:0:0:0:
448,192,31871,1,0,0:0:0:0:
320,192,31934,1,0,0:0:0:0:
192,192,31934,1,0,0:0:0:0:
64,192,31934,1,0,0:0:0:0:
192,192,32059,1,0,0:0:0:0:
448,192,32121,1,0,0:0:0:0:
64,192,32184,1,0,0:0:0:0:
192,192,32184,1,0,0:0:0:0:
320,192,32184,1,0,0:0:0:0:
64,192,32309,1,0,0:0:0:0:
192,192,32309,1,0,0:0:0:0:
320,192,32309,1,0,0:0:0:0:
192,192,32434,1,0,0:0:0:0:
448,192,32434,1,0,0:0:0:0:
320,192,32434,1,0,0:0:0:0:
192,192,32559,1,0,0:0:0:0:
320,192,32559,1,0,0:0:0:0:
448,192,32559,1,0,0:0:0:0:
64,192,32684,1,0,0:0:0:0:
320,192,32684,1,0,0:0:0:0:
448,192,32684,1,0,0:0:0:0:
320,192,32809,1,0,0:0:0:0:
448,192,32809,1,0,0:0:0:0:
64,192,32809,1,0,0:0:0:0:
64,192,32934,1,0,0:0:0:0:
192,192,32934,1,0,0:0:0:0:
448,192,32934,1,0,0:0:0:0:
64,192,33059,1,0,0:0:0:0:
192,192,33059,1,0,0:0:0:0:
448,192,33059,1,0,0:0:0:0:
64,192,33184,1,0,0:0:0:0:
192,192,33184,1,0,0:0:0:0:
320,192,33184,1,0,0:0:0:0:
448,192,33184,1,0,0:0:0:0:
192,192,33934,1,0,0:0:0:0:
320,192,33934,1,0,0:0:0:0:
448,192,33934,1,0,0:0:0:0:
192,192,34059,1,0,0:0:0:0:
320,192,34059,1,0,0:0:0:0:
448,192,34059,1,0,0:0:0:0:
64,192,34184,1,0,0:0:0:0:
320,192,34184,1,0,0:0:0:0:
448,192,34184,1,0,0:0:0:0:
192,192,34246,1,0,0:0:0:0:
320,192,34309,1,0,0:0:0:0:
64,192,34371,1,0,0:0:0:0:
320,192,34434,1,0,0:0:0:0:
448,192,34434,1,0,0:0:0:0:
192,192,34434,1,0,0:0:0:0:
64,192,34496,1,0,0:0:0:0:
192,192,34559,1,0,0:0:0:0:
320,192,34559,1,0,0:0:0:0:
64,192,34934,1,0,0:0:0:0:
192,192,34934,1,0,0:0:0:0:
320,192,34934,1,0,0:0:0:0:
448,192,34996,1,0,0:0:0:0:
320,192,35059,1,0,0:0:0:0:
192,192,35121,1,0,0:0:0:0:
64,192,35184,1,0,0:0:0:0:
320,192,35184,1,0,0:0:0:0:
448,192,35184,1,0,0:0:0:0:
192,192,35246,1,0,0:0:0:0:
448,192,35309,1,0,0:0:0:0:
320,192,35309,1,0,0:0:0:0:
64,192,35559,1,0,0:0:0:0:
192,192,35559,1,0,0:0:0:0:
320,192,35559,1,0,0:0:0:0:
64,192,35684,1,0,0:0:0:0:
192,192,35684,1,0,0:0:0:0:
448,192,35684,1,0,0:0:0:0:
320,192,35746,1,0,0:0:0:0:
192,192,35809,1,0,0:0:0:0:
64,192,35871,1,0,0:0:0:0:
320,192,35934,1,0,0:0:0:0:
448,192,35934,1,0,0:0:0:0:
192,192,35996,1,0,0:0:0:0:
64,192,36059,1,0,0:0:0:0:
448,192,36121,1,0,0:0:0:0:
320,192,36184,1,0,0:0:0:0:
192,192,36184,1,0,0:0:0:0:
64,192,36246,1,0,0:0:0:0:
448,192,36309,1,0,0:0:0:0:
192,192,36371,1,0,0:0:0:0:
320,192,36434,1,0,0:0:0:0:
64,192,36434,1,0,0:0:0:0:
448,192,36434,1,0,0:0:0:0:
320,192,36559,1,0,0:0:0:0:
448,192,36559,1,0,0:0:0:0:
64,192,36934,1,0,0:0:0:0:
192,192,36934,1,0,0:0:0:0:
320,192,36934,1,0,0:0:0:0:
448,192,36996,1,0,0:0:0:0:
192,192,37059,1,0,0:0:0:0:
320,192,37121,1,0,0:0:0:0:
448,192,37184,1,0,0:0:0:0:
64,192,37184,1,0,0:0:0:0:
192,192,37184,1,0,0:0:0:0:
320,192,37246,1,0,0:0:0:0:
192,192,37309,1,0,0:0:0:0:
64,192,37309,1,0,0:0:0:0:
64,192,37559,1,0,0:0:0:0:
192,192,37559,1,0,0:0:0:0:
448,192,37559,1,0,0:0:0:0:
64,192,37684,1,0,0:0:0:0:
192,192,37684,1,0,0:0:0:0:
320,192,37684,1,0,0:0:0:0:
448,192,37746,1,0,0:0:0:0:
320,192,37809,1,0,0:0:0:0:
64,192,37871,1,0,0:0:0:0:
448,192,37934,1,0,0:0:0:0:
320,192,37934,1,0,0:0:0:0:
64,192,37996,1,0,0:0:0:0:
192,192,37996,1,0,0:0:0:0:
320,192,38059,1,0,0:0:0:0:
448,192,38121,1,0,0:0:0:0:
192,192,38184,1,0,0:0:0:0:
64,192,38184,1,0,0:0:0:0:
448,192,38246,1,0,0:0:0:0:
320,192,38309,1,0,0:0:0:0:
64,192,38371,1,0,0:0:0:0:
192,192,38434,1,0,0:0:0:0:
320,192,38434,1,0,0:0:0:0:
448,192,38434,1,0,0:0:0:0:
64,192,38496,1,0,0:0:0:0:
192,192,38559,1,0,0:0:0:0:
448,192,38559,1,0,0:0:0:0:
192,192,38934,1,0,0:0:0:0:
320,192,38934,1,0,0:0:0:0:
448,192,38934,1,0,0:0:0:0:
64,192,38996,1,0,0:0:0:0:
448,192,39059,1,0,0:0:0:0:
320,192,39121,1,0,0:0:0:0:
64,192,39184,1,0,0:0:0:0:
192,192,39184,1,0,0:0:0:0:
448,192,39184,1,0,0:0:0:0:
320,192,39246,1,0,0:0:0:0:
192,192,39309,1,0,0:0:0:0:
64,192,39309,1,0,0:0:0:0:
320,192,39559,1,0,0:0:0:0:
448,192,39559,1,0,0:0:0:0:
64,192,39559,1,0,0:0:0:0:
64,192,39684,1,0,0:0:0:0:
192,192,39684,1,0,0:0:0:0:
320,192,39684,1,0,0:0:0:0:
448,192,39746,1,0,0:0:0:0:
320,192,39809,1,0,0:0:0:0:
64,192,39871,1,0,0:0:0:0:
320,192,39934,1,0,0:0:0:0:
448,192,39934,1,0,0:0:0:0:
192,192,39996,1,0,0:0:0:0:
64,192,40059,1,0,0:0:0:0:
448,192,40121,1,0,0:0:0:0:
192,192,40184,1,0,0:0:0:0:
64,192,40184,1,0,0:0:0:0:
320,192,40246,1,0,0:0:0:0:
448,192,40309,1,0,0:0:0:0:
64,192,40371,1,0,0:0:0:0:
192,192,40434,1,0,0:0:0:0:
320,192,40434,1,0,0:0:0:0:
448,192,40434,1,0,0:0:0:0:
64,192,40496,1,0,0:0:0:0:
320,192,40559,1,0,0:0:0:0:
448,192,40559,1,0,0:0:0:0:
64,192,40934,1,0,0:0:0:0:
192,192,40934,1,0,0:0:0:0:
320,192,40934,1,0,0:0:0:0:
448,192,40996,1,0,0:0:0:0:
64,192,41059,1,0,0:0:0:0:
192,192,41121,1,0,0:0:0:0:
320,192,41184,1,0,0:0:0:0:
448,192,41184,1,0,0:0:0:0:
64,192,41184,1,0,0:0:0:0:
192,192,41246,1,0,0:0:0:0:
64,192,41309,1,0,0:0:0:0:
320,192,41309,1,0,0:0:0:0:
448,192,41559,1,0,0:0:0:0:
64,192,41559,1,0,0:0:0:0:
320,192,41559,1,0,0:0:0:0:
64,192,41684,1,0,0:0:0:0:
192,192,41684,1,0,0:0:0:0:
448,192,41684,1,0,0:0:0:0:
320,192,41746,1,0,0:0:0:0:
192,192,41809,1,0,0:0:0:0:
64,192,41871,1,0,0:0:0:0:
320,192,41934,1,0,0:0:0:0:
448,192,41934,1,0,0:0:0:0:
64,192,41996,1,0,0:0:0:0:
192,192,41996,1,0,0:0:0:0:
320,192,42059,1,0,0:0:0:0:
448,192,42121,1,0,0:0:0:0:
64,192,42184,1,0,0:0:0:0:
192,192,42184,1,0,0:0:0:0:
320,192,42246,1,0,0:0:0:0:
192,192,42309,1,0,0:0:0:0:
64,192,42371,1,0,0:0:0:0:
192,192,42434,1,0,0:0:0:0:
320,192,42434,1,0,0:0:0:0:
448,192,42434,1,0,0:0:0:0:
64,192,42496,1,0,0:0:0:0:
320,192,42559,1,0,0:0:0:0:
448,192,42559,1,0,0:0:0:0:
64,192,42934,1,0,0:0:0:0:
320,192,42934,1,0,0:0:0:0:
448,192,42934,1,0,0:0:0:0:
192,192,42996,1,0,0:0:0:0:
320,192,43059,1,0,0:0:0:0:
448,192,43121,1,0,0:0:0:0:
64,192,43184,1,0,0:0:0:0:
192,192,43184,1,0,0:0:0:0:
320,192,43184,1,0,0:0:0:0:
448,192,43246,1,0,0:0:0:0:
192,192,43309,1,0,0:0:0:0:
320,192,43309,1,0,0:0:0:0:
64,192,43559,1,0,0:0:0:0:
192,192,43559,1,0,0:0:0:0:
320,192,43559,1,0,0:0:0:0:
192,192,43684,1,0,0:0:0:0:
64,192,43684,1,0,0:0:0:0:
448,192,43684,1,0,0:0:0:0:
320,192,43746,1,0,0:0:0:0:
448,192,43809,1,0,0:0:0:0:
320,192,43871,1,0,0:0:0:0:
192,192,43934,1,0,0:0:0:0:
64,192,43934,1,0,0:0:0:0:
320,192,43996,1,0,0:0:0:0:
64,192,44059,1,0,0:0:0:0:
448,192,44121,1,0,0:0:0:0:
320,192,44184,1,0,0:0:0:0:
192,192,44184,1,0,0:0:0:0:
448,192,44246,1,0,0:0:0:0:
64,192,44309,1,0,0:0:0:0:
192,192,44371,1,0,0:0:0:0:
448,192,44434,1,0,0:0:0:0:
320,192,44434,1,0,0:0:0:0:
64,192,44434,1,0,0:0:0:0:
192,192,44496,1,0,0:0:0:0:
320,192,44559,1,0,0:0:0:0:
448,192,44559,1,0,0:0:0:0:
448,192,44934,1,0,0:0:0:0:
320,192,44934,1,0,0:0:0:0:
192,192,44934,1,0,0:0:0:0:
64,192,44996,1,0,0:0:0:0:
192,192,45059,1,0,0:0:0:0:
320,192,45121,1,0,0:0:0:0:
448,192,45184,1,0,0:0:0:0:
192,192,45184,1,0,0:0:0:0:
64,192,45184,1,0,0:0:0:0:
320,192,45246,1,0,0:0:0:0:
64,192,45309,1,0,0:0:0:0:
192,192,45309,1,0,0:0:0:0:
192,192,45559,1,0,0:0:0:0:
320,192,45559,1,0,0:0:0:0:
448,192,45559,1,0,0:0:0:0:
64,192,45684,1,0,0:0:0:0:
192,192,45684,1,0,0:0:0:0:
320,192,45684,1,0,0:0:0:0:
448,192,45746,1,0,0:0:0:0:
64,192,45809,1,0,0:0:0:0:
192,192,45871,1,0,0:0:0:0:
320,192,45934,1,0,0:0:0:0:
448,192,45934,1,0,0:0:0:0:
64,192,45996,1,0,0:0:0:0:
192,192,45996,1,0,0:0:0:0:
448,192,46059,1,0,0:0:0:0:
320,192,46121,1,0,0:0:0:0:
192,192,46184,1,0,0:0:0:0:
64,192,46184,1,0,0:0:0:0:
320,192,46246,1,0,0:0:0:0:
448,192,46309,1,0,0:0:0:0:
64,192,46371,1,0,0:0:0:0:
192,192,46434,1,0,0:0:0:0:
320,192,46434,1,0,0:0:0:0:
448,192,46434,1,0,0:0:0:0:
64,192,46496,1,0,0:0:0:0:
320,192,46559,1,0,0:0:0:0:
192,192,46559,1,0,0:0:0:0:
192,192,46934,1,0,0:0:0:0:
320,192,46934,1,0,0:0:0:0:
448,192,46934,1,0,0:0:0:0:
64,192,46996,1,0,0:0:0:0:
448,192,47059,1,0,0:0:0:0:
320,192,47121,1,0,0:0:0:0:
64,192,47184,1,0,0:0:0:0:
192,192,47184,1,0,0:0:0:0:
448,192,47184,1,0,0:0:0:0:
320,192,47246,1,0,0:0:0:0:
192,192,47309,1,0,0:0:0:0:
64,192,47309,1,0,0:0:0:0:
192,192,47559,1,0,0:0:0:0:
320,192,47559,1,0,0:0:0:0:
448,192,47559,1,0,0:0:0:0:
64,192,47684,1,0,0:0:0:0:
192,192,47684,1,0,0:0:0:0:
448,192,47684,1,0,0:0:0:0:
320,192,47746,1,0,0:0:0:0:
64,192,47809,1,0,0:0:0:0:
192,192,47871,1,0,0:0:0:0:
320,192,47934,1,0,0:0:0:0:
448,192,47934,1,0,0:0:0:0:
64,192,47996,1,0,0:0:0:0:
448,192,48059,1,0,0:0:0:0:
320,192,48121,1,0,0:0:0:0:
192,192,48184,1,0,0:0:0:0:
64,192,48184,1,0,0:0:0:0:
320,192,48246,1,0,0:0:0:0:
192,192,48309,1,0,0:0:0:0:
64,192,48371,1,0,0:0:0:0:
192,192,48434,1,0,0:0:0:0:
320,192,48434,1,0,0:0:0:0:
448,192,48434,1,0,0:0:0:0:
64,192,48496,1,0,0:0:0:0:
320,192,48559,1,0,0:0:0:0:
448,192,48559,1,0,0:0:0:0:
64,192,48934,1,0,0:0:0:0:
320,192,48934,1,0,0:0:0:0:
192,192,48934,1,0,0:0:0:0:
448,192,48996,5,0,0:0:0:0:
320,192,49059,1,0,0:0:0:0:
192,192,49121,1,0,0:0:0:0:
64,192,49184,1,0,0:0:0:0:
320,192,49184,1,0,0:0:0:0:
448,192,49184,1,0,0:0:0:0:
192,192,49246,1,0,0:0:0:0:
64,192,49309,1,0,0:0:0:0:
320,192,49309,1,0,0:0:0:0:
192,192,49559,1,0,0:0:0:0:
320,192,49559,1,0,0:0:0:0:
448,192,49559,1,0,0:0:0:0:
64,192,49684,1,0,0:0:0:0:
192,192,49684,1,0,0:0:0:0:
320,192,49684,1,0,0:0:0:0:
448,192,50184,5,0,0:0:0:0:
320,192,50184,1,0,0:0:0:0:
320,192,50309,1,0,0:0:0:0:
448,192,50309,1,0,0:0:0:0:
192,192,50434,1,0,0:0:0:0:
320,192,50434,1,0,0:0:0:0:
64,192,50434,1,0,0:0:0:0:
448,192,50684,128,0,51184:0:0:0:0:
64,192,50684,128,0,50871:0:0:0:0:
192,192,50809,1,0,0:0:0:0:
320,192,50809,1,0,0:0:0:0:
192,192,50934,128,0,51184:0:0:0:0:
64,192,51184,1,0,0:0:0:0:
320,192,51184,1,0,0:0:0:0:
320,192,51371,128,0,51684:0:0:0:0:
192,192,51496,128,0,51684:0:0:0:0:
64,192,51559,1,0,0:0:0:0:
448,192,51559,1,0,0:0:0:0:
448,192,51684,128,0,52184:0:0:0:0:
192,192,51809,1,0,0:0:0:0:
320,192,51809,1,0,0:0:0:0:
192,192,51934,1,0,0:0:0:0:
64,192,51934,128,0,52184:0:0:0:0:
320,192,51934,1,0,0:0:0:0:
192,192,52184,1,0,0:0:0:0:
320,192,52184,1,0,0:0:0:0:
64,192,52434,1,0,0:0:0:0:
192,192,52434,1,0,0:0:0:0:
448,192,52434,1,0,0:0:0:0:
448,192,52684,128,0,53184:0:0:0:0:
64,192,52684,128,0,52871:0:0:0:0:
320,192,52809,1,0,0:0:0:0:
192,192,52809,1,0,0:0:0:0:
192,192,52934,128,0,53184:0:0:0:0:
64,192,53184,1,0,0:0:0:0:
320,192,53184,1,0,0:0:0:0:
320,192,53371,128,0,53684:0:0:0:0:
192,192,53496,128,0,53684:0:0:0:0:
64,192,53559,1,0,0:0:0:0:
448,192,53559,1,0,0:0:0:0:
448,192,53684,128,0,54184:0:0:0:0:
192,192,53809,1,0,0:0:0:0:
320,192,53809,1,0,0:0:0:0:
64,192,53934,128,0,54184:0:0:0:0:
192,192,53934,1,0,0:0:0:0:
320,192,53996,1,0,0:0:0:0:
192,192,54059,1,0,0:0:0:0:
320,192,54121,1,0,0:0:0:0:
192,192,54184,1,0,0:0:0:0:
192,192,54434,1,0,0:0:0:0:
320,192,54434,1,0,0:0:0:0:
448,192,54434,1,0,0:0:0:0:
64,192,54684,128,0,55184:0:0:0:0:
320,192,54684,128,0,54871:0:0:0:0:
192,192,54809,1,0,0:0:0:0:
448,192,54809,1,0,0:0:0:0:
192,192,54934,128,0,55184:0:0:0:0:
320,192,55184,1,0,0:0:0:0:
448,192,55184,1,0,0:0:0:0:
448,192,55371,128,0,55684:0:0:0:0:
192,192,55496,128,0,55684:0:0:0:0:
64,192,55559,1,0,0:0:0:0:
320,192,55559,1,0,0:0:0:0:
64,192,55684,128,0,56184:0:0:0:0:
192,192,55809,1,0,0:0:0:0:
448,192,55809,1,0,0:0:0:0:
448,192,55934,128,0,56184:0:0:0:0:
192,192,55934,1,0,0:0:0:0:
320,192,55934,1,0,0:0:0:0:
192,192,56184,1,0,0:0:0:0:
320,192,56184,1,0,0:0:0:0:
192,192,56434,1,0,0:0:0:0:
320,192,56434,1,0,0:0:0:0:
448,192,56434,1,0,0:0:0:0:
320,192,56684,128,0,56871:0:0:0:0:
64,192,56684,128,0,57184:0:0:0:0:
448,192,56809,1,0,0:0:0:0:
192,192,56809,1,0,0:0:0:0:
192,192,56934,128,0,57184:0:0:0:0:
320,192,57184,1,0,0:0:0:0:
448,192,57184,1,0,0:0:0:0:
448,192,57371,128,0,57684:0:0:0:0:
192,192,57496,128,0,57684:0:0:0:0:
64,192,57559,1,0,0:0:0:0:
320,192,57559,1,0,0:0:0:0:
64,192,57684,128,0,58184:0:0:0:0:
192,192,57809,1,0,0:0:0:0:
448,192,57809,1,0,0:0:0:0:
448,192,57934,128,0,58184:0:0:0:0:
320,192,57934,1,0,0:0:0:0:
192,192,57996,1,0,0:0:0:0:
320,192,58059,1,0,0:0:0:0:
192,192,58121,1,0,0:0:0:0:
320,192,58184,1,0,0:0:0:0:
64,192,58434,1,0,0:0:0:0:
192,192,58434,1,0,0:0:0:0:
320,192,58434,1,0,0:0:0:0:
448,192,58684,128,0,59184:0:0:0:0:
64,192,58684,128,0,58871:0:0:0:0:
192,192,58809,1,0,0:0:0:0:
320,192,58809,1,0,0:0:0:0:
192,192,58934,128,0,59184:0:0:0:0:
64,192,59184,1,0,0:0:0:0:
320,192,59184,1,0,0:0:0:0:
320,192,59371,128,0,59684:0:0:0:0:
192,192,59496,128,0,59684:0:0:0:0:
64,192,59559,1,0,0:0:0:0:
448,192,59559,1,0,0:0:0:0:
448,192,59684,128,0,60184:0:0:0:0:
192,192,59809,1,0,0:0:0:0:
320,192,59809,1,0,0:0:0:0:
192,192,59934,1,0,0:0:0:0:
64,192,59934,128,0,60184:0:0:0:0:
320,192,59934,1,0,0:0:0:0:
192,192,60184,1,0,0:0:0:0:
320,192,60184,1,0,0:0:0:0:
64,192,60434,1,0,0:0:0:0:
192,192,60434,1,0,0:0:0:0:
320,192,60434,1,0,0:0:0:0:
64,192,60684,128,0,60871:0:0:0:0:
448,192,60684,128,0,61184:0:0:0:0:
320,192,60809,1,0,0:0:0:0:
192,192,60809,1,0,0:0:0:0:
192,192,60934,128,0,61184:0:0:0:0:
320,192,61184,1,0,0:0:0:0:
64,192,61184,1,0,0:0:0:0:
320,192,61371,128,0,61684:0:0:0:0:
192,192,61496,128,0,61684:0:0:0:0:
448,192,61559,1,0,0:0:0:0:
64,192,61559,1,0,0:0:0:0:
448,192,61684,128,0,62184:0:0:0:0:
320,192,61809,1,0,0:0:0:0:
192,192,61809,1,0,0:0:0:0:
64,192,61934,128,0,62184:0:0:0:0:
192,192,61934,1,0,0:0:0:0:
320,192,61996,1,0,0:0:0:0:
192,192,62059,1,0,0:0:0:0:
320,192,62121,1,0,0:0:0:0:
192,192,62184,1,0,0:0:0:0:
192,192,62434,1,0,0:0:0:0:
320,192,62434,1,0,0:0:0:0:
448,192,62434,1,0,0:0:0:0:
64,192,62684,128,0,63184:0:0:0:0:
320,192,62684,128,0,62871:0:0:0:0:
192,192,62809,1,0,0:0:0:0:
448,192,62809,1,0,0:0:0:0:
192,192,62934,128,0,63184:0:0:0:0:
320,192,63184,1,0,0:0:0:0:
448,192,63184,1,0,0:0:0:0:
448,192,63371,128,0,63684:0:0:0:0:
192,192,63496,128,0,63684:0:0:0:0:
64,192,63559,1,0,0:0:0:0:
320,192,63559,1,0,0:0:0:0:
64,192,63684,128,0,64184:0:0:0:0:
192,192,63809,1,0,0:0:0:0:
448,192,63809,1,0,0:0:0:0:
448,192,63934,128,0,64184:0:0:0:0:
192,192,63934,1,0,0:0:0:0:
320,192,63934,1,0,0:0:0:0:
192,192,64184,1,0,0:0:0:0:
320,192,64184,1,0,0:0:0:0:
192,192,64434,1,0,0:0:0:0:
448,192,64434,1,0,0:0:0:0:
320,192,64434,1,0,0:0:0:0:
320,192,64684,128,0,64871:0:0:0:0:
64,192,64684,128,0,65184:0:0:0:0:
448,192,64809,5,0,0:0:0:0:
192,192,64809,1,0,0:0:0:0:
192,192,64934,128,0,65184:0:0:0:0:
448,192,65184,1,0,0:0:0:0:
320,192,65184,1,0,0:0:0:0:
448,192,65371,128,0,65684:0:0:0:0:
64,192,65559,1,0,0:0:0:0:
320,192,65559,1,0,0:0:0:0:
192,192,65684,1,0,0:0:0:0:
320,192,65684,1,0,0:0:0:0:
64,192,65809,128,0,65934:0:0:0:0:
320,192,65934,1,0,0:0:0:0:
192,192,65934,1,0,0:0:0:0:
320,192,66059,1,0,0:0:0:0:
192,192,66059,1,0,0:0:0:0:
320,192,66184,1,0,0:0:0:0:
192,192,66184,1,0,0:0:0:0:
320,192,66309,1,0,0:0:0:0:
192,192,66309,1,0,0:0:0:0:
192,192,66434,1,0,0:0:0:0:
320,192,66434,1,0,0:0:0:0:
192,192,66559,1,0,0:0:0:0:
320,192,66559,1,0,0:0:0:0:
192,192,66684,1,0,0:0:0:0:
320,192,66684,1,0,0:0:0:0:
192,192,66809,1,0,0:0:0:0:
320,192,66809,1,0,0:0:0:0:
320,192,66934,1,0,0:0:0:0:
192,192,66934,1,0,0:0:0:0:
192,192,67059,1,0,0:0:0:0:
320,192,67059,1,0,0:0:0:0:
192,192,67184,1,0,0:0:0:0:
320,192,67184,1,0,0:0:0:0:
320,192,67309,1,0,0:0:0:0:
192,192,67309,1,0,0:0:0:0:
192,192,67434,1,0,0:0:0:0:
320,192,67434,1,0,0:0:0:0:
320,192,67559,1,0,0:0:0:0:
192,192,67559,1,0,0:0:0:0:
192,192,67684,1,0,0:0:0:0:
320,192,67684,1,0,0:0:0:0:
320,192,67809,1,0,0:0:0:0:
192,192,67809,1,0,0:0:0:0:
192,192,67934,1,0,0:0:0:0:
320,192,67934,1,0,0:0:0:0:
320,192,68059,1,0,0:0:0:0:
192,192,68059,1,0,0:0:0:0:
64,192,68184,1,0,0:0:0:0:
448,192,68184,1,0,0:0:0:0:
320,192,68184,1,0,0:0:0:0:
192,192,68184,1,0,0:0:0:0:
192,192,68309,1,0,0:0:0:0:
320,192,68309,1,0,0:0:0:0:
64,192,68434,1,0,0:0:0:0:
192,192,68434,1,0,0:0:0:0:
320,192,68434,1,0,0:0:0:0:
448,192,68434,1,0,0:0:0:0:
192,192,68559,1,0,0:0:0:0:
320,192,68559,1,0,0:0:0:0:
64,192,68684,1,0,0:0:0:0:
192,192,68684,1,0,0:0:0:0:
448,192,68684,1,0,0:0:0:0:
320,192,68684,1,0,0:0:0:0:
192,192,68809,1,0,0:0:0:0:
320,192,68809,1,0,0:0:0:0:
64,192,68934,1,0,0:0:0:0:
192,192,68934,1,0,0:0:0:0:
320,192,68934,1,0,0:0:0:0:
448,192,68934,1,0,0:0:0:0:
192,192,69059,1,0,0:0:0:0:
320,192,69059,1,0,0:0:0:0:
192,192,69184,1,0,0:0:0:0:
320,192,69184,1,0,0:0:0:0:
64,192,69184,1,0,0:0:0:0:
448,192,69184,1,0,0:0:0:0:
192,192,69309,1,0,0:0:0:0:
320,192,69309,1,0,0:0:0:0:
192,192,69434,1,0,0:0:0:0:
320,192,69434,1,0,0:0:0:0:
64,192,69434,1,0,0:0:0:0:
448,192,69434,1,0,0:0:0:0:
192,192,69559,1,0,0:0:0:0:
320,192,69559,1,0,0:0:0:0:
192,192,69684,1,0,0:0:0:0:
320,192,69684,1,0,0:0:0:0:
64,192,69684,1,0,0:0:0:0:
448,192,69684,1,0,0:0:0:0:
192,192,69809,1,0,0:0:0:0:
320,192,69809,1,0,0:0:0:0:
192,192,69934,1,0,0:0:0:0:
320,192,69934,1,0,0:0:0:0:
64,192,69934,1,0,0:0:0:0:
448,192,69934,1,0,0:0:0:0:
192,192,70059,1,0,0:0:0:0:
320,192,70059,1,0,0:0:0:0:
192,192,70184,1,0,0:0:0:0:
320,192,70184,1,0,0:0:0:0:
192,192,70309,1,0,0:0:0:0:
320,192,70309,1,0,0:0:0:0:
192,192,70434,1,0,0:0:0:0:
320,192,70434,1,0,0:0:0:0:
192,192,70559,1,0,0:0:0:0:
320,192,70559,1,0,0:0:0:0:
192,192,70684,1,0,0:0:0:0:
320,192,70684,1,0,0:0:0:0:
192,192,70809,1,0,0:0:0:0:
320,192,70809,1,0,0:0:0:0:
192,192,70934,1,0,0:0:0:0:
320,192,70934,1,0,0:0:0:0:
192,192,71059,1,0,0:0:0:0:
320,192,71059,1,0,0:0:0:0:
192,192,71184,1,0,0:0:0:0:
320,192,71184,1,0,0:0:0:0:
192,192,71309,1,0,0:0:0:0:
320,192,71309,1,0,0:0:0:0:
192,192,71434,1,0,0:0:0:0:
320,192,71434,1,0,0:0:0:0:
192,192,71559,1,0,0:0:0:0:
320,192,71559,1,0,0:0:0:0:
192,192,71684,1,0,0:0:0:0:
320,192,71684,1,0,0:0:0:0:
192,192,71809,1,0,0:0:0:0:
320,192,71809,1,0,0:0:0:0:
320,192,71934,1,0,0:0:0:0:
192,192,71934,1,0,0:0:0:0:
192,192,72059,1,0,0:0:0:0:
320,192,72059,1,0,0:0:0:0:
192,192,72184,1,0,0:0:0:0:
320,192,72184,1,0,0:0:0:0:
64,192,72184,1,0,0:0:0:0:
448,192,72184,1,0,0:0:0:0:
320,192,72309,1,0,0:0:0:0:
192,192,72309,1,0,0:0:0:0:
320,192,72434,1,0,0:0:0:0:
448,192,72434,1,0,0:0:0:0:
192,192,72434,1,0,0:0:0:0:
64,192,72434,1,0,0:0:0:0:
320,192,72559,1,0,0:0:0:0:
192,192,72559,1,0,0:0:0:0:
192,192,72684,1,0,0:0:0:0:
320,192,72684,1,0,0:0:0:0:
448,192,72684,1,0,0:0:0:0:
64,192,72684,1,0,0:0:0:0:
320,192,72809,1,0,0:0:0:0:
192,192,72809,1,0,0:0:0:0:
64,192,72934,1,0,0:0:0:0:
192,192,72934,1,0,0:0:0:0:
320,192,72934,1,0,0:0:0:0:
448,192,72934,1,0,0:0:0:0:
320,192,73059,1,0,0:0:0:0:
192,192,73059,1,0,0:0:0:0:
64,192,73184,1,0,0:0:0:0:
192,192,73184,1,0,0:0:0:0:
320,192,73184,1,0,0:0:0:0:
448,192,73184,1,0,0:0:0:0:
320,192,73309,1,0,0:0:0:0:
192,192,73309,1,0,0:0:0:0:
64,192,73434,1,0,0:0:0:0:
192,192,73434,1,0,0:0:0:0:
320,192,73434,1,0,0:0:0:0:
448,192,73434,1,0,0:0:0:0:
192,192,73559,1,0,0:0:0:0:
320,192,73559,1,0,0:0:0:0:
64,192,73684,1,0,0:0:0:0:
192,192,73684,1,0,0:0:0:0:
320,192,73684,1,0,0:0:0:0:
448,192,73684,1,0,0:0:0:0:
192,192,73809,1,0,0:0:0:0:
320,192,73809,1,0,0:0:0:0:
64,192,73934,1,0,0:0:0:0:
192,192,73934,1,0,0:0:0:0:
448,192,73934,1,0,0:0:0:0:
320,192,73934,1,0,0:0:0:0:
320,192,74059,1,0,0:0:0:0:
192,192,74059,1,0,0:0:0:0:
192,192,74184,1,0,0:0:0:0:
320,192,74184,1,0,0:0:0:0:
192,192,74309,1,0,0:0:0:0:
320,192,74309,1,0,0:0:0:0:
192,192,74434,1,0,0:0:0:0:
320,192,74434,1,0,0:0:0:0:
192,192,74559,1,0,0:0:0:0:
320,192,74559,1,0,0:0:0:0:
192,192,74684,1,0,0:0:0:0:
320,192,74684,1,0,0:0:0:0:
192,192,74809,1,0,0:0:0:0:
320,192,74809,1,0,0:0:0:0:
192,192,74934,1,0,0:0:0:0:
320,192,74934,1,0,0:0:0:0:
192,192,75059,1,0,0:0:0:0:
320,192,75059,1,0,0:0:0:0:
192,192,75184,1,0,0:0:0:0:
320,192,75184,1,0,0:0:0:0:
192,192,75309,1,0,0:0:0:0:
320,192,75309,1,0,0:0:0:0:
192,192,75434,1,0,0:0:0:0:
320,192,75434,1,0,0:0:0:0:
192,192,75559,1,0,0:0:0:0:
320,192,75559,1,0,0:0:0:0:
192,192,75684,1,0,0:0:0:0:
320,192,75684,1,0,0:0:0:0:
192,192,75809,1,0,0:0:0:0:
320,192,75809,1,0,0:0:0:0:
192,192,75934,1,0,0:0:0:0:
320,192,75934,1,0,0:0:0:0:
192,192,76059,1,0,0:0:0:0:
320,192,76059,1,0,0:0:0:0:
192,192,76184,1,0,0:0:0:0:
320,192,76184,1,0,0:0:0:0:
448,192,76184,1,0,0:0:0:0:
192,192,76309,1,0,0:0:0:0:
320,192,76309,1,0,0:0:0:0:
64,192,76434,1,0,0:0:0:0:
192,192,76434,1,0,0:0:0:0:
320,192,76434,1,0,0:0:0:0:
192,192,76559,1,0,0:0:0:0:
320,192,76559,1,0,0:0:0:0:
192,192,76684,1,0,0:0:0:0:
320,192,76684,1,0,0:0:0:0:
448,192,76684,1,0,0:0:0:0:
192,192,76809,1,0,0:0:0:0:
320,192,76809,1,0,0:0:0:0:
64,192,76934,1,0,0:0:0:0:
192,192,76934,1,0,0:0:0:0:
320,192,76934,1,0,0:0:0:0:
192,192,77059,1,0,0:0:0:0:
320,192,77059,1,0,0:0:0:0:
192,192,77184,1,0,0:0:0:0:
320,192,77184,1,0,0:0:0:0:
448,192,77184,1,0,0:0:0:0:
192,192,77309,1,0,0:0:0:0:
320,192,77309,1,0,0:0:0:0:
64,192,77434,1,0,0:0:0:0:
192,192,77434,1,0,0:0:0:0:
320,192,77434,1,0,0:0:0:0:
192,192,77559,1,0,0:0:0:0:
320,192,77559,1,0,0:0:0:0:
192,192,77684,1,0,0:0:0:0:
320,192,77684,1,0,0:0:0:0:
448,192,77684,1,0,0:0:0:0:
192,192,77809,1,0,0:0:0:0:
320,192,77809,1,0,0:0:0:0:
64,192,77934,1,0,0:0:0:0:
192,192,77934,1,0,0:0:0:0:
320,192,77934,1,0,0:0:0:0:
192,192,78059,1,0,0:0:0:0:
320,192,78059,1,0,0:0:0:0:
192,192,78184,1,0,0:0:0:0:
320,192,78184,1,0,0:0:0:0:
192,192,78309,1,0,0:0:0:0:
320,192,78309,1,0,0:0:0:0:
192,192,78434,1,0,0:0:0:0:
320,192,78434,1,0,0:0:0:0:
192,192,78559,1,0,0:0:0:0:
320,192,78559,1,0,0:0:0:0:
192,192,78684,1,0,0:0:0:0:
320,192,78684,1,0,0:0:0:0:
192,192,78809,1,0,0:0:0:0:
320,192,78809,1,0,0:0:0:0:
192,192,78934,1,0,0:0:0:0:
320,192,78934,1,0,0:0:0:0:
192,192,79059,1,0,0:0:0:0:
320,192,79059,1,0,0:0:0:0:
192,192,79184,1,0,0:0:0:0:
320,192,79184,1,0,0:0:0:0:
192,192,79309,1,0,0:0:0:0:
320,192,79309,1,0,0:0:0:0:
192,192,79434,1,0,0:0:0:0:
320,192,79434,1,0,0:0:0:0:
192,192,79559,1,0,0:0:0:0:
320,192,79559,1,0,0:0:0:0:
192,192,79684,1,0,0:0:0:0:
320,192,79684,1,0,0:0:0:0:
192,192,79809,1,0,0:0:0:0:
320,192,79809,1,0,0:0:0:0:
320,192,79934,1,0,0:0:0:0:
192,192,79934,1,0,0:0:0:0:
192,192,80059,1,0,0:0:0:0:
320,192,80059,1,0,0:0:0:0:
192,192,80184,1,0,0:0:0:0:
320,192,80184,1,0,0:0:0:0:
448,192,80184,1,0,0:0:0:0:
320,192,80309,1,0,0:0:0:0:
192,192,80309,1,0,0:0:0:0:
64,192,80434,1,0,0:0:0:0:
192,192,80434,1,0,0:0:0:0:
320,192,80434,1,0,0:0:0:0:
192,192,80559,1,0,0:0:0:0:
320,192,80559,1,0,0:0:0:0:
192,192,80684,1,0,0:0:0:0:
320,192,80684,1,0,0:0:0:0:
448,192,80684,1,0,0:0:0:0:
192,192,80809,1,0,0:0:0:0:
320,192,80809,1,0,0:0:0:0:
64,192,80934,1,0,0:0:0:0:
192,192,80934,1,0,0:0:0:0:
320,192,80934,1,0,0:0:0:0:
192,192,81059,1,0,0:0:0:0:
320,192,81059,1,0,0:0:0:0:
320,192,81184,1,0,0:0:0:0:
192,192,81184,1,0,0:0:0:0:
448,192,81184,1,0,0:0:0:0:
64,192,81246,1,0,0:0:0:0:
448,192,81309,1,0,0:0:0:0:
64,192,81371,1,0,0:0:0:0:
448,192,81434,1,0,0:0:0:0:
320,192,81434,1,0,0:0:0:0:
64,192,81496,1,0,0:0:0:0:
448,192,81559,1,0,0:0:0:0:
64,192,81621,1,0,0:0:0:0:
320,192,81684,1,0,0:0:0:0:
448,192,81684,1,0,0:0:0:0:
64,192,81746,1,0,0:0:0:0:
448,192,81809,1,0,0:0:0:0:
320,192,81809,1,0,0:0:0:0:
64,192,81871,1,0,0:0:0:0:
448,192,81934,1,0,0:0:0:0:
320,192,81975,1,0,0:0:0:0:
192,192,82017,1,0,0:0:0:0:
64,192,82059,1,0,0:0:0:0:
448,192,82100,1,0,0:0:0:0:
320,192,82142,1,0,0:0:0:0:
192,192,82184,1,0,0:0:0:0:
64,192,82184,128,0,90184:0:0:0:0:
64,192,90434,1,0,0:0:0:0:
64,192,90934,1,0,0:0:0:0:
64,192,91434,1,0,0:0:0:0:
64,192,91934,1,0,0:0:0:0:
64,192,92434,1,0,0:0:0:0:
64,192,92934,1,0,0:0:0:0:
64,192,93434,1,0,0:0:0:0:
64,192,93934,1,0,0:0:0:0:
192,192,94184,1,0,0:0:0:0:
64,192,94434,1,0,0:0:0:0:
192,192,94684,1,0,0:0:0:0:
64,192,94934,1,0,0:0:0:0:
192,192,95184,1,0,0:0:0:0:
64,192,95434,1,0,0:0:0:0:
192,192,95684,1,0,0:0:0:0:
64,192,95934,1,0,0:0:0:0:
192,192,96184,1,0,0:0:0:0:
64,192,96434,1,0,0:0:0:0:
192,192,96684,1,0,0:0:0:0:
64,192,96934,1,0,0:0:0:0:
192,192,97184,1,0,0:0:0:0:
64,192,97434,1,0,0:0:0:0:
192,192,97684,1,0,0:0:0:0:
64,192,97934,1,0,0:0:0:0:
192,192,97934,1,0,0:0:0:0:
448,192,97934,1,0,0:0:0:0:
320,192,97934,1,0,0:0:0:0:
64,192,98184,1,0,0:0:0:0:
192,192,98184,1,0,0:0:0:0:
448,192,98184,1,0,0:0:0:0:
320,192,98246,1,0,0:0:0:0:
192,192,98309,1,0,0:0:0:0:
64,192,98371,1,0,0:0:0:0:
448,192,98434,1,0,0:0:0:0:
320,192,98496,1,0,0:0:0:0:
64,192,98559,1,0,0:0:0:0:
320,192,98621,1,0,0:0:0:0:
192,192,98684,1,0,0:0:0:0:
448,192,98684,1,0,0:0:0:0:
64,192,98746,1,0,0:0:0:0:
320,192,98809,1,0,0:0:0:0:
192,192,98871,1,0,0:0:0:0:
64,192,98934,1,0,0:0:0:0:
448,192,98996,1,0,0:0:0:0:
320,192,99059,1,0,0:0:0:0:
192,192,99121,1,0,0:0:0:0:
448,192,99184,1,0,0:0:0:0:
320,192,99246,1,0,0:0:0:0:
64,192,99309,1,0,0:0:0:0:
192,192,99350,1,0,0:0:0:0:
320,192,99392,1,0,0:0:0:0:
448,192,99434,1,0,0:0:0:0:
64,192,99475,1,0,0:0:0:0:
192,192,99517,1,0,0:0:0:0:
320,192,99559,1,0,0:0:0:0:
448,192,99600,1,0,0:0:0:0:
64,192,99684,1,0,0:0:0:0:
192,192,99684,1,0,0:0:0:0:
448,192,99725,1,0,0:0:0:0:
320,192,99767,1,0,0:0:0:0:
64,192,99809,1,0,0:0:0:0:
448,192,99850,1,0,0:0:0:0:
320,192,99892,1,0,0:0:0:0:
192,192,99934,1,0,0:0:0:0:
64,192,99975,1,0,0:0:0:0:
448,192,100017,1,0,0:0:0:0:
192,192,100059,1,0,0:0:0:0:
64,192,100100,1,0,0:0:0:0:
320,192,100142,1,0,0:0:0:0:
192,192,100184,1,0,0:0:0:0:
448,192,100184,1,0,0:0:0:0:
64,192,100225,1,0,0:0:0:0:
320,192,100267,1,0,0:0:0:0:
448,192,100309,1,0,0:0:0:0:
192,192,100350,1,0,0:0:0:0:
64,192,100392,1,0,0:0:0:0:
320,192,100434,1,0,0:0:0:0:
448,192,100475,1,0,0:0:0:0:
192,192,100517,1,0,0:0:0:0:
320,192,100559,1,0,0:0:0:0:
64,192,100600,1,0,0:0:0:0:
192,192,100642,1,0,0:0:0:0:
448,192,100684,1,0,0:0:0:0:
320,192,100725,1,0,0:0:0:0:
192,192,100767,1,0,0:0:0:0:
64,192,100809,1,0,0:0:0:0:
448,192,100850,1,0,0:0:0:0:
320,192,100892,1,0,0:0:0:0:
192,192,100934,1,0,0:0:0:0:
64,192,100975,1,0,0:0:0:0:
320,192,101017,1,0,0:0:0:0:
448,192,101059,1,0,0:0:0:0:
192,192,101100,1,0,0:0:0:0:
64,192,101142,1,0,0:0:0:0:
320,192,101184,1,0,0:0:0:0:
448,192,101184,1,0,0:0:0:0:
64,192,101434,1,0,0:0:0:0:
192,192,101475,1,0,0:0:0:0:
320,192,101517,1,0,0:0:0:0:
448,192,101559,1,0,0:0:0:0:
192,192,101600,1,0,0:0:0:0:
448,192,101684,1,0,0:0:0:0:
64,192,101684,1,0,0:0:0:0:
320,192,101684,1,0,0:0:0:0:
192,192,101746,1,0,0:0:0:0:
320,192,101809,1,0,0:0:0:0:
448,192,101871,1,0,0:0:0:0:
64,192,101934,1,0,0:0:0:0:
320,192,101996,1,0,0:0:0:0:
192,192,102059,1,0,0:0:0:0:
448,192,102121,1,0,0:0:0:0:
64,192,102184,1,0,0:0:0:0:
320,192,102246,1,0,0:0:0:0:
192,192,102309,1,0,0:0:0:0:
448,192,102371,1,0,0:0:0:0:
320,192,102434,1,0,0:0:0:0:
192,192,102496,1,0,0:0:0:0:
64,192,102559,1,0,0:0:0:0:
448,192,102621,1,0,0:0:0:0:
320,192,102684,1,0,0:0:0:0:
192,192,102684,1,0,0:0:0:0:
64,192,102746,1,0,0:0:0:0:
320,192,102809,1,0,0:0:0:0:
192,192,102871,1,0,0:0:0:0:
448,192,102934,1,0,0:0:0:0:
64,192,102996,1,0,0:0:0:0:
192,192,103059,1,0,0:0:0:0:
320,192,103121,1,0,0:0:0:0:
448,192,103184,1,0,0:0:0:0:
64,192,103184,1,0,0:0:0:0:
192,192,103184,1,0,0:0:0:0:
320,192,103246,1,0,0:0:0:0:
192,192,103309,1,0,0:0:0:0:
64,192,103371,1,0,0:0:0:0:
448,192,103434,1,0,0:0:0:0:
320,192,103496,1,0,0:0:0:0:
192,192,103559,1,0,0:0:0:0:
64,192,103621,1,0,0:0:0:0:
320,192,103684,1,0,0:0:0:0:
448,192,103746,1,0,0:0:0:0:
192,192,103809,1,0,0:0:0:0:
320,192,103871,1,0,0:0:0:0:
64,192,103934,1,0,0:0:0:0:
192,192,103996,1,0,0:0:0:0:
320,192,104059,1,0,0:0:0:0:
448,192,104121,1,0,0:0:0:0:
64,192,104184,1,0,0:0:0:0:
192,192,104184,1,0,0:0:0:0:
448,192,104475,1,0,0:0:0:0:
320,192,104517,1,0,0:0:0:0:
192,192,104559,1,0,0:0:0:0:
64,192,104559,1,0,0:0:0:0:
192,192,104684,1,0,0:0:0:0:
320,192,104684,1,0,0:0:0:0:
448,192,104684,1,0,0:0:0:0:
64,192,104746,1,0,0:0:0:0:
192,192,104809,1,0,0:0:0:0:
320,192,104871,1,0,0:0:0:0:
448,192,104934,1,0,0:0:0:0:
320,192,104996,1,0,0:0:0:0:
448,192,105059,1,0,0:0:0:0:
64,192,105059,1,0,0:0:0:0:
192,192,105059,1,0,0:0:0:0:
320,192,105121,1,0,0:0:0:0:
192,192,105184,1,0,0:0:0:0:
64,192,105246,1,0,0:0:0:0:
192,192,105309,1,0,0:0:0:0:
448,192,105371,1,0,0:0:0:0:
320,192,105434,1,0,0:0:0:0:
192,192,105496,1,0,0:0:0:0:
64,192,105559,1,0,0:0:0:0:
448,192,105621,1,0,0:0:0:0:
320,192,105684,1,0,0:0:0:0:
192,192,105684,1,0,0:0:0:0:
64,192,105809,1,0,0:0:0:0:
192,192,105871,1,0,0:0:0:0:
448,192,105934,1,0,0:0:0:0:
320,192,105996,1,0,0:0:0:0:
192,192,106059,1,0,0:0:0:0:
448,192,106121,1,0,0:0:0:0:
64,192,106184,1,0,0:0:0:0:
320,192,106184,1,0,0:0:0:0:
192,192,106184,1,0,0:0:0:0:
448,192,106246,1,0,0:0:0:0:
64,192,106309,1,0,0:0:0:0:
192,192,106371,1,0,0:0:0:0:
320,192,106434,1,0,0:0:0:0:
192,192,106496,1,0,0:0:0:0:
320,192,106559,1,0,0:0:0:0:
448,192,106621,1,0,0:0:0:0:
64,192,106684,1,0,0:0:0:0:
320,192,106746,1,0,0:0:0:0:
192,192,106809,1,0,0:0:0:0:
448,192,106871,1,0,0:0:0:0:
320,192,106934,1,0,0:0:0:0:
192,192,106996,1,0,0:0:0:0:
448,192,107017,1,0,0:0:0:0:
64,192,107059,1,0,0:0:0:0:
320,192,107184,1,0,0:0:0:0:
448,192,107184,1,0,0:0:0:0:
64,192,107434,1,0,0:0:0:0:
192,192,107434,1,0,0:0:0:0:
448,192,107475,1,0,0:0:0:0:
320,192,107517,1,0,0:0:0:0:
192,192,107559,1,0,0:0:0:0:
64,192,107600,1,0,0:0:0:0:
320,192,107642,1,0,0:0:0:0:
448,192,107684,1,0,0:0:0:0:
192,192,107684,1,0,0:0:0:0:
64,192,107746,1,0,0:0:0:0:
448,192,107809,1,0,0:0:0:0:
320,192,107871,1,0,0:0:0:0:
64,192,107934,1,0,0:0:0:0:
192,192,107996,1,0,0:0:0:0:
448,192,108059,1,0,0:0:0:0:
320,192,108059,1,0,0:0:0:0:
192,192,108121,1,0,0:0:0:0:
320,192,108184,1,0,0:0:0:0:
448,192,108246,1,0,0:0:0:0:
192,192,108309,1,0,0:0:0:0:
320,192,108371,1,0,0:0:0:0:
64,192,108434,1,0,0:0:0:0:
448,192,108434,1,0,0:0:0:0:
192,192,108496,1,0,0:0:0:0:
320,192,108559,1,0,0:0:0:0:
448,192,108621,1,0,0:0:0:0:
64,192,108684,1,0,0:0:0:0:
192,192,108746,1,0,0:0:0:0:
320,192,108809,1,0,0:0:0:0:
448,192,108871,1,0,0:0:0:0:
64,192,108934,1,0,0:0:0:0:
192,192,108996,1,0,0:0:0:0:
320,192,109059,1,0,0:0:0:0:
448,192,109121,1,0,0:0:0:0:
64,192,109184,1,0,0:0:0:0:
192,192,109184,1,0,0:0:0:0:
320,192,109184,1,0,0:0:0:0:
448,192,109246,1,0,0:0:0:0:
192,192,109309,1,0,0:0:0:0:
64,192,109371,1,0,0:0:0:0:
448,192,109434,1,0,0:0:0:0:
320,192,109496,1,0,0:0:0:0:
192,192,109559,1,0,0:0:0:0:
64,192,109621,1,0,0:0:0:0:
448,192,109684,1,0,0:0:0:0:
320,192,109746,1,0,0:0:0:0:
192,192,109809,1,0,0:0:0:0:
64,192,109871,1,0,0:0:0:0:
448,192,109934,1,0,0:0:0:0:
320,192,109996,1,0,0:0:0:0:
192,192,109996,1,0,0:0:0:0:
64,192,110059,1,0,0:0:0:0:
448,192,110121,1,0,0:0:0:0:
320,192,110184,1,0,0:0:0:0:
64,192,110184,1,0,0:0:0:0:
192,192,110184,1,0,0:0:0:0:
192,192,110434,1,0,0:0:0:0:
64,192,110434,1,0,0:0:0:0:
192,192,110684,1,0,0:0:0:0:
64,192,110684,1,0,0:0:0:0:
192,192,112184,1,0,0:0:0:0:
320,192,112184,1,0,0:0:0:0:
448,192,112184,1,0,0:0:0:0:
64,192,112184,1,0,0:0:0:0:
64,192,112371,128,0,112434:0:0:0:0:
448,192,112371,128,0,112434:0:0:0:0:
64,192,112496,128,0,112559:0:0:0:0:
448,192,112496,128,0,112559:0:0:0:0:
64,192,112621,128,0,112684:0:0:0:0:
448,192,112621,128,0,112684:0:0:0:0:
64,192,112746,128,0,112809:0:0:0:0:
448,192,112746,128,0,112809:0:0:0:0:
64,192,112871,128,0,112934:0:0:0:0:
448,192,112871,128,0,112934:0:0:0:0:
64,192,112996,128,0,113059:0:0:0:0:
448,192,112996,128,0,113059:0:0:0:0:
192,192,112996,1,0,0:0:0:0:
320,192,113059,1,0,0:0:0:0:
64,192,113121,128,0,113184:0:0:0:0:
448,192,113121,128,0,113184:0:0:0:0:
192,192,113184,1,0,0:0:0:0:
320,192,113184,1,0,0:0:0:0:
192,192,113434,1,0,0:0:0:0:
320,192,113496,1,0,0:0:0:0:
192,192,113559,1,0,0:0:0:0:
320,192,113621,1,0,0:0:0:0:
64,192,113684,1,0,0:0:0:0:
192,192,113684,1,0,0:0:0:0:
448,192,113684,1,0,0:0:0:0:
320,192,113746,1,0,0:0:0:0:
64,192,113809,1,0,0:0:0:0:
192,192,113871,1,0,0:0:0:0:
448,192,113871,1,0,0:0:0:0:
320,192,113934,1,0,0:0:0:0:
64,192,113996,1,0,0:0:0:0:
192,192,114059,1,0,0:0:0:0:
320,192,114121,1,0,0:0:0:0:
448,192,114184,1,0,0:0:0:0:
192,192,114246,1,0,0:0:0:0:
64,192,114309,1,0,0:0:0:0:
320,192,114371,1,0,0:0:0:0:
192,192,114434,1,0,0:0:0:0:
448,192,114496,1,0,0:0:0:0:
320,192,114559,1,0,0:0:0:0:
192,192,114621,1,0,0:0:0:0:
64,192,114684,1,0,0:0:0:0:
448,192,114684,1,0,0:0:0:0:
192,192,114809,1,0,0:0:0:0:
320,192,114871,1,0,0:0:0:0:
448,192,114934,1,0,0:0:0:0:
64,192,114996,1,0,0:0:0:0:
192,192,115059,1,0,0:0:0:0:
320,192,115121,1,0,0:0:0:0:
448,192,115184,1,0,0:0:0:0:
64,192,115184,1,0,0:0:0:0:
192,192,115184,1,0,0:0:0:0:
320,192,115246,1,0,0:0:0:0:
448,192,115309,1,0,0:0:0:0:
192,192,115371,1,0,0:0:0:0:
64,192,115434,1,0,0:0:0:0:
320,192,115496,1,0,0:0:0:0:
448,192,115559,1,0,0:0:0:0:
64,192,115621,1,0,0:0:0:0:
192,192,115684,1,0,0:0:0:0:
320,192,115746,1,0,0:0:0:0:
448,192,115809,1,0,0:0:0:0:
192,192,115871,1,0,0:0:0:0:
64,192,115934,1,0,0:0:0:0:
448,192,115996,1,0,0:0:0:0:
320,192,115996,1,0,0:0:0:0:
192,192,116059,1,0,0:0:0:0:
64,192,116121,1,0,0:0:0:0:
320,192,116184,1,0,0:0:0:0:
448,192,116184,1,0,0:0:0:0:
64,192,116434,1,0,0:0:0:0:
192,192,116475,1,0,0:0:0:0:
320,192,116517,1,0,0:0:0:0:
64,192,116559,1,0,0:0:0:0:
448,192,116559,1,0,0:0:0:0:
192,192,116684,1,0,0:0:0:0:
320,192,116684,1,0,0:0:0:0:
448,192,116684,1,0,0:0:0:0:
64,192,116746,1,0,0:0:0:0:
192,192,116809,1,0,0:0:0:0:
448,192,116871,1,0,0:0:0:0:
320,192,116934,1,0,0:0:0:0:
64,192,116996,1,0,0:0:0:0:
192,192,117059,1,0,0:0:0:0:
320,192,117059,1,0,0:0:0:0:
448,192,117059,1,0,0:0:0:0:
64,192,117121,1,0,0:0:0:0:
320,192,117184,1,0,0:0:0:0:
448,192,117246,1,0,0:0:0:0:
192,192,117309,1,0,0:0:0:0:
320,192,117371,1,0,0:0:0:0:
64,192,117434,1,0,0:0:0:0:
192,192,117496,1,0,0:0:0:0:
448,192,117559,1,0,0:0:0:0:
320,192,117621,1,0,0:0:0:0:
192,192,117684,1,0,0:0:0:0:
64,192,117684,1,0,0:0:0:0:
448,192,117746,1,0,0:0:0:0:
320,192,117809,1,0,0:0:0:0:
192,192,117871,1,0,0:0:0:0:
64,192,117934,1,0,0:0:0:0:
320,192,117996,1,0,0:0:0:0:
448,192,118059,1,0,0:0:0:0:
64,192,118121,1,0,0:0:0:0:
192,192,118184,1,0,0:0:0:0:
320,192,118184,1,0,0:0:0:0:
448,192,118184,1,0,0:0:0:0:
64,192,118246,1,0,0:0:0:0:
192,192,118309,1,0,0:0:0:0:
320,192,118371,1,0,0:0:0:0:
448,192,118434,1,0,0:0:0:0:
64,192,118496,1,0,0:0:0:0:
192,192,118559,1,0,0:0:0:0:
448,192,118621,1,0,0:0:0:0:
320,192,118684,1,0,0:0:0:0:
192,192,118746,1,0,0:0:0:0:
448,192,118809,1,0,0:0:0:0:
64,192,118871,1,0,0:0:0:0:
192,192,118934,1,0,0:0:0:0:
320,192,118996,1,0,0:0:0:0:
448,192,118996,1,0,0:0:0:0:
192,192,119059,1,0,0:0:0:0:
64,192,119121,1,0,0:0:0:0:
320,192,119184,1,0,0:0:0:0:
192,192,119184,1,0,0:0:0:0:
192,192,119434,1,0,0:0:0:0:
320,192,119434,1,0,0:0:0:0:
64,192,119496,1,0,0:0:0:0:
192,192,119559,1,0,0:0:0:0:
448,192,119621,1,0,0:0:0:0:
64,192,119684,1,0,0:0:0:0:
192,192,119684,1,0,0:0:0:0:
320,192,119684,1,0,0:0:0:0:
448,192,119746,1,0,0:0:0:0:
320,192,119809,1,0,0:0:0:0:
192,192,119871,1,0,0:0:0:0:
64,192,119934,1,0,0:0:0:0:
320,192,119996,1,0,0:0:0:0:
448,192,120059,1,0,0:0:0:0:
192,192,120059,1,0,0:0:0:0:
64,192,120059,1,0,0:0:0:0:
320,192,120121,1,0,0:0:0:0:
192,192,120184,1,0,0:0:0:0:
448,192,120246,1,0,0:0:0:0:
64,192,120309,1,0,0:0:0:0:
192,192,120371,1,0,0:0:0:0:
320,192,120434,1,0,0:0:0:0:
448,192,120434,1,0,0:0:0:0:
64,192,120434,1,0,0:0:0:0:
192,192,120496,1,0,0:0:0:0:
320,192,120559,1,0,0:0:0:0:
448,192,120621,1,0,0:0:0:0:
320,192,120684,1,0,0:0:0:0:
192,192,120684,1,0,0:0:0:0:
64,192,120684,1,0,0:0:0:0:
448,192,120746,1,0,0:0:0:0:
320,192,120809,1,0,0:0:0:0:
192,192,120871,1,0,0:0:0:0:
64,192,120934,1,0,0:0:0:0:
320,192,120996,1,0,0:0:0:0:
64,192,121059,1,0,0:0:0:0:
192,192,121059,1,0,0:0:0:0:
448,192,121059,1,0,0:0:0:0:
320,192,121121,1,0,0:0:0:0:
448,192,121184,1,0,0:0:0:0:
64,192,121246,1,0,0:0:0:0:
192,192,121309,1,0,0:0:0:0:
320,192,121371,1,0,0:0:0:0:
192,192,121434,1,0,0:0:0:0:
64,192,121434,1,0,0:0:0:0:
448,192,121434,1,0,0:0:0:0:
320,192,121496,1,0,0:0:0:0:
64,192,121559,1,0,0:0:0:0:
448,192,121621,1,0,0:0:0:0:
320,192,121684,1,0,0:0:0:0:
192,192,121684,1,0,0:0:0:0:
64,192,121684,1,0,0:0:0:0:
448,192,121934,1,0,0:0:0:0:
64,192,121996,1,0,0:0:0:0:
448,192,122059,1,0,0:0:0:0:
64,192,122121,1,0,0:0:0:0:
64,192,122684,1,0,0:0:0:0:
192,192,122684,1,0,0:0:0:0:
448,192,122684,1,0,0:0:0:0:
320,192,122684,1,0,0:0:0:0:
320,192,122809,1,0,0:0:0:0:
320,192,122934,1,0,0:0:0:0:
320,192,123059,1,0,0:0:0:0:
192,192,123184,1,0,0:0:0:0:
192,192,123309,1,0,0:0:0:0:
192,192,123434,1,0,0:0:0:0:
192,192,123559,1,0,0:0:0:0:
320,192,123684,1,0,0:0:0:0:
448,192,123684,1,0,0:0:0:0:
64,192,123684,128,0,123871:0:0:0:0:
320,192,123809,1,0,0:0:0:0:
320,192,123934,1,0,0:0:0:0:
448,192,123934,128,0,124184:0:0:0:0:
320,192,124059,1,0,0:0:0:0:
192,192,124184,1,0,0:0:0:0:
64,192,124184,1,0,0:0:0:0:
192,192,124309,1,0,0:0:0:0:
192,192,124434,1,0,0:0:0:0:
192,192,124559,1,0,0:0:0:0:
320,192,124684,1,0,0:0:0:0:
320,192,124809,1,0,0:0:0:0:
320,192,124934,1,0,0:0:0:0:
192,192,124996,1,0,0:0:0:0:
320,192,125059,1,0,0:0:0:0:
64,192,125059,1,0,0:0:0:0:
192,192,125184,1,0,0:0:0:0:
64,192,125184,1,0,0:0:0:0:
448,192,125184,1,0,0:0:0:0:
192,192,125434,1,0,0:0:0:0:
192,192,125559,1,0,0:0:0:0:
320,192,125684,1,0,0:0:0:0:
64,192,125684,1,0,0:0:0:0:
448,192,125684,1,0,0:0:0:0:
320,192,125809,1,0,0:0:0:0:
320,192,125934,1,0,0:0:0:0:
320,192,126059,1,0,0:0:0:0:
192,192,126184,1,0,0:0:0:0:
192,192,126309,1,0,0:0:0:0:
192,192,126434,1,0,0:0:0:0:
192,192,126559,1,0,0:0:0:0:
320,192,126684,1,0,0:0:0:0:
448,192,126684,1,0,0:0:0:0:
320,192,126809,1,0,0:0:0:0:
320,192,126934,1,0,0:0:0:0:
320,192,127059,1,0,0:0:0:0:
192,192,127184,1,0,0:0:0:0:
64,192,127184,1,0,0:0:0:0:
448,192,127184,1,0,0:0:0:0:
192,192,127309,1,0,0:0:0:0:
192,192,127434,1,0,0:0:0:0:
192,192,127559,1,0,0:0:0:0:
320,192,127684,1,0,0:0:0:0:
320,192,127809,1,0,0:0:0:0:
320,192,127934,1,0,0:0:0:0:
192,192,127996,1,0,0:0:0:0:
320,192,128059,1,0,0:0:0:0:
64,192,128059,1,0,0:0:0:0:
192,192,128184,1,0,0:0:0:0:
448,192,128184,1,0,0:0:0:0:
64,192,128184,1,0,0:0:0:0:
192,192,128434,1,0,0:0:0:0:
192,192,128559,1,0,0:0:0:0:
64,192,128559,1,0,0:0:0:0:
64,192,128684,1,0,0:0:0:0:
320,192,128684,1,0,0:0:0:0:
448,192,128684,1,0,0:0:0:0:
320,192,128809,1,0,0:0:0:0:
320,192,128934,1,0,0:0:0:0:
320,192,129059,1,0,0:0:0:0:
64,192,129059,1,0,0:0:0:0:
448,192,129059,1,0,0:0:0:0:
192,192,129184,1,0,0:0:0:0:
192,192,129309,1,0,0:0:0:0:
192,192,129434,1,0,0:0:0:0:
192,192,129559,1,0,0:0:0:0:
320,192,129684,1,0,0:0:0:0:
448,192,129684,1,0,0:0:0:0:
320,192,129809,1,0,0:0:0:0:
320,192,129934,1,0,0:0:0:0:
320,192,130059,1,0,0:0:0:0:
192,192,130184,1,0,0:0:0:0:
64,192,130184,1,0,0:0:0:0:
448,192,130184,1,0,0:0:0:0:
192,192,130309,1,0,0:0:0:0:
192,192,130434,1,0,0:0:0:0:
192,192,130559,1,0,0:0:0:0:
320,192,130684,1,0,0:0:0:0:
320,192,130809,1,0,0:0:0:0:
320,192,130934,1,0,0:0:0:0:
192,192,130996,1,0,0:0:0:0:
320,192,131059,1,0,0:0:0:0:
64,192,131059,1,0,0:0:0:0:
64,192,131184,1,0,0:0:0:0:
192,192,131184,1,0,0:0:0:0:
448,192,131184,1,0,0:0:0:0:
64,192,131434,1,0,0:0:0:0:
320,192,131434,1,0,0:0:0:0:
448,192,131434,1,0,0:0:0:0:
192,192,131559,1,0,0:0:0:0:
64,192,131684,1,0,0:0:0:0:
320,192,131684,1,0,0:0:0:0:
448,192,131684,1,0,0:0:0:0:
320,192,131809,1,0,0:0:0:0:
320,192,131934,1,0,0:0:0:0:
320,192,132059,1,0,0:0:0:0:
64,192,132059,1,0,0:0:0:0:
448,192,132059,1,0,0:0:0:0:
192,192,132184,1,0,0:0:0:0:
192,192,132309,1,0,0:0:0:0:
192,192,132434,1,0,0:0:0:0:
64,192,132434,1,0,0:0:0:0:
448,192,132434,1,0,0:0:0:0:
192,192,132559,1,0,0:0:0:0:
320,192,132684,1,0,0:0:0:0:
320,192,132809,1,0,0:0:0:0:
320,192,132934,1,0,0:0:0:0:
320,192,133059,1,0,0:0:0:0:
192,192,133184,1,0,0:0:0:0:
64,192,133184,1,0,0:0:0:0:
448,192,133184,1,0,0:0:0:0:
192,192,133309,1,0,0:0:0:0:
192,192,133434,1,0,0:0:0:0:
192,192,133559,1,0,0:0:0:0:
320,192,133684,1,0,0:0:0:0:
320,192,133809,1,0,0:0:0:0:
320,192,133934,1,0,0:0:0:0:
192,192,133996,1,0,0:0:0:0:
320,192,134059,1,0,0:0:0:0:
64,192,134059,1,0,0:0:0:0:
64,192,134184,1,0,0:0:0:0:
192,192,134184,1,0,0:0:0:0:
448,192,134184,1,0,0:0:0:0:
192,192,134434,1,0,0:0:0:0:
320,192,134434,1,0,0:0:0:0:
448,192,134434,1,0,0:0:0:0:
64,192,134684,1,0,0:0:0:0:
320,192,134684,1,0,0:0:0:0:
192,192,134684,1,0,0:0:0:0:
448,192,134684,128,0,134809:0:0:0:0:
320,192,134809,1,0,0:0:0:0:
320,192,134934,1,0,0:0:0:0:
64,192,134934,128,0,135059:0:0:0:0:
320,192,135059,1,0,0:0:0:0:
192,192,135184,1,0,0:0:0:0:
448,192,135184,128,0,135309:0:0:0:0:
192,192,135309,1,0,0:0:0:0:
192,192,135434,1,0,0:0:0:0:
64,192,135434,128,0,135559:0:0:0:0:
192,192,135559,1,0,0:0:0:0:
320,192,135684,1,0,0:0:0:0:
448,192,135684,128,0,135809:0:0:0:0:
320,192,135809,1,0,0:0:0:0:
320,192,135934,1,0,0:0:0:0:
64,192,135934,128,0,136059:0:0:0:0:
320,192,136059,1,0,0:0:0:0:
192,192,136184,1,0,0:0:0:0:
64,192,136184,1,0,0:0:0:0:
448,192,136184,128,0,136309:0:0:0:0:
192,192,136309,1,0,0:0:0:0:
192,192,136434,1,0,0:0:0:0:
64,192,136434,128,0,136559:0:0:0:0:
192,192,136559,1,0,0:0:0:0:
320,192,136684,1,0,0:0:0:0:
448,192,136684,128,0,136809:0:0:0:0:
320,192,136809,1,0,0:0:0:0:
320,192,136934,1,0,0:0:0:0:
64,192,136934,128,0,137059:0:0:0:0:
192,192,136996,1,0,0:0:0:0:
320,192,137059,1,0,0:0:0:0:
64,192,137184,1,0,0:0:0:0:
192,192,137184,1,0,0:0:0:0:
448,192,137184,128,0,137309:0:0:0:0:
192,192,137434,1,0,0:0:0:0:
64,192,137434,128,0,137559:0:0:0:0:
192,192,137559,1,0,0:0:0:0:
320,192,137684,1,0,0:0:0:0:
64,192,137684,1,0,0:0:0:0:
448,192,137684,128,0,137809:0:0:0:0:
320,192,137809,1,0,0:0:0:0:
320,192,137934,1,0,0:0:0:0:
64,192,137934,128,0,138059:0:0:0:0:
320,192,138059,1,0,0:0:0:0:
192,192,138184,1,0,0:0:0:0:
448,192,138184,128,0,138309:0:0:0:0:
192,192,138309,1,0,0:0:0:0:
192,192,138434,1,0,0:0:0:0:
64,192,138434,128,0,138559:0:0:0:0:
192,192,138559,1,0,0:0:0:0:
320,192,138684,1,0,0:0:0:0:
448,192,138684,128,0,138809:0:0:0:0:
320,192,138809,1,0,0:0:0:0:
320,192,138934,1,0,0:0:0:0:
64,192,138934,128,0,139059:0:0:0:0:
320,192,139059,1,0,0:0:0:0:
64,192,139184,1,0,0:0:0:0:
192,192,139184,1,0,0:0:0:0:
448,192,139184,128,0,139309:0:0:0:0:
192,192,139309,1,0,0:0:0:0:
192,192,139434,1,0,0:0:0:0:
64,192,139434,128,0,139559:0:0:0:0:
192,192,139559,1,0,0:0:0:0:
320,192,139684,1,0,0:0:0:0:
448,192,139684,128,0,139809:0:0:0:0:
320,192,139809,1,0,0:0:0:0:
320,192,139934,1,0,0:0:0:0:
64,192,139934,128,0,140059:0:0:0:0:
192,192,139996,1,0,0:0:0:0:
320,192,140059,1,0,0:0:0:0:
192,192,140184,1,0,0:0:0:0:
64,192,140184,1,0,0:0:0:0:
448,192,140184,1,0,0:0:0:0:
192,192,140434,1,0,0:0:0:0:
448,192,140434,128,0,140559:0:0:0:0:
192,192,140559,1,0,0:0:0:0:
64,192,140559,1,0,0:0:0:0:
320,192,140684,1,0,0:0:0:0:
448,192,140684,128,0,140809:0:0:0:0:
64,192,140684,1,0,0:0:0:0:
320,192,140809,1,0,0:0:0:0:
320,192,140934,1,0,0:0:0:0:
448,192,140934,128,0,141059:0:0:0:0:
320,192,141059,1,0,0:0:0:0:
64,192,141059,1,0,0:0:0:0:
448,192,141184,128,0,141309:0:0:0:0:
192,192,141184,1,0,0:0:0:0:
192,192,141309,1,0,0:0:0:0:
192,192,141434,1,0,0:0:0:0:
448,192,141434,128,0,141559:0:0:0:0:
192,192,141559,1,0,0:0:0:0:
320,192,141684,1,0,0:0:0:0:
448,192,141684,128,0,141809:0:0:0:0:
64,192,141684,1,0,0:0:0:0:
320,192,141809,1,0,0:0:0:0:
320,192,141934,1,0,0:0:0:0:
448,192,141934,128,0,142059:0:0:0:0:
320,192,142059,1,0,0:0:0:0:
192,192,142184,1,0,0:0:0:0:
64,192,142184,1,0,0:0:0:0:
448,192,142184,128,0,142309:0:0:0:0:
192,192,142309,1,0,0:0:0:0:
192,192,142434,1,0,0:0:0:0:
448,192,142434,128,0,142559:0:0:0:0:
192,192,142559,1,0,0:0:0:0:
320,192,142684,1,0,0:0:0:0:
448,192,142684,128,0,142809:0:0:0:0:
320,192,142809,1,0,0:0:0:0:
320,192,142934,1,0,0:0:0:0:
448,192,142934,128,0,143059:0:0:0:0:
192,192,142996,1,0,0:0:0:0:
320,192,143059,1,0,0:0:0:0:
64,192,143184,1,0,0:0:0:0:
192,192,143184,1,0,0:0:0:0:
448,192,143184,1,0,0:0:0:0:
64,192,143434,1,0,0:0:0:0:
192,192,143434,1,0,0:0:0:0:
448,192,143434,1,0,0:0:0:0:
192,192,143559,1,0,0:0:0:0:
320,192,143684,1,0,0:0:0:0:
64,192,143684,1,0,0:0:0:0:
448,192,143684,128,0,143809:0:0:0:0:
320,192,143809,1,0,0:0:0:0:
448,192,143934,128,0,144059:0:0:0:0:
320,192,143934,1,0,0:0:0:0:
320,192,144059,1,0,0:0:0:0:
64,192,144059,1,0,0:0:0:0:
448,192,144184,128,0,144309:0:0:0:0:
192,192,144184,1,0,0:0:0:0:
192,192,144309,1,0,0:0:0:0:
192,192,144434,1,0,0:0:0:0:
64,192,144434,1,0,0:0:0:0:
448,192,144434,128,0,144559:0:0:0:0:
192,192,144559,1,0,0:0:0:0:
64,192,144684,1,0,0:0:0:0:
320,192,144684,1,0,0:0:0:0:
448,192,144684,128,0,144809:0:0:0:0:
320,192,144809,1,0,0:0:0:0:
448,192,144934,128,0,145059:0:0:0:0:
320,192,144934,1,0,0:0:0:0:
320,192,145059,1,0,0:0:0:0:
64,192,145059,1,0,0:0:0:0:
448,192,145184,128,0,145309:0:0:0:0:
192,192,145184,1,0,0:0:0:0:
192,192,145309,1,0,0:0:0:0:
448,192,145434,128,0,145559:0:0:0:0:
192,192,145434,1,0,0:0:0:0:
64,192,145434,1,0,0:0:0:0:
192,192,145559,1,0,0:0:0:0:
448,192,145684,128,0,145809:0:0:0:0:
320,192,145684,1,0,0:0:0:0:
64,192,145684,1,0,0:0:0:0:
320,192,145809,1,0,0:0:0:0:
448,192,145934,128,0,146059:0:0:0:0:
320,192,145934,1,0,0:0:0:0:
320,192,146059,1,0,0:0:0:0:
64,192,146184,1,0,0:0:0:0:
192,192,146184,1,0,0:0:0:0:
448,192,146184,1,0,0:0:0:0:
