osu file format v14

[General]
AudioFilename: audio.mp3
AudioLeadIn: 0
PreviewTime: 71925
Countdown: 0
SampleSet: Soft
StackLeniency: 0.7
Mode: 2
LetterboxInBreaks: 0
WidescreenStoryboard: 1

[Editor]
DistanceSpacing: 1.2
BeatDivisor: 6
GridSize: 32
TimelineZoom: 2.3

[Metadata]
Title:PERSONALITY
TitleUnicode:人格
Artist:onumi
ArtistUnicode:オヌミ
Creator:Ascendance
Version:AJAMEZ'S SALAD
Source:osu!
Tags:wubs anime girl experimental featured artist jbhyperion jbh ajamez idu5t idust alienflybot afb
BeatmapID:1995049
BeatmapSetID:933984

[Difficulty]
HPDrainRate:4
CircleSize:4
OverallDifficulty:7
ApproachRate:7
SliderMultiplier:1.24
SliderTickRate:1

[Events]
//Background and Video events
0,0,"personality.png",0,0
//Break Periods
//Storyboard Layer 0 (Background)
//Storyboard Layer 1 (Fail)
//Storyboard Layer 2 (Pass)
//Storyboard Layer 3 (Foreground)
//Storyboard Sound Samples

[TimingPoints]
19225,300,4,2,1,50,1,0
43825,-100,4,2,1,50,0,0
44425,-100,4,2,1,50,0,0
63625,-100,4,2,1,60,0,0
71425,-100,4,2,1,60,0,0
72025,-100,4,2,1,70,0,0
76225,-100,4,2,1,80,0,0
76825,-100,4,2,1,80,0,0
96625,300,4,2,1,60,1,0
100225,-100,4,2,1,60,0,0
102025,-100,4,2,1,60,0,0
102625,-100,4,2,1,60,0,0
106225,-100,4,2,1,70,0,0
108625,-100,4,2,1,70,0,0
110425,300,4,2,1,70,1,0
124825,-100,4,2,1,20,0,0
126025,-100,4,2,1,80,0,0
134425,-100,4,2,1,20,0,0
135625,-100,4,2,1,70,0,0
144025,-100,4,2,1,20,0,0
145225,-100,4,2,1,70,0,0
153700,-100,4,2,1,30,0,0

[Colours]
Combo1 : 85,85,85
Combo2 : 255,85,175
Combo3 : 150,185,200

[HitObjects]
256,192,24025,5,4,0:0:0:0:
256,192,24325,12,0,36025,0:0:0:0:
483,260,37225,6,0,P|491:183|454:129,1,124,2|0,0:0|0:0,0:0:0:0:
330,92,37825,1,2,0:0:0:0:
473,53,38125,1,0,0:0:0:0:
310,206,38425,2,0,P|321:293|468:353,1,248,0|8,0:0|0:0,0:0:0:0:
17,270,39625,6,0,L|154:278,2,124,2|0|8,0:0|0:0|0:0,0:0:0:0:
169,356,40525,1,0,0:0:0:0:
322,261,40825,2,0,L|173:232,1,124,2|0,0:0|0:0,0:0:0:0:
466,167,41425,2,0,P|477:214|464:312,1,124,8|0,0:0|0:0,0:0:0:0:
387,319,41875,1,0,0:0:0:0:
298,341,42025,6,0,P|360:307|410:285,1,124,2|0,0:0|0:0,0:0:0:0:
266,251,42625,2,0,L|127:241,1,124,8|0,0:0|0:0,0:0:0:0:
275,176,43225,1,2,0:0:0:0:
406,143,43525,1,0,0:0:0:0:
130,57,43825,2,0,P|88:110|160:185,1,186,4|0,0:0|0:0,0:0:0:0:
236,201,44425,6,0,L|247:324,1,124,2|0,0:0|0:0,0:0:0:0:
489,226,45025,2,0,L|478:152,1,62,10|2,0:0|0:0,0:0:0:0:
294,81,45625,2,0,L|441:67,1,124,2|0,0:0|0:0,0:0:0:0:
140,101,46225,2,0,P|94:105|41:163,1,124,8|0,0:0|0:0,0:0:0:0:
105,200,46675,1,0,0:0:0:0:
255,278,46825,5,8,0:0:0:0:
325,320,46975,2,0,L|188:332,1,124,0|0,0:0|0:0,0:0:0:0:
274,367,47425,1,8,0:0:0:0:
294,344,47500,1,8,0:0:0:0:
291,314,47575,1,8,0:0:0:0:
239,298,47725,6,0,L|170:300,1,62,8|8,0:0|0:0,0:0:0:0:
245,226,48025,2,0,P|372:158|479:146,1,248,2|8,0:0|0:0,0:0:0:0:
364,98,48925,1,0,0:0:0:0:
62,139,49225,6,0,P|62:203|138:251,1,124,2|0,0:0|0:0,0:0:0:0:
255,337,49825,2,0,P|236:298|165:256,1,124,8|0,0:0|0:0,0:0:0:0:
14,219,50425,2,0,L|148:202,1,124,2|0,0:0|0:0,0:0:0:0:
406,185,51025,2,0,P|437:188|487:269,1,124,8|0,0:0|0:0,0:0:0:0:
415,278,51475,1,0,0:0:0:0:
341,286,51625,6,0,P|288:272|275:195,1,124,2|0,0:0|0:0,0:0:0:0:
27,57,52225,2,0,L|30:206,1,124,8|0,0:0|0:0,0:0:0:0:
169,272,52825,2,0,L|313:296,1,124,2|2,0:0|0:0,0:0:0:0:
26,187,53425,2,0,L|49:316,1,124,4|0,0:0|0:0,0:0:0:0:
332,88,54025,6,0,L|186:99,2,124,2|0|8,0:0|0:0|0:0,0:0:0:0:
418,103,54825,2,0,L|499:127,1,82.6666666666667,0|0,0:0|0:0,0:0:0:0:
409,175,55225,2,0,L|408:307,1,124,2|0,0:0|0:0,0:0:0:0:
164,271,55825,2,0,P|182:308|268:331,1,124,8|0,0:0|0:0,0:0:0:0:
320,328,56275,1,0,0:0:0:0:
171,352,56425,5,8,0:0:0:0:
103,348,56575,2,0,P|56:329|39:254,1,124,0|0,0:0|0:0,0:0:0:0:
109,259,57025,2,0,L|110:203,2,31,8|8|8,0:0|0:0|0:0,0:0:0:0:
41,256,57325,2,0,L|41:178,1,62,8|8,0:0|0:0,0:0:0:0:
214,122,57625,5,2,0:0:0:0:
414,44,58225,2,0,L|308:35,2,82.6666666666667,8|0|0,0:0|0:0|0:0,0:0:0:0:
300,135,58825,6,0,L|290:224,1,82.6666666666667,2|2,0:0|0:0,0:0:0:0:
386,274,59225,1,2,0:0:0:0:
204,311,59425,6,0,L|105:324,2,82.6666666666667,10|2|2,0:0|0:0|0:0,0:0:0:0:
292,357,60025,2,0,L|391:370,2,82.6666666666667,2|2|2,0:0|0:0|0:0,0:0:0:0:
103,244,60625,2,0,L|95:86,1,124,10|0,0:0|0:0,0:0:0:0:
350,111,61225,6,0,P|341:64|296:40,1,82.6666666666667,2|2,0:0|0:0,0:0:0:0:
214,36,61625,1,2,0:0:0:0:
397,195,61825,2,0,L|493:197,2,82.6666666666667,10|2|2,0:0|0:0|0:0,0:0:0:0:
289,208,62425,5,2,0:0:0:0:
448,295,62725,1,2,0:0:0:0:
217,344,63025,2,0,L|317:366,1,82.6666666666667,10|0,0:0|0:0,0:0:0:0:
384,370,63425,1,0,0:0:0:0:
283,263,63625,6,0,L|186:260,2,82.6666666666667,2|2|2,0:0|0:0|0:0,0:0:0:0:
115,158,64225,1,8,0:0:0:0:
44,128,64375,2,0,L|54:11,1,103.333333333333,2|2,0:0|0:0,0:0:0:0:
157,16,64825,6,0,L|269:21,2,82.6666666666667,2|2|2,0:0|0:0|0:0,0:0:0:0:
327,93,65425,2,0,L|419:99,1,82.6666666666667,10|2,0:0|0:0,0:0:0:0:
449,192,65825,1,2,0:0:0:0:
263,230,66025,6,0,L|255:309,1,62,8|0,0:0|0:0,0:0:0:0:
334,320,66325,2,0,L|343:386,1,62,2|2,0:0|0:0,0:0:0:0:
271,371,66625,5,8,0:0:0:0:
241,379,66700,1,8,0:0:0:0:
211,375,66775,1,8,0:0:0:0:
223,338,66925,2,0,L|302:326,1,62,8|8,0:0|0:0,0:0:0:0:
124,271,67225,6,0,P|75:262|121:119,1,248,2|8,0:0|0:0,0:0:0:0:
217,53,68025,2,0,L|311:53,1,82.6666666666667,0|0,0:0|0:0,0:0:0:0:
110,196,68425,6,0,L|28:203,2,82.6666666666667,6|2|2,0:0|0:0|0:0,0:0:0:0:
294,231,69025,2,0,L|278:315,1,82.6666666666667,2|2,0:0|0:0,0:0:0:0:
174,341,69425,1,2,0:0:0:0:
278,371,69625,6,0,L|366:377,1,82.6666666666667,2|2,0:0|0:0,0:0:0:0:
453,335,70025,1,2,0:0:0:0:
252,248,70225,2,0,P|199:233|148:182,1,124,10|0,0:0|0:0,0:0:0:0:
317,119,70825,6,0,L|422:114,2,82.6666666666667,2|2|2,0:0|0:0|0:0,0:0:0:0:
126,39,71425,2,0,L|121:194,1,124,4|0,0:0|0:0,0:0:0:0:
424,216,72025,5,2,0:0:0:0:
291,274,72325,2,0,L|89:296,2,186,8|8|8,0:0|0:0|0:0,0:0:0:0:
78,215,73675,2,0,L|65:11,1,186,8|8,0:0|0:0,0:0:0:0:
375,28,74425,5,2,0:0:0:0:
229,164,74725,2,0,L|432:184,2,186,8|8|8,0:0|0:0|0:0,0:0:0:0:
455,237,76075,1,8,0:0:0:0:
457,356,76325,2,0,L|299:353,1,144.666666666667,4|0,0:0|0:0,0:0:0:0:
166,329,76825,6,0,P|123:251|243:178,1,248,2|0,0:0|0:0,0:0:0:0:
87,120,77725,1,8,0:0:0:0:
233,96,78025,2,0,L|365:92,1,124,0|8,0:0|0:0,0:0:0:0:
189,289,78625,2,0,L|56:298,1,124,0|8,0:0|0:0,0:0:0:0:
357,330,79225,5,10,0:0:0:0:
212,340,79525,2,0,L|72:323,2,124,0|0|8,0:0|0:0|0:0,0:0:0:0:
348,340,80425,2,0,L|343:201,1,124,8|8,0:0|0:0,0:0:0:0:
177,166,81025,2,0,L|25:151,1,124,8|8,0:0|0:0,0:0:0:0:
327,90,81625,6,0,L|470:78,1,124,2|0,0:0|0:0,0:0:0:0:
284,211,82225,1,2,0:0:0:0:
450,212,82525,1,8,0:0:0:0:
288,305,82825,2,0,P|244:252|247:164,1,124,8|8,0:0|0:0,0:0:0:0:
76,151,83425,2,0,P|76:77|131:29,1,124,8|8,0:0|0:0,0:0:0:0:
383,14,84025,5,2,0:0:0:0:
239,41,84325,1,0,0:0:0:0:
410,122,84625,2,0,P|428:186|380:244,1,124,2|8,0:0|0:0,0:0:0:0:
244,256,85225,2,0,P|239:329|286:364,1,124,8|8,0:0|0:0,0:0:0:0:
433,362,85825,2,0,L|290:347,1,124,8|8,0:0|0:0,0:0:0:0:
27,144,86425,6,0,L|160:128,1,124,2|0,0:0|0:0,0:0:0:0:
294,157,87025,1,2,0:0:0:0:
147,232,87325,1,8,0:0:0:0:
309,383,87625,2,0,P|332:318|315:259,1,124,8|8,0:0|0:0,0:0:0:0:
157,379,88225,2,0,L|17:358,1,124,8|8,0:0|0:0,0:0:0:0:
312,266,88825,5,2,0:0:0:0:
162,250,89125,2,0,L|156:100,1,124,2|0,0:0|0:0,0:0:0:0:
315,106,89725,1,8,0:0:0:0:
152,40,90025,2,0,L|283:27,1,124,8|8,0:0|0:0,0:0:0:0:
440,209,90625,2,0,L|294:197,1,124,8|8,0:0|0:0,0:0:0:0:
53,293,91225,5,2,0:0:0:0:
225,312,91525,2,0,P|279:313|351:340,1,124,8|2,0:0|0:0,0:0:0:0:
265,366,91975,2,0,P|225:375|143:407,1,124,8|2,0:0|0:0,0:0:0:0:
214,373,92425,5,8,0:0:0:0:
383,274,92725,1,0,0:0:0:0:
313,248,92875,2,0,L|119:210,1,186,8|8,0:0|0:0,0:0:0:0:
395,144,93625,5,2,0:0:0:0:
250,142,93925,2,0,P|194:124|138:68,1,124,8|2,0:0|0:0,0:0:0:0:
77,48,94375,2,0,L|66:178,1,124,8|2,0:0|0:0,0:0:0:0:
132,196,94825,1,8,0:0:0:0:
286,239,95125,5,0,0:0:0:0:
212,239,95275,2,0,L|199:357,1,93,0|0,0:0|0:0,0:0:0:0:
309,374,95725,2,0,L|454:355,1,124,0|0,0:0|0:0,0:0:0:0:
49,231,97225,6,0,L|47:98,1,124,8|0,0:0|0:0,0:0:0:0:
324,84,97825,5,2,0:0:0:0:
251,84,97975,1,2,0:0:0:0:
177,82,98125,1,2,0:0:0:0:
251,84,98275,1,2,0:0:0:0:
324,84,98425,2,0,L|453:83,1,124,2|0,0:0|0:0,0:0:0:0:
159,190,99025,1,12,0:0:0:0:
311,217,99325,2,0,L|336:360,1,124,2|8,0:0|0:0,0:0:0:0:
475,355,99925,1,0,0:0:0:0:
205,360,100225,6,0,P|266:351|239:249,1,186,2|0,0:0|0:0,0:0:0:0:
170,220,100825,2,0,L|31:186,1,124,2|0,0:0|0:0,0:0:0:0:
236,135,101425,2,0,L|101:109,1,124,2|0,0:0|0:0,0:0:0:0:
289,63,102025,2,0,L|436:59,1,124,8|0,0:0|0:0,0:0:0:0:
148,218,102625,6,0,P|166:251|308:306,1,186,2|0,0:0|0:0,0:0:0:0:
380,303,103225,2,0,L|388:162,1,124,2|0,0:0|0:0,0:0:0:0:
127,87,103825,2,0,L|279:77,1,124,2|0,0:0|0:0,0:0:0:0:
106,183,104425,1,8,0:0:0:0:
276,202,104725,1,0,0:0:0:0:
42,348,105025,5,2,0:0:0:0:
115,348,105175,1,2,0:0:0:0:
190,348,105325,1,2,0:0:0:0:
115,348,105475,1,2,0:0:0:0:
42,348,105625,2,0,L|39:198,1,124,0|0,0:0|0:0,0:0:0:0:
328,175,106225,6,0,P|280:122|147:91,1,186,2|0,0:0|0:0,0:0:0:0:
250,68,106825,2,0,L|391:58,1,124,8|0,0:0|0:0,0:0:0:0:
126,194,107425,1,2,0:0:0:0:
185,200,107575,1,2,0:0:0:0:
214,252,107725,1,2,0:0:0:0:
187,305,107875,1,2,0:0:0:0:
128,314,108025,2,0,L|12:248,2,124,2|0|2,0:0|0:0|0:0,0:0:0:0:
415,313,108925,5,2,0:0:0:0:
257,236,109225,2,0,L|117:202,1,124,8|0,0:0|0:0,0:0:0:0:
404,123,109825,2,0,P|349:121|374:227,1,186,2|0,0:0|0:0,0:0:0:0:
427,256,110425,6,0,L|502:270,2,62,2|0|8,0:0|0:0|0:0,0:0:0:0:
279,335,111025,1,2,0:0:0:0:
200,336,111175,2,0,L|61:328,1,124,8|2,0:0|0:0,0:0:0:0:
228,235,111625,6,0,L|361:232,1,124,8|2,0:0|0:0,0:0:0:0:
343,182,112075,1,0,0:0:0:0:
181,140,112375,2,0,L|168:78,1,62,0|0,0:0|0:0,0:0:0:0:
331,53,112825,6,0,L|479:43,1,124,2|8,0:0|0:0,0:0:0:0:
306,180,113425,1,2,0:0:0:0:
238,198,113575,2,0,L|222:322,1,124,0|0,0:0|0:0,0:0:0:0:
57,303,114025,6,0,L|79:167,1,124,8|2,0:0|0:0,0:0:0:0:
357,214,114625,1,10,0:0:0:0:
416,220,114775,1,2,0:0:0:0:
445,272,114925,1,2,0:0:0:0:
418,325,115075,1,2,0:0:0:0:
350,334,115225,6,0,P|250:284|455:129,1,496,2|4,0:0|0:0,0:0:0:0:
46,112,117625,2,0,P|37:187|94:266,1,165.333333333333,2|0,0:0|0:0,0:0:0:0:
235,340,118325,2,0,L|84:363,1,124,0|2,0:0|0:0,0:0:0:0:
296,284,118825,5,10,0:0:0:0:
308,248,119125,1,2,0:0:0:0:
135,204,119275,1,8,0:0:0:0:
123,170,119575,1,2,0:0:0:0:
286,138,119725,1,8,0:0:0:0:
441,100,120025,6,0,P|357:96|461:222,1,372,2|0,0:0|0:0,0:0:0:0:
158,299,121225,1,12,0:0:0:0:
484,337,122425,6,0,P|494:248|461:162,1,165.333333333333,2|0,0:0|0:0,0:0:0:0:
335,144,123125,2,0,L|464:115,1,124,0|0,0:0|0:0,0:0:0:0:
291,37,123625,1,10,0:0:0:0:
288,69,123925,1,2,0:0:0:0:
123,137,124075,1,2,0:0:0:0:
112,177,124375,2,0,L|183:181,2,62,2|2|2,0:0|0:0|0:0,0:0:0:0:
34,200,124825,6,0,P|154:198|23:392,1,496,2|8,0:0|0:0,0:0:0:0:
469,335,127225,6,0,L|297:263,1,165.333333333333,2|0,0:0|0:0,0:0:0:0:
162,219,127925,2,0,L|141:89,1,124,0|0,0:0|0:0,0:0:0:0:
336,58,128425,1,10,0:0:0:0:
341,86,128725,1,2,0:0:0:0:
175,146,128875,1,8,0:0:0:0:
167,177,129175,1,2,0:0:0:0:
334,226,129325,1,8,0:0:0:0:
189,273,129625,6,0,P|256:278|143:381,1,372,2|0,0:0|0:0,0:0:0:0:
431,295,130825,1,10,0:0:0:0:
39,268,132025,6,0,P|95:228|199:212,1,165.333333333333,2|0,0:0|0:0,0:0:0:0:
29,168,132725,2,0,L|21:9,1,124,0|0,0:0|0:0,0:0:0:0:
207,20,133225,5,10,0:0:0:0:
218,56,133525,1,2,0:0:0:0:
382,115,133675,1,2,0:0:0:0:
392,159,133975,2,0,L|325:161,2,62,2|2|2,0:0|0:0|0:0,0:0:0:0:
476,180,134425,6,0,P|338:189|483:366,1,496,2|8,0:0|0:0,0:0:0:0:
46,331,136825,2,0,P|43:258|114:186,1,165.333333333333,2|0,0:0|0:0,0:0:0:0:
256,173,137525,2,0,L|277:31,1,124,0|0,0:0|0:0,0:0:0:0:
87,18,138025,1,10,0:0:0:0:
91,49,138325,1,2,0:0:0:0:
246,98,138475,1,8,0:0:0:0:
255,138,138775,1,2,0:0:0:0:
81,174,138925,1,8,0:0:0:0:
228,212,139225,6,0,P|114:209|223:347,1,372,2|0,0:0|0:0,0:0:0:0:
468,330,140425,1,8,0:0:0:0:
471,101,141625,6,0,P|475:184|439:274,1,165.333333333333,10|0,0:0|0:0,0:0:0:0:
291,297,142325,2,0,L|273:162,1,124,0|0,0:0|0:0,0:0:0:0:
92,137,142825,1,8,0:0:0:0:
95,95,143125,1,2,0:0:0:0:
260,55,143275,1,2,0:0:0:0:
271,104,143575,2,0,L|332:108,2,62,2|2|2,0:0|0:0|0:0,0:0:0:0:
186,123,144025,6,0,P|90:140|212:288,1,372,2|0,0:0|0:0,0:0:0:0:
486,261,145225,5,8,0:0:0:0:
483,317,146425,6,0,P|446:279|330:230,1,165.333333333333,2|0,0:0|0:0,0:0:0:0:
185,141,147125,2,0,L|203:9,1,124,0|0,0:0|0:0,0:0:0:0:
388,9,147625,1,10,0:0:0:0:
395,46,147925,1,2,0:0:0:0:
230,104,148075,1,8,0:0:0:0:
225,146,148375,1,2,0:0:0:0:
53,193,148525,1,8,0:0:0:0:
193,208,148825,6,0,P|267:223|139:338,1,372,2|0,0:0|0:0,0:0:0:0:
463,339,150025,1,8,0:0:0:0:
470,298,151225,6,0,L|303:216,1,165.333333333333,2|0,0:0|0:0,0:0:0:0:
179,144,151925,2,0,P|194:78|259:45,1,124,0|0,0:0|0:0,0:0:0:0:
425,100,152425,1,8,0:0:0:0:
409,62,152725,1,2,0:0:0:0:
239,38,152875,1,2,0:0:0:0:
219,85,153175,2,0,L|303:88,2,62,2|2|2,0:0|0:0|0:0,0:0:0:0:
38,155,153625,5,2,0:0:0:0:
256,192,153925,12,0,159025,0:0:0:0:
