osu file format v14

[General]
AudioFilename: audio.mp3
AudioLeadIn: 0
PreviewTime: 71925
Countdown: 0
SampleSet: Soft
StackLeniency: 0.7
Mode: 2
LetterboxInBreaks: 0
WidescreenStoryboard: 1

[Editor]
DistanceSpacing: 1.2
BeatDivisor: 4
GridSize: 4
TimelineZoom: 2.3

[Metadata]
Title:PERSONALITY
TitleUnicode:人格
Artist:onumi
ArtistUnicode:オヌミ
Creator:Ascendance
Version:AFB'S CUP
Source:osu!
Tags:wubs anime girl experimental featured artist jbhyperion jbh ajamez idu5t idust alienflybot afb
BeatmapID:1995048
BeatmapSetID:933984

[Difficulty]
HPDrainRate:3
CircleSize:3
OverallDifficulty:5.5
ApproachRate:5.5
SliderMultiplier:1.1
SliderTickRate:1

[Events]
//Background and Video events
0,0,"personality.png",0,0
//Break Periods
//Storyboard Layer 0 (Background)
//Storyboard Layer 1 (Fail)
//Storyboard Layer 2 (Pass)
//Storyboard Layer 3 (Foreground)
//Storyboard Sound Samples

[TimingPoints]
19225,300,4,2,1,50,1,0
43825,-100,4,2,1,50,0,0
44425,-100,4,2,1,50,0,0
63625,-100,4,2,1,60,0,0
71425,-100,4,2,1,60,0,0
72025,-100,4,2,1,70,0,0
76225,-100,4,2,1,80,0,0
76825,-100,4,2,1,80,0,0
96625,300,4,2,1,60,1,0
100225,-100,4,2,1,60,0,0
102025,-100,4,2,1,60,0,0
102625,-100,4,2,1,60,0,0
106225,-100,4,2,1,70,0,0
108625,-100,4,2,1,70,0,0
110425,300,4,2,1,70,1,0
124825,-100,4,2,1,20,0,0
126025,-100,4,2,1,80,0,0
134425,-100,4,2,1,20,0,0
135625,-100,4,2,1,70,0,0
144025,-100,4,2,1,20,0,0
145225,-100,4,2,1,70,0,0
153700,-100,4,2,1,30,0,0

[Colours]
Combo1 : 85,85,85
Combo2 : 255,85,175
Combo3 : 150,185,200

[HitObjects]
256,336,24025,5,4,0:0:0:0:
256,192,24325,12,0,36025,0:0:0:0:
444,336,37225,6,0,P|509:261|437:192,1,220,2|2,0:0|0:0,0:0:0:0:
320,156,38125,1,0,0:0:0:0:
436,120,38425,1,0,0:0:0:0:
204,120,39025,1,8,0:0:0:0:
480,192,39625,6,0,L|487:82,1,110,2|0,0:0|0:0,0:0:0:0:
372,48,40225,1,8,0:0:0:0:
140,156,40825,1,2,0:0:0:0:
256,192,41125,1,0,0:0:0:0:
372,228,41425,1,8,0:0:0:0:
140,336,42025,5,2,0:0:0:0:
24,300,42325,2,0,L|16:190,1,110,0|8,0:0|0:0,0:0:0:0:
248,224,43225,2,0,L|256:114,1,110,2|0,0:0|0:0,0:0:0:0:
120,80,43825,1,4,0:0:0:0:
352,79,44425,6,0,P|308:178|209:219,1,220,2|10,0:0|0:0,0:0:0:0:
152,220,45175,1,2,0:0:0:0:
320,260,45625,2,0,L|429:267,2,110,2|0|8,0:0|0:0|0:0,0:0:0:0:
88,296,46825,5,8,0:0:0:0:
104,260,46975,1,0,0:0:0:0:
140,224,47125,1,2,0:0:0:0:
252,208,47425,2,0,P|317:133|245:64,1,220,8|2,0:0|0:0,0:0:0:0:
40,24,48625,1,8,0:0:0:0:
292,64,49225,5,2,0:0:0:0:
376,120,49525,1,0,0:0:0:0:
400,216,49825,1,8,0:0:0:0:
356,304,50125,1,0,0:0:0:0:
260,336,50425,2,0,L|480:344,1,220,2|8,0:0|0:0,0:0:0:0:
248,252,51625,6,0,L|138:244,1,110,2|0,0:0|0:0,0:0:0:0:
252,168,52225,2,0,L|142:160,1,110,8|0,0:0|0:0,0:0:0:0:
28,196,52825,2,0,L|20:86,1,110,2|2,0:0|0:0,0:0:0:0:
156,56,53425,1,4,0:0:0:0:
388,56,54025,6,0,P|453:131|381:200,1,220,2|8,0:0|0:0,0:0:0:0:
304,200,54825,1,0,0:0:0:0:
152,236,55225,1,2,0:0:0:0:
268,272,55525,1,0,0:0:0:0:
384,308,55825,1,8,0:0:0:0:
152,344,56425,5,8,0:0:0:0:
168,308,56575,1,0,0:0:0:0:
204,272,56725,1,2,0:0:0:0:
336,252,57025,2,0,P|434:210|478:112,1,220,8|2,0:0|0:0,0:0:0:0:
256,76,58225,1,8,0:0:0:0:
32,112,58825,6,0,L|24:221,1,110,2|0,0:0|0:0,0:0:0:0:
140,188,59425,2,0,L|147:297,1,110,10|0,0:0|0:0,0:0:0:0:
32,332,60025,2,0,L|252:340,1,220,2|10,0:0|0:0,0:0:0:0:
472,268,61225,6,0,L|362:260,1,110,2|0,0:0|0:0,0:0:0:0:
248,188,61825,2,0,L|357:180,1,110,10|0,0:0|0:0,0:0:0:0:
472,144,62425,2,0,L|479:34,1,110,2|2,0:0|0:0,0:0:0:0:
344,0,63025,1,10,0:0:0:0:
112,0,63625,6,0,P|156:99|255:140,1,220,2|8,0:0|0:0,0:0:0:0:
312,141,64375,1,2,0:0:0:0:
140,172,64825,2,0,P|75:247|147:316,1,220,2|10,0:0|0:0,0:0:0:0:
380,352,66025,5,8,0:0:0:0:
364,316,66175,1,0,0:0:0:0:
328,280,66325,1,2,0:0:0:0:
216,260,66625,2,0,P|151:185|223:116,1,220,8|2,0:0|0:0,0:0:0:0:
428,80,67825,1,8,0:0:0:0:
176,44,68425,5,6,0:0:0:0:
92,100,68725,1,0,0:0:0:0:
68,196,69025,1,2,0:0:0:0:
112,284,69325,1,0,0:0:0:0:
208,316,69625,2,0,L|428:308,1,220,2|10,0:0|0:0,0:0:0:0:
208,236,70825,6,0,L|200:126,1,110,2|0,0:0|0:0,0:0:0:0:
336,92,71425,1,4,0:0:0:0:
104,92,72025,5,2,0:0:0:0:
220,56,72325,2,0,P|243:131|192:191,1,165,8|8,0:0|0:0,0:0:0:0:
16,228,73225,2,0,L|156:316,2,165,8|8|8,0:0|0:0|0:0,0:0:0:0:
132,264,74425,5,2,0:0:0:0:
247,299,74725,2,0,P|325:280|360:208,1,165,8|8,0:0|0:0,0:0:0:0:
188,172,75625,2,0,P|110:152|75:80,1,165,8|8,0:0|0:0,0:0:0:0:
372,44,76825,5,2,0:0:0:0:
140,44,77425,1,0,0:0:0:0:
256,80,77725,2,0,L|263:189,1,110,8|0,0:0|0:0,0:0:0:0:
148,224,78325,1,8,0:0:0:0:
284,260,78625,2,0,P|382:218|404:215,2,110,0|8|10,0:0|0:0|0:0,0:0:0:0:
196,84,79825,5,0,0:0:0:0:
312,48,80125,1,8,0:0:0:0:
196,84,80425,2,0,L|188:193,1,110,8|8,0:0|0:0,0:0:0:0:
304,228,81025,2,0,L|311:337,1,110,8|8,0:0|0:0,0:0:0:0:
196,380,81625,1,2,0:0:0:0:
4,344,82225,5,2,0:0:0:0:
16,244,82525,1,8,0:0:0:0:
84,172,82825,1,8,0:0:0:0:
180,152,83125,1,8,0:0:0:0:
316,116,83425,2,0,L|184:108,1,110,8|8,0:0|0:0,0:0:0:0:
93,101,84025,5,2,0:0:0:0:
328,36,84625,5,2,0:0:0:0:
444,72,84925,1,8,0:0:0:0:
328,36,85225,1,8,0:0:0:0:
244,92,85525,1,8,0:0:0:0:
220,188,85825,1,8,0:0:0:0:
264,276,86125,1,8,0:0:0:0:
360,308,86425,1,2,0:0:0:0:
140,344,87025,6,0,L|132:234,1,110,2|8,0:0|0:0,0:0:0:0:
248,200,87625,2,0,L|357:192,1,110,8|8,0:0|0:0,0:0:0:0:
220,156,88225,2,0,P|156:117|104:101,2,110,8|8|2,0:0|0:0|0:0,0:0:0:0:
444,8,89425,6,0,L|334:15,1,110,0|8,0:0|0:0,0:0:0:0:
448,88,90025,2,0,L|338:95,1,110,8|8,0:0|0:0,0:0:0:0:
224,132,90625,2,0,L|216:241,1,110,8|8,0:0|0:0,0:0:0:0:
332,276,91225,5,2,0:0:0:0:
468,312,91525,2,0,P|491:237|440:177,1,165,8|8,0:0|0:0,0:0:0:0:
268,136,92425,2,0,L|128:48,2,165,8|8|8,0:0|0:0|0:0,0:0:0:0:
384,100,93625,5,2,0:0:0:0:
248,136,93925,2,0,P|225:211|276:271,1,165,8|8,0:0|0:0,0:0:0:0:
104,200,94825,2,0,P|52:259|74:335,1,165,8|0,0:0|0:0,0:0:0:0:
248,372,95725,2,0,L|357:364,1,110,0|0,0:0|0:0,0:0:0:0:
132,328,97225,6,0,L|124:218,1,110,8|0,0:0|0:0,0:0:0:0:
240,184,97825,1,2,0:0:0:0:
244,128,97975,1,2,0:0:0:0:
248,72,98125,1,2,0:0:0:0:
132,36,98425,1,2,0:0:0:0:
380,36,99325,5,2,0:0:0:0:
264,72,99625,2,0,L|256:181,1,110,8|0,0:0|0:0,0:0:0:0:
372,216,100225,2,0,P|437:291|365:360,1,220,2|2,0:0|0:0,0:0:0:0:
112,324,101425,1,2,0:0:0:0:
320,288,102025,6,0,L|327:178,1,110,8|0,0:0|0:0,0:0:0:0:
212,212,102625,2,0,P|147:137|219:68,1,220,2|2,0:0|0:0,0:0:0:0:
436,32,103825,6,0,L|216:24,1,220,2|8,0:0|0:0,0:0:0:0:
332,60,104725,1,0,0:0:0:0:
216,96,105025,1,2,0:0:0:0:
212,152,105175,1,2,0:0:0:0:
208,208,105325,1,2,0:0:0:0:
316,244,105625,1,0,0:0:0:0:
64,280,106225,6,0,P|108:181|207:140,1,220,2|8,0:0|0:0,0:0:0:0:
324,104,107125,1,0,0:0:0:0:
208,176,107425,1,2,0:0:0:0:
168,176,107575,1,2,0:0:0:0:
208,176,107725,1,2,0:0:0:0:
324,104,108025,1,2,0:0:0:0:
76,104,108925,5,2,0:0:0:0:
192,140,109225,1,8,0:0:0:0:
76,104,109525,1,0,0:0:0:0:
192,140,109825,2,0,P|257:215|185:284,1,220,2|2,0:0|0:0,0:0:0:0:
48,320,110725,6,0,L|188:232,1,165,8|8,0:0|0:0,0:0:0:0:
360,256,111625,2,0,L|220:168,2,165,8|0|0,0:0|0:0|0:0,0:0:0:0:
244,220,112825,1,2,0:0:0:0:
108,184,113125,6,0,P|85:109|136:49,1,165,8|0,0:0|0:0,0:0:0:0:
344,12,114025,1,8,0:0:0:0:
116,12,114625,1,10,0:0:0:0:
80,12,114775,1,2,0:0:0:0:
116,12,114925,1,2,0:0:0:0:
232,48,115225,1,2,0:0:0:0:
256,192,115525,12,2,116800,0:0:0:0:
256,336,117625,6,0,L|263:226,1,110,2|0,0:0|0:0,0:0:0:0:
148,188,118225,2,0,L|38:180,1,110,0|0,0:0|0:0,0:0:0:0:
176,108,118825,2,0,L|316:20,2,165,10|8|8,0:0|0:0|0:0,0:0:0:0:
292,72,120025,5,2,0:0:0:0:
376,128,120325,1,0,0:0:0:0:
400,224,120625,1,0,0:0:0:0:
356,312,120925,1,0,0:0:0:0:
260,344,121225,1,12,0:0:0:0:
60,344,122425,6,0,L|169:336,1,110,2|0,0:0|0:0,0:0:0:0:
284,264,123025,2,0,L|174:256,1,110,0|0,0:0|0:0,0:0:0:0:
36,220,123625,2,0,P|13:145|64:85,1,165,10|2,0:0|0:0,0:0:0:0:
180,120,124375,1,2,0:0:0:0:
236,120,124525,1,2,0:0:0:0:
120,156,124825,1,2,0:0:0:0:
256,192,125125,12,2,126400,0:0:0:0:
256,336,127225,6,0,L|249:226,1,110,2|0,0:0|0:0,0:0:0:0:
364,188,127825,2,0,L|474:180,1,110,0|0,0:0|0:0,0:0:0:0:
336,108,128425,2,0,L|196:20,2,165,10|8|8,0:0|0:0|0:0,0:0:0:0:
220,72,129625,5,2,0:0:0:0:
136,128,129925,1,0,0:0:0:0:
112,224,130225,1,0,0:0:0:0:
156,312,130525,1,0,0:0:0:0:
252,344,130825,1,10,0:0:0:0:
452,344,132025,6,0,L|444:234,1,110,2|0,0:0|0:0,0:0:0:0:
332,196,132625,2,0,L|324:86,1,110,0|0,0:0|0:0,0:0:0:0:
188,52,133225,2,0,P|136:111|158:187,1,165,10|2,0:0|0:0,0:0:0:0:
276,224,133975,2,0,L|283:278,1,55,2|2,0:0|0:0,0:0:0:0:
168,316,134425,1,2,0:0:0:0:
256,192,134725,12,2,136000,0:0:0:0:
304,336,136825,6,0,L|311:226,1,110,2|0,0:0|0:0,0:0:0:0:
196,192,137425,1,0,0:0:0:0:
312,224,137725,1,0,0:0:0:0:
176,192,138025,2,0,L|36:104,2,165,10|8|8,0:0|0:0|0:0,0:0:0:0:
292,224,139225,6,0,L|299:114,1,110,2|0,0:0|0:0,0:0:0:0:
184,152,139825,2,0,L|176:42,1,110,0|0,0:0|0:0,0:0:0:0:
292,8,140425,1,8,0:0:0:0:
136,8,141625,6,0,L|245:15,1,110,10|0,0:0|0:0,0:0:0:0:
132,80,142225,2,0,L|241:87,1,110,0|0,0:0|0:0,0:0:0:0:
376,124,142825,2,0,P|428:183|406:259,1,165,8|2,0:0|0:0,0:0:0:0:
288,260,143575,2,0,L|280:314,1,55,2|2,0:0|0:0,0:0:0:0:
396,352,144025,1,2,0:0:0:0:
256,192,144325,12,2,145600,0:0:0:0:
208,336,146425,6,0,L|201:226,1,110,2|0,0:0|0:0,0:0:0:0:
316,192,147025,1,0,0:0:0:0:
200,224,147325,1,0,0:0:0:0:
336,192,147625,2,0,L|476:104,2,165,10|8|8,0:0|0:0|0:0,0:0:0:0:
220,224,148825,6,0,L|213:114,1,110,2|0,0:0|0:0,0:0:0:0:
328,152,149425,2,0,L|336:42,1,110,0|0,0:0|0:0,0:0:0:0:
220,8,150025,1,8,0:0:0:0:
376,8,151225,6,0,L|267:15,1,110,2|0,0:0|0:0,0:0:0:0:
152,80,151825,2,0,L|261:87,1,110,0|0,0:0|0:0,0:0:0:0:
396,152,152425,2,0,P|418:227|366:287,1,165,8|2,0:0|0:0,0:0:0:0:
252,320,153175,1,2,0:0:0:0:
308,320,153325,1,2,0:0:0:0:
444,352,153625,1,2,0:0:0:0:
256,192,153925,12,0,159025,0:0:0:0:
