osu file format v14

[General]
AudioFilename: audio.mp3
AudioLeadIn: 0
PreviewTime: 22516
Countdown: 0
SampleSet: Normal
StackLeniency: 0.7
Mode: 0
LetterboxInBreaks: 0
WidescreenStoryboard: 0

[Editor]
Bookmarks: 15894,165845
DistanceSpacing: 0.8
BeatDivisor: 4
GridSize: 4
TimelineZoom: 1.599999

[Metadata]
Title:NOSTALGIA
TitleUnicode:ノスタルジア
Artist:onumi
ArtistUnicode:オヌミ
Creator:PandaHero
Version:Normal
Source:
Tags:Hectic h4d0uk3n1 hadouken osu! fa featured artist experimental Childhood Friend
BeatmapID:2027697
BeatmapSetID:952393

[Difficulty]
HPDrainRate:4
CircleSize:3.5
OverallDifficulty:4
ApproachRate:5
SliderMultiplier:1
SliderTickRate:1

[Events]
//Background and Video events
0,0,"machine-1715424_1920.jpg",0,0
//Break Periods
2,68835,77875
//Storyboard Layer 0 (Background)
//Storyboard Layer 1 (Fail)
//Storyboard Layer 2 (Pass)
//Storyboard Layer 3 (Foreground)
//Storyboard Layer 4 (Overlay)
//Storyboard Sound Samples

[TimingPoints]
5664,352.941176470588,4,1,0,50,1,0
15899,-100,4,1,0,20,0,0
16958,-100,4,1,1,35,0,0
21281,-100,4,1,1,45,0,0
22605,-100,4,1,0,35,0,0
23311,-100,4,1,1,70,0,0
27722,-100,4,1,1,60,0,0
28252,-100,4,1,0,55,0,0
28958,-100,4,1,1,70,0,0
33193,-100,4,1,1,55,0,0
34252,-100,4,1,2,55,0,0
34605,-100,4,1,1,70,0,0
39016,-100,4,1,0,60,0,0
39546,-100,4,1,1,55,0,0
40252,-100,4,1,1,70,0,0
44487,-100,4,1,2,60,0,0
45193,-100,4,1,1,55,0,0
45899,-100,4,1,1,60,0,0
50840,-100,4,1,1,50,0,0
51546,-100,4,1,1,50,0,0
51899,-100,4,1,1,60,0,0
55958,-100,4,1,1,50,0,0
56487,-100,4,1,1,70,0,0
57193,-100,4,1,1,60,0,0
62134,-100,4,1,1,50,0,0
62840,-100,4,1,1,60,0,0
63546,-100,4,1,1,55,0,0
67781,-100,4,1,1,40,0,0
73428,-100,4,1,1,35,0,0
79075,-100,4,1,1,65,0,0
90369,-100,4,1,1,70,0,0
101663,-100,4,1,2,60,0,0
102193,-100,4,1,1,60,0,0
102369,-100,4,3,1,60,0,0
103075,-100,4,1,1,60,0,0
107311,348.837209302326,4,1,1,55,1,0
108008,-100,4,3,1,65,0,0
110101,342.857142857143,4,3,1,65,1,0
111472,333.333333333333,4,3,1,70,1,0
112138,324.324324324324,4,3,1,65,1,0
112786,352.941176470588,4,1,1,70,1,0
112786,-100,4,1,1,60,0,0
113138,-100,4,1,1,65,0,0
116315,-100,4,1,1,55,0,0
117021,-100,4,1,1,65,0,0
118433,355.029585798817,4,1,1,70,1,0
118433,-100,4,1,1,60,0,0
118788,-100,4,1,1,65,0,0
121983,-100,4,1,1,55,0,0
122693,-100,4,1,1,65,0,0
123403,-100,4,1,1,60,0,0
124113,-100,4,1,0,45,0,0
124468,-100,4,1,2,60,0,0
124823,-100,4,1,1,55,0,0
126953,357.142857142857,4,1,1,50,1,0
126953,-100,4,1,1,50,0,0
128381,-100,4,1,1,45,0,0
129810,359.281437125748,4,1,1,60,1,0
129810,-100,4,1,1,60,0,0
130528,-100,4,1,1,65,0,0
131606,-100,4,1,1,70,0,0
132684,363.636363636364,4,1,1,70,1,0
132684,-100,4,1,1,60,0,0
134138,372.670807453416,4,1,1,60,1,0
134138,-100,4,1,1,50,0,0
135628,357.142857142857,4,1,1,70,1,0
136342,338.983050847458,4,1,1,70,1,0
136680,-100,4,1,1,75,0,0
137019,333.333333333333,4,1,1,75,1,0
137019,-100,4,1,1,65,0,0
146352,337.078651685393,4,1,1,75,1,0
146352,-100,4,1,1,75,0,0
149048,340.909090909091,4,1,1,75,1,0
149048,-100,4,1,1,65,0,0
151775,344.827586206897,4,1,1,75,1,0
153154,361.44578313253,4,1,1,60,1,0
154599,375,4,1,1,70,1,0
154599,-100,4,1,1,60,0,0
156099,400,4,1,1,65,1,0
156099,-100,4,1,1,55,0,0
156899,461.538461538462,4,1,1,55,1,0
156899,-100,4,1,1,45,0,0
157360,500,4,1,1,50,1,0
157360,-100,4,1,1,40,0,0
157860,500,4,3,1,45,1,0
157860,-100,4,1,1,35,0,0
165860,-100,4,3,1,35,0,0

[Colours]
Combo1 : 102,104,138
Combo2 : 193,193,193
Combo3 : 119,103,83

[HitObjects]
177,105,16958,5,4,0:3:0:0:
177,105,18369,1,2,0:2:0:0:
328,348,19781,1,2,0:0:0:0:
328,348,21193,1,4,1:3:0:0:
221,135,22605,6,0,L|216:13,1,100,8|2,0:0|0:3,0:0:0:0:
308,75,23311,6,2,L|315:279,1,200,6|4,0:3|0:0,0:0:0:0:
215,281,24369,1,0,3:0:0:0:
145,352,24722,2,2,L|44:348,1,100,6|0,0:3|3:0,0:0:0:0:
17,306,25252,1,0,0:0:0:0:
35,259,25428,1,4,0:3:0:0:
117,201,25781,6,0,L|225:215,2,100,4|8|4,0:3|0:0|0:3,0:0:0:0:
24,162,26840,2,2,B|15:107|15:107|61:8,1,150,6|8,0:3|0:2,0:0:0:0:
103,32,27546,2,0,L|212:42,1,100,8|0,0:0|0:0,3:3:0:0:
293,82,28252,1,4,0:3:0:0:
293,82,28958,6,0,L|282:188,2,100,8|8|8,0:0|0:2|0:2,0:0:0:0:
385,121,30016,1,4,0:3:0:0:
458,188,30369,2,0,L|466:300,1,100,8|8,0:0|0:2,0:0:0:0:
435,328,30899,1,8,0:0:0:0:
387,344,31075,1,4,0:3:0:0:
310,279,31428,6,0,L|317:179,2,100,8|8|8,0:2|0:0|0:2,0:0:0:0:
245,356,32487,2,0,B|213:288|213:288|111:259,1,150,8|4,0:2|0:3,0:0:0:0:
97,292,33193,2,0,L|109:183,1,100,8|8,0:0|0:2,0:0:0:0:
119,92,33899,1,4,3:0:0:0:
26,54,34252,1,2,0:3:0:0:
26,54,34605,6,2,L|10:255,1,200,6|4,0:3|0:0,0:0:0:0:
88,314,35663,1,0,3:0:0:0:
180,275,36016,2,2,L|290:278,1,100,6|0,0:3|3:0,0:0:0:0:
329,285,36546,1,8,0:0:0:0:
372,309,36722,1,6,0:3:0:0:
448,243,37075,5,0,0:0:0:0:
403,154,37428,2,2,B|342:117|342:117|257:154,1,150,8|0,0:0|3:0,0:0:0:0:
229,177,38134,2,2,L|234:9,1,150,4|0,0:3|3:0,0:0:0:0:
185,42,38840,2,0,B|124:79|124:79|39:42,1,150,8|4,0:0|0:0,2:2:0:0:
16,82,39546,2,0,L|23:148,1,50,4|0,0:3|0:0,0:0:0:0:
106,255,40252,6,0,L|103:378,2,100,8|8|8,0:0|0:2|0:2,0:0:0:0:
192,203,41311,1,4,0:3:0:0:
280,249,41663,2,0,L|282:366,1,100,8|8,0:0|0:2,0:0:0:0:
330,363,42193,1,8,0:0:0:0:
378,350,42369,1,4,0:3:0:0:
440,271,42722,6,0,L|443:156,2,100,8|8|8,0:2|0:0|0:2,0:0:0:0:
343,245,43781,2,0,L|345:130,1,100,8|8,0:2|0:3,0:0:0:0:
280,67,44487,2,2,B|212:62|212:62|164:102|164:102|90:95,1,200,10|0,0:3|0:0,0:0:0:0:
11,271,45899,5,8,0:0:0:0:
110,258,46252,1,2,0:2:0:0:
164,341,46605,2,0,L|268:347,1,100,2|4,3:2|0:3,0:0:0:0:
314,260,47311,2,0,L|210:254,1,100,8|2,0:0|3:2,0:0:0:0:
180,216,47840,1,8,0:0:0:0:
154,173,48016,6,2,B|146:93|146:93|240:0,1,200,4|8,0:3|0:0,0:0:0:0:
310,69,49075,2,0,B|318:149|318:149|232:233,1,200,4|4,0:3|0:3,0:0:0:0:
151,292,50134,1,8,0:0:0:0:
220,363,50487,1,2,0:2:0:0:
305,310,50840,2,0,L|491:319,1,150,4|4,0:3|3:0,0:0:0:0:
492,277,51546,5,8,0:0:0:0:
414,213,51899,1,4,0:3:0:0:
480,138,52252,2,2,L|468:8,1,100,4|4,0:3|0:3,0:0:0:0:
373,15,52958,2,0,L|385:145,1,100,8|4,0:0|0:3,0:0:0:0:
356,157,53487,1,8,0:0:0:0:
323,194,53663,6,0,P|273:170|202:179,1,100,4|2,0:3|0:2,0:0:0:0:
139,215,54369,1,8,0:0:0:0:
62,150,54722,2,0,P|75:78|200:44,1,200,4|4,0:3|0:3,0:0:0:0:
284,45,55781,1,8,0:0:0:0:
229,128,56134,1,4,0:3:0:0:
324,156,56487,2,0,B|366:158|366:158|383:149|383:149|441:154,1,100,4|2,0:3|0:3,0:0:0:0:
471,239,57193,5,8,0:0:0:0:
402,317,57546,2,0,L|334:300,1,50,8|0,0:2|0:0,0:0:0:0:
306,323,57899,2,2,L|175:320,1,100,8|4,0:2|0:3,0:0:0:0:
105,315,58605,1,8,0:0:0:0:
137,220,58958,2,0,L|154:164,1,50,8|8,0:2|0:0,0:0:0:0:
170,125,59311,6,0,P|123:107|44:106,2,100,4|8|8,0:3|0:2|0:0,0:0:0:0:
244,191,60369,1,4,0:3:0:0:
292,103,60722,2,0,P|285:55|259:-3,1,100,8|4,0:2|0:3,0:0:0:0:
168,33,61428,1,8,0:0:0:0:
125,123,61781,2,2,L|138:186,2,50,8|2|4,0:2|0:2|0:2,0:0:0:0:
17,227,62663,1,0,0:0:0:0:
17,277,62840,6,2,P|17:341|32:388,1,100,8|4,0:0|0:3,0:0:0:0:
114,327,63546,1,2,0:2:0:0:
208,360,63899,1,2,0:2:0:0:
231,262,64252,2,0,L|250:134,1,100,8|4,0:0|0:3,0:0:0:0:
283,130,64781,1,8,0:0:0:0:
333,126,64958,6,2,P|366:164|437:166,1,100,4|2,0:2|3:2,0:0:0:0:
460,156,65487,1,4,0:2:0:0:
496,121,65663,2,2,L|476:8,1,100,8|4,0:0|0:3,0:0:0:0:
378,19,66369,1,4,0:2:0:0:
299,81,66722,1,4,0:3:0:0:
288,180,67075,2,0,L|300:263,1,50,8|0,0:0|0:0,0:0:0:0:
262,267,67428,2,0,L|274:330,1,50
101,152,79075,6,0,L|184:133,2,50,4|4|0,0:3|3:0|0:0,0:0:0:0:
31,224,79781,2,0,L|43:349,1,100,8|4,0:2|0:3,0:0:0:0:
88,339,80311,1,4,3:0:0:0:
137,346,80487,2,0,L|264:352,1,100,0|0,0:0|0:2,0:0:0:0:
336,344,81193,1,8,0:2:0:0:
303,249,81546,2,0,L|283:171,1,50,2|4,0:2|3:0,0:0:0:0:
280,151,81899,6,0,B|343:121|372:198|443:158,1,150,4|0,0:3|3:0,0:0:0:0:
469,144,82605,1,8,0:2:0:0:
434,50,82958,2,0,L|355:36,1,50,4|4,0:3|3:0,0:0:0:0:
334,43,83311,1,2,0:0:0:0:
250,97,83663,1,4,0:3:0:0:
260,196,84016,2,0,L|267:317,1,100,8|2,0:2|0:0,0:0:0:0:
170,318,84722,6,0,L|162:211,2,100,4|0|8,0:3|0:0|0:2,0:0:0:0:
73,344,85781,2,0,L|12:322,1,50,4|4,0:3|3:0,0:0:0:0:
15,277,86134,1,0,0:0:0:0:
72,194,86487,1,0,0:0:0:0:
171,202,86840,2,0,L|312:235,1,100,8|2,0:2|0:0,0:0:0:0:
316,238,87369,1,4,3:0:0:0:
347,276,87546,6,0,L|332:347,2,50,4|0|0,0:3|0:0|0:0,0:0:0:0:
436,231,88252,2,0,L|445:111,1,100,8|4,0:2|0:3,0:0:0:0:
443,81,88781,1,4,3:0:0:0:
399,55,88958,2,0,P|318:50|247:78,1,150,2|2,0:0|0:0,0:0:0:0:
204,68,89663,2,0,L|134:74,1,50,8|2,0:2|0:0,0:0:0:0:
111,45,90016,1,4,3:0:0:0:
54,127,90369,5,4,0:2:0:0:
142,174,90722,1,2,0:2:0:0:
61,230,91075,2,0,L|65:335,1,100,8|4,0:0|0:3,0:0:0:0:
104,361,91605,1,4,3:0:0:0:
153,359,91781,2,0,P|203:346|270:360,1,100,4|2,0:2|0:2,0:0:0:0:
300,265,92487,2,0,P|265:255|177:248,1,100,8|2,0:0|0:0,0:0:0:0:
151,245,93016,1,4,3:0:0:0:
117,207,93193,6,0,P|119:129|138:51,1,150,4|0,0:3|3:0,0:0:0:0:
168,22,93899,1,8,0:0:0:0:
254,72,94252,1,4,0:3:0:0:
295,99,94428,1,4,3:0:0:0:
340,119,94605,2,0,P|399:121|443:80,2,100,4|4|8,0:2|0:3|0:0,0:0:0:0:
267,180,95663,1,2,0:2:0:0:
343,244,96016,5,4,0:3:0:0:
272,314,96369,1,2,0:2:0:0:
179,274,96722,2,0,P|133:331|90:344,1,100,8|4,0:0|0:3,0:0:0:0:
59,343,97252,1,4,3:0:0:0:
19,312,97428,2,0,L|23:241,2,50,2|2|2,0:2|0:0|0:2,0:0:0:0:
103,258,98134,2,0,L|112:130,1,100,8|2,0:0|0:0,0:0:0:0:
143,121,98663,1,4,3:0:0:0:
191,106,98840,6,0,L|247:132,1,50,4|4,0:0|3:0,0:0:0:0:
281,148,99193,1,2,0:0:0:0:
347,73,99546,1,10,0:0:0:0:
261,20,99899,1,2,0:0:0:0:
211,11,100075,1,4,3:0:0:0:
163,26,100252,2,0,P|108:44|47:43,1,100,6|2,0:0|0:0,0:0:0:0:
59,145,100958,2,0,P|108:146|152:168,2,100,10|2|2,0:0|0:0|0:3,0:0:0:0:
392,337,103075,5,0,0:0:0:0:
319,268,103428,1,0,0:0:0:0:
227,308,103781,2,0,L|118:353,1,100,4|0,0:2|0:0,0:0:0:0:
56,283,104487,2,0,L|72:172,1,100,4|0,0:2|0:0,0:0:0:0:
163,146,105193,2,0,L|257:201,1,100,4|0,0:2|0:0,0:0:0:0:
330,137,105899,6,0,L|317:26,2,100,4|4|4,0:3|0:3|0:3,0:0:0:0:
354,234,106958,1,4,0:3:0:0:
449,201,107311,2,0,L|480:77,1,100,4|4,0:3|0:3,0:0:0:0:
256,192,108008,12,4,112786,0:2:0:0:
69,18,113491,6,2,P|34:73|34:130,1,100,2|8,0:0|0:0,0:0:0:0:
128,127,114197,2,2,P|163:182|163:239,1,100,2|8,0:0|0:0,0:0:0:0:
67,232,114903,2,2,P|32:287|32:344,1,100,2|8,0:0|0:0,0:0:0:0:
58,360,115433,1,8,0:2:0:0:
107,362,115609,5,2,0:0:0:0:
186,301,115962,1,2,0:0:0:0:
282,326,116315,2,2,L|422:364,1,100,2|10,0:0|0:0,0:0:0:0:
434,268,117021,2,2,B|405:235|405:235|414:173,1,100,4|8,0:3|0:0,0:0:0:0:
425,130,117550,1,4,0:3:0:0:
436,81,117727,1,2,0:0:0:0:
348,32,118080,1,8,0:0:0:0:
259,81,118433,2,2,L|250:220,1,100,4|8,0:2|0:0,0:0:0:0:
221,275,119143,6,2,P|135:308|104:286,1,100,2|8,0:0|0:0,0:0:0:0:
60,241,119853,2,2,P|146:208|177:230,1,100,2|8,0:0|0:0,0:0:0:0:
241,179,120563,2,2,P|327:212|358:190,1,100,2|8,0:0|0:0,0:0:0:0:
374,198,121095,1,8,0:2:0:0:
423,204,121273,6,2,P|426:268|412:322,2,100
391,109,122338,1,2,0:0:0:0:
291,107,122693,2,0,P|256:164|195:175,1,100,4|8,0:3|0:0,0:0:0:0:
179,190,123225,1,4,3:0:0:0:
129,184,123403,1,2,0:0:0:0:
43,132,123758,1,8,0:0:0:0:
103,53,124113,1,2,0:0:0:0:
103,53,124823,6,2,P|25:106|42:216,1,200,6|4,0:3|0:0,0:0:0:0:
111,262,125888,1,0,0:0:0:0:
208,239,126243,2,2,P|318:242|388:295,1,200,6|4,3:3|0:3,0:0:0:0:
427,201,127310,6,0,L|439:87,2,100,8|8|8,0:2|0:0|0:2,0:0:0:0:
329,178,128381,1,4,0:3:0:0:
258,248,128738,2,2,L|263:366,2,100,8|8|8,1:0|0:0|0:2,0:0:0:0:
247,149,129810,1,4,0:3:0:0:
73,49,130528,6,0,P|24:107|16:160,2,100,8|8|8,0:2|0:2|0:2,0:0:0:0:
171,29,131606,1,8,0:2:0:0:
262,69,131965,1,8,0:2:0:0:
248,168,132324,2,0,L|238:252,2,50,8|8|4,0:0|0:2|0:3,0:0:0:0:
346,187,133047,5,8,0:2:0:0:
422,251,133411,1,8,0:2:0:0:
375,339,133774,2,0,P|308:316|277:330,1,100,8|4,0:2|2:3,0:0:0:0:
186,348,134510,1,8,0:2:0:0:
101,293,134883,6,8,B|109:213|109:213|94:189|94:189|107:77,1,200,8|4,3:2|0:3,3:3:0:0:
307,17,136342,5,8,0:0:0:0:
398,57,136680,1,4,0:3:0:0:
357,148,137019,2,0,B|348:263,2,100,2|2|8,0:2|0:2|0:0,0:0:0:0:
260,120,138019,1,2,0:0:0:0:
223,212,138352,6,0,P|245:297|326:314,1,150,2|0,0:0|2:0,0:0:0:0:
346,328,139019,1,10,0:0:0:0:
430,280,139352,1,4,0:3:0:0:
434,180,139685,2,0,L|441:66,2,100,2|2|8,0:0|0:0|0:0,0:0:0:0:
337,208,140685,1,2,0:0:0:0:
251,156,141019,6,0,P|222:79|147:60,1,150,4|0,0:3|2:0,0:0:0:0:
113,58,141685,1,8,0:0:0:0:
40,127,142019,1,4,0:3:0:0:
100,206,142352,2,0,L|91:314,1,100,2|2,0:0|0:0,0:0:0:0:
182,348,143019,2,0,L|188:240,1,100,8|2,0:0|0:0,0:0:0:0:
237,161,143685,6,0,P|306:194|407:180,1,150,4|2,0:3|0:0,0:0:0:0:
427,180,144352,1,8,0:0:0:0:
447,82,144685,1,4,0:3:0:0:
353,42,145019,2,0,P|303:38|249:37,1,100,2|2,0:0|0:2,0:0:0:0:
189,113,145685,2,0,P|190:168|192:223,1,100,8|2,0:0|0:0,0:0:0:0:
180,311,146352,5,4,0:0:0:0:
93,360,146689,1,0,0:0:0:0:
11,302,147026,1,8,0:0:0:0:
46,208,147363,1,4,0:3:0:0:
94,194,147531,1,4,3:0:0:0:
143,187,147700,2,0,P|201:188|255:217,1,100,4|2,0:2|0:0,0:0:0:0:
312,272,148374,2,0,P|402:278|437:261,1,100,8|2,0:0|0:0,0:0:0:0:
495,226,149048,6,0,B|504:145|446:164|464:65,1,150,4|2,0:3|0:2,0:0:0:0:
441,37,149729,1,8,0:0:0:0:
342,55,150070,1,2,0:0:0:0:
303,87,150241,1,4,3:0:0:0:
258,109,150411,2,0,P|212:117|138:96,2,100,4|2|8,0:3|0:0|0:0,0:0:0:0:
339,167,151434,1,2,0:0:0:0:
285,249,151775,6,0,L|276:369,1,100,4|0,0:3|0:0,0:0:0:0:
178,363,152464,1,8,0:0:0:0:
95,306,152809,1,4,0:3:0:0:
83,257,152981,1,4,3:0:0:0:
101,211,153154,2,0,P|158:198|215:202,1,100,4|2,0:2|0:0,0:0:0:0:
299,202,153876,1,8,0:0:0:0:
301,102,154238,1,2,0:0:0:0:
228,39,154599,6,0,L|164:43,1,50,4|4,0:3|3:0,0:0:0:0:
128,46,154974,1,2,0:0:0:0:
53,113,155349,1,10,0:0:0:0:
74,210,155724,2,0,L|89:274,1,50,2|2,0:0|3:2,0:0:0:0:
106,300,156099,2,2,P|159:286|223:302,2,100,6|2|10,0:0|0:0|0:0,0:0:0:0:
32,349,157360,1,2,0:0:0:0:
