osu file format v14

[General]
AudioFilename: audio.mp3
AudioLeadIn: 0
PreviewTime: 22516
Countdown: 0
SampleSet: Normal
StackLeniency: 0.7
Mode: 0
LetterboxInBreaks: 0
WidescreenStoryboard: 1

[Editor]
DistanceSpacing: 0.8
BeatDivisor: 4
GridSize: 4
TimelineZoom: 0.9519998

[Metadata]
Title:NOSTALGIA
TitleUnicode:ノスタルジア
Artist:onumi
ArtistUnicode:オヌミ
Creator:PandaHero
Version:Hard
Source:
Tags:Hectic h4d0uk3n1 hadouken osu! fa featured artist experimental Childhood Friend
BeatmapID:2176309
BeatmapSetID:952393

[Difficulty]
HPDrainRate:5
CircleSize:3.8
OverallDifficulty:6
ApproachRate:7
SliderMultiplier:1.2
SliderTickRate:1

[Events]
//Background and Video events
0,0,"machine-1715424_1920.jpg",0,0
//Break Periods
2,68835,72528
2,73628,78175
//Storyboard Layer 0 (Background)
//Storyboard Layer 1 (Fail)
//Storyboard Layer 2 (Pass)
//Storyboard Layer 3 (Foreground)
//Storyboard Layer 4 (Overlay)
//Storyboard Sound Samples

[TimingPoints]
5664,352.941176470588,4,1,0,50,1,0
15899,-142.857142857143,4,1,0,20,0,0
16958,-142.857142857143,4,1,1,35,0,0
21281,-142.857142857143,4,1,1,45,0,0
22605,-142.857142857143,4,1,0,35,0,0
23311,-100,4,1,1,70,0,0
27722,-142.857142857143,4,1,1,60,0,0
28252,-142.857142857143,4,1,0,55,0,0
28958,-100,4,1,1,70,0,0
33193,-142.857142857143,4,1,1,55,0,0
34252,-142.857142857143,4,1,2,55,0,0
34605,-100,4,1,1,70,0,0
39016,-100,4,1,0,60,0,0
39546,-142.857142857143,4,1,1,55,0,0
40252,-100,4,1,1,70,0,0
44487,-142.857142857143,4,1,2,60,0,0
45193,-142.857142857143,4,1,1,55,0,0
45899,-100,4,1,1,60,0,0
50840,-142.857142857143,4,1,1,50,0,0
51546,-100,4,1,1,50,0,0
51899,-100,4,1,1,60,0,0
55958,-100,4,1,1,50,0,0
56487,-83.3333333333333,4,1,1,70,0,0
57193,-100,4,1,1,60,0,0
62134,-142.857142857143,4,1,1,50,0,0
62840,-100,4,1,1,60,0,0
63546,-100,4,1,1,55,0,0
67781,-100,4,1,1,40,0,0
73428,-100,4,1,1,35,0,0
79075,-100,4,1,1,65,0,0
90369,-83.3333333333333,4,1,1,70,0,0
101663,-142.857142857143,4,1,2,60,0,0
102193,-142.857142857143,4,1,1,60,0,0
102369,-142.857142857143,4,3,1,60,0,0
103075,-100,4,1,1,60,0,0
107311,348.837209302326,4,1,1,55,1,0
108008,-100,4,3,1,65,0,0
110101,342.857142857143,4,3,1,65,1,0
111472,333.333333333333,4,3,1,70,1,0
112138,324.324324324324,4,3,1,65,1,0
112786,352.941176470588,4,1,1,70,1,0
112786,-142.857142857143,4,1,1,60,0,0
113138,-83.3333333333333,4,1,1,65,0,0
116315,-83.3333333333333,4,1,1,55,0,0
117021,-83.3333333333333,4,1,1,65,0,0
118433,355.029585798817,4,1,1,70,1,0
118433,-142.857142857143,4,1,1,60,0,0
118788,-83.3333333333333,4,1,1,65,0,0
121983,-83.3333333333333,4,1,1,55,0,0
122693,-83.3333333333333,4,1,1,65,0,0
123403,-142.857142857143,4,1,1,60,0,0
124113,-200,4,1,0,45,0,0
124468,-100,4,1,2,60,0,0
124823,-200,4,1,1,55,0,0
126953,357.142857142857,4,1,1,50,1,0
126953,-200,4,1,1,50,0,0
128381,-200,4,1,1,45,0,0
129810,359.281437125748,4,1,1,60,1,0
129810,-200,4,1,1,60,0,0
130528,-200,4,1,1,65,0,0
131606,-200,4,1,1,70,0,0
132684,363.636363636364,4,1,1,70,1,0
132684,-200,4,1,1,70,0,0
134138,372.670807453416,4,1,1,60,1,0
134138,-200,4,1,1,60,0,0
135628,357.142857142857,4,1,1,70,1,0
136342,338.983050847458,4,1,1,70,1,0
136680,-83.3333333333333,4,1,1,75,0,0
137019,333.333333333333,4,1,1,75,1,0
137019,-83.3333333333333,4,1,1,65,0,0
146352,337.078651685393,4,1,1,75,1,0
146352,-83.3333333333333,4,1,1,75,0,0
149048,340.909090909091,4,1,1,75,1,0
149048,-83.3333333333333,4,1,1,65,0,0
151775,344.827586206897,4,1,1,75,1,0
153154,361.44578313253,4,1,1,60,1,0
154599,375,4,1,1,70,1,0
154599,-111.111111111111,4,1,1,60,0,0
156099,400,4,1,1,65,1,0
156099,-142.857142857143,4,1,1,55,0,0
156899,461.538461538462,4,1,1,55,1,0
156899,-142.857142857143,4,1,1,45,0,0
157360,500,4,1,1,50,1,0
157360,-142.857142857143,4,1,1,40,0,0
157860,500,4,3,1,45,1,0
157860,-200,4,3,1,45,0,0
165860,-200,4,3,1,35,0,0

[Colours]
Combo1 : 102,104,138
Combo2 : 193,193,193
Combo3 : 119,103,83

[HitObjects]
34,66,15899,6,0,B|151:13|156:119|281:57,1,251.999992309571,0|4,0:0|0:3,0:0:0:0:
319,125,18016,1,0,0:0:0:0:
260,177,18369,2,0,P|208:176|133:166,1,125.999996154785,2|4,0:2|3:0,0:0:0:0:
94,153,19075,1,4,1:3:0:0:
200,288,19781,1,2,0:0:0:0:
200,288,20134,2,0,P|252:289|457:331,1,251.999992309571,0|4,0:0|1:3,0:0:0:0:
256,192,21281,12,8,22605,0:0:0:0:
75,109,23311,6,2,P|66:194|73:302,1,180,6|0,0:3|3:0,0:0:0:0:
139,345,24016,2,2,B|194:324|198:376|279:341,1,120,4|0,0:0|3:0,0:0:0:0:
287,264,24546,1,4,0:3:0:0:
287,264,24722,2,2,L|274:191,1,60,6|0,0:3|3:0,0:0:0:0:
373,259,25075,2,0,L|369:331,1,60,0|0,3:0|0:0,0:0:0:0:
463,233,25428,6,0,P|479:178|392:97,1,180,4|8,0:3|0:2,0:0:0:0:
327,148,26134,2,0,L|131:139,1,180,8|8,0:0|0:2,0:0:0:0:
125,52,26840,2,2,L|321:43,1,180,6|8,0:3|0:2,0:0:0:0:
382,95,27546,1,8,0:0:0:0:
382,95,27722,2,0,L|442:90,2,41.9999987182618,2|0|0,0:3|0:0|3:0,3:3:0:0:
313,137,28252,1,4,0:3:0:0:
370,200,28428,1,2,0:3:0:0:
370,200,28781,1,0,0:0:0:0:
299,239,28958,6,2,L|296:317,1,60,8|0,0:0|0:0,0:0:0:0:
207,247,29311,2,0,L|204:169,1,60,8|4,0:2|3:0,0:0:0:0:
121,235,29663,2,0,L|119:379,1,120,8|4,0:2|0:3,0:0:0:0:
31,298,30193,1,4,3:0:0:0:
31,298,30369,2,2,L|37:214,1,60,8|0,0:0|3:0,0:0:0:0:
39,137,30722,2,0,L|107:151,1,60,8|8,0:2|0:0,0:0:0:0:
221,167,31075,6,0,P|261:138|257:71,1,120,4|8,0:3|0:2,0:0:0:0:
188,14,31605,1,4,3:0:0:0:
105,36,31781,1,8,0:0:0:0:
105,36,32134,2,0,L|98:118,1,60,8|4,0:2|3:0,0:0:0:0:
23,144,32487,2,0,L|28:220,1,60,8|0,0:2|0:0,0:0:0:0:
54,289,32840,1,4,3:0:0:0:
124,233,33016,1,4,0:3:0:0:
208,278,33193,6,0,L|196:373,1,83.9999974365235,8|8,0:0|0:2,0:0:0:0:
41,200,33899,1,4,3:0:0:0:
263,198,34252,1,2,0:3:0:0:
263,198,34605,6,2,P|332:226|450:218,1,180,6|0,0:3|3:0,0:0:0:0:
473,140,35311,2,2,P|431:84|326:23,1,180,4|4,0:0|3:0,0:0:0:0:
250,47,36016,1,6,0:3:0:0:
250,47,36369,2,0,L|246:122,1,60,0|8,3:0|0:0,0:0:0:0:
167,150,36722,6,2,L|180:344,1,180,6|0,0:3|3:0,0:0:0:0:
95,364,37428,2,2,L|81:180,1,180,8|0,0:0|3:0,0:0:0:0:
69,95,38134,2,2,L|257:117,1,180,4|0,0:3|3:0,0:0:0:0:
346,153,38840,6,0,B|308:195|308:195|294:260|294:260|328:330,1,180,8|4,0:0|0:0,2:2:0:0:
408,353,39546,1,4,0:3:0:0:
474,279,39722,1,0,0:0:0:0:
474,279,40075,1,2,0:3:0:0:
404,221,40252,6,2,L|327:231,1,60,8|0,0:0|2:0,0:0:0:0:
293,146,40605,2,0,L|352:138,1,60,8|4,0:2|3:0,0:0:0:0:
385,54,40958,2,0,L|261:52,1,120,8|4,0:2|0:3,0:0:0:0:
174,55,41487,1,4,3:0:0:0:
116,123,41663,2,0,B|103:178|103:178|141:257,1,120,8|8,0:0|0:2,0:0:0:0:
212,195,42193,1,8,0:0:0:0:
272,266,42369,1,4,0:3:0:0:
272,266,42722,6,0,L|267:332,1,60,8|4,0:2|3:0,0:0:0:0:
184,361,43075,2,0,P|126:350|48:365,1,120,8|8,0:0|0:2,0:0:0:0:
54,268,43605,1,4,3:0:0:0:
88,186,43781,2,0,P|117:191|157:198,1,60,8|4,0:2|3:0,0:0:0:0:
212,134,44134,2,0,P|241:139|271:144,1,60,8|4,0:3|0:3,0:0:0:0:
346,201,44487,6,2,P|345:257|448:278,1,167.999994873047,10|0,0:3|0:0,0:0:0:0:
438,285,45899,6,2,L|453:158,2,120,8|2|2,0:0|0:2|3:2,0:0:0:0:
267,343,46958,1,4,0:3:0:0:
267,343,47311,2,0,L|278:265,1,60,8|0,0:0|0:0,0:0:0:0:
194,245,47663,2,0,L|183:323,1,60,2|8,3:2|0:0,0:0:0:0:
116,362,48016,5,4,0:3:0:0:
45,196,48369,1,2,0:2:0:0:
213,131,48722,1,8,0:0:0:0:
45,196,49075,1,4,0:3:0:0:
116,362,49428,1,2,3:2:0:0:
281,291,49781,1,4,0:3:0:0:
116,362,50134,6,0,L|83:285,1,60,8|8,0:0|0:3,0:0:0:0:
164,236,50487,2,0,L|189:305,2,60,2|0|4,0:2|0:0|0:3,0:0:0:0:
6,130,51369,1,4,3:0:0:0:
6,130,51546,6,0,L|15:199,1,60,8|0,0:0|0:0,0:0:0:0:
104,128,51899,2,2,P|151:132|244:125,2,120,4|4|4,0:3|0:3|0:3,0:0:0:0:
257,29,52958,2,0,P|301:27|354:34,1,90,8|0,0:0|0:0,0:0:0:0:
375,54,53311,1,4,0:3:0:0:
462,36,53487,1,8,0:0:0:0:
461,125,53663,6,0,L|455:265,1,120,4|2,0:3|0:2,0:0:0:0:
286,347,54369,1,8,0:0:0:0:
286,347,54722,2,0,L|290:200,2,120,4|4|4,0:3|0:3|0:3,0:0:0:0:
103,278,55781,2,0,L|103:203,1,60,8|8,0:0|0:3,0:0:0:0:
100,140,56134,1,4,0:3:0:0:
159,89,56311,1,8,0:3:0:0:
233,118,56487,6,0,B|278:116|278:116|315:136|315:136|385:134,1,143.999995605469,4|2,0:3|0:3,0:0:0:0:
492,302,57193,1,8,0:0:0:0:
492,302,57546,6,0,L|412:301,1,60,8|0,0:2|0:0,0:0:0:0:
344,279,57899,2,2,P|303:335|232:332,1,120,8|4,0:2|0:3,0:0:0:0:
174,303,58428,1,4,3:0:0:0:
174,303,58605,2,0,L|181:226,1,60,8|0,0:0|0:0,0:0:0:0:
198,155,58958,1,8,0:2:0:0:
286,172,59134,1,8,0:0:0:0:
293,82,59311,6,0,P|252:40|186:22,2,120,4|8|8,0:3|0:2|0:0,0:0:0:0:
127,152,60369,2,0,L|51:145,1,60,4|0,0:3|0:0,0:0:0:0:
20,223,60722,2,0,P|15:274|23:353,1,120,8|4,0:2|0:3,0:0:0:0:
109,359,61252,1,4,3:0:0:0:
150,279,61428,1,8,0:0:0:0:
239,288,61605,1,2,0:2:0:0:
239,288,61781,2,0,L|321:306,1,60,8|2,0:2|0:2,0:0:0:0:
377,246,62134,5,4,0:2:0:0:
377,246,62663,1,0,0:0:0:0:
466,284,62840,2,0,L|454:359,1,60,8|0,0:0|0:0,0:0:0:0:
368,365,63193,2,2,L|307:353,1,60,4|4,0:3|2:3,0:0:0:0:
248,286,63546,2,0,P|255:236|276:140,1,120,2|2,0:2|0:2,0:0:0:0:
156,27,64252,2,0,L|143:107,1,60,8|2,0:0|0:2,0:0:0:0:
123,173,64605,1,4,0:3:0:0:
38,142,64781,1,8,0:0:0:0:
32,232,64958,6,2,B|21:287|21:287|35:363,1,120,4|2,0:2|3:2,0:0:0:0:
122,358,65487,2,2,L|190:339,1,60,4|8,0:2|0:0,0:0:0:0:
228,265,65840,2,2,L|305:287,2,60,0|4|0,0:0|0:3|2:0,0:0:0:0:
163,202,66369,6,0,P|176:143|191:57,1,120,4|4,0:2|0:3,0:0:0:0:
266,41,66899,1,4,3:0:0:0:
266,41,67075,2,0,L|353:50,1,60,8|0,0:0|0:0,0:0:0:0:
393,106,67428,1,0,0:0:0:0:
332,172,67605,1,0,0:0:0:0:
304,161,73428,5,0,0:0:0:0:
304,161,79075,5,4,0:3:0:0:
304,161,79252,2,0,L|242:275,1,120,4|0,3:0|3:0,0:0:0:0:
294,334,79781,2,0,B|328:314|328:314|397:326,1,90,8|0,0:2|0:0,0:0:0:0:
410,338,80134,1,4,0:3:0:0:
470,270,80311,1,4,3:0:0:0:
415,198,80487,6,0,L|342:211,1,60,0|2,0:0|0:2,0:0:0:0:
282,156,80840,2,0,L|296:83,1,60,0|2,0:2|0:2,0:0:0:0:
335,17,81193,2,0,L|408:30,1,60,8|2,0:2|0:2,0:0:0:0:
242,24,81546,1,2,0:2:0:0:
187,95,81722,1,4,3:0:0:0:
187,95,81899,6,0,L|203:281,1,180,4|0,0:3|3:0,0:0:0:0:
141,341,82605,2,0,B|101:330|101:330|45:344,1,90,8|0,0:2|0:0,0:0:0:0:
28,315,82958,1,4,0:3:0:0:
42,226,83134,1,4,3:0:0:0:
132,220,83311,2,0,L|206:240,1,60,2|0,0:0|0:0,0:0:0:0:
278,247,83663,2,0,P|324:223|308:145,1,120,4|8,0:3|0:2,0:0:0:0:
200,29,84369,2,0,P|192:75|191:132,1,90,2|0,0:0|0:0,0:0:0:0:
229,141,84722,5,4,0:3:0:0:
300,86,84899,2,0,P|368:83|430:83,1,120,4|2,3:0|3:2,0:0:0:0:
467,159,85428,2,0,B|483:191|483:191|467:263,1,90,8|0,0:2|0:0,0:0:0:0:
454,275,85781,1,4,0:3:0:0:
365,258,85958,1,4,3:0:0:0:
283,296,86134,6,0,L|296:370,1,60,0|2,0:0|0:2,0:0:0:0:
203,358,86487,2,0,L|139:354,1,60,0|2,0:0|0:2,0:0:0:0:
127,265,86840,2,0,L|197:269,1,60,8|2,0:2|0:2,0:0:0:0:
252,206,87193,1,2,0:0:0:0:
202,131,87369,1,4,3:0:0:0:
202,131,87546,6,0,L|77:154,1,120,4|0,0:3|0:0,0:0:0:0:
26,83,88075,2,0,L|70:31,1,60,2|8,3:1|0:2,0:0:0:0:
151,11,88428,2,0,L|229:29,1,60,2|4,3:1|0:3,0:0:0:0:
301,60,88781,1,4,3:0:0:0:
301,60,88958,2,0,P|319:104|326:178,1,120,2|4,0:0|0:3,0:0:0:0:
251,226,89487,2,0,L|172:220,1,60,2|8,0:0|0:2,0:0:0:0:
128,285,89840,1,2,0:0:0:0:
128,285,90016,2,0,L|54:277,1,60,4|0,3:0|0:0,0:0:0:0:
190,355,90369,6,0,L|265:354,1,71.9999978027344,4|4,0:2|3:0,0:0:0:0:
340,302,90722,2,0,P|412:319|498:364,2,143.999995605469,2|8|4,0:2|0:0|0:3,0:0:0:0:
247,281,91605,1,4,3:0:0:0:
273,191,91781,2,0,L|296:103,1,71.9999978027344,4|2,0:2|0:0,0:0:0:0:
319,31,92134,2,0,L|401:47,1,71.9999978027344,2|2,0:2|0:0,0:0:0:0:
461,105,92487,2,0,L|444:195,1,71.9999978027344,8|0,0:0|0:0,0:0:0:0:
424,266,92840,1,2,0:0:0:0:
341,222,93016,1,4,3:0:0:0:
253,257,93193,5,4,0:3:0:0:
253,257,93369,2,0,P|217:315|142:370,1,143.999995605469,4|0,3:0|3:0,0:0:0:0:
66,341,93899,2,0,L|61:253,1,71.9999978027344,8|0,0:0|3:0,0:0:0:0:
55,175,94252,1,4,0:3:0:0:
143,204,94428,1,4,3:0:0:0:
216,145,94605,2,0,P|273:136|309:136,1,71.9999978027344,4|0,0:2|0:0,0:0:0:0:
347,207,94958,2,0,P|397:217|469:215,1,107.999996704102,4|0,0:3|0:0,0:0:0:0:
465,188,95311,2,0,L|460:105,1,71.9999978027344,8|0,0:0|3:0,0:0:0:0:
379,29,95663,2,0,L|369:109,1,71.9999978027344,2|0,0:2|0:0,0:0:0:0:
290,150,96016,5,4,0:3:0:0:
290,150,96193,2,0,P|233:140|170:79,1,143.999995605469,4|0,3:0|3:0,0:0:0:0:
96,26,96722,2,0,L|19:39,1,71.9999978027344,8|0,0:0|0:0,0:0:0:0:
22,131,97075,1,4,0:3:0:0:
99,183,97252,1,4,3:0:0:0:
95,276,97428,2,0,L|69:359,2,71.9999978027344,2|2|2,0:2|0:0|0:2,0:0:0:0:
183,243,97958,1,2,0:0:0:0:
274,259,98134,2,0,L|362:278,1,71.9999978027344,8|0,0:0|0:0,0:0:0:0:
409,206,98487,2,0,L|315:182,1,71.9999978027344,2|4,0:0|3:0,0:0:0:0:
251,156,98840,6,0,L|264:54,1,71.9999978027344,4|4,0:0|3:0,0:0:0:0:
331,23,99193,1,2,0:0:0:0:
423,34,99369,1,2,0:2:0:0:
460,120,99546,2,0,L|446:199,1,71.9999978027344,10|2,0:0|0:2,0:0:0:0:
375,250,99899,2,0,L|380:345,1,71.9999978027344,2|4,0:0|3:0,0:0:0:0:
291,356,100252,6,0,B|224:325|224:325|131:348,3,143.999995605469,6|2|10|2,0:0|0:0|0:0|0:0,0:0:0:0:
52,361,101663,5,2,0:3:0:0:
52,361,101840,1,2,0:3:0:0:
52,361,102016,2,0,L|56:311,1,41.9999987182618,2|2,0:0|0:2,0:0:0:0:
55,235,102369,6,0,L|146:248,1,83.9999974365235,0|0,0:0|0:0,0:0:0:0:
289,349,103075,6,0,L|308:214,1,120,0|0,0:0|0:0,0:0:0:0:
440,342,103781,2,0,L|320:355,1,120,4|0,0:2|0:0,0:0:0:0:
304,202,104487,2,0,L|443:218,1,120,4|0,0:2|0:0,0:0:0:0:
281,59,105193,2,0,L|294:178,1,120,4|0,0:2|0:0,0:0:0:0:
194,338,105899,6,0,L|170:221,3,120,4|4|4|4,0:3|0:3|0:3|0:3,0:0:0:0:
147,122,107311,1,4,0:3:0:0:
147,122,107659,1,4,0:3:0:0:
318,148,108008,1,4,0:0:0:0:
256,192,108095,12,4,112786,0:2:0:0:
105,24,113138,6,0,P|105:69|101:121,1,71.9999978027344,8|4,0:0|3:0,0:0:0:0:
22,127,113491,2,2,P|29:187|45:282,1,143.999995605469,2|8,0:0|0:0,0:0:0:0:
67,352,114021,1,4,3:0:0:0:
67,352,114197,2,2,P|128:339|229:329,1,143.999995605469,2|8,0:0|0:0,0:0:0:0:
292,354,114727,1,4,3:0:0:0:
292,354,114903,2,2,P|303:283|312:211,1,143.999995605469,2|8,0:0|0:0,0:0:0:0:
254,146,115433,1,8,0:2:0:0:
170,166,115609,6,2,L|87:193,1,71.9999978027344,2|0,0:0|2:0,0:0:0:0:
95,101,115962,2,2,L|178:74,1,71.9999978027344,2|0,0:0|0:0,0:0:0:0:
230,23,116315,2,2,P|276:38|389:59,1,143.999995605469,2|10,0:0|0:0,0:0:0:0:
455,53,116844,1,0,0:0:0:0:
433,136,117021,6,2,P|426:190|429:267,1,107.999996704102,4|0,0:3|0:0,0:0:0:0:
422,286,117374,1,8,0:0:0:0:
339,260,117550,1,4,0:3:0:0:
262,299,117727,2,2,L|145:294,1,107.999996704102,2|0,0:0|0:0,0:0:0:0:
135,333,118080,2,0,L|37:324,1,71.9999978027344,8|4,0:0|3:0,0:0:0:0:
25,254,118433,6,2,L|29:187,1,62.9999980773926,4|0,0:2|0:0,0:0:0:0:
44,150,118788,6,0,P|79:158|134:161,1,71.9999978027344,8|4,0:0|3:0,0:0:0:0:
203,182,119143,2,2,P|210:111|215:20,1,143.999995605469,2|8,0:0|0:0,0:0:0:0:
301,28,119675,1,4,3:0:0:0:
301,28,119853,2,2,P|402:45|457:50,1,143.999995605469,2|8,0:0|0:0,0:0:0:0:
499,122,120385,1,4,3:0:0:0:
499,122,120563,2,2,P|492:193|487:284,1,143.999995605469,2|8,0:0|0:0,0:0:0:0:
441,346,121095,1,8,0:2:0:0:
367,287,121273,6,2,L|358:206,1,71.9999978027344,2|0,0:0|2:0,0:0:0:0:
276,170,121628,2,2,L|268:241,1,71.9999978027344,2|0,0:0|0:0,0:0:0:0:
257,334,121983,2,2,P|187:318|97:313,1,143.999995605469,2|2,0:0|0:0,0:0:0:0:
23,331,122515,1,0,0:0:0:0:
30,237,122693,2,0,L|42:109,1,107.999996704102,4|4,0:3|3:0,0:0:0:0:
45,93,123048,2,0,L|134:117,1,71.9999978027344,8|4,0:0|3:0,0:0:0:0:
220,114,123403,6,2,L|215:37,1,62.9999980773926,2|4,0:0|3:0,0:0:0:0:
214,12,123758,1,8,0:0:0:0:
310,40,123935,1,4,3:0:0:0:
322,133,124113,5,2,0:0:0:0:
143,203,124468,1,8,0:0:0:0:
331,254,124823,6,2,L|327:382,2,120,6|4|6,0:3|0:0|3:3,0:0:0:0:
337,121,126598,1,0,3:0:0:0:
301,125,126776,1,8,0:2:0:0:
265,128,126953,6,2,L|171:111,1,90,4|0,0:3|0:0,0:0:0:0:
100,92,127667,2,0,L|109:194,1,90,8|0,0:0|2:0,0:0:0:0:
118,260,128381,2,2,L|212:243,1,90,4|0,0:3|0:0,0:0:0:0:
283,259,129095,2,2,L|274:361,1,90,8|4,0:0|3:0,0:0:0:0:
310,353,129810,1,4,0:3:0:0:
345,358,129989,1,4,3:0:0:0:
447,269,130348,5,4,3:0:0:0:
447,269,130528,2,0,L|449:206,2,60,8|8|8,0:2|0:2|0:2,0:0:0:0:
353,228,131606,1,8,0:2:0:0:
353,228,131965,2,2,L|354:156,1,60,8|8,0:2|0:0,0:0:0:0:
331,139,132504,1,8,0:2:0:0:
302,117,132684,1,4,0:3:0:0:
302,117,133047,6,0,L|235:123,2,60,8|8|8,0:2|0:2|0:2,0:0:0:0:
401,101,134138,1,4,2:3:0:0:
329,28,134510,1,8,0:2:0:0:
227,39,134883,6,8,B|169:44|169:44|111:8,1,120,8|4,3:2|0:3,3:3:0:0:
81,35,135806,1,4,3:0:0:0:
77,219,136342,5,8,0:0:0:0:
77,219,136680,2,0,P|120:221|179:205,1,71.9999978027344,4|4,0:3|3:0,0:0:0:0:
228,265,137019,2,0,P|219:302|218:347,2,71.9999978027344,2|0|2,0:2|0:0|0:2,0:0:0:0:
318,290,137519,1,0,0:0:0:0:
318,290,137685,2,0,P|359:287|407:291,1,71.9999978027344,8|0,0:0|0:0,0:0:0:0:
397,194,138019,2,0,P|337:206|268:188,1,107.999996704102,2|0,0:0|0:0,0:0:0:0:
249,177,138352,5,2,0:0:0:0:
245,83,138519,1,4,3:0:0:0:
326,36,138685,2,0,P|372:42|411:50,1,71.9999978027344,0|0,0:0|2:0,0:0:0:0:
477,99,139019,2,0,L|464:231,1,107.999996704102,10|0,0:0|0:0,0:0:0:0:
460,253,139352,1,4,0:3:0:0:
367,238,139519,1,4,3:0:0:0:
313,314,139685,2,0,P|283:331|229:333,1,71.9999978027344,2|0,0:0|0:0,0:0:0:0:
172,276,140019,2,0,P|189:208|186:125,2,143.999995605469,2|8|2,0:0|0:0|0:0,0:0:0:0:
93,326,140852,1,0,0:0:0:0:
20,266,141019,5,4,0:3:0:0:
79,194,141185,2,0,P|51:115|15:61,1,143.999995605469,4|0,3:0|2:0,0:0:0:0:
99,18,141685,2,0,P|136:25|222:30,1,107.999996704102,8|0,0:0|0:0,0:0:0:0:
253,27,142019,1,4,0:3:0:0:
345,14,142185,1,4,3:0:0:0:
330,106,142352,6,0,P|325:148|320:192,2,71.9999978027344,2|2|2,0:0|0:2|0:0,0:0:0:0:
416,142,142852,1,2,0:0:0:0:
416,142,143019,2,0,P|408:180|401:225,1,71.9999978027344,8|2,0:0|0:2,0:0:0:0:
496,208,143352,2,0,P|479:293|473:344,1,107.999996704102,2|0,0:0|0:0,0:0:0:0:
442,347,143685,5,4,0:3:0:0:
357,307,143852,1,4,3:0:0:0:
263,299,144019,2,0,P|236:301|184:330,2,71.9999978027344,2|2|8,0:2|0:0|0:0,0:0:0:0:
247,205,144519,2,0,P|210:203|150:206,1,71.9999978027344,2|4,0:0|0:3,0:0:0:0:
98,149,144852,1,4,3:0:0:0:
129,60,145019,6,0,P|200:42|288:70,1,143.999995605469,2|2,0:0|0:2,0:0:0:0:
311,140,145519,1,2,0:0:0:0:
297,232,145685,2,0,P|291:262|271:323,2,71.9999978027344,8|2|2,0:0|0:0|0:0,0:0:0:0:
208,201,146185,1,0,0:0:0:0:
123,238,146352,5,4,0:0:0:0:
123,238,146520,2,0,P|102:306|161:353,1,143.999995605469,4|2,3:0|0:2,0:0:0:0:
241,365,147026,2,0,L|326:348,1,71.9999978027344,8|0,0:0|0:0,0:0:0:0:
370,277,147363,1,4,0:3:0:0:
283,240,147531,1,4,3:0:0:0:
362,190,147700,6,0,L|365:114,1,71.9999978027344,4|2,0:2|0:2,0:0:0:0:
282,73,148037,2,0,L|279:149,1,71.9999978027344,2|2,0:0|0:0,0:0:0:0:
188,121,148374,2,0,L|106:110,1,71.9999978027344,8|2,0:0|0:2,0:0:0:0:
26,135,148711,1,2,0:0:0:0:
40,227,148880,1,4,3:0:0:0:
132,237,149048,5,4,0:3:0:0:
132,237,149218,2,0,P|141:289|135:387,1,143.999995605469,4|2,3:0|0:2,0:0:0:0:
230,380,149729,2,0,P|234:313|238:286,1,71.9999978027344,8|0,0:0|0:0,0:0:0:0:
275,223,150070,1,2,0:0:0:0:
194,174,150241,1,4,3:0:0:0:
270,120,150411,2,0,P|316:127|372:128,1,71.9999978027344,4|0,0:3|0:0,0:0:0:0:
311,39,150752,2,0,P|231:34|162:45,2,143.999995605469,2|8|2,0:0|0:0|0:0,0:0:0:0:
404,49,151604,1,0,0:0:0:0:
467,125,151775,5,4,0:3:0:0:
467,125,151947,2,0,B|501:183|501:183|463:319,1,180,4|8,3:0|0:0,0:0:0:0:
317,329,152809,1,4,0:3:0:0:
317,329,152981,1,4,3:0:0:0:
317,329,153154,2,0,L|229:329,1,60,4|2,0:2|0:2,0:0:0:0:
221,259,153515,2,0,L|153:276,1,60,2|2,0:0|0:0,0:0:0:0:
134,346,153876,2,0,L|48:329,1,60,8|2,0:0|0:2,0:0:0:0:
23,275,154238,1,2,0:0:0:0:
45,200,154419,1,2,0:2:0:0:
127,186,154599,5,4,0:3:0:0:
127,186,154786,1,4,3:0:0:0:
127,186,154974,2,0,L|136:112,1,53.9999983520508,2|2,0:0|3:2,0:0:0:0:
65,101,155349,2,0,L|74:29,1,53.9999983520508,10|2,0:0|3:2,0:0:0:0:
148,21,155724,2,0,L|206:27,1,53.9999983520508,2|2,0:0|3:2,0:0:0:0:
252,82,156099,6,0,B|295:67|295:67|358:90,1,83.9999974365235,6|2,0:0|0:0,0:0:0:0:
403,158,156899,2,2,B|388:201|388:201|411:264,1,83.9999974365235,10|2,0:0|0:0,0:0:0:0:
479,302,157860,5,4,0:0:0:0:
