osu file format v14

[General]
AudioFilename: audio.mp3
AudioLeadIn: 0
PreviewTime: 22516
Countdown: 0
SampleSet: Normal
StackLeniency: 0.7
Mode: 0
LetterboxInBreaks: 0
WidescreenStoryboard: 0

[Editor]
DistanceSpacing: 0.8
BeatDivisor: 4
GridSize: 4
TimelineZoom: 2.552

[Metadata]
Title:NOSTALGIA
TitleUnicode:ノスタルジア
Artist:onumi
ArtistUnicode:オヌミ
Creator:PandaHero
Version:Expert
Source:
Tags:Hectic h4d0uk3n1 hadouken osu! fa featured artist experimental Childhood Friend
BeatmapID:2074851
BeatmapSetID:952393

[Difficulty]
HPDrainRate:7
CircleSize:4.5
OverallDifficulty:8.5
ApproachRate:9.3
SliderMultiplier:3.2
SliderTickRate:1

[Events]
//Background and Video events
0,0,"machine-1715424_1920.jpg",0,0
//Break Periods
//Storyboard Layer 0 (Background)
//Storyboard Layer 1 (Fail)
//Storyboard Layer 2 (Pass)
//Storyboard Layer 3 (Foreground)
//Storyboard Layer 4 (Overlay)
//Storyboard Sound Samples

[TimingPoints]
5664,352.941176470588,4,1,0,50,1,0
15899,-333.333333333333,4,1,0,20,0,0
16958,-333.333333333333,4,1,1,35,0,0
20134,-500,4,1,1,35,0,0
21281,-333.333333333333,4,1,1,45,0,0
22605,-333.333333333333,4,1,0,35,0,0
22958,-100,4,1,2,55,0,0
23134,-100,4,1,0,55,0,0
23311,-66.6666666666667,4,1,1,70,0,0
27722,-200,4,1,1,60,0,0
28252,-333.333333333333,4,1,0,55,0,0
28958,-142.857142857143,4,1,1,70,0,0
33193,-200,4,1,1,55,0,0
33899,-1000,4,1,1,55,0,0
34252,-100,4,1,2,55,0,0
34605,-66.6666666666667,4,1,1,70,0,0
39016,-100,4,1,0,60,0,0
39546,-333.333333333333,4,1,1,55,0,0
40252,-142.857142857143,4,1,1,70,0,0
44487,-250.000000000001,4,1,2,60,0,0
45193,-500,4,1,1,55,0,0
45899,-111.111111111111,4,1,1,60,0,0
48722,-222.222222222222,4,1,1,60,0,0
49428,-111.111111111111,4,1,1,60,0,0
50840,-200,4,1,1,50,0,0
51546,-111.111111111111,4,1,1,50,0,0
51899,-111.111111111111,4,1,1,60,0,0
55958,-111.111111111111,4,1,1,50,0,0
56487,-200,4,1,1,70,0,0
57193,-111.111111111111,4,1,1,60,0,0
62134,-333.333333333333,4,1,1,50,0,0
62840,-111.111111111111,4,1,1,60,0,0
63546,-111.111111111111,4,1,1,55,0,0
67781,-250,4,1,1,40,0,0
73428,-250,4,1,1,35,0,0
76252,-250,4,1,1,50,0,0
77663,-250,4,1,1,55,0,0
79075,-142.857142857143,4,1,1,65,0,0
90369,-100,4,1,1,70,0,0
100252,-142.857142857143,4,1,1,70,0,0
101663,-200,4,1,2,60,0,0
102193,-200,4,1,1,60,0,0
102369,-200,4,3,1,60,0,0
103075,-200,4,1,1,60,0,0
107311,348.837209302326,4,1,1,55,1,0
108008,-142.857142857143,4,3,1,65,0,0
108706,-142.857142857143,4,3,1,65,0,0
110101,342.857142857143,4,3,1,65,1,0
110101,-142.857142857143,4,3,1,65,0,0
111472,333.333333333333,4,3,1,70,1,0
111472,-142.857142857143,4,3,1,70,0,0
112138,324.324324324324,4,3,1,65,1,0
112138,-142.857142857143,4,3,1,65,0,0
112786,352.941176470588,4,1,1,70,1,0
112786,-76.9230769230769,4,1,1,70,0,0
113138,-100,4,1,1,65,0,0
116315,-100,4,1,1,55,0,0
117021,-100,4,1,1,65,0,0
118433,355.029585798817,4,1,1,70,1,0
118433,-83.3333333333333,4,1,1,70,0,0
118788,-100,4,1,1,65,0,0
121983,-100,4,1,1,55,0,0
122693,-100,4,1,1,65,0,0
123403,-83.3333333333333,4,1,1,60,0,0
123580,-100,4,1,1,60,0,0
124113,-333.333333333333,4,1,0,55,0,0
124468,-200,4,1,2,60,0,0
124823,-142.857142857143,4,1,1,55,0,0
126953,357.142857142857,4,1,1,50,1,0
126953,-142.857142857143,4,1,1,50,0,0
128024,-142.857142857143,4,1,1,50,0,0
128738,-142.857142857143,4,1,1,45,0,0
129095,-142.857142857143,4,1,1,55,0,0
129810,359.281437125748,4,1,1,60,1,0
129810,-333.333333333333,4,1,1,60,0,0
130528,-200,4,1,1,65,0,0
131606,-200,4,1,1,70,0,0
132684,363.636363636364,4,1,1,70,1,0
132684,-200,4,1,1,70,0,0
134138,372.670807453416,4,1,1,60,1,0
134138,-200,4,1,1,60,0,0
135256,-200,4,1,1,70,0,0
135628,357.142857142857,4,1,1,70,1,0
136342,338.983050847458,4,1,1,70,1,0
136680,-100,4,1,1,75,0,0
137019,333.333333333333,4,1,1,75,1,0
137019,-100,4,1,1,75,0,0
146352,337.078651685393,4,1,1,75,1,0
146352,-100,4,1,1,75,0,0
149048,340.909090909091,4,1,1,75,1,0
149048,-100,4,1,1,75,0,0
151775,344.827586206897,4,1,1,75,1,0
151775,-142.857142857143,4,1,1,75,0,0
153154,361.44578313253,4,1,1,60,1,0
153154,-142.857142857143,4,1,1,60,0,0
154599,375,4,1,1,70,1,0
154599,-200,4,1,1,70,0,0
156099,400,4,1,1,65,1,0
156099,-142.857142857143,4,1,1,65,0,0
156899,461.538461538462,4,1,1,55,1,0
156899,-142.857142857143,4,1,1,55,0,0
157360,500,4,1,1,50,1,0
157360,-142.857142857143,4,1,1,50,0,0
157860,500,4,3,1,45,1,0
157860,-200,4,3,1,45,0,0
165860,-200,4,3,1,35,0,0

[Colours]
Combo1 : 102,104,138
Combo2 : 193,193,193
Combo3 : 119,103,83

[HitObjects]
256,192,15899,12,4,16958,0:3:0:0:
133,69,18016,5,0,0:0:0:0:
133,69,18369,2,0,B|99:139|99:139|128:223,1,143.999995605469,2|4,0:2|0:3,0:0:0:0:
174,280,19075,1,4,1:3:0:0:
174,280,19781,6,0,L|232:281,1,47.9999985351563,2|0,0:0|2:0,0:0:0:0:
289,208,20134,2,0,P|291:260|418:323,1,191.999994140625,0|4,0:0|0:3,0:0:0:0:
256,192,21281,12,8,22605,0:0:0:0:
333,49,22958,5,2,0:3:0:0:
346,171,23075,1,0,0:0:0:0:
301,62,23193,1,2,0:3:0:0:
413,96,23311,6,2,L|482:57,14,60.0000022888184,6|0|0|0|0|0|0|0|0|0|0|0|0|0|0,0:3|3:0|3:0|3:0|3:0|3:0|3:0|3:0|3:0|3:0|3:0|3:0|3:0|3:0|3:0,0:0:0:0:
286,180,24016,2,2,L|219:168,10,60.0000022888184,4|0|0|0|0|0|0|0|0|0|0,0:0|3:0|3:0|3:0|3:0|3:0|3:0|3:0|3:0|3:0|3:0,0:0:0:0:
181,36,24546,1,4,0:3:0:0:
139,79,24634,1,0,0:0:0:0:
79,81,24722,2,2,L|14:63,10,60.0000022888184,6|0|0|0|0|0|0|0|0|0|0,0:3|3:0|3:0|3:0|3:0|3:0|3:0|3:0|3:0|3:0|3:0,0:0:0:0:
185,233,25252,2,0,L|194:352,1,120.000004577637
24,336,25428,6,0,L|15:270,6,60.0000022888184,4|0|0|0|0|0|0,0:3|3:0|3:0|3:0|3:0|3:0|3:0,0:0:0:0:
40,164,25781,1,4,0:3:0:0:
40,164,25869,2,0,L|50:284,1,120.000004577637,0|8,0:0|0:2,0:0:0:0:
204,216,26134,6,0,L|214:153,6,60.0000022888184,8|0|0|0|0|0|0,0:0|3:0|3:0|3:0|3:0|3:0|3:0,0:0:0:0:
188,44,26487,1,4,0:3:0:0:
188,44,26575,2,0,L|178:164,1,120.000004577637,0|8,0:0|0:2,0:0:0:0:
332,336,26840,6,2,L|320:276,6,60.0000022888184,6|0|0|0|0|0|0,0:3|3:0|3:0|3:0|3:0|3:0|3:0,0:0:0:0:
348,164,27193,1,4,0:3:0:0:
348,164,27281,2,0,L|358:284,1,120.000004577637,0|8,0:0|0:2,0:0:0:0:
272,26,27546,5,8,0:0:0:0:
391,77,27722,2,0,L|410:64,2,20,2|0|0,0:3|3:0|3:0,3:0:0:0:
478,79,27899,2,0,L|485:53,4,20,0|0|0|0|0,0:0|3:0|3:0|3:0|3:0,3:0:0:0:
238,162,28252,5,4,0:3:0:0:
168,183,28428,2,0,B|127:212|127:212|119:289,1,119.999996337891,2|0,0:3|0:0,0:0:0:0:
155,359,28958,6,2,L|167:229,1,111.999996582031,8|0,0:0|0:0,0:0:0:0:
43,75,29311,2,0,L|33:158,1,55.9999982910157,8|0,0:2|2:0,0:0:0:0:
110,22,29487,1,4,3:0:0:0:
4,137,29663,2,0,L|17:276,1,111.999996582031,8|0,0:2|2:0,0:0:0:0:
132,51,30016,1,4,0:3:0:0:
263,182,30193,5,4,3:0:0:0:
310,211,30281,1,0,0:0:0:0:
362,190,30369,2,2,L|365:158,6,27.9999991455078,8|0|0|0|0|0|0,0:0|3:0|3:0|3:0|3:0|3:0|3:0,0:0:0:0:
403,228,30722,2,0,L|403:288,1,55.9999982910157,8|0,0:2|2:0,0:0:0:0:
487,185,30899,1,8,0:0:0:0:
493,95,31075,6,2,P|443:48|401:44,1,111.999996582031,4|0,0:3|2:0,0:0:0:0:
203,93,31428,2,0,L|132:99,1,55.9999982910157,8|0,0:2|2:0,0:0:0:0:
255,21,31605,1,4,3:0:0:0:
223,208,31781,2,2,L|220:240,6,27.9999991455078,8|0|0|0|0|0|0,0:0|3:0|3:0|3:0|3:0|3:0|3:0,0:0:0:0:
329,276,32134,2,0,L|391:269,1,55.9999982910157,8|0,0:2|2:0,0:0:0:0:
277,348,32311,1,4,3:0:0:0:
312,192,32487,2,0,L|424:176,1,111.999996582031,8|0,0:2|0:0,0:0:0:0:
183,114,32840,2,0,L|121:121,1,55.9999982910157,4|0,3:0|2:0,0:0:0:0:
69,39,33016,2,0,L|7:46,1,55.9999982910157,4|8,0:3|0:3,0:0:0:0:
96,207,33193,1,8,0:0:0:0:
226,33,33369,5,8,0:3:0:0:
226,33,33546,1,8,0:2:0:0:
226,33,33722,1,4,3:0:0:0:
226,33,33899,1,4,3:0:0:0:
67,313,34252,5,2,0:3:0:0:
159,230,34369,1,0,0:0:0:0:
162,357,34487,1,2,0:3:0:0:
267,292,34605,6,2,L|324:255,14,60.0000022888184,6|0|0|0|0|0|0|0|0|0|0|0|0|0|0,0:3|3:0|3:0|3:0|3:0|3:0|3:0|3:0|3:0|3:0|3:0|3:0|3:0|3:0|3:0,0:0:0:0:
136,152,35311,2,2,L|76:188,10,60.0000022888184,4|0|0|0|0|0|0|0|0|0|0,0:0|3:0|3:0|3:0|3:0|3:0|3:0|3:0|3:0|3:0|3:0,0:0:0:0:
320,32,35840,1,4,3:0:0:0:
359,76,35928,1,0,0:0:0:0:
418,84,36016,2,2,L|478:58,10,60.0000022888184,6|0|0|0|0|0|0|0|0|0|0,0:3|3:0|3:0|3:0|3:0|3:0|3:0|3:0|3:0|3:0|3:0,0:0:0:0:
272,124,36546,1,8,0:0:0:0:
340,356,36722,6,2,L|352:289,6,60.0000022888184,6|0|0|0|0|0|0,0:3|3:0|3:0|3:0|3:0|3:0|3:0,0:0:0:0:
324,184,37075,1,0,0:0:0:0:
324,184,37163,2,0,L|314:304,1,120.000004577637,0|0,0:0|3:0,0:0:0:0:
160,236,37428,6,2,L|152:166,6,60.0000022888184,8|0|0|0|0|0|0,0:0|3:0|3:0|3:0|3:0|3:0|3:0,0:0:0:0:
176,64,37781,1,0,0:0:0:0:
176,64,37869,2,0,L|186:184,1,120.000004577637,0|0,0:0|3:0,0:0:0:0:
368,312,38134,6,2,L|377:242,6,60.0000022888184,4|0|0|0|0|0|0,0:3|3:0|3:0|3:0|3:0|3:0|3:0,0:0:0:0:
352,140,38487,1,0,0:0:0:0:
352,140,38575,2,0,L|342:260,1,120.000004577637,0|0,0:0|3:0,0:0:0:0:
98,214,38840,5,8,0:0:0:0:
140,109,39016,2,2,L|183:116,2,40,2|0|0,0:3|3:0|3:0,2:0:0:0:
216,55,39193,2,0,L|257:74,2,40,0|0|0,0:0|3:0|3:0,2:0:0:0:
305,23,39369,2,0,L|339:57,2,40,4|0|0,0:0|3:0|3:0,2:0:0:0:
110,17,39546,5,4,0:3:0:0:
20,108,39722,1,0,0:0:0:0:
20,108,40075,1,2,0:3:0:0:
212,160,40252,6,2,B|260:140|260:140|332:164,1,111.999996582031,8|0,0:0|2:0,0:0:0:0:
420,292,40605,2,0,L|360:276,1,55.9999982910157,8|0,0:2|2:0,0:0:0:0:
492,240,40781,1,4,3:0:0:0:
280,304,40958,2,0,L|140:328,1,111.999996582031,8|0,0:2|2:0,0:0:0:0:
344,360,41311,1,4,0:3:0:0:
167,163,41487,5,4,3:0:0:0:
112,150,41575,1,0,0:0:0:0:
62,176,41663,2,2,L|70:220,6,27.9999991455078,8|0|0|0|0|0|0,0:0|3:0|3:0|3:0|3:0|3:0|3:0,0:0:0:0:
192,40,42016,2,0,L|248:72,1,55.9999982910157,8|0,0:2|2:0,0:0:0:0:
92,40,42193,1,8,0:0:0:0:
368,116,42369,1,4,0:3:0:0:
368,116,42722,6,0,L|312:148,1,55.9999982910157,8|0,0:2|2:0,0:0:0:0:
468,116,42899,1,4,3:0:0:0:
192,192,43075,1,8,0:0:0:0:
192,192,43428,6,0,L|248:224,1,55.9999982910157,8|0,0:2|2:0,0:0:0:0:
92,192,43605,1,4,3:0:0:0:
339,332,43781,1,8,0:2:0:0:
339,332,43958,1,4,3:0:0:0:
339,332,44134,1,8,0:3:0:0:
339,332,44311,1,4,0:3:0:0:
339,332,44487,2,2,B|250:324|250:324|209:360|209:360|129:353,1,224,10|0,0:3|2:0,0:0:0:0:
104,326,45193,6,2,L|175:331,1,72,0|0,0:0|3:0,0:0:0:0:
308,56,45840,1,0,0:0:0:0:
308,56,45899,6,0,B|336:128|336:128|300:208,1,143.999995605469,8|0,0:0|0:0,0:0:0:0:
219,348,46252,2,2,B|191:287|191:287|219:215,1,143.999995605469,2|0,0:2|0:0,0:0:0:0:
384,344,46605,1,2,3:2:0:0:
220,32,46958,1,4,0:3:0:0:
422,205,47252,1,0,0:0:0:0:
422,205,47311,1,8,0:0:0:0:
332,252,47487,1,0,0:0:0:0:
244,204,47663,1,2,0:2:0:0:
328,148,47840,1,8,0:0:0:0:
172,280,48016,6,2,B|104:308|104:308|20:272,1,143.999995605469,4|0,0:3|0:0,0:0:0:0:
232,344,48369,2,2,B|300:316|300:316|384:352,1,143.999995605469,2|0,0:2|2:0,0:0:0:0:
172,156,48722,6,2,B|104:184|104:184|20:148,1,143.999995605469,8|4,0:0|0:3,0:0:0:0:
39,156,49252,1,0,0:0:0:0:
276,32,49428,1,2,0:2:0:0:
248,128,49605,1,0,0:0:0:0:
328,192,49781,1,4,0:3:0:0:
372,100,49958,1,8,0:3:0:0:
372,100,50046,1,8,0:3:0:0:
372,100,50134,1,8,0:0:0:0:
228,220,50311,5,8,0:3:0:0:
248,292,50487,1,2,0:2:0:0:
268,364,50663,1,0,0:0:0:0:
248,128,50840,1,4,0:3:0:0:
248,128,51369,1,4,3:0:0:0:
328,192,51546,6,0,B|396:220|396:220|480:184,1,143.999995605469,8|0,0:0|0:0,0:0:0:0:
172,56,51899,2,2,B|104:28|104:28|20:64,1,143.999995605469,4|0,0:3|2:0,0:0:0:0:
328,192,52252,6,2,B|396:164|396:164|480:200,1,143.999995605469,4|0,0:3|2:0,0:0:0:0:
172,56,52605,2,2,B|104:84|104:84|20:48,1,143.999995605469,4|0,0:3|2:0,0:0:0:0:
260,24,52899,1,0,0:0:0:0:
260,24,52958,1,8,0:0:0:0:
320,104,53134,1,0,0:0:0:0:
244,172,53311,1,4,0:3:0:0:
424,104,53487,1,8,0:0:0:0:
160,224,53663,6,2,B|188:292|188:292|152:376,1,143.999995605469,4|0,0:3|0:0,0:0:0:0:
352,160,54016,2,0,B|324:92|324:92|360:8,1,143.999995605469,2|0,0:2|2:0,0:0:0:0:
160,224,54369,6,2,B|132:292|132:292|168:376,1,143.999995605469,8|0,0:0|0:0,0:0:0:0:
352,160,54722,2,0,B|380:92|380:92|344:8,1,143.999995605469,4|0,0:3|2:0,0:0:0:0:
264,168,55075,5,4,0:3:0:0:
240,236,55252,1,0,0:0:0:0:
288,292,55428,1,4,0:3:0:0:
312,224,55605,1,0,0:0:0:0:
248,136,55722,1,0,0:0:0:0:
248,136,55781,5,8,0:0:0:0:
304,328,55958,1,8,0:3:0:0:
336,208,56134,1,4,0:3:0:0:
212,248,56311,1,8,0:3:0:0:
446,120,56487,6,0,L|484:93,1,26.6666666666667,4|0,0:3|2:0,0:0:0:0:
418,194,56605,2,0,L|419:220,1,26.6666666666667,0|0,0:0|2:0,0:0:0:0:
365,129,56722,2,0,L|334:115,1,26.6666666666667,0|0,0:0|2:0,0:0:0:0:
408,147,56840,1,2,0:3:0:0:
227,28,57134,5,0,0:0:0:0:
199,56,57193,2,2,P|115:72|64:33,1,143.999995605469,8|0,0:0|2:0,0:0:0:0:
105,177,57546,2,0,L|89:261,1,71.9999978027344,8|0,0:2|2:0,0:0:0:0:
29,133,57722,1,0,0:0:0:0:
185,213,57899,2,2,L|153:373,1,143.999995605469,8|0,0:2|2:0,0:0:0:0:
296,128,58252,5,4,0:3:0:0:
388,172,58428,1,4,3:0:0:0:
308,232,58546,1,0,0:0:0:0:
308,232,58605,2,0,L|305:82,1,143.999995605469,8|0,0:0|0:0,0:0:0:0:
400,256,58958,2,0,L|416:340,1,71.9999978027344,8|0,0:2|2:0,0:0:0:0:
484,208,59134,1,8,0:0:0:0:
296,332,59311,6,0,B|236:304|236:304|124:320,1,143.999995605469,4|0,0:3|2:0,0:0:0:0:
40,264,59663,2,0,B|94:226|94:226|136:121,1,143.999995605469,8|0,0:2|2:0,0:0:0:0:
216,52,60016,2,0,B|221:117|221:117|291:206,1,143.999995605469,8|0,0:0|2:0,0:0:0:0:
452,244,60369,1,4,0:3:0:0:
464,144,60546,1,0,0:0:0:0:
372,180,60722,1,8,0:2:0:0:
364,280,60899,1,0,0:0:0:0:
320,92,61075,1,4,0:3:0:0:
404,36,61252,1,4,3:0:0:0:
404,36,61340,1,0,0:0:0:0:
404,36,61428,1,8,0:0:0:0:
216,156,61605,5,2,0:2:0:0:
144,128,61781,1,8,0:2:0:0:
204,80,61958,1,2,0:2:0:0:
288,208,62134,6,2,B|276:275|276:275|279:286|279:286|264:356,1,143.999995605469,4|0,0:2|0:0,0:0:0:0:
288,116,62840,1,8,0:0:0:0:
288,116,63193,6,2,P|208:128|136:172,1,143.999995605469,4|4,0:3|2:3,0:0:0:0:
148,16,63546,2,0,P|78:57|28:124,1,143.999995605469,2|0,0:2|0:0,0:0:0:0:
293,23,63899,2,0,P|369:23|465:39,1,143.999995605469,2|4,0:2|0:3,0:0:0:0:
465,43,64163,1,4,3:0:0:0:
489,63,64252,1,8,0:0:0:0:
420,176,64428,1,2,0:2:0:0:
300,132,64605,1,4,0:3:0:0:
428,288,64781,1,8,0:0:0:0:
188,200,64958,6,2,L|212:376,1,143.999995605469,4|0,0:2|2:0,0:0:0:0:
280,160,65311,1,2,3:2:0:0:
56,140,65487,2,2,L|52:300,2,143.999995605469,4|8|0,0:2|0:0|0:0,0:0:0:0:
184,24,66016,2,2,L|176:196,1,143.999995605469,4|0,0:3|2:0,0:0:0:0:
388,320,66369,5,4,0:2:0:0:
360,196,66546,1,0,0:0:0:0:
248,256,66722,1,4,0:3:0:0:
408,88,66899,1,4,3:0:0:0:
408,88,66987,1,0,0:0:0:0:
408,88,67075,1,8,0:0:0:0:
404,284,67252,5,4,0:2:0:0:
332,256,67428,1,0,0:0:0:0:
396,208,67605,1,0,0:0:0:0:
464,344,67781,6,0,L|452:268,1,64,4|0,0:0|0:0,0:0:0:0:
480,260,68134,2,0,L|468:184,1,64,0|0,0:0|0:0,0:0:0:0:
312,172,68487,6,0,L|324:96,1,64,0|0,0:0|0:0,0:0:0:0:
296,88,68840,2,0,L|308:12,1,64,0|0,0:0|0:0,0:0:0:0:
176,160,69193,6,0,L|180:232,3,64,0|2|0|2,0:0|0:2|0:0|0:2,0:0:0:0:
216,308,69899,2,0,L|212:236,3,64,0|2|0|2,0:0|0:2|0:0|0:2,0:0:0:0:
200,64,70605,6,0,L|268:76,1,64,0|0,0:0|0:0,0:0:0:0:
284,44,70958,2,0,L|352:56,1,64,0|0,0:0|0:0,0:0:0:0:
472,184,71311,6,0,L|404:196,1,64,0|0,0:0|0:0,0:0:0:0:
388,164,71663,2,0,L|320:176,1,64,0|0,0:0|0:0,0:0:0:0:
164,284,72016,6,0,L|232:296,3,64,0|2|0|2,0:0|0:2|0:0|0:2,0:0:0:0:
320,316,72722,2,0,L|252:328,3,64,0|2|0|2,0:0|0:2|0:0|0:2,0:0:0:0:
196,156,73428,6,0,L|104:148,1,64,0|0,0:0|0:0,0:0:0:0:
124,112,73781,2,0,L|32:104,1,64,0|0,0:0|0:0,0:0:0:0:
292,236,74134,6,0,L|384:228,1,64,0|0,0:0|0:0,0:0:0:0:
364,192,74487,2,0,L|456:184,1,64,0|0,0:0|0:0,0:0:0:0:
110,48,74840,6,0,L|18:40,3,64,0|2|0|2,0:0|0:2|0:0|0:2,0:0:0:0:
391,165,75546,2,0,L|483:157,3,64,0|2|0|2,0:0|0:2|0:0|0:2,0:0:0:0:
206,220,76252,6,0,L|217:372,1,128,2|0,0:0|0:0,0:0:0:0:
119,238,76781,1,2,0:0:0:0:
119,238,76958,2,0,L|123:162,1,64,0|2,0:0|0:0,0:0:0:0:
37,290,77311,2,0,L|45:363,1,64
25,190,77663,6,0,L|22:127,2,64,2|2|0,0:0|0:2|0:0,0:0:0:0:
95,34,78193,1,2,0:2:0:0:
95,34,78369,2,0,L|100:112,1,64,0|2,0:0|0:2,0:0:0:0:
190,175,78722,2,0,L|185:95,1,64,0|2,0:0|0:2,0:0:0:0:
222,341,79075,5,4,0:3:0:0:
222,341,79252,1,4,3:0:0:0:
315,193,79428,1,0,0:0:0:0:
412,176,79605,1,0,3:0:0:0:
480,252,79781,2,0,L|456:396,1,111.999996582031,8|0,0:2|3:0,0:0:0:0:
412,52,80134,1,4,0:3:0:0:
412,52,80311,1,4,3:0:0:0:
308,60,80487,6,0,L|188:64,1,111.999996582031,0|2,0:0|0:2,0:0:0:0:
76,172,80840,2,0,L|220:180,1,111.999996582031,0|2,0:2|0:2,0:0:0:0:
220,190,81105,1,0,0:0:0:0:
252,202,81193,1,8,0:2:0:0:
232,356,81369,1,2,0:2:0:0:
112,312,81546,1,2,0:2:0:0:
200,272,81722,1,4,3:0:0:0:
28,356,81899,5,4,0:3:0:0:
28,356,82075,1,4,3:0:0:0:
65,143,82252,2,0,P|121:99|165:79,1,111.999996582031,0|0,0:0|3:0,0:0:0:0:
406,42,82605,2,0,P|386:90|338:170,1,111.999996582031,8|0,0:2|3:0,0:0:0:0:
426,353,82958,1,4,0:3:0:0:
484,230,83134,1,4,3:0:0:0:
224,192,83311,5,2,0:0:0:0:
236,320,83487,1,0,0:0:0:0:
238,11,83663,2,0,L|262:147,1,111.999996582031,4|0,0:3|3:0,0:0:0:0:
196,356,84016,2,0,L|172:220,1,111.999996582031,8|0,0:2|3:0,0:0:0:0:
76,196,84369,1,2,0:0:0:0:
16,280,84546,1,0,0:0:0:0:
153,64,84722,6,0,P|201:36|289:36,1,111.999996582031,4|4,0:3|3:0,0:0:0:0:
436,100,85075,1,0,0:0:0:0:
330,87,85252,1,2,3:2:0:0:
482,174,85428,1,8,0:2:0:0:
377,162,85605,1,2,3:2:0:0:
491,255,85781,2,0,L|467:379,1,111.999996582031,4|4,0:3|3:0,0:0:0:0:
330,87,86134,5,0,0:0:0:0:
234,55,86311,1,2,0:2:0:0:
162,123,86487,1,0,0:0:0:0:
286,267,86663,1,2,0:2:0:0:
286,267,86752,1,0,0:0:0:0:
286,267,86840,1,8,0:2:0:0:
262,159,87016,1,2,0:2:0:0:
142,250,87193,2,0,L|138:394,1,111.999996582031,2|4,0:0|3:0,0:0:0:0:
20,202,87546,6,0,B|2:106|2:106|44:14,1,167.999994873047,4|0,0:3|2:0,0:0:0:0:
76,18,87899,1,0,0:0:0:0:
248,104,88075,1,2,3:1:0:0:
156,136,88252,2,0,L|149:258,1,111.999996582031,8|2,0:2|3:1,0:0:0:0:
328,148,88605,1,4,0:3:0:0:
340,48,88781,1,4,3:0:0:0:
480,184,88958,6,0,B|498:280|498:280|456:372,1,167.999994873047,2|0,0:0|2:0,0:0:0:0:
420,328,89311,1,4,0:3:0:0:
320,312,89487,1,2,0:0:0:0:
228,348,89663,2,0,B|176:364|176:364|96:336,1,111.999996582031,8|2,0:2|0:0,0:0:0:0:
256,192,90016,1,4,3:0:0:0:
352,224,90193,1,0,0:0:0:0:
232,32,90369,5,4,0:2:0:0:
168,144,90546,1,4,3:0:0:0:
84,80,90722,1,2,0:2:0:0:
44,200,90899,1,0,0:0:0:0:
44,200,90987,1,0,0:0:0:0:
44,200,91075,1,8,0:0:0:0:
80,48,91252,1,0,0:0:0:0:
172,104,91428,1,4,0:3:0:0:
136,256,91605,1,4,3:0:0:0:
320,348,91781,5,4,0:2:0:0:
384,236,91958,1,2,0:0:0:0:
501,286,92134,1,2,0:2:0:0:
276,244,92311,1,2,0:0:0:0:
276,244,92399,1,0,0:0:0:0:
276,244,92487,1,8,0:0:0:0:
333,129,92663,1,0,0:0:0:0:
452,168,92840,5,2,0:0:0:0:
404,24,93016,1,4,3:0:0:0:
224,160,93193,5,4,0:3:0:0:
191,308,93369,1,4,3:0:0:0:
25,118,93546,1,2,0:2:0:0:
36,229,93722,1,0,0:0:0:0:
113,32,93899,2,0,B|163:68|163:68|285:28,1,160,8|0,0:0|3:0,0:0:0:0:
462,146,94252,1,4,0:3:0:0:
252,152,94428,1,4,3:0:0:0:
357,192,94605,6,0,L|367:377,1,160,4|0,0:2|0:0,0:0:0:0:
153,262,94958,1,4,0:3:0:0:
259,229,95134,1,0,3:0:0:0:
60,181,95311,1,8,0:0:0:0:
162,136,95487,1,0,0:0:0:0:
211,339,95663,1,2,0:2:0:0:
101,362,95840,1,0,0:0:0:0:
340,328,96016,5,4,0:3:0:0:
468,370,96193,1,4,3:0:0:0:
454,177,96369,5,2,0:2:0:0:
425,285,96546,1,0,0:0:0:0:
318,131,96722,5,8,0:0:0:0:
347,239,96899,1,0,0:0:0:0:
453,42,97075,5,4,0:3:0:0:
424,150,97252,1,4,3:0:0:0:
198,74,97428,5,2,0:2:0:0:
46,149,97605,1,2,0:0:0:0:
46,149,97693,1,0,0:0:0:0:
46,149,97781,1,2,0:2:0:0:
204,185,97958,1,2,0:0:0:0:
93,24,98134,5,8,0:0:0:0:
147,286,98311,1,0,0:0:0:0:
120,123,98487,5,2,0:0:0:0:
82,225,98663,1,4,3:0:0:0:
226,32,98840,5,4,0:0:0:0:
264,134,99016,1,4,3:0:0:0:
452,36,99193,5,2,0:0:0:0:
452,36,99369,1,2,0:2:0:0:
402,351,99546,1,10,0:0:0:0:
402,351,99722,1,2,0:2:0:0:
353,156,99899,1,2,0:0:0:0:
496,230,100075,1,4,3:0:0:0:
276,264,100252,6,0,L|136:277,1,111.999996582031,6|0,0:0|0:0,0:0:0:0:
48,181,100605,2,0,L|184:165,1,111.999996582031,2|0,0:0|0:0,0:0:0:0:
324,28,100958,2,0,L|88:51,1,223.999993164063,10|2,0:0|0:0,0:0:0:0:
257,256,101663,6,0,L|246:322,1,40,2|0,0:3|2:0,0:0:0:0:
332,304,101840,2,0,L|320:361,1,40,2|0,0:3|2:0,0:0:0:0:
163,249,102016,5,2,0:0:0:0:
229,103,102193,6,0,L|265:106,2,20,2|0|0,0:2|0:0|2:0,0:0:0:0:
158,74,102369,6,0,L|123:73,6,20
216,29,102722,2,0,L|251:28,6,20,0|0|0|0|0|0|0,0:0|0:0|0:0|0:0|0:0|0:0|0:0,0:0:0:0:
58,91,103075,5,0,0:0:0:0:
44,170,103252,1,2,0:2:0:0:
30,248,103428,1,0,0:0:0:0:
130,167,103605,5,0,0:0:0:0:
130,167,103693,1,0,0:0:0:0:
130,167,103781,1,4,0:2:0:0:
116,246,103958,1,2,0:2:0:0:
102,324,104134,1,0,0:0:0:0:
212,132,104311,5,0,0:0:0:0:
454,91,104487,5,4,0:2:0:0:
468,170,104663,1,2,0:2:0:0:
482,248,104840,1,0,0:0:0:0:
382,167,105016,5,0,0:0:0:0:
382,167,105105,1,0,0:0:0:0:
382,167,105193,1,4,0:2:0:0:
396,246,105369,1,2,0:2:0:0:
410,324,105546,1,0,0:0:0:0:
300,132,105722,5,4,3:0:0:0:
242,350,105899,5,4,0:3:0:0:
201,200,106075,1,0,0:0:0:0:
201,200,106163,1,0,0:0:0:0:
201,200,106252,1,4,0:3:0:0:
308,261,106428,1,0,0:0:0:0:
100,229,106605,5,4,0:3:0:0:
138,73,106781,1,0,0:0:0:0:
138,73,106869,1,0,0:0:0:0:
138,73,106958,1,4,0:3:0:0:
33,142,107134,1,4,3:0:0:0:
271,33,107311,5,4,0:3:0:0:
271,33,107659,1,4,0:3:0:0:
271,33,108008,6,0,B|320:62|320:62|390:45,1,111.999996582031,4|8,0:0|0:0,0:0:0:0:
406,41,108270,1,8,0:0:0:0:
438,31,108357,1,4,0:0:0:0:
475,95,108473,2,0,L|469:157,2,55.9999982910157,0|8|8,0:0|0:3|0:0,0:0:0:0:
439,109,108706,1,4,0:3:0:0:
365,123,108822,1,8,0:0:0:0:
325,186,108938,1,4,0:0:0:0:
334,260,109055,6,0,L|342:380,1,111.999996582031,4|8,0:0|0:0,0:0:0:0:
230,210,109316,1,8,0:0:0:0:
230,210,109404,2,0,L|240:329,1,111.999996582031,4|8,0:0|0:0,0:0:0:0:
205,322,109665,1,8,0:0:0:0:
173,311,109752,1,4,0:0:0:0:
142,242,109869,2,0,L|143:183,2,55.9999982910157,8|8|8,0:0|0:0|0:0,0:0:0:0:
107,273,110101,6,0,B|31:252|31:252|25:155,1,167.999994873047,4|8,0:0|0:0,0:0:0:0:
52,89,110443,2,0,L|178:105,1,111.999996582031,8|0,0:0|0:0,0:0:0:0:
207,94,110701,1,8,0:0:0:0:
249,81,110786,1,4,0:0:0:0:
479,153,110958,1,8,0:0:0:0:
435,163,111043,1,8,0:0:0:0:
393,179,111129,1,4,0:0:0:0:
435,240,111243,2,0,L|497:238,2,55.9999982910157,8|8|8,0:0|0:0|0:0,0:0:0:0:
405,265,111472,6,0,B|359:245|359:245|296:257,1,111.999996582031,4|8,0:0|0:0,0:0:0:0:
270,292,111722,1,4,0:0:0:0:
248,331,111805,1,4,0:0:0:0:
212,184,111972,1,4,0:0:0:0:
224,141,112055,1,8,0:0:0:0:
233,96,112138,1,4,0:0:0:0:
77,183,112246,2,8,L|83:244,2,55.9999982910157
84,146,112462,1,4,0:0:0:0:
109,76,112570,2,8,L|96:13,2,55.9999982910157
152,133,112786,6,2,B|135:133|135:133|132:137|132:137|128:134|128:134|125:138|125:138|120:135|120:135|117:140|117:140|112:136|112:136|109:141|109:141|104:138|104:138|101:142|101:142|96:139|96:139|93:143|93:143|88:140|88:140|85:145|85:145|80:141|80:141|77:146|77:146|73:143|73:143|69:147|69:147|65:144|65:144|61:148|61:148|57:145|57:145|53:150|53:150|49:146|49:146|46:151|46:151|41:148|41:148|38:152|38:152|33:149|33:149|30:153|30:153|25:150|25:150|22:155|22:155|17:151|17:151|14:156|14:156|10:153|10:153|7:157|7:157|2:155|2:155|-21:162,1,207.999990478516,4|0,0:2|2:0,0:0:0:0:
316,18,113138,5,8,0:0:0:0:
451,95,113315,1,4,3:0:0:0:
141,151,113491,2,2,L|141:350,1,160,2|0,0:0|2:0,0:0:0:0:
375,196,113844,5,8,0:0:0:0:
272,134,114021,1,4,3:0:0:0:
29,212,114197,2,2,L|29:411,1,160,2|0,0:0|2:0,0:0:0:0:
463,173,114550,5,8,0:0:0:0:
360,111,114727,1,4,3:0:0:0:
117,189,114903,2,2,L|117:388,1,160,2|0,0:0|2:0,0:0:0:0:
441,317,115256,5,8,0:0:0:0:
282,234,115433,1,8,0:2:0:0:
438,37,115609,6,2,L|438:236,1,160,2|0,0:0|2:0,0:0:0:0:
255,338,115874,1,0,0:0:0:0:
255,338,115962,2,2,L|255:139,1,160,2|0,0:0|0:0,0:0:0:0:
170,38,116315,6,0,L|170:237,1,160,2|0,0:0|2:0,0:0:0:0:
353,339,116580,1,0,0:0:0:0:
353,339,116668,2,2,L|353:140,1,160,10|0,0:0|0:0,0:0:0:0:
172,324,117021,2,2,B|101:360|101:360|-1:332,1,160,4|0,0:3|0:0,0:0:0:0:
10,300,117286,1,0,0:0:0:0:
2,260,117374,1,8,0:0:0:0:
61,173,117550,1,4,0:3:0:0:
315,214,117727,2,2,L|502:239,1,160,2|0,0:0|2:0,0:0:0:0:
473,235,117991,1,0,0:0:0:0:
473,235,118080,1,8,0:0:0:0:
276,72,118256,1,4,3:0:0:0:
198,144,118433,6,2,L|227:354,1,191.999994140625,4|0,0:2|0:0,0:0:0:0:
14,124,118788,1,8,0:0:0:0:
71,12,118965,1,4,3:0:0:0:
313,65,119143,2,2,L|518:101,1,160,2|0,0:0|2:0,0:0:0:0:
225,187,119498,5,8,0:0:0:0:
172,72,119675,1,4,3:0:0:0:
219,284,119853,2,2,L|14:320,1,160,2|0,0:0|2:0,0:0:0:0:
296,242,120208,5,8,0:0:0:0:
349,357,120385,1,4,3:0:0:0:
302,145,120563,2,2,L|507:109,1,160,2|0,0:0|2:0,0:0:0:0:
161,161,120918,5,8,0:0:0:0:
212,21,121095,1,8,0:2:0:0:
42,204,121273,6,2,L|66:380,1,160,2|0,0:0|2:0,0:0:0:0:
126,58,121539,1,0,0:0:0:0:
126,58,121628,2,2,L|123:230,1,160,2|0,0:0|0:0,0:0:0:0:
470,204,121983,6,2,L|446:380,1,160,2|0,0:0|2:0,0:0:0:0:
386,58,122249,1,0,0:0:0:0:
386,58,122338,2,2,L|389:230,1,160,2|0,0:0|0:0,0:0:0:0:
220,357,122693,6,0,L|212:109,1,240,4|4,0:3|3:0,0:0:0:0:
132,29,123048,2,0,B|115:71|115:71|128:133,1,80,8|0,0:0|2:0,0:0:0:0:
306,206,123225,2,0,B|324:166|324:166|314:121,1,80,4|0,3:0|2:0,0:0:0:0:
97,235,123403,2,2,B|78:222|78:222|39:225,4,47.9999985351563,2|0|0|0|0,0:0|3:0|3:0|3:0|3:0,0:0:0:0:
334,342,123669,1,4,3:0:0:0:
334,342,123758,2,0,B|420:332|420:332|464:250,1,160,8|4,0:0|3:0,0:0:0:0:
121,343,124113,5,2,0:0:0:0:
121,343,124468,1,8,0:0:0:0:
150,246,124586,1,0,0:0:0:0:
230,306,124705,1,2,0:3:0:0:
249,192,124823,6,2,L|255:160,10,27.9999991455078,6|0|0|0|0|0|0|0|0|0|0,0:3|3:0|3:0|3:0|3:0|3:0|3:0|3:0|3:0|3:0|3:0,0:0:0:0:
178,144,125356,2,0,L|184:78,1,55.9999982910157,4|0,0:2|0:0,0:0:0:0:
320,265,125533,6,2,L|315:232,10,27.9999991455078,4|0|0|0|0|0|0|0|0|0|0,0:0|3:0|3:0|3:0|3:0|3:0|3:0|3:0|3:0|3:0|3:0,0:0:0:0:
391,217,126066,2,0,L|385:151,1,55.9999982910157,4|0,0:2|0:0,0:0:0:0:
137,244,126243,6,2,L|144:217,10,27.9999991455078,6|0|0|0|0|0|0|0|0|0|0,3:3|3:0|3:0|3:0|3:0|3:0|3:0|3:0|3:0|3:0|3:0,0:0:0:0:
66,196,126776,2,0,L|72:130,1,55.9999982910157,8|0,0:2|0:0,0:0:0:0:
252,315,126953,6,2,L|244:349,6,27.9999991455078,4|0|0|0|0|0|0,0:3|3:0|3:0|3:0|3:0|3:0|0:0,0:0:0:0:
341,297,127310,2,0,L|330:370,1,55.9999982910157,8|0,0:2|2:0,0:0:0:0:
417,171,127488,1,0,0:0:0:0:
480,240,127667,2,0,L|462:388,1,111.999996582031,8|0,0:0|2:0,0:0:0:0:
338,121,128024,2,0,L|356:-27,1,111.999996582031,8|0,0:2|2:0,0:0:0:0:
247,178,128381,6,2,L|254:211,6,27.9999991455078,4|0|0|0|0|0|0,0:3|3:0|3:0|3:0|3:0|3:0|3:0,0:0:0:0:
179,93,128738,2,2,L|120:83,1,55.9999982910157,8|0,1:0|2:0,0:0:0:0:
52,133,128917,1,0,0:0:0:0:
52,133,129006,1,4,3:0:0:0:
52,133,129095,2,2,L|17:132,6,27.9999991455078,8|0|0|0|0|0|0,0:0|3:0|3:0|3:0|3:0|3:0|3:0,0:0:0:0:
106,183,129453,2,2,L|142:182,6,27.9999991455078,8|0|0|0|4|0|0,0:2|3:0|3:0|3:0|3:0|3:0|3:0,0:0:0:0:
195,263,129810,5,4,0:3:0:0:
87,284,129989,1,4,3:0:0:0:
87,284,130348,5,4,3:0:0:0:
195,263,130528,2,2,L|186:342,1,80,8|0,0:2|2:0,0:0:0:0:
287,221,130887,2,0,L|278:300,1,80,8|0,0:2|2:0,0:0:0:0:
378,360,131247,2,0,L|375:197,1,160,8|8,0:2|0:2,0:0:0:0:
375,200,131786,1,0,0:0:0:0:
467,258,131965,2,2,L|462:287,4,20,8|0|0|0|0,0:2|3:0|0:0|3:0|0:0,0:0:0:0:
333,125,132324,1,8,0:0:0:0:
249,189,132504,1,8,0:2:0:0:
255,18,132684,5,4,0:3:0:0:
255,18,133047,2,2,L|250:110,1,80,8|0,0:2|2:0,0:0:0:0:
148,187,133411,2,0,L|151:94,1,80,8|4,0:2|0:3,0:0:0:0:
38,161,133774,2,0,L|54:345,1,160,8|4,0:2|2:3,0:0:0:0:
52,318,134510,6,2,B|74:282|74:282|113:275,1,80,8|4,0:2|3:0,0:0:0:0:
214,310,134883,2,8,L|245:304,6,20,8|8|8|8|8|8|8,3:2|3:2|3:2|3:2|3:2|3:2|3:2,3:3:0:0:
291,349,135256,2,8,L|316:346,6,20,8|8|8|8|8|8|8,3:2|3:2|3:2|3:2|3:2|3:2|3:2,3:3:0:0:
109,358,135628,5,4,0:3:0:0:
170,97,135806,1,4,3:0:0:0:
170,97,136342,6,0,B|126:157|126:157|138:266,1,160,8|0,0:0|0:0,0:0:0:0:
373,263,136680,1,4,0:3:0:0:
258,313,136850,1,4,3:0:0:0:
286,52,137019,5,2,0:2:0:0:
389,128,137185,1,0,0:0:0:0:
147,235,137352,1,2,0:2:0:0:
161,107,137519,1,0,0:0:0:0:
161,107,137602,1,0,0:0:0:0:
161,107,137685,1,8,0:0:0:0:
373,263,137852,1,0,0:0:0:0:
255,314,138019,1,2,0:0:0:0:
267,178,138185,1,0,0:0:0:0:
471,342,138352,5,2,0:0:0:0:
471,342,138519,1,4,3:0:0:0:
471,342,138685,2,0,B|497:269|497:269|463:156,1,160,0|0,0:0|2:0,0:0:0:0:
426,140,138935,1,0,0:0:0:0:
426,140,139019,2,0,B|357:177|357:177|251:152,1,160,10|0,0:0|2:0,0:0:0:0:
52,63,139352,5,4,0:3:0:0:
156,203,139519,1,4,3:0:0:0:
186,25,139685,5,2,0:0:0:0:
149,112,139852,1,0,0:0:0:0:
95,257,140019,6,0,P|111:332|233:354,1,160,2|0,0:0|0:0,0:0:0:0:
156,203,140269,1,0,0:0:0:0:
156,203,140352,2,0,P|83:174|21:232,1,160,8|0,0:0|0:0,0:0:0:0:
238,171,140685,2,0,P|263:67|215:-4,1,160,2|0,0:0|0:0,0:0:0:0:
343,338,141019,5,4,0:3:0:0:
343,338,141185,1,4,3:0:0:0:
405,110,141352,1,0,0:0:0:0:
315,211,141519,1,0,0:0:0:0:
315,211,141602,1,0,0:0:0:0:
315,211,141685,1,8,0:0:0:0:
342,26,141852,1,0,0:0:0:0:
458,235,142019,1,4,0:3:0:0:
487,78,142185,1,4,3:0:0:0:
224,290,142352,5,2,0:0:0:0:
267,108,142519,1,2,0:2:0:0:
311,356,142685,5,2,0:0:0:0:
183,189,142852,1,2,0:0:0:0:
183,189,142935,1,0,0:0:0:0:
183,189,143019,1,8,0:0:0:0:
355,236,143185,5,2,0:2:0:0:
54,232,143352,2,0,P|32:336|59:392,1,160,2|4,0:0|3:0,0:0:0:0:
33,40,143685,5,4,0:3:0:0:
33,40,143852,1,4,3:0:0:0:
241,19,144019,1,2,0:2:0:0:
125,130,144185,1,2,0:0:0:0:
374,109,144352,1,8,0:0:0:0:
125,130,144519,1,2,0:0:0:0:
273,196,144685,1,4,0:3:0:0:
273,196,144852,1,4,3:0:0:0:
368,235,145019,6,0,P|306:291|308:363,1,160,2|0,0:0|0:0,0:0:0:0:
445,268,145352,1,2,0:2:0:0:
359,155,145519,1,2,0:0:0:0:
359,155,145602,1,0,0:0:0:0:
359,155,145685,1,8,0:0:0:0:
181,286,145852,1,2,0:0:0:0:
55,73,146019,2,0,P|112:129|105:217,1,160,2|0,0:0|0:0,0:0:0:0:
237,24,146352,5,4,0:0:0:0:
237,24,146520,1,4,3:0:0:0:
237,24,146689,2,0,B|309:62|309:62|430:28,1,160,0|2,0:0|0:2,0:0:0:0:
450,88,146941,1,0,0:0:0:0:
450,88,147026,2,0,B|416:165|416:165|443:253,1,160,8|0,0:0|0:0,0:0:0:0:
190,261,147363,1,4,0:3:0:0:
326,295,147531,1,4,3:0:0:0:
142,123,147700,5,4,0:2:0:0:
43,239,147868,1,2,0:2:0:0:
27,42,148037,5,2,0:0:0:0:
56,140,148205,1,2,0:0:0:0:
311,199,148374,5,8,0:0:0:0:
256,58,148543,1,2,0:2:0:0:
164,233,148711,5,2,0:0:0:0:
229,154,148880,1,4,3:0:0:0:
393,341,149048,5,4,0:3:0:0:
393,341,149218,1,4,3:0:0:0:
393,341,149388,2,0,B|306:320|306:320|194:365,1,160,0|2,0:0|0:2,0:0:0:0:
470,355,149729,2,0,L|482:76,1,240,8|0,0:0|0:0,0:0:0:0:
426,66,150070,1,2,0:0:0:0:
182,93,150241,1,4,3:0:0:0:
304,107,150411,1,4,0:3:0:0:
250,26,150582,1,0,0:0:0:0:
35,128,150752,6,0,L|47:407,1,240,2|0,0:0|0:0,0:0:0:0:
120,319,151093,2,0,B|186:284|186:284|277:317,1,160,8|0,0:0|0:0,0:0:0:0:
424,372,151434,1,2,0:0:0:0:
373,271,151604,1,0,0:0:0:0:
416,115,151775,5,4,0:3:0:0:
237,201,151947,1,4,3:0:0:0:
330,176,152119,5,0,0:0:0:0:
330,176,152292,1,2,0:2:0:0:
137,155,152464,1,8,0:0:0:0:
221,104,152637,1,0,0:0:0:0:
188,309,152809,5,4,0:3:0:0:
38,189,152981,1,4,3:0:0:0:
142,30,153154,5,4,0:2:0:0:
116,276,153334,1,2,0:2:0:0:
137,155,153515,1,2,0:0:0:0:
38,189,153696,1,2,0:0:0:0:
333,328,153876,1,8,0:0:0:0:
240,367,154057,1,2,0:2:0:0:
277,116,154238,2,0,L|254:247,1,111.999996582031,2|2,0:0|0:2,0:0:0:0:
343,362,154599,5,4,0:3:0:0:
377,258,154786,1,4,3:0:0:0:
487,284,154974,2,0,L|478:402,2,80,2|2|10,0:0|3:2|0:0,0:0:0:0:
415,190,155536,1,2,3:2:0:0:
415,190,155724,2,0,P|379:220|324:233,1,80,2|2,0:0|3:2,0:0:0:0:
281,129,156099,6,2,L|289:2,1,111.999996582031,6|0,0:0|2:0,0:0:0:0:
251,259,156499,2,0,L|265:385,1,111.999996582031,2|0,0:0|2:0,0:0:0:0:
161,165,156899,2,2,P|105:141|10:253,1,223.999993164063,10|2,0:0|0:0,0:0:0:0:
271,167,157860,6,2,L|301:146,6,20,4|0|0|0|0|0|0,0:0|0:0|0:0|0:0|0:0|0:0|0:0,0:2:0:0:
245,233,158360,2,0,L|266:263,6,20
172,220,158860,2,0,L|142:241,6,20,0|0|0|0|0|0|0,0:0|0:0|0:0|0:0|0:0|0:0|0:0,0:0:0:0:
199,151,159360,2,0,L|178:121,6,20,0|0|0|0|0|0|0,0:0|0:0|0:0|0:0|0:0|0:0|0:0,0:0:0:0:
320,215,159860,6,2,L|341:245,6,20,0|0|0|0|0|0|0,0:0|0:0|0:0|0:0|0:0|0:0|0:0,0:2:0:0:
125,169,160360,2,0,L|104:139,6,20,0|0|0|0|0|0|0,0:0|0:0|0:0|0:0|0:0|0:0|0:0,0:0:0:0:
258,102,160860,2,0,L|279:72,6,20,0|0|0|0|0|0|0,0:0|0:0|0:0|0:0|0:0|0:0|0:0,0:0:0:0:
197,293,161360,2,0,L|176:323,6,20,0|0|0|0|0|0|0,0:0|0:0|0:0|0:0|0:0|0:0|0:0,0:0:0:0:
163,62,161860,6,2,L|157:35,6,20,0|0|0|0|0|0|0,0:0|0:0|0:0|0:0|0:0|0:0|0:0,0:2:0:0:
338,334,162360,2,0,L|344:361,6,20,0|0|0|0|0|0|0,0:0|0:0|0:0|0:0|0:0|0:0|0:0,0:0:0:0:
329,44,162860,2,0,L|335:17,6,20,0|0|0|0|0|0|0,0:0|0:0|0:0|0:0|0:0|0:0|0:0,0:0:0:0:
139,335,163360,2,0,L|133:362,6,20,0|0|0|0|0|0|0,0:0|0:0|0:0|0:0|0:0|0:0|0:0,0:0:0:0:
371,264,163860,6,2,L|398:270,6,20,0|0|0|0|0|0|0,0:0|0:0|0:0|0:0|0:0|0:0|0:0,0:2:0:0:
159,141,164360,2,0,L|132:135,6,20,0|0|0|0|0|0|0,0:0|0:0|0:0|0:0|0:0|0:0|0:0,0:0:0:0:
326,141,164860,2,0,L|353:135,6,20
185,245,165360,2,0,L|158:251,4,20
247,279,165735,6,0,L|275:272,2,20
