osu file format v14

[General]
AudioFilename: audio.mp3
AudioLeadIn: 0
PreviewTime: 89585
Countdown: 0
SampleSet: Soft
StackLeniency: 0.7
Mode: 0
LetterboxInBreaks: 0
WidescreenStoryboard: 1

[Editor]
Bookmarks: 28961,67398,131082,170157
DistanceSpacing: 1
BeatDivisor: 4
GridSize: 16
TimelineZoom: 1.9

[Metadata]
Title:LIBIDO
TitleUnicode:LIBIDO
Artist:onumi
ArtistUnicode:ă‚Șヌミ
Creator:Lunicia
Version:Collab Hard
Source:
Tags:instrumental electronic featured artist fa jasontime12345
BeatmapID:2876949
BeatmapSetID:1392711

[Difficulty]
HPDrainRate:4.5
CircleSize:3.5
OverallDifficulty:7
ApproachRate:8
SliderMultiplier:1.4
SliderTickRate:1

[Events]
//Background and Video events
0,0,"EuRYofkVIAc3our.jpg",0,0
//Break Periods
2,60361,61811
2,65161,66648
//Storyboard Layer 0 (Background)
//Storyboard Layer 1 (Fail)
//Storyboard Layer 2 (Pass)
//Storyboard Layer 3 (Foreground)
//Storyboard Layer 4 (Overlay)
//Storyboard Sound Samples

[TimingPoints]
161,300,4,2,1,40,1,0
28961,-133.333333333333,4,2,1,40,0,0
39686,-133.333333333333,4,2,1,5,0,0
39761,-83.3333333333333,4,2,1,80,0,0
40886,-83.3333333333333,4,2,1,5,0,0
40961,-83.3333333333333,4,2,1,80,0,0
43286,-83.3333333333333,4,2,1,5,0,0
43361,-83.3333333333333,4,2,1,80,0,0
45686,-83.3333333333333,4,2,1,5,0,0
45761,-83.3333333333333,4,2,1,80,0,0
49286,-83.3333333333333,4,2,1,5,0,0
49361,-83.3333333333333,4,2,1,80,0,0
52886,-83.3333333333333,4,2,1,5,0,0
52961,-83.3333333333333,4,2,1,80,0,0
55286,-83.3333333333333,4,2,1,5,0,0
55361,-83.3333333333333,4,2,1,80,0,0
67398,458.015267175573,4,2,1,80,1,0
69115,-100,4,2,1,5,0,0
69230,-100,4,2,1,80,0,0
70375,451.127819548873,4,2,1,80,1,0
72179,434.782608695653,4,2,1,80,1,0
73809,-100,4,2,1,5,0,0
73918,419.58041958042,4,2,1,80,1,0
75071,-100,4,2,1,5,0,0
75176,-100,4,2,1,80,0,0
75596,404.040404040405,4,2,1,80,1,0
76303,-100,4,2,1,5,0,0
76404,-100,4,2,1,80,0,0
76707,-100,4,2,1,5,0,0
76808,-100,4,2,1,80,0,0
77212,389.610389610391,4,2,1,80,1,0
78676,-100,4,2,1,5,0,0
78770,375.000000000001,4,2,1,80,1,0
79426,-100,4,2,1,5,0,0
79520,-100,4,2,1,80,0,0
80270,363.636363636364,4,2,1,80,1,0
81724,352.941176470589,4,2,1,80,1,0
83135,342.857142857144,4,2,1,80,1,0
84506,331.491712707183,4,2,1,80,1,0
85831,320.855614973263,4,2,1,80,1,0
87114,314.136125654451,4,2,1,80,1,0
88370,303.797468354431,4,2,1,80,1,0
89585,300.000000000001,4,2,1,80,1,1
99185,-100,4,2,1,40,0,0
106610,-100,4,2,1,5,0,0
106685,-100,4,2,1,40,0,0
107210,-100,4,2,1,5,0,0
107285,-100,4,2,1,40,0,0
107810,-100,4,2,1,5,0,0
107885,-100,4,2,1,40,0,0
108185,-100,4,2,1,5,0,0
108282,300.000000000001,4,2,1,40,1,0
109482,-200,4,2,1,40,0,0
110682,-100,4,2,1,80,0,0
113907,-100,4,2,1,5,0,0
113982,-100,4,2,1,80,0,0
115407,-100,4,2,1,5,0,0
115482,-100,4,2,1,80,0,0
120282,-200,4,2,1,80,0,0
120882,-100,4,2,1,80,0,0
123507,-100,4,2,1,5,0,0
123582,-100,4,2,1,80,0,0
127482,-133.333333333333,4,2,1,80,0,0
128607,-133.333333333333,4,2,1,5,0,0
128682,-133.333333333333,4,2,1,80,0,0
131082,-83.3333333333333,4,2,1,80,0,0
132207,-83.3333333333333,4,2,1,5,0,0
132282,-83.3333333333333,4,2,1,80,0,0
134607,-83.3333333333333,4,2,1,5,0,0
134682,-83.3333333333333,4,2,1,80,0,0
137007,-83.3333333333333,4,2,1,5,0,0
137082,-83.3333333333333,4,2,1,80,0,0
140607,-83.3333333333333,4,2,1,5,0,0
140682,-83.3333333333333,4,2,1,80,0,0
144207,-83.3333333333333,4,2,1,5,0,0
144282,-83.3333333333333,4,2,1,80,0,0
146607,-83.3333333333333,4,2,1,5,0,0
146682,-83.3333333333333,4,2,1,80,0,0
149082,-100,4,2,1,80,0,1
158682,-133.333333333333,4,2,1,40,0,0
165882,-333.333333333333,4,2,1,20,0,0
170157,-333.333333333333,4,2,1,40,0,0

[Colours]
Combo1 : 170,58,97
Combo2 : 204,182,191

[HitObjects]
131,313,28961,6,0,P|79:331|17:323,2,105.000004005432,2|0|2,0:0|0:0|0:0,0:0:0:0:
73,238,29861,1,0,0:0:0:0:
73,238,30011,1,0,0:0:0:0:
73,238,30161,2,0,L|66:126,1,105.000004005432,2|2,0:0|0:0,0:0:0:0:
126,51,30761,1,2,0:0:0:0:
126,51,30911,1,2,0:0:0:0:
126,51,31061,1,2,0:0:0:0:
277,148,31361,6,0,P|228:135|173:143,2,105.000004005432,2|0|2,0:0|0:0|0:0,0:0:0:0:
230,245,32261,1,0,0:0:0:0:
230,245,32411,1,0,0:0:0:0:
230,245,32561,2,0,L|236:349,1,105.000004005432,2|2,0:0|0:0,0:0:0:0:
337,377,33161,1,2,0:0:0:0:
337,377,33311,1,2,0:0:0:0:
337,377,33461,1,2,0:0:0:0:
424,263,33761,6,0,B|389:280|389:280|306:270,2,105.000004005432,2|2|2,0:0|0:0|0:0,0:0:0:0:
480,149,34661,1,2,0:0:0:0:
370,68,34961,1,0,0:0:0:0:
277,168,35261,2,0,B|312:185|312:185|395:175,2,105.000004005432,2|2|2,0:0|0:0|0:0,0:0:0:0:
153,143,36161,6,0,P|219:148|274:21,1,210.000008010865,2|8,0:0|0:0,0:0:0:0:
279,34,37061,1,2,0:0:0:0:
256,192,37361,12,8,39161,0:0:0:0:
408,344,39461,6,0,P|374:321|326:325,1,78.7500030040742,2|0,0:0|0:0,0:0:0:0:
302,343,39761,6,0,B|221:355|221:355|155:294,1,167.999994873047,6|0,3:2|0:0,0:0:0:0:
197,223,40211,1,0,0:0:0:0:
252,159,40361,2,0,P|211:137|159:149,1,83.9999974365235,10|0,0:0|0:0,0:0:0:0:
80,81,40661,2,0,L|86:206,1,125.999996154785,0|0,3:0|0:0,0:0:0:0:
90,249,40961,1,2,3:2:0:0:
185,367,41261,2,0,B|100:345|100:345|2:394,2,167.999994873047,2|10|2,0:0|0:0|0:0,0:0:0:0:
349,332,42161,6,0,B|301:336|301:336|288:192,1,167.999994873047,6|0,3:2|0:0,0:0:0:0:
221,168,42611,1,0,0:0:0:0:
164,106,42761,2,0,P|200:84|251:92,1,83.9999974365235,10|0,0:0|0:0,0:0:0:0:
289,11,43061,2,0,P|328:61|307:145,1,125.999996154785,0|0,3:0|0:0,0:0:0:0:
347,156,43361,6,0,B|398:125|398:125|438:153|438:153|505:141,1,167.999994873047,2|2,3:2|0:0,0:0:0:0:
474,232,43811,1,2,0:0:0:0:
502,320,43961,2,0,B|443:330|443:330|403:302|403:302|352:333,1,167.999994873047,10|0,3:2|0:0,0:0:0:0:
189,379,44561,6,0,B|152:300|152:300|178:206,1,167.999994873047,6|0,3:2|0:0,0:0:0:0:
91,165,45011,1,0,0:0:0:0:
133,92,45161,2,0,L|226:87,1,83.9999974365235,10|0,0:0|0:0,0:0:0:0:
301,24,45461,2,0,B|342:71|342:71|409:57,1,125.999996154785,2|0,3:2|0:0,0:0:0:0:
443,42,45761,1,2,3:2:0:0:
401,189,46061,2,0,B|316:164|316:164|245:206,2,167.999994873047,2|10|0,0:0|0:0|3:0,0:0:0:0:
447,260,46811,1,0,3:0:0:0:
495,330,46961,6,0,P|452:345|363:265,1,167.999994873047,0|0,3:0|3:0,0:0:0:0:
288,328,47411,1,0,3:0:0:0:
192,296,47561,2,0,L|199:379,2,83.9999974365235,8|0|0,0:0|3:0|3:0,0:0:0:0:
87,185,48161,6,0,P|139:123|219:132,1,167.999994873047,2|2,3:2|0:0,0:0:0:0:
303,122,48611,1,0,0:0:0:0:
274,201,48761,2,0,P|319:206|360:182,1,83.9999974365235,10|0,0:0|0:0,0:0:0:0:
441,208,49061,2,0,P|434:146|386:108,1,125.999996154785,0|0,3:0|0:0,0:0:0:0:
389,62,49361,6,0,B|316:28|316:28|229:40,1,167.999994873047,2|0,3:2|3:0,0:0:0:0:
175,105,49811,1,0,3:0:0:0:
95,58,49961,2,0,B|128:100|128:100|117:218,1,167.999994873047,10|2,0:0|0:0,0:0:0:0:
80,378,50561,5,2,3:2:0:0:
36,257,50861,2,0,P|106:239|176:320,2,167.999994873047,2|10|2,0:0|0:0|0:0,0:0:0:0:
211,183,51761,6,0,B|256:180|256:180|263:301,1,167.999994873047,2|2,3:2|0:0,0:0:0:0:
336,361,52211,1,0,0:0:0:0:
375,276,52361,2,0,P|416:275|460:306,1,83.9999974365235,10|0,0:0|0:0,0:0:0:0:
511,357,52661,2,0,L|500:218,1,125.999996154785
498,190,52961,1,2,3:2:0:0:
484,41,53261,6,0,L|480:-9,3,41.9999987182618,2|2|2|2,0:0|0:0|0:0|0:0,0:0:0:0:
487,81,53561,2,0,B|430:105|430:105|382:92|382:92|330:116,1,167.999994873047,10|2,0:0|0:0,0:0:0:0:
355,266,54161,6,0,B|281:304|281:304|186:283,1,167.999994873047,6|0,3:2|0:0,0:0:0:0:
177,204,54611,1,0,0:0:0:0:
143,127,54761,2,0,L|48:134,1,83.9999974365235,10|0,0:0|0:0,0:0:0:0:
55,13,55061,2,0,B|114:41|114:41|199:36,1,125.999996154785,0|0,3:0|0:0,0:0:0:0:
217,37,55361,1,2,3:2:0:0:
275,177,55661,2,0,B|355:196|355:196|439:146,2,167.999994873047,2|8|0,0:0|0:0|3:0,0:0:0:0:
224,255,56411,1,0,3:0:0:0:
163,324,56561,6,0,P|228:304|297:384,1,167.999994873047,0|0,3:0|3:0,0:0:0:0:
370,306,57011,1,0,3:0:0:0:
458,345,57161,2,0,L|453:248,2,83.9999974365235,8|0|0,0:0|3:0|3:0,0:0:0:0:
256,192,57761,12,8,60161,0:0:0:0:
256,192,62561,12,8,64961,0:0:0:0:
144,335,67398,6,0,B|146:317|146:317|135:306|122:300|122:300|128:283|141:274|141:274|125:258|101:247|101:247|113:227|141:218|141:218|107:180|64:186|64:186|85:134|160:109|160:109|85:84|58:77|58:77|67:87|74:105,1,525,6|0,3:2|0:0,0:0:0:0:
63,107,69230,6,0,P|160:118|346:150,1,280,10|0,0:0|0:0,0:0:0:0:
444,33,70375,6,0,B|437:67|437:67|445:64|445:64|469:154|469:154|457:144|457:144|445:270|445:270|461:263|461:263|439:381|439:381|426:368|426:368|394:312,1,490,2|0,3:2|3:0,0:0:0:0:
347,241,72179,1,0,0:0:0:0:
286,376,72613,6,0,L|295:327,3,35,2|2|2|2,0:0|0:0|0:0|0:0,0:0:0:0:
278,329,73048,6,0,B|256:318|266:290|172:389|255:282|111:209|40:269|140:293,1,245,10|2,0:0|0:0,0:0:0:0:
148,303,73918,5,0,3:0:0:0:
13,322,74337,1,0,0:0:0:0:
6,311,74757,6,0,B|-1:295|-1:295|14:289|14:289|34:201,1,105,10|0,0:0|0:0,0:0:0:0:
39,205,75176,2,0,B|46:189|46:189|31:183|31:183|11:95,1,105,2|0,0:0|0:0,0:0:0:0:
29,98,75596,6,0,B|53:91|54:121|81:104|90:92|95:94|102:129|102:150|125:151|141:115|147:103|173:92|174:140|187:154|220:135|232:109|233:115|225:140|226:149|246:167|253:136|282:133,1,245,6|0,3:2|0:0,0:0:0:0:
272,146,76404,6,0,P|316:118|366:101,1,105,10|0,0:0|0:0,0:0:0:0:
379,94,76808,6,0,L|367:41,2,46.6666666666667,2|2|2,0:0|0:0|0:0,0:0:0:0:
401,104,77212,5,0,3:0:0:0:
417,210,77601,6,0,L|468:271,1,70,0|0,3:0|0:0,0:0:0:0:
405,282,77991,6,0,L|378:354,1,70,8|0,0:0|3:0,0:0:0:0:
255,335,78380,6,0,L|131:378,1,105,0|0,3:0|0:0,0:0:0:0:
143,363,78770,5,2,0:0:0:0:
39,184,79145,6,0,P|87:171|64:205,1,105,2|0,0:0|0:0,0:0:0:0:
59,200,79520,6,0,P|46:108|33:48,1,140,10|0,0:0|0:0,0:0:0:0:
219,6,80270,6,0,P|250:24|287:58,1,70,2|0,0:0|0:0,0:0:0:0:
199,92,80633,2,0,P|165:89|138:110,1,70
200,193,80997,5,10,0:0:0:0:
214,202,81724,6,0,B|306:167|306:167|313:158|313:158|419:117,1,210,6|0,3:2|0:0,0:0:0:0:
366,241,82429,6,0,B|295:225|333:109|255:72,1,210,8|0,0:0|0:0,0:0:0:0:
196,11,83135,6,0,L|172:77,1,70,2|0,3:2|0:0,0:0:0:0:
102,136,83477,2,0,L|93:224,1,70,2|0,0:0|0:0,0:0:0:0:
44,328,83820,6,0,L|26:260,1,70,10|0,0:0|0:0,0:0:0:0:
153,300,84163,2,0,L|182:220,1,70,2|0,0:0|0:0,0:0:0:0:
269,219,84506,5,0,3:0:0:0:
320,115,84837,6,0,L|351:99,3,35,2|2|2|2,0:0|0:0|0:0|0:0,0:0:0:0:
352,128,85168,6,0,B|414:141|618:223|417:248|371:156,1,280,10|2,0:0|0:0,0:0:0:0:
332,384,86151,2,0,L|300:322,1,70,2|2,0:0|0:0,0:0:0:0:
335,235,86472,6,0,L|309:309,1,70,10|0,0:0|0:0,0:0:0:0:
238,240,86793,2,0,L|170:275,1,70,2|0,0:0|0:0,0:0:0:0:
139,350,87114,6,0,B|87:270|87:270|71:270|71:270|8:177,1,210,6|0,3:2|0:0,0:0:0:0:
0,331,87742,6,0,B|66:330|82:210|175:208,1,210,10|0,0:0|3:0,0:0:0:0:
215,134,88370,6,0,P|137:102|17:33,1,210,0|0,3:0|3:0,0:0:0:0:
16,0,88977,2,0,P|106:52|203:93,1,210,8|0,0:0|0:0,0:0:0:0:
320,83,89585,6,0,B|505:-18|310:22|293:84,1,210,6|0,0:0|0:0,0:0:0:0:
286,163,90185,6,0,P|308:225|337:316,1,140,10|2,0:0|0:0,0:0:0:0:
414,303,90635,1,0,0:0:0:0:
423,290,90785,6,0,L|221:345,1,210,2|0,3:2|0:0,0:0:0:0:
133,335,91385,1,10,0:0:0:0:
128,346,91535,1,0,0:0:0:0:
123,359,91685,1,2,0:0:0:0:
57,291,91985,6,0,P|35:152|14:59,1,210,2|0,3:2|0:0,0:0:0:0:
44,50,92585,2,0,P|65:152|80:256,1,210,10|0,0:0|0:0,0:0:0:0:
16,356,93185,6,0,P|75:255|177:216,1,210,2|0,3:2|0:0,0:0:0:0:
233,247,93785,1,10,0:0:0:0:
238,259,93935,1,0,0:0:0:0:
242,273,94085,1,2,0:0:0:0:
386,221,94385,6,0,P|282:176|261:73,1,210,2|0,3:2|0:0,0:0:0:0:
283,65,94985,2,0,P|315:161|411:196,1,210,10|0,0:0|0:0,0:0:0:0:
458,126,95585,6,0,L|251:95,1,210,2|0,3:2|0:0,0:0:0:0:
191,174,96185,1,10,0:0:0:0:
175,180,96335,1,0,0:0:0:0:
161,186,96485,1,2,0:0:0:0:
9,35,96785,6,0,L|58:249,1,210,2|0,3:2|0:0,0:0:0:0:
141,262,97385,2,0,P|56:200|-3:100,1,210,10|0,0:0|3:0,0:0:0:0:
36,27,97985,6,0,P|136:10|189:103,1,210,2|0,0:0|0:0,0:0:0:0:
246,153,98585,1,10,0:0:0:0:
242,169,98735,1,0,0:0:0:0:
237,186,98885,1,2,0:0:0:0:
444,104,99185,5,2,0:0:0:0:
355,88,99485,1,0,0:0:0:0:
294,28,99785,1,10,0:0:0:0:
162,94,100085,1,0,0:0:0:0:
144,106,100235,1,0,0:0:0:0:
154,124,100385,5,2,0:0:0:0:
241,106,100685,1,0,0:0:0:0:
106,27,100985,1,10,0:0:0:0:
82,42,101135,1,0,0:0:0:0:
64,61,101285,1,2,0:0:0:0:
10,179,101585,6,0,P|27:207|48:257,1,70,2|0,0:0|0:0,0:0:0:0:
40,323,101885,1,0,0:0:0:0:
161,287,102185,6,0,L|324:322,1,140,10|0,0:0|0:0,0:0:0:0:
369,281,102635,1,0,0:0:0:0:
386,249,102785,2,0,L|364:182,1,70,2|0,0:0|0:0,0:0:0:0:
460,65,103085,2,0,L|436:131,1,70
355,88,103385,5,10,0:0:0:0:
344,48,103535,1,0,0:0:0:0:
333,6,103685,1,2,0:0:0:0:
112,64,103985,5,2,0:0:0:0:
207,52,104285,1,10,0:0:0:0:
231,47,104435,1,2,0:0:0:0:
253,43,104585,1,2,0:0:0:0:
96,69,104885,1,0,0:0:0:0:
180,172,105185,5,2,0:0:0:0:
100,162,105485,1,2,0:0:0:0:
65,159,105635,1,2,0:0:0:0:
26,154,105785,1,10,0:0:0:0:
198,174,106085,1,2,0:0:0:0:
165,293,106385,6,0,L|280:251,1,105,2|0,0:0|0:0,0:0:0:0:
274,243,106685,2,0,L|263:202,1,35
387,254,106985,6,0,L|371:357,1,105,10|0,0:0|0:0,0:0:0:0:
384,365,107285,2,0,L|414:326,1,35
512,263,107585,6,0,L|465:164,1,105,2|0,0:0|0:0,0:0:0:0:
473,158,107885,2,0,L|355:80,1,140
343,82,108282,6,0,B|337:175|330:183|192:-144|169:-136|215:312|198:325|125:144,1,490,12|0,0:0|0:0,0:0:0:0:
126,157,109482,6,0,P|275:184|369:205,1,245
382,202,110682,6,0,B|301:168|302:241|267:297|184:273,1,210,6|0,3:2|0:0,0:0:0:0:
139,331,111282,6,0,B|189:395|262:308|140:267|83:272,1,210,10|0,0:0|0:0,0:0:0:0:
11,316,111882,5,2,3:2:0:0:
67,186,112182,1,2,0:0:0:0:
114,69,112482,1,10,0:0:0:0:
14,7,112782,1,2,0:0:0:0:
155,152,113082,6,0,B|215:171|215:115|278:132|284:52|358:76,1,210,2|0,3:2|0:0,0:0:0:0:
409,0,113682,6,0,B|397:39|425:42|440:107,1,105,10|0,0:0|0:0,0:0:0:0:
447,117,113982,2,0,P|412:117|439:151,1,70,2|0,0:0|0:0,0:0:0:0:
502,176,114282,5,2,3:2:0:0:
444,370,114582,1,2,0:0:0:0:
483,189,114882,1,10,0:0:0:0:
353,105,115182,6,0,P|374:162|385:204,1,105,2|2,0:0|0:0,0:0:0:0:
441,290,115482,6,0,B|361:312|356:154|261:179,1,210,6|0,3:2|0:0,0:0:0:0:
262,262,116082,6,0,B|330:237|330:186|219:193|177:283,1,210,10|0,0:0|0:0,0:0:0:0:
206,359,116682,5,2,3:2:0:0:
89,294,116982,1,2,0:0:0:0:
17,192,117282,1,10,0:0:0:0:
154,148,117582,1,2,0:0:0:0:
0,85,117882,6,0,B|18:77|18:77|78:103|229:144,1,210,2|0,3:2|0:0,0:0:0:0:
292,202,118482,2,0,B|420:106|262:138|239:244,1,210,10|0,0:0|0:0,0:0:0:0:
259,308,119082,5,2,3:2:0:0:
139,256,119382,1,2,0:0:0:0:
126,281,119532,1,0,0:0:0:0:
118,317,119682,1,10,0:0:0:0:
270,293,119982,1,2,0:0:0:0:
390,273,120282,6,0,L|376:352,1,70,6|2,0:0|0:0,0:0:0:0:
377,341,120882,6,0,B|387:322|398:316|258:175,1,210,10|0,0:0|0:0,0:0:0:0:
258,202,121482,6,0,L|329:183,1,70,2|0,3:2|0:0,0:0:0:0:
405,232,121782,2,0,L|449:145,1,70,2|0,0:0|0:0,0:0:0:0:
504,42,122082,6,0,L|514:125,1,70,10|0,0:0|0:0,0:0:0:0:
408,15,122382,2,0,L|353:75,1,70,2|0,0:0|0:0,0:0:0:0:
335,192,122682,6,0,B|268:150|317:63|229:16,1,210,2|0,3:2|0:0,0:0:0:0:
170,87,123282,6,0,B|171:46|114:19|96:57,1,105,10|0,0:0|0:0,0:0:0:0:
93,66,123582,2,0,P|103:85|118:132,1,70,2|0,0:0|0:0,0:0:0:0:
50,205,123882,5,2,3:2:0:0:
148,282,124182,2,0,L|121:357,1,70,2|0,0:0|0:0,0:0:0:0:
133,267,124482,5,10,0:0:0:0:
237,240,124782,1,2,0:0:0:0:
376,353,125082,6,0,B|437:338|460:290|326:184,1,210,6|0,3:2|0:0,0:0:0:0:
360,120,125682,2,0,B|265:231|237:136|372:94,1,210,10|2,0:0|0:0,0:0:0:0:
404,107,126282,5,2,3:2:0:0:
293,28,126582,1,2,0:0:0:0:
143,38,126882,1,10,0:0:0:0:
18,0,127182,2,0,L|48:94,1,70,2|0,0:0|0:0,0:0:0:0:
71,145,127482,6,0,B|49:156|46:166|95:205|90:217|23:233|21:244|41:281,1,157.500006008148,2|0,0:0|0:0,0:0:0:0:
84,357,128082,6,0,L|158:336,1,52.5000020027161,8|0,0:0|0:0,0:0:0:0:
236,301,128382,2,0,L|321:327,1,78.7500030040742,2|0,0:0|0:0,0:0:0:0:
327,335,128682,6,0,B|297:254|289:192|429:157|351:232,1,210.000008010865,4|0,0:0|0:0,0:0:0:0:
260,105,129582,5,0,3:0:0:0:
245,82,129732,1,0,3:0:0:0:
229,97,129882,2,0,L|213:167,1,52.5000020027161,0|0,3:0|3:0,0:0:0:0:
76,177,130182,2,0,L|94:226,1,52.5000020027161,0|0,3:0|3:0,0:0:0:0:
64,316,130482,5,8,0:0:0:0:
257,258,130782,6,0,L|289:194,1,52.5000020027161,2|0,0:0|0:0,0:0:0:0:
423,95,131082,6,0,B|384:99|384:99|396:243,1,167.999994873047,6|0,3:2|0:0,0:0:0:0:
450,291,131532,1,0,0:0:0:0:
502,357,131682,2,0,P|463:375|411:363,1,83.9999974365235,10|0,0:0|0:0,0:0:0:0:
353,309,131982,2,0,P|301:281|230:319,1,125.999996154785,0|0,3:0|0:0,0:0:0:0:
226,343,132282,1,2,3:2:0:0:
189,197,132582,2,0,B|104:219|104:219|6:170,2,167.999994873047,2|10|2,0:0|0:0|0:0,0:0:0:0:
264,66,133482,6,0,B|350:43|350:43|421:78,1,167.999994873047,6|0,3:2|0:0,0:0:0:0:
473,155,133932,1,0,0:0:0:0:
379,157,134082,2,0,L|374:241,1,83.9999974365235,10|0,0:0|0:0,0:0:0:0:
414,315,134382,2,0,P|366:327|298:264,1,125.999996154785,0|0,3:0|0:0,0:0:0:0:
283,251,134682,6,0,B|230:236|230:236|200:257|200:257|123:253,1,167.999994873047,2|2,3:2|0:0,0:0:0:0:
116,345,135132,1,2,0:0:0:0:
39,293,135282,2,0,B|74:249|74:249|56:126,1,167.999994873047,10|0,0:0|0:0,0:0:0:0:
0,8,135882,6,0,P|73:-10|142:74,1,167.999994873047,6|0,3:2|0:0,0:0:0:0:
200,115,136332,1,0,0:0:0:0:
253,39,136482,2,0,P|290:21|331:27,1,83.9999974365235,10|0,0:0|0:0,0:0:0:0:
425,0,136782,2,0,L|423:133,1,125.999996154785,0|0,3:0|0:0,0:0:0:0:
422,168,137082,1,0,3:0:0:0:
341,295,137382,2,0,B|410:335|410:335|495:310,2,167.999994873047,2|10|0,0:0|0:0|3:0,0:0:0:0:
248,288,138132,1,0,3:0:0:0:
295,217,138282,6,0,P|252:202|163:282,1,167.999994873047,0|0,0:0|3:0,0:0:0:0:
89,210,138732,1,0,3:0:0:0:
24,279,138882,2,0,L|32:371,2,83.9999974365235,8|0|0,0:0|3:0|3:0,0:0:0:0:
0,147,139482,6,0,P|52:85|132:94,1,167.999994873047,2|2,3:2|0:0,0:0:0:0:
205,157,139932,1,0,0:0:0:0:
256,79,140082,2,0,P|293:96|334:90,1,83.9999974365235,10|0,0:0|0:0,0:0:0:0:
376,12,140382,2,0,P|423:69|397:143,1,125.999996154785,0|0,3:0|0:0,0:0:0:0:
436,154,140682,6,0,B|363:172|363:172|343:267,1,167.999994873047,2|0,3:2|3:0,0:0:0:0:
327,358,141132,1,0,3:0:0:0:
247,311,141282,2,0,B|157:292|157:292|139:219,1,167.999994873047,10|2,0:0|0:0,0:0:0:0:
107,53,141882,5,2,3:2:0:0:
195,132,142182,2,0,P|135:183|46:160,2,167.999994873047,2|10|2,0:0|0:0|0:0,0:0:0:0:
347,28,143082,6,0,B|309:63|309:63|338:202,1,167.999994873047,2|2,3:2|0:0,0:0:0:0:
417,189,143532,1,0,0:0:0:0:
448,266,143682,2,0,P|407:273|368:258,1,83.9999974365235,10|0,0:0|0:0,0:0:0:0:
296,319,143982,2,0,P|236:305|174:343,1,125.999996154785,2|0,0:0|0:0,0:0:0:0:
156,368,144282,1,2,3:2:0:0:
33,212,144582,6,0,L|29:162,3,41.9999987182618,2|2|2|2,0:0|0:0|0:0|0:0,0:0:0:0:
38,244,144882,2,0,B|117:259|117:259|212:208,1,167.999994873047,10|2,0:0|0:0,0:0:0:0:
160,53,145482,6,0,B|245:49|245:49|304:107,1,167.999994873047,6|0,3:2|0:0,0:0:0:0:
365,171,145932,1,0,0:0:0:0:
452,137,146082,2,0,L|458:224,1,83.9999974365235,10|0,0:0|0:0,0:0:0:0:
510,295,146382,2,0,P|450:314|398:283,1,125.999996154785,0|0,3:0|0:0,0:0:0:0:
367,254,146682,1,2,3:2:0:0:
245,343,146982,2,0,B|161:359|161:359|89:317,2,167.999994873047,2|10|0,0:0|0:0|3:0,0:0:0:0:
266,261,147732,1,0,3:0:0:0:
196,200,147882,6,0,P|273:214|328:147,1,167.999994873047,0|0,3:0|3:0,3:0:0:0:
330,68,148332,1,0,3:0:0:0:
244,51,148482,2,0,L|248:134,2,83.9999974365235,8|0|0,0:0|3:0|3:0,0:0:0:0:
492,255,149082,6,0,B|372:301|401:196|275:254,1,210,6|0,3:2|0:0,0:0:0:0:
239,325,149682,6,0,P|206:295|220:193,1,140,10|2,0:0|0:0,0:0:0:0:
249,82,150132,1,0,0:0:0:0:
271,65,150282,6,0,B|328:51|368:89|296:165|198:88,1,210,2|0,3:2|0:0,0:0:0:0:
122,33,150882,1,10,0:0:0:0:
119,46,151032,1,0,0:0:0:0:
116,59,151182,1,2,0:0:0:0:
11,52,151482,6,0,B|16:149|16:149|23:157|23:157|32:282,1,210,2|0,3:2|0:0,0:0:0:0:
64,285,152082,2,0,B|59:188|59:188|52:180|52:180|43:55,1,210,10|0,0:0|0:0,0:0:0:0:
122,33,152682,6,0,P|179:17|257:135,1,210,2|0,3:2|0:0,0:0:0:0:
173,165,153282,1,10,0:0:0:0:
170,152,153432,1,0,0:0:0:0:
167,139,153582,1,2,0:0:0:0:
275,257,153882,6,0,B|155:303|184:198|58:256,1,210,2|0,3:2|0:0,0:0:0:0:
66,208,154482,2,0,B|186:162|157:267|283:209,1,210,10|0,0:0|0:0,0:0:0:0:
400,220,155082,6,0,P|345:227|314:93,1,210,2|0,3:2|0:0,0:0:0:0:
318,9,155682,1,10,0:0:0:0:
304,12,155832,1,0,0:0:0:0:
290,16,155982,1,2,0:0:0:0:
193,134,156282,6,0,B|250:148|290:110|218:34|120:111,1,210,0|0,3:2|0:0,0:0:0:0:
90,86,156882,2,0,B|33:100|-7:62|65:-14|163:63,1,210,10|0,0:0|3:2,0:0:0:0:
180,217,157482,6,0,P|237:220|342:97,1,210,2|0,0:0|0:0,0:0:0:0:
427,40,158082,1,10,0:0:0:0:
428,54,158232,1,0,0:0:0:0:
429,68,158382,1,2,0:0:0:0:
409,171,158682,6,0,P|459:173|507:199,2,105.000004005432,2|0|2,0:0|0:0|0:0,0:0:0:0:
443,280,159582,1,0,0:0:0:0:
443,280,159732,1,0,0:0:0:0:
443,280,159882,2,0,L|454:384,1,105.000004005432,2|2,0:0|0:0,0:0:0:0:
323,304,160482,1,2,0:0:0:0:
323,304,160632,1,2,0:0:0:0:
323,304,160782,1,2,0:0:0:0:
197,260,161082,6,0,L|202:370,2,105.000004005432,2|0|2,0:0|0:0|0:0,0:0:0:0:
139,158,161982,1,0,0:0:0:0:
139,158,162132,1,0,0:0:0:0:
139,158,162282,2,0,P|191:168|244:141,1,105.000004005432,2|2,0:0|0:0,0:0:0:0:
178,60,162882,1,2,0:0:0:0:
178,60,163032,1,2,0:0:0:0:
178,60,163182,1,2,0:0:0:0:
283,26,163482,6,0,B|331:14|331:14|381:37,2,105.000004005432,2|2|2,0:0|0:0|0:0,0:0:0:0:
321,124,164382,1,2,0:0:0:0:
361,224,164682,2,0,B|312:235|312:235|262:212,1,105.000004005432,2|2,0:0|0:0,0:0:0:0:
321,124,165282,1,2,0:0:0:0:
256,192,165882,12,2,167832,0:0:0:0:
200,264,168282,6,0,P|187:274|192:255,1,41.9999987182618
346,204,168882,2,0,P|361:210|342:215,1,41.9999987182618
221,107,169482,2,0,P|219:91|233:105,1,41.9999987182618
256,192,170157,5,2,0:0:0:0:
