osu file format v14

[General]
AudioFilename: audio.mp3
AudioLeadIn: 0
PreviewTime: 78735
Countdown: 0
SampleSet: Normal
StackLeniency: 0.7
Mode: 1
LetterboxInBreaks: 0
WidescreenStoryboard: 0

[Editor]
Bookmarks: 62089,69816,79816,96180,132180,148543
DistanceSpacing: 0.8
BeatDivisor: 6
GridSize: 16
TimelineZoom: 2.1

[Metadata]
Title:FAKE
TitleUnicode:偽
Artist:onumi
ArtistUnicode:オヌミ
Creator:Nifty
Version:INNER ONI
Source:osu!
Tags:featured artist fa mappers guild mg chaos sv electronic instrumental
BeatmapID:1956697
BeatmapSetID:936681

[Difficulty]
HPDrainRate:4.8
CircleSize:2
OverallDifficulty:6.6
ApproachRate:10
SliderMultiplier:1.4
SliderTickRate:1

[Events]
//Background and Video events
0,0,"onumitaiko.jpg",0,-60
//Break Periods
//Storyboard Layer 0 (Background)
//Storyboard Layer 1 (Fail)
//Storyboard Layer 2 (Pass)
//Storyboard Layer 3 (Foreground)
//Storyboard Layer 4 (Overlay)
//Storyboard Sound Samples

[TimingPoints]
190,272.727272727273,4,1,0,40,1,0
190,-200,4,1,0,40,0,0
39998,-200,4,1,0,40,0,0
40270,-194.029705947981,4,1,0,40,0,0
40543,-188.405879017049,4,1,0,40,0,0
40816,-183.098539972242,4,1,0,40,0,0
41089,-178.082338149867,4,1,0,40,0,0
41361,-173.333356444448,4,1,0,40,0,0
41634,-168.831081126711,4,1,0,40,0,0
41907,-164.557045345339,4,1,0,40,0,0
42180,-160.493807346444,4,1,0,40,0,0
42452,-156.626392800198,4,1,0,40,0,0
42725,-152.941212456756,4,1,0,40,0,0
42998,-149.425235830378,4,1,0,40,0,0
43270,-146.067497790729,4,1,0,40,0,0
43543,-142.857142857143,4,1,0,40,0,0
43816,-125,4,1,0,50,0,0
43861,-127.604243096291,4,1,0,50,0,0
43907,-130.319138538367,4,1,0,50,0,0
43952,-133.152246278395,4,1,0,50,0,0
43998,-136.11108842593,4,1,0,50,0,0
44043,-139.204612684046,4,1,0,50,0,0
44089,-142.44182319836,4,1,0,50,0,0
44361,-166.101644240176,4,1,0,50,0,0
44634,-111.111111111111,4,1,0,50,0,0
44725,-107.52688172043,4,1,0,50,0,0
44816,-104.166666666667,4,1,0,50,0,0
44907,-101.010101010101,4,1,0,50,0,0
45180,-112.359550561798,4,1,0,50,0,0
45452,-101.010101010101,4,1,0,50,0,0
45543,-104.166666666667,4,1,0,50,0,0
45634,-107.52688172043,4,1,0,50,0,0
45725,-111.111111111111,4,1,0,50,0,0
45998,-125,4,1,0,50,0,0
46066,-119.402985074627,4,1,0,50,0,0
46134,-114.285714285714,4,1,0,50,0,0
46202,-109.58904109589,4,1,0,50,0,0
46270,-105.263157894737,4,1,0,50,0,0
46452,-116.279069767442,4,1,0,50,0,0
46543,-112.359550561798,4,1,0,50,0,0
46793,-111.111111111111,4,1,0,50,0,0
46884,-107.52688172043,4,1,0,50,0,0
46975,-104.166666666667,4,1,0,50,0,0
47066,-101.010101010101,4,1,0,50,0,0
47270,-112.359550561798,4,1,0,50,0,0
47611,-101.010101010101,4,1,0,50,0,0
47702,-104.166666666667,4,1,0,50,0,0
47793,-107.52688172043,4,1,0,50,0,0
47884,-111.111111111111,4,1,0,50,0,0
48180,-142.857142857143,4,1,0,50,0,0
48326,-123.456790123457,4,1,0,50,0,0
48361,-125,4,1,0,50,0,0
48407,-126.953174591084,4,1,0,50,0,0
48452,-128.968189995938,4,1,0,50,0,0
48498,-131.048373886253,4,1,0,50,0,0
48543,-133.196762253103,4,1,0,50,0,0
48589,-135.416582031303,4,1,0,50,0,0
48634,-137.711835230543,4,1,0,50,0,0
48680,-140.086237087551,4,1,0,50,0,0
48725,-142.54395342804,4,1,0,50,0,0
48998,-100,4,1,0,50,0,0
49089,-103.448240190262,4,1,0,50,0,0
49180,-107.142895408177,4,1,0,50,0,0
49270,-111.111111111111,4,1,0,50,0,0
49543,-111.111111111111,4,1,0,50,0,0
49634,-107.22101360313,4,1,0,50,0,0
49725,-103.594093479166,4,1,0,50,0,0
49816,-100.204517420054,4,1,0,50,0,0
49907,-103.375520883406,4,1,0,50,0,0
49998,-106.98688554757,4,1,0,50,0,0
50089,-110.859705933544,4,1,0,50,0,0
50361,-100,4,1,0,50,0,0
50452,-103.375520883406,4,1,0,50,0,0
50543,-106.98688554757,4,1,0,50,0,0
50634,-110.859705933544,4,1,0,50,0,0
50816,-121.951219512195,4,1,0,50,0,0
50907,-117.647058823529,4,1,0,50,0,0
51180,-100,4,1,0,50,0,0
51248,-102.564102564103,4,1,0,50,0,0
51316,-105.263157894737,4,1,0,50,0,0
51384,-108.108108108108,4,1,0,50,0,0
51452,-111.111111111111,4,1,0,50,0,0
51634,-120.481927710843,4,1,0,50,0,0
51725,-125,4,1,0,50,0,0
51998,-111.111111111111,4,1,0,50,0,0
52180,-120.481927710843,4,1,0,50,0,0
52270,-125,4,1,0,50,0,0
52543,-125,4,1,0,50,0,0
52589,-127.604243096291,4,1,0,50,0,0
52634,-130.319138538367,4,1,0,50,0,0
52680,-133.152246278395,4,1,0,50,0,0
52725,-136.11108842593,4,1,0,50,0,0
52770,-139.204612684046,4,1,0,50,0,0
52816,-142.44182319836,4,1,0,50,0,0
53089,-166.101644240176,4,1,0,50,0,0
53361,-125,4,1,0,50,0,0
53452,-120.098048046425,4,1,0,50,0,0
53543,-115.566054089536,4,1,0,50,0,0
53634,-111.363659142567,4,1,0,50,0,0
53907,-125,4,1,0,50,0,0
53998,-120.000048000019,4,1,0,50,0,0
54089,-115.384571005934,4,1,0,50,0,0
54180,-111.111111111111,4,1,0,50,0,0
54270,-107.142895408177,4,1,0,50,0,0
54361,-103.448240190262,4,1,0,50,0,0
54407,-101.694949727102,4,1,0,50,0,0
54452,-100,4,1,0,50,0,0
54725,-111.111111111111,4,1,0,50,0,0
54793,-108.167746541336,4,1,0,50,0,0
54861,-105.376298762882,4,1,0,50,0,0
54930,-102.725407794188,4,1,0,50,0,0
54998,-100.204517420054,4,1,0,50,0,0
55180,-114.942528735632,4,1,0,50,0,0
55270,-111.363659142566,4,1,0,50,0,0
55543,-111.111111111111,4,1,0,50,0,0
55634,-107.22101360313,4,1,0,50,0,0
55725,-103.594093479166,4,1,0,50,0,0
55816,-100.204517420054,4,1,0,50,0,0
55998,-107.52688172043,4,1,0,50,0,0
56089,-111.363659142566,4,1,0,50,0,0
56361,-111.111111111111,4,1,0,50,0,0
56452,-107.22101360313,4,1,0,50,0,0
56543,-103.594093479166,4,1,0,50,0,0
56634,-100.204517420054,4,1,0,50,0,0
56907,-125.319721940601,4,1,0,50,0,0
57053,-109.89010989011,4,1,0,50,0,0
57089,-111.111111111111,4,1,0,50,0,0
57134,-112.676056338028,4,1,0,50,0,0
57180,-114.285714285714,4,1,0,50,0,0
57225,-115.942028985507,4,1,0,50,0,0
57270,-117.647058823529,4,1,0,50,0,0
57316,-119.402985074627,4,1,0,50,0,0
57361,-121.212121212121,4,1,0,50,0,0
57407,-123.076923076923,4,1,0,50,0,0
57452,-125,4,1,0,50,0,0
57702,-100,4,1,0,50,0,0
57793,-103.448240190262,4,1,0,50,0,0
57884,-107.142895408177,4,1,0,50,0,0
57974,-111.111111111111,4,1,0,50,0,0
58247,-111.111111111111,4,1,0,50,0,0
58338,-107.22101360313,4,1,0,50,0,0
58429,-103.594093479166,4,1,0,50,0,0
58520,-100.204517420054,4,1,0,50,0,0
58611,-103.375520883406,4,1,0,50,0,0
58702,-106.98688554757,4,1,0,50,0,0
58793,-110.859705933544,4,1,0,50,0,0
59065,-100,4,1,0,50,0,0
59156,-103.375520883406,4,1,0,50,0,0
59247,-106.98688554757,4,1,0,50,0,0
59338,-110.859705933544,4,1,0,50,0,0
59520,-121.951219512195,4,1,0,50,0,0
59611,-117.647058823529,4,1,0,50,0,0
59884,-100,4,1,0,50,0,0
59952,-102.564102564103,4,1,0,50,0,0
60020,-105.263157894737,4,1,0,50,0,0
60088,-108.108108108108,4,1,0,50,0,0
60156,-111.111111111111,4,1,0,50,0,0
60338,-120.481927710843,4,1,0,50,0,0
60429,-125,4,1,0,50,0,0
60725,-111.111111111111,4,1,0,50,0,0
60907,-115.384571005934,4,1,0,50,0,0
60998,-117.647058823529,4,1,0,50,0,0
61066,-119.402985074627,4,1,0,50,0,0
61134,-121.212121212121,4,1,0,50,0,0
61202,-123.076923076923,4,1,0,50,0,0
61270,-125,4,1,0,50,0,0
61407,-117.71838231399,4,1,0,50,0,0
61475,-114.38676682372,4,1,0,50,0,0
61543,-111.238541039791,4,1,0,50,0,0
61680,-105.434739059564,4,1,0,50,0,0
61816,-100.206626062942,4,1,0,50,0,0
62089,-90.9090909090909,4,1,0,50,0,0
62180,-92.0245116489228,4,1,0,50,0,0
62270,-93.1677307974319,4,1,0,50,0,0
62361,-94.3396226415094,4,1,0,50,0,0
62452,-95.5413708466972,4,1,0,50,0,0
62543,-96.774224765879,4,1,0,50,0,0
62634,-98.0392156862745,4,1,0,50,0,0
62725,-99.3377154510876,4,1,0,50,0,0
62816,-100.671174721871,4,1,0,50,0,0
62907,-102.040816326531,4,1,0,50,0,0
62998,-103.448240190262,4,1,0,50,0,0
63089,-104.895141571728,4,1,0,50,0,0
63180,-106.382978723404,4,1,0,50,0,0
63270,-107.913630246896,4,1,0,50,0,0
63361,-109.489091054413,4,1,0,50,0,0
63452,-111.111111111111,4,1,0,50,0,0
63725,-117.647058823529,4,1,0,50,0,0
63793,-115.976317635939,4,1,0,50,0,0
63861,-114.352365378678,4,1,0,50,0,0
63930,-112.773263714639,4,1,0,50,0,0
63998,-111.237179915015,4,1,0,50,0,0
64270,-125,4,1,0,50,0,0
64339,-122.708721399665,4,1,0,50,0,0
64407,-120.499930110041,4,1,0,50,0,0
64475,-118.36939062254,4,1,0,50,0,0
64543,-116.312746364936,4,1,0,50,0,0
64725,-111.16236931474,4,1,0,50,0,0
64907,-106.448773124665,4,1,0,50,0,0
65089,-102.118655750863,4,1,0,50,0,0
65270,-98.1270490154423,4,1,0,50,0,0
65452,-94.4357511089118,4,1,0,50,0,0
65634,-91.0121000587028,4,1,0,50,0,0
65770,-93.000935589412,4,1,0,50,0,0
65839,-94.0833785717579,4,1,0,50,0,0
65907,-95.1914061198555,4,1,0,50,0,0
66043,-97.4874558016247,4,1,0,50,0,0
66180,-99.8970061866216,4,1,0,50,0,0
66452,-76.9230769230769,4,1,0,50,0,0
66543,-78.5272065359764,4,1,0,50,0,0
66634,-80.1996650861986,4,1,0,50,0,0
66725,-81.9449133514486,4,1,0,50,0,0
66816,-83.7678090362011,4,1,0,50,0,0
66907,-85.673651925087,4,1,0,50,0,0
66998,-87.6682353436244,4,1,0,50,0,0
67089,-89.7579049786915,4,1,0,50,0,0
67180,-91.9496263167186,4,1,0,50,0,0
67270,-94.2510622094711,4,1,0,50,0,0
67361,-96.6706623873787,4,1,0,50,0,0
67452,-99.2177671239944,4,1,0,50,0,0
67543,-101.902727732216,4,1,0,50,0,0
67634,-104.737047169377,4,1,0,50,0,0
67725,-107.733544778371,4,1,0,50,0,0
67816,-110.906550140851,4,1,0,50,0,0
68089,-125,4,1,0,50,0,0
68157,-121.212121212121,4,1,0,50,0,0
68225,-117.647058823529,4,1,0,50,0,0
68293,-114.285714285714,4,1,0,50,0,0
68361,-111.111111111111,4,1,0,50,0,0
68634,-125,4,1,0,50,0,0
68702,-122.708721399665,4,1,0,50,0,0
68770,-120.499930110041,4,1,0,50,0,0
68839,-118.36939062254,4,1,0,50,0,0
68907,-116.312746364936,4,1,0,50,0,0
69089,-111.16236931474,4,1,0,50,0,0
69270,-106.448773124665,4,1,0,50,0,0
69452,-102.118655750863,4,1,0,50,0,0
69634,-98.1270490154423,4,1,0,50,0,0
69816,-94.4357511089118,4,1,0,50,0,0
69998,-90.9090909090909,4,1,0,50,0,0
70134,-94.3101729554262,4,1,0,50,0,0
70202,-96.1080100259876,4,1,0,50,0,0
70270,-97.9757235752125,4,1,0,50,0,0
70407,-101.937630480167,4,1,0,50,0,0
70543,-106.233573633677,4,1,0,50,0,0
70680,-110.907411165936,4,1,0,50,0,0
70793,-90.9090909090909,4,1,0,50,0,0
70884,-92.0245116489228,4,1,0,50,0,0
70974,-93.1677307974319,4,1,0,50,0,0
71065,-94.3396226415094,4,1,0,50,0,0
71156,-95.5413708466972,4,1,0,50,0,0
71247,-96.774224765879,4,1,0,50,0,0
71338,-98.0392156862745,4,1,0,50,0,0
71429,-99.3377154510876,4,1,0,50,0,0
71520,-100.671174721871,4,1,0,50,0,0
71611,-102.040816326531,4,1,0,50,0,0
71702,-103.448240190262,4,1,0,50,0,0
71793,-104.895141571728,4,1,0,50,0,0
71884,-106.382978723404,4,1,0,50,0,0
71974,-107.913630246896,4,1,0,50,0,0
72065,-109.489091054413,4,1,0,50,0,0
72156,-111.111111111111,4,1,0,50,0,0
72429,-117.647058823529,4,1,0,50,0,0
72497,-115.976317635939,4,1,0,50,0,0
72565,-114.352365378678,4,1,0,50,0,0
72634,-112.773263714639,4,1,0,50,0,0
72702,-111.237179915015,4,1,0,50,0,0
72974,-125,4,1,0,50,0,0
73043,-122.708721399665,4,1,0,50,0,0
73111,-120.499930110041,4,1,0,50,0,0
73179,-118.36939062254,4,1,0,50,0,0
73247,-116.312746364936,4,1,0,50,0,0
73429,-111.16236931474,4,1,0,50,0,0
73611,-106.448773124665,4,1,0,50,0,0
73793,-102.118655750863,4,1,0,50,0,0
73974,-98.1270490154423,4,1,0,50,0,0
74156,-94.4357511089118,4,1,0,50,0,0
74338,-91.0121000587028,4,1,0,50,0,0
74474,-93.000935589412,4,1,0,50,0,0
74543,-94.0833785717579,4,1,0,50,0,0
74611,-95.1914061198555,4,1,0,50,0,0
74747,-97.4874558016247,4,1,0,50,0,0
75156,-76.9230769230769,4,1,0,50,0,0
75247,-78.5272065359764,4,1,0,50,0,0
75338,-80.1996650861986,4,1,0,50,0,0
75429,-81.9449133514486,4,1,0,50,0,0
75520,-83.7678090362011,4,1,0,50,0,0
75611,-85.673651925087,4,1,0,50,0,0
75702,-87.6682353436244,4,1,0,50,0,0
75793,-89.7579049786915,4,1,0,50,0,0
75884,-91.9496263167186,4,1,0,50,0,0
75974,-94.2510622094711,4,1,0,50,0,0
76065,-96.6706623873787,4,1,0,50,0,0
76156,-99.2177671239944,4,1,0,50,0,0
76247,-101.902727732216,4,1,0,50,0,0
76338,-104.737047169377,4,1,0,50,0,0
76429,-107.733544778371,4,1,0,50,0,0
76520,-110.906550140851,4,1,0,50,0,0
76793,-125,4,1,0,50,0,0
76861,-121.212121212121,4,1,0,50,0,0
76929,-117.647058823529,4,1,0,50,0,0
76997,-114.285714285714,4,1,0,50,0,0
77065,-111.111111111111,4,1,0,50,0,0
77338,-125,4,1,0,50,0,0
77406,-122.708721399665,4,1,0,50,0,0
77474,-120.499930110041,4,1,0,50,0,0
77543,-118.36939062254,4,1,0,50,0,0
77611,-116.312746364936,4,1,0,50,0,0
77793,-111.16236931474,4,1,0,50,0,0
77974,-106.448773124665,4,1,0,50,0,0
78156,-102.118655750863,4,1,0,50,0,0
78338,-98.1270490154423,4,1,0,50,0,0
78520,-94.4357511089118,4,1,0,50,0,0
78725,-90.9090909090909,4,1,0,50,0,0
78793,-92.477252907716,4,1,0,50,0,0
78861,-94.100465420902,4,1,0,50,0,0
78930,-95.7816790719905,4,1,0,50,0,0
78998,-97.5239640760726,4,1,0,50,0,0
79066,-99.3309070103781,4,1,0,50,0,0
79134,-101.20607276919,4,1,0,50,0,0
79202,-103.153399420278,4,1,0,50,0,0
79270,-105.177134070345,4,1,0,50,0,0
79339,-107.281863786363,4,1,0,50,0,0
79407,-109.472430463112,4,1,0,50,0,0
79475,-111.75444419486,4,1,0,50,0,0
79543,-114.133623080558,4,1,0,50,0,0
79611,-116.616307857723,4,1,0,50,0,0
79680,-119.209403237727,4,1,0,50,0,0
79748,-121.920442034755,4,1,0,50,0,0
79826,-125,4,1,0,50,0,1
79998,-121.627275646327,4,1,0,50,0,1
80089,-120.008256568052,4,1,0,50,0,1
80180,-118.431914084752,4,1,0,50,0,1
80361,-115.400016848402,4,1,0,50,0,1
80543,-112.519479934964,4,1,0,50,0,1
80634,-111.132473242079,4,1,0,50,0,1
80725,-109.779244916398,4,1,0,50,0,1
80907,-107.169419849063,4,1,0,50,0,1
81089,-104.680692483717,4,1,0,50,0,1
81180,-103.479176885235,4,1,0,50,0,1
81270,-102.30493007458,4,1,0,50,0,1
81452,-100.03471204508,4,1,0,50,0,1
81634,-97.862966402665,4,1,0,50,0,1
81725,-96.8120751765126,4,1,0,50,0,1
81816,-95.7835139331488,4,1,0,50,0,1
81998,-93.7905937413537,4,1,0,50,0,1
82180,-91.8789990334329,4,1,0,50,0,1
82270,-90.952086440863,4,1,0,50,0,1
82361,-90.0436891979989,4,1,0,50,0,1
82543,-88.2802651232922,4,1,0,50,0,1
82725,-86.5846594495467,4,1,0,50,0,1
82816,-85.7610132149145,4,1,0,50,0,1
82907,-84.952889375197,4,1,0,50,0,1
83089,-83.3333333333333,4,1,0,50,0,1
83157,-85.1063829787234,4,1,0,50,0,1
83225,-86.9565217391304,4,1,0,50,0,1
83293,-88.8888888888889,4,1,0,50,0,1
83361,-90.9090909090909,4,1,0,50,0,1
83430,-93.0232558139535,4,1,0,50,0,1
83498,-95.2380952380952,4,1,0,50,0,1
83566,-97.5609756097561,4,1,0,50,0,1
83634,-100,4,1,0,50,0,1
84111,-83.3333333333333,4,1,0,50,0,1
84361,-84.9056443574256,4,1,0,50,0,1
84452,-85.7142612244968,4,1,0,50,0,1
84543,-86.5384282544507,4,1,0,50,0,1
84725,-88.2353200692118,4,1,0,50,0,1
84907,-90.0000090000009,4,1,0,50,0,1
84998,-90.9090909090909,4,1,0,50,0,1
85089,-91.8367253227831,4,1,0,50,0,1
85270,-93.7499707031342,4,1,0,50,0,1
85452,-95.7447215934986,4,1,0,50,0,1
85543,-96.774224765879,4,1,0,50,0,1
85634,-97.826108223067,4,1,0,50,0,1
85816,-100,4,1,0,50,0,1
85998,-102.272704028931,4,1,0,50,0,1
86089,-103.448240190262,4,1,0,50,0,1
86180,-104.651114115761,4,1,0,50,0,1
86361,-107.142895408177,4,1,0,50,0,1
86543,-109.756110945867,4,1,0,50,0,1
86634,-111.111111111111,4,1,0,50,0,1
86725,-112.499985937502,4,1,0,50,0,1
86907,-115.384571005934,4,1,0,50,0,1
87089,-118.421114958482,4,1,0,50,0,1
87180,-120.000048000019,4,1,0,50,0,1
87270,-121.621654492339,4,1,0,50,0,1
87452,-125,4,1,0,50,0,1
87520,-121.250039406263,4,1,0,50,0,1
87589,-117.71838231399,4,1,0,50,0,1
87657,-114.38676682372,4,1,0,50,0,1
87725,-111.238541039791,4,1,0,50,0,1
87793,-108.258968443593,4,1,0,50,0,1
87861,-105.434739059564,4,1,0,50,0,1
87930,-102.754224226158,4,1,0,50,0,1
87998,-100.206626062942,4,1,0,50,0,1
88134,-100,4,1,0,50,0,1
88202,-103.448240190262,4,1,0,50,0,1
88270,-107.142895408177,4,1,0,50,0,1
88339,-111.111111111111,4,1,0,50,0,1
88407,-115.384571005934,4,1,0,50,0,1
88475,-120.000048000019,4,1,0,50,0,1
88543,-125,4,1,0,50,0,1
88725,-121.627275646327,4,1,0,50,0,1
88816,-120.008256568052,4,1,0,50,0,1
88907,-118.431914084752,4,1,0,50,0,1
89089,-115.400016848402,4,1,0,50,0,1
89270,-112.519479934964,4,1,0,50,0,1
89361,-111.132473242079,4,1,0,50,0,1
89452,-109.779244916398,4,1,0,50,0,1
89634,-107.169419849063,4,1,0,50,0,1
89816,-104.680692483717,4,1,0,50,0,1
89907,-103.479176885235,4,1,0,50,0,1
89998,-102.30493007458,4,1,0,50,0,1
90180,-100.03471204508,4,1,0,50,0,1
90361,-97.862966402665,4,1,0,50,0,1
90452,-96.8120751765126,4,1,0,50,0,1
90543,-95.7835139331488,4,1,0,50,0,1
90725,-93.7905937413537,4,1,0,50,0,1
90907,-91.8789990334329,4,1,0,50,0,1
90998,-90.952086440863,4,1,0,50,0,1
91089,-90.0436891979989,4,1,0,50,0,1
91270,-88.2802651232922,4,1,0,50,0,1
91452,-86.5846594495467,4,1,0,50,0,1
91543,-85.7610132149145,4,1,0,50,0,1
91634,-84.952889375197,4,1,0,50,0,1
91816,-83.3814861415801,4,1,0,50,0,1
91884,-85.1063829787234,4,1,0,50,0,1
91952,-86.9565217391304,4,1,0,50,0,1
92020,-88.8888888888889,4,1,0,50,0,1
92089,-90.9090909090909,4,1,0,50,0,1
92157,-93.0232558139535,4,1,0,50,0,1
92225,-95.2380952380952,4,1,0,50,0,1
92293,-97.5609756097561,4,1,0,50,0,1
92361,-100,4,1,0,50,0,1
92634,-100,4,1,0,50,0,1
92702,-95.3307022059524,4,1,0,50,0,1
92770,-91.0780821506086,4,1,0,50,0,1
92839,-87.1885950342608,4,1,0,50,0,1
92907,-83.6177731249132,4,1,0,50,0,1
93089,-84.9029050377988,4,1,0,50,0,1
93180,-85.7100736763793,4,1,0,50,0,1
93270,-86.5326621860054,4,1,0,50,0,1
93452,-88.226289846301,4,1,0,50,0,1
93634,-89.9875367261634,4,1,0,50,0,1
93725,-90.8947956366862,4,1,0,50,0,1
93816,-91.8205349280724,4,1,0,50,0,1
93998,-93.7296723773032,4,1,0,50,0,1
94180,-95.7199769506296,4,1,0,50,0,1
94270,-96.7471667592215,4,1,0,50,0,1
94361,-97.7966416633253,4,1,0,50,0,1
94543,-99.9653120367232,4,1,0,50,0,1
94725,-102.232450010888,4,1,0,50,0,1
94816,-103.405024036498,4,1,0,50,0,1
94907,-104.604808264617,4,1,0,50,0,1
95089,-107.089885895727,4,1,0,50,0,1
95270,-109.69579163065,4,1,0,50,0,1
95361,-111.046950650735,4,1,0,50,0,1
95452,-112.43181010717,4,1,0,50,0,1
95634,-115.30780264839,4,1,0,50,0,1
95816,-118.334652764712,4,1,0,50,0,1
95907,-119.90853377044,4,1,0,50,0,1
95998,-121.524845146966,4,1,0,50,0,1
96111,-124.89181246745,4,1,0,50,0,1
96190,-124.89181246745,4,1,0,50,0,0
97270,-142.715854161523,4,1,0,50,0,0
98361,-124.89181246745,4,1,0,50,0,0
98498,-129.87012987013,4,1,0,50,0,0
98634,-135.135135135135,4,1,0,50,0,0
100066,-111.111111111111,4,1,0,50,0,0
100134,-112.903262226859,4,1,0,50,0,0
100202,-114.754041924242,4,1,0,50,0,0
100270,-116.666647222225,4,1,0,50,0,0
100339,-118.644087905778,4,1,0,50,0,0
100407,-120.68971759813,4,1,0,50,0,0
100475,-122.806974453693,4,1,0,50,0,0
100543,-125,4,1,0,50,0,0
100680,-129.87012987013,4,1,0,50,0,0
100816,-135.135135135135,4,1,0,50,0,0
101089,-142.857142857143,4,1,0,50,0,0
102725,-125,4,1,0,50,0,0
102861,-129.87012987013,4,1,0,50,0,0
102998,-135.135135135135,4,1,0,50,0,0
103270,-142.857142857143,4,1,0,50,0,0
104634,-128.205128205128,4,1,0,50,0,0
104702,-131.578947368421,4,1,0,50,0,0
104770,-135.135135135135,4,1,0,50,0,0
104839,-138.888888888889,4,1,0,50,0,0
104907,-142.857142857143,4,1,0,50,0,0
105452,-144.329926665964,4,1,0,50,0,0
105998,-145.833394097248,4,1,0,50,0,0
106543,-147.368514127483,4,1,0,50,0,0
107089,-148.936075147186,4,1,0,50,0,0
107634,-150.53756966126,4,1,0,50,0,0
108180,-152.1738799622,4,1,0,50,0,0
108725,-153.846153846154,4,1,0,50,0,0
108861,-125,4,1,0,50,0,0
108930,-127.659628791331,4,1,0,50,0,0
108998,-130.434725897945,4,1,0,50,0,0
109066,-133.333333333333,4,1,0,50,0,0
109134,-136.363698347136,4,1,0,50,0,0
109202,-139.534818821014,4,1,0,50,0,0
109270,-142.857142857143,4,1,0,50,0,0
109816,-147.049741045406,4,1,0,50,0,0
110361,-151.496099732912,4,1,0,50,0,0
110907,-156.219488381176,4,1,0,50,0,0
111452,-161.247149956625,4,1,0,50,0,0
111998,-166.608908911577,4,1,0,50,0,0
112508,-249.870067564866,4,1,0,50,0,0
115680,-131.578947368421,4,1,0,50,0,0
115748,-128.205128205128,4,1,0,50,0,0
115826,-124.967508447804,4,1,0,50,0,1
115998,-111.111111111111,4,1,0,50,0,1
116089,-113.636363636364,4,1,0,50,0,1
116180,-116.279069767442,4,1,0,50,0,1
116270,-119.047619047619,4,1,0,50,0,1
116361,-121.951219512195,4,1,0,50,0,1
116543,-108.695652173913,4,1,0,50,0,1
116634,-111.073099428196,4,1,0,50,0,1
116725,-113.557002776469,4,1,0,50,0,1
116816,-116.154406375483,4,1,0,50,0,1
116907,-118.873412891346,4,1,0,50,0,1
117089,-106.382978723404,4,1,0,50,0,1
117180,-108.695652173913,4,1,0,50,0,1
117270,-111.111111111111,4,1,0,50,0,1
117361,-113.636363636364,4,1,0,50,0,1
117452,-116.279069767442,4,1,0,50,0,1
117634,-104.166666666667,4,1,0,50,0,1
117725,-106.348132739485,4,1,0,50,0,1
117816,-108.623040033021,4,1,0,50,0,1
117907,-110.997277236789,4,1,0,50,0,1
117998,-113.477623914728,4,1,0,50,0,1
118180,-102.040816326531,4,1,0,50,0,1
118270,-104.166666666667,4,1,0,50,0,1
118361,-106.382978723404,4,1,0,50,0,1
118452,-108.695652173913,4,1,0,50,0,1
118543,-111.111111111111,4,1,0,50,0,1
118725,-100,4,1,0,50,0,1
118816,-102.008756431652,4,1,0,50,0,1
118907,-104.099977618505,4,1,0,50,0,1
118998,-106.278622161431,4,1,0,50,0,1
119089,-108.550407009751,4,1,0,50,0,1
119270,-98.0392156862745,4,1,0,50,0,1
119361,-99.9692094834791,4,1,0,50,0,1
119452,-101.976820668662,4,1,0,50,0,1
119543,-104.066610956341,4,1,0,50,0,1
119634,-106.243844497259,4,1,0,50,0,1
119816,-94.3396226415094,4,1,0,50,0,1
119907,-95.9860551459084,4,1,0,50,0,1
119975,-97.2590455775339,4,1,0,50,0,1
120043,-98.5663524042798,4,1,0,50,0,1
120111,-99.9091825530593,4,1,0,50,0,1
120180,-101.28910645789,4,1,0,50,0,1
120316,-104.166666666667,4,1,0,50,0,1
120452,-92.5925925925926,4,1,0,50,0,1
120520,-94.043916628187,4,1,0,50,0,1
120589,-95.5413708466972,4,1,0,50,0,1
120657,-97.0873786407767,4,1,0,50,0,1
120725,-98.6842429882378,4,1,0,50,0,1
120861,-102.040816326531,4,1,0,50,0,1
120998,-90.9090909090909,4,1,0,50,0,1
121066,-92.3077207100679,4,1,0,50,0,1
121134,-93.7499707031342,4,1,0,50,0,1
121202,-95.2380952380952,4,1,0,50,0,1
121270,-96.774224765879,4,1,0,50,0,1
121407,-100,4,1,0,50,0,1
121543,-89.2857142857143,4,1,0,50,0,1
121611,-90.6344684696279,4,1,0,50,0,1
121680,-92.0245116489228,4,1,0,50,0,1
121748,-93.4579439252336,4,1,0,50,0,1
121816,-94.9367389040313,4,1,0,50,0,1
121952,-98.0392156862745,4,1,0,50,0,1
122089,-87.719298245614,4,1,0,50,0,1
122157,-89.2857142857143,4,1,0,50,0,1
122225,-90.9090909090909,4,1,0,50,0,1
122293,-92.5925925925926,4,1,0,50,0,1
122371,-94.3396226415094,4,1,0,50,0,0
122907,-125,4,1,0,50,0,0
123861,-142.857142857143,4,1,0,50,0,0
124553,-100,4,1,0,50,0,1
124680,-90.9090909090909,4,1,0,50,0,1
124748,-92.3077207100679,4,1,0,50,0,1
124816,-93.7499707031342,4,1,0,50,0,1
124884,-95.2380952380952,4,1,0,50,0,1
124952,-96.774224765879,4,1,0,50,0,1
125020,-98.3606234883202,4,1,0,50,0,1
125089,-100,4,1,0,50,0,1
125225,-89.2857142857143,4,1,0,50,0,1
125293,-91.2081707927723,4,1,0,50,0,1
125361,-93.2151489531473,4,1,0,50,0,1
125430,-95.3125297851656,4,1,0,50,0,1
125498,-97.5063720414129,4,1,0,50,0,1
125566,-99.8036861493442,4,1,0,50,0,1
125770,-87.719298245614,4,1,0,50,0,1
125839,-89.526636860265,4,1,0,50,0,1
125907,-91.4099342488343,4,1,0,50,0,1
125975,-93.3742561573319,4,1,0,50,0,1
126043,-95.4248553120631,4,1,0,50,0,1
126111,-97.5674483770631,4,1,0,50,0,1
126180,-99.8085671681714,4,1,0,50,0,1
126316,-86.2068965517241,4,1,0,50,0,1
126384,-88.2353200692118,4,1,0,50,0,1
126452,-90.3614185658378,4,1,0,50,0,1
126520,-92.5925925925926,4,1,0,50,0,1
126589,-94.9367389040313,4,1,0,50,0,1
126657,-97.4025657783877,4,1,0,50,0,1
126725,-100,4,1,0,50,0,1
126861,-84.7457627118644,4,1,0,50,0,1
126930,-86.9565217391304,4,1,0,50,0,1
126998,-89.2857142857143,4,1,0,50,0,1
127066,-91.743119266055,4,1,0,50,0,1
127134,-94.3396226415094,4,1,0,50,0,1
127202,-97.0873786407767,4,1,0,50,0,1
127270,-100,4,1,0,50,0,1
127407,-83.3333333333333,4,1,0,50,0,1
127475,-85.7142612244968,4,1,0,50,0,1
127543,-88.2353200692118,4,1,0,50,0,1
127611,-90.9090909090909,4,1,0,50,0,1
127680,-93.7499707031342,4,1,0,50,0,1
127748,-96.774224765879,4,1,0,50,0,1
127816,-100,4,1,0,50,0,1
127952,-81.9672131147541,4,1,0,50,0,1
128020,-84.2696392501013,4,1,0,50,0,1
128089,-86.705227371453,4,1,0,50,0,1
128157,-89.2857142857143,4,1,0,50,0,1
128225,-92.0245116489228,4,1,0,50,0,1
128293,-94.9367389040313,4,1,0,50,0,1
128361,-98.0392156862745,4,1,0,50,0,1
128498,-80.6451612903226,4,1,0,50,0,1
128566,-82.8729052837278,4,1,0,50,0,1
128634,-85.227296939573,4,1,0,50,0,1
128702,-87.719298245614,4,1,0,50,0,1
128770,-90.3614185658378,4,1,0,50,0,1
128839,-93.1677307974319,4,1,0,50,0,1
128907,-96.1538461538461,4,1,0,50,0,1
129043,-79.3650793650794,4,1,0,50,0,1
129111,-81.5217169777943,4,1,0,50,0,1
129180,-83.7989060890799,4,1,0,50,0,1
129248,-86.2068965517241,4,1,0,50,0,1
129316,-88.7573701901272,4,1,0,50,0,1
129384,-91.4634425193422,4,1,0,50,0,1
129452,-94.3396226415094,4,1,0,50,0,1
129589,-100,4,1,0,50,0,1
129657,-96.774224765879,4,1,0,50,0,1
129725,-93.7499707031342,4,1,0,50,0,1
129793,-90.9090909090909,4,1,0,50,0,1
129861,-88.2353200692118,4,1,0,50,0,1
129930,-85.7142612244968,4,1,0,50,0,1
130008,-83.3333333333333,4,1,0,50,0,0
131089,-125,4,1,0,50,0,0
132190,-124.757658248852,4,1,0,50,0,1
132344,-121.627275646327,4,1,0,50,0,1
132435,-120.008256568052,4,1,0,50,0,1
132526,-118.431914084752,4,1,0,50,0,1
132707,-115.400016848402,4,1,0,50,0,1
132889,-112.519479934964,4,1,0,50,0,1
132980,-111.132473242079,4,1,0,50,0,1
133071,-109.779244916398,4,1,0,50,0,1
133253,-107.169419849063,4,1,0,50,0,1
133435,-104.680692483717,4,1,0,50,0,1
133526,-103.479176885235,4,1,0,50,0,1
133616,-102.30493007458,4,1,0,50,0,1
133798,-100.03471204508,4,1,0,50,0,1
133980,-97.862966402665,4,1,0,50,0,1
134071,-96.8120751765126,4,1,0,50,0,1
134162,-95.7835139331488,4,1,0,50,0,1
134344,-93.7905937413537,4,1,0,50,0,1
134526,-91.8789990334329,4,1,0,50,0,1
134616,-90.952086440863,4,1,0,50,0,1
134707,-90.0436891979989,4,1,0,50,0,1
134889,-88.2802651232922,4,1,0,50,0,1
135071,-86.5846594495467,4,1,0,50,0,1
135162,-85.7610132149145,4,1,0,50,0,1
135253,-84.952889375197,4,1,0,50,0,1
135435,-83.3814861415801,4,1,0,50,0,1
135503,-85.1063829787234,4,1,0,50,0,1
135571,-86.9565217391304,4,1,0,50,0,1
135639,-88.8888888888889,4,1,0,50,0,1
135707,-90.9090909090909,4,1,0,50,0,1
135776,-93.0232558139535,4,1,0,50,0,1
135844,-95.2380952380952,4,1,0,50,0,1
135912,-97.5609756097561,4,1,0,50,0,1
135980,-100,4,1,0,50,0,1
136270,-100,4,1,0,50,0,1
136339,-95.3307022059524,4,1,0,50,0,1
136407,-91.0780821506086,4,1,0,50,0,1
136475,-87.1885950342608,4,1,0,50,0,1
136543,-83.6177731249132,4,1,0,50,0,1
136707,-84.9056443574256,4,1,0,50,0,1
136798,-85.7142612244968,4,1,0,50,0,1
136889,-86.5384282544507,4,1,0,50,0,1
137071,-88.2353200692118,4,1,0,50,0,1
137253,-90.0000090000009,4,1,0,50,0,1
137344,-90.9090909090909,4,1,0,50,0,1
137435,-91.8367253227831,4,1,0,50,0,1
137616,-93.7499707031342,4,1,0,50,0,1
137798,-95.7447215934986,4,1,0,50,0,1
137889,-96.774224765879,4,1,0,50,0,1
137980,-97.826108223067,4,1,0,50,0,1
138162,-100,4,1,0,50,0,1
138344,-102.272704028931,4,1,0,50,0,1
138435,-103.448240190262,4,1,0,50,0,1
138526,-104.651114115761,4,1,0,50,0,1
138707,-107.142895408177,4,1,0,50,0,1
138889,-109.756110945867,4,1,0,50,0,1
138980,-111.111111111111,4,1,0,50,0,1
139071,-112.499985937502,4,1,0,50,0,1
139253,-115.384571005934,4,1,0,50,0,1
139435,-118.421114958482,4,1,0,50,0,1
139526,-120.000048000019,4,1,0,50,0,1
139616,-121.621654492339,4,1,0,50,0,1
139798,-125,4,1,0,50,0,1
139866,-121.250039406263,4,1,0,50,0,1
139935,-117.71838231399,4,1,0,50,0,1
140003,-114.38676682372,4,1,0,50,0,1
140071,-111.238541039791,4,1,0,50,0,1
140139,-108.258968443593,4,1,0,50,0,1
140207,-105.434739059564,4,1,0,50,0,1
140276,-102.754224226158,4,1,0,50,0,1
140344,-100.206626062942,4,1,0,50,0,1
140480,-100,4,1,0,50,0,1
140548,-103.448240190262,4,1,0,50,0,1
140616,-107.142895408177,4,1,0,50,0,1
140685,-111.111111111111,4,1,0,50,0,1
140753,-115.384571005934,4,1,0,50,0,1
140821,-120.000048000019,4,1,0,50,0,1
140889,-125,4,1,0,50,0,1
141071,-121.627275646327,4,1,0,50,0,1
141162,-120.008256568052,4,1,0,50,0,1
141253,-118.431914084752,4,1,0,50,0,1
141435,-115.400016848402,4,1,0,50,0,1
141616,-112.519479934964,4,1,0,50,0,1
141707,-111.132473242079,4,1,0,50,0,1
141798,-109.779244916398,4,1,0,50,0,1
141980,-107.169419849063,4,1,0,50,0,1
142162,-104.680692483717,4,1,0,50,0,1
142253,-103.479176885235,4,1,0,50,0,1
142344,-102.30493007458,4,1,0,50,0,1
142526,-100.03471204508,4,1,0,50,0,1
142707,-97.862966402665,4,1,0,50,0,1
142798,-96.8120751765126,4,1,0,50,0,1
142889,-95.7835139331488,4,1,0,50,0,1
143071,-93.7905937413537,4,1,0,50,0,1
143253,-91.8789990334329,4,1,0,50,0,1
143344,-90.952086440863,4,1,0,50,0,1
143435,-90.0436891979989,4,1,0,50,0,1
143616,-88.2802651232922,4,1,0,50,0,1
143798,-86.5846594495467,4,1,0,50,0,1
143889,-85.7610132149145,4,1,0,50,0,1
143980,-84.952889375197,4,1,0,50,0,1
144162,-83.3333333333333,4,1,0,50,0,1
144230,-85.1063829787234,4,1,0,50,0,1
144298,-86.9565217391304,4,1,0,50,0,1
144366,-88.8888888888889,4,1,0,50,0,1
144435,-90.9090909090909,4,1,0,50,0,1
144503,-93.0232558139535,4,1,0,50,0,1
144571,-95.2380952380952,4,1,0,50,0,1
144639,-97.5609756097561,4,1,0,50,0,1
144707,-100,4,1,0,50,0,1
144980,-100,4,1,0,50,0,1
145048,-95.3307022059524,4,1,0,50,0,1
145116,-91.0780821506086,4,1,0,50,0,1
145185,-87.1885950342608,4,1,0,50,0,1
145253,-83.6177731249132,4,1,0,50,0,1
145435,-84.9029050377988,4,1,0,50,0,1
145526,-85.7100736763793,4,1,0,50,0,1
145616,-86.5326621860054,4,1,0,50,0,1
145798,-88.226289846301,4,1,0,50,0,1
145980,-89.9875367261634,4,1,0,50,0,1
146071,-90.8947956366862,4,1,0,50,0,1
146162,-91.8205349280724,4,1,0,50,0,1
146344,-93.7296723773032,4,1,0,50,0,1
146526,-95.7199769506296,4,1,0,50,0,1
146616,-96.7471667592215,4,1,0,50,0,1
146707,-97.7966416633253,4,1,0,50,0,1
146889,-99.9653120367232,4,1,0,50,0,1
147071,-102.232450010888,4,1,0,50,0,1
147162,-103.405024036498,4,1,0,50,0,1
147253,-104.604808264617,4,1,0,50,0,1
147435,-107.089885895727,4,1,0,50,0,1
147616,-109.69579163065,4,1,0,50,0,1
147707,-111.046950650735,4,1,0,50,0,1
147798,-112.43181010717,4,1,0,50,0,1
147980,-115.30780264839,4,1,0,50,0,1
148162,-118.334652764712,4,1,0,50,0,1
148253,-119.90853377044,4,1,0,50,0,1
148344,-121.524845146966,4,1,0,50,0,1
148553,-124.89181246745,4,1,0,50,0,0

[HitObjects]
237,162,35099,5,4,0:0:0:0:
253,139,35644,1,0,0:0:0:0:
272,125,39462,5,0,0:0:0:0:
272,125,40008,1,8,0:0:0:0:
271,125,40280,1,8,0:0:0:0:
271,125,40553,1,8,0:0:0:0:
271,125,40826,1,8,0:0:0:0:
271,123,41099,1,8,0:0:0:0:
271,123,41371,1,8,0:0:0:0:
271,123,41644,1,8,0:0:0:0:
271,123,41917,1,8,0:0:0:0:
271,123,42190,1,8,0:0:0:0:
271,123,42462,1,8,0:0:0:0:
271,123,42735,1,8,0:0:0:0:
271,123,43008,1,8,0:0:0:0:
271,123,43280,1,8,0:0:0:0:
271,123,43553,1,8,0:0:0:0:
271,123,43826,1,8,0:0:0:0:
287,124,43871,1,0,0:0:0:0:
284,122,43917,1,0,0:0:0:0:
283,122,43962,1,0,0:0:0:0:
283,122,44008,1,0,0:0:0:0:
283,122,44053,1,0,0:0:0:0:
280,119,44099,1,8,0:0:0:0:
284,117,44371,1,8,0:0:0:0:
284,117,44644,1,0,0:0:0:0:
284,117,44735,1,0,0:0:0:0:
284,117,44826,1,0,0:0:0:0:
284,117,44917,1,8,0:0:0:0:
283,117,45190,1,0,0:0:0:0:
283,117,45462,1,8,0:0:0:0:
284,108,45553,1,0,0:0:0:0:
283,117,45644,1,0,0:0:0:0:
284,108,45735,1,8,0:0:0:0:
280,104,46008,1,0,0:0:0:0:
291,106,46076,1,0,0:0:0:0:
288,103,46144,1,0,0:0:0:0:
286,102,46212,1,0,0:0:0:0:
280,104,46280,1,8,0:0:0:0:
270,100,46462,1,0,0:0:0:0:
306,103,46553,1,8,0:0:0:0:
259,106,46826,1,0,0:0:0:0:
259,106,46917,1,0,0:0:0:0:
255,94,47008,1,0,0:0:0:0:
257,93,47099,1,8,0:0:0:0:
263,90,47280,1,0,0:0:0:0:
263,90,47371,1,0,0:0:0:0:
260,95,47644,1,8,0:0:0:0:
260,95,47735,1,0,0:0:0:0:
260,95,47826,1,0,0:0:0:0:
260,95,47917,1,8,0:0:0:0:
258,103,48190,1,0,0:0:0:0:
277,83,48326,1,8,0:0:0:0:
267,91,48371,1,8,0:0:0:0:
265,89,48417,1,0,0:0:0:0:
265,89,48462,1,8,0:0:0:0:
265,93,48508,1,0,0:0:0:0:
265,93,48553,1,0,0:0:0:0:
267,91,48599,1,0,0:0:0:0:
265,89,48644,1,0,0:0:0:0:
265,89,48690,1,0,0:0:0:0:
270,84,48735,1,8,0:0:0:0:
263,103,49008,1,0,0:0:0:0:
263,103,49099,1,0,0:0:0:0:
263,103,49190,1,0,0:0:0:0:
263,103,49280,1,8,0:0:0:0:
256,90,49553,1,0,0:0:0:0:
256,90,49644,1,0,0:0:0:0:
266,93,49735,1,0,0:0:0:0:
262,91,49826,1,8,0:0:0:0:
266,93,49917,1,0,0:0:0:0:
262,91,50008,1,0,0:0:0:0:
252,87,50099,1,8,0:0:0:0:
252,84,50371,1,0,0:0:0:0:
252,84,50462,1,0,0:0:0:0:
252,84,50553,1,0,0:0:0:0:
252,84,50644,1,8,0:0:0:0:
252,84,50826,1,0,0:0:0:0:
252,84,50917,1,8,0:0:0:0:
251,83,51190,1,0,0:0:0:0:
249,101,51258,1,0,0:0:0:0:
249,96,51326,1,0,0:0:0:0:
250,91,51394,1,0,0:0:0:0:
249,88,51462,1,8,0:0:0:0:
273,89,51644,1,0,0:0:0:0:
273,89,51735,1,0,0:0:0:0:
260,79,52008,1,8,0:0:0:0:
260,79,52190,1,0,0:0:0:0:
260,79,52280,1,0,0:0:0:0:
266,91,52553,1,8,0:0:0:0:
262,105,52599,1,0,0:0:0:0:
260,101,52644,1,0,0:0:0:0:
260,99,52690,1,0,0:0:0:0:
257,99,52735,1,0,0:0:0:0:
258,99,52780,1,0,0:0:0:0:
259,96,52826,1,8,0:0:0:0:
262,80,53099,1,8,0:0:0:0:
261,83,53371,1,0,0:0:0:0:
261,83,53462,1,0,0:0:0:0:
261,83,53553,1,0,0:0:0:0:
261,83,53644,1,8,0:0:0:0:
238,81,53917,1,0,0:0:0:0:
264,78,54008,1,0,0:0:0:0:
263,76,54099,1,0,0:0:0:0:
264,78,54190,1,8,0:0:0:0:
256,72,54280,1,0,0:0:0:0:
256,72,54371,1,0,0:0:0:0:
274,76,54417,1,0,0:0:0:0:
273,76,54462,1,8,0:0:0:0:
267,78,54735,1,0,0:0:0:0:
271,69,54803,1,0,0:0:0:0:
272,69,54871,1,0,0:0:0:0:
271,66,54940,1,0,0:0:0:0:
271,69,55008,1,8,0:0:0:0:
268,76,55190,1,0,0:0:0:0:
268,76,55280,1,8,0:0:0:0:
275,78,55553,1,0,0:0:0:0:
275,78,55644,1,0,0:0:0:0:
275,78,55735,1,8,0:0:0:0:
275,57,55826,1,8,0:0:0:0:
273,71,56008,1,0,0:0:0:0:
273,71,56099,1,0,0:0:0:0:
272,71,56371,1,8,0:0:0:0:
272,59,56462,1,0,0:0:0:0:
272,59,56553,1,0,0:0:0:0:
272,59,56644,1,8,0:0:0:0:
292,105,56917,1,0,0:0:0:0:
343,134,57053,1,8,0:0:0:0:
292,105,57099,1,8,0:0:0:0:
292,105,57144,1,0,0:0:0:0:
292,105,57190,1,8,0:0:0:0:
302,100,57235,1,0,0:0:0:0:
301,98,57280,1,0,0:0:0:0:
300,97,57326,1,0,0:0:0:0:
300,97,57371,1,0,0:0:0:0:
300,97,57417,1,0,0:0:0:0:
302,100,57462,1,8,0:0:0:0:
299,100,57735,1,0,0:0:0:0:
296,90,57826,1,0,0:0:0:0:
295,89,57917,1,0,0:0:0:0:
296,90,58008,1,8,0:0:0:0:
295,89,58280,1,0,0:0:0:0:
295,89,58371,1,0,0:0:0:0:
295,89,58462,1,0,0:0:0:0:
300,94,58553,1,8,0:0:0:0:
295,89,58644,1,0,0:0:0:0:
300,94,58735,1,0,0:0:0:0:
295,89,58826,1,8,0:0:0:0:
297,86,59099,1,0,0:0:0:0:
301,95,59190,1,0,0:0:0:0:
299,93,59280,1,0,0:0:0:0:
301,95,59371,1,8,0:0:0:0:
301,95,59553,1,0,0:0:0:0:
301,95,59644,1,8,0:0:0:0:
308,80,59917,1,0,0:0:0:0:
308,80,59985,1,0,0:0:0:0:
308,80,60053,1,0,0:0:0:0:
308,80,60121,1,0,0:0:0:0:
308,80,60190,1,8,0:0:0:0:
304,87,60371,1,0,0:0:0:0:
304,87,60462,1,0,0:0:0:0:
304,86,60735,1,8,0:0:0:0:
304,86,60917,1,0,0:0:0:0:
304,86,61008,1,0,0:0:0:0:
294,78,61076,1,0,0:0:0:0:
293,78,61144,1,0,0:0:0:0:
293,78,61212,1,0,0:0:0:0:
294,78,61280,1,8,0:0:0:0:
278,53,61417,1,0,0:0:0:0:
278,53,61485,1,0,0:0:0:0:
282,73,61553,1,8,0:0:0:0:
284,73,61690,1,8,0:0:0:0:
284,73,61826,1,0,0:0:0:0:
279,65,62099,1,8,0:0:0:0:
279,65,62190,1,0,0:0:0:0:
279,65,62280,1,0,0:0:0:0:
279,65,62371,1,8,0:0:0:0:
279,65,62462,1,8,0:0:0:0:
279,65,62553,1,0,0:0:0:0:
279,65,62644,1,8,0:0:0:0:
279,65,62735,1,0,0:0:0:0:
279,65,62826,1,0,0:0:0:0:
279,65,62917,1,8,0:0:0:0:
279,65,63008,1,0,0:0:0:0:
279,65,63099,1,0,0:0:0:0:
279,65,63190,1,8,0:0:0:0:
272,59,63280,1,8,0:0:0:0:
272,59,63371,1,8,0:0:0:0:
272,59,63462,1,0,0:0:0:0:
293,69,63735,1,0,0:0:0:0:
296,60,63803,1,0,0:0:0:0:
296,60,63871,1,0,0:0:0:0:
296,60,63940,1,0,0:0:0:0:
295,69,64008,1,8,0:0:0:0:
291,85,64280,1,0,0:0:0:0:
291,85,64349,1,0,0:0:0:0:
291,85,64417,1,0,0:0:0:0:
291,85,64485,1,0,0:0:0:0:
291,85,64553,1,8,0:0:0:0:
289,76,64735,1,8,0:0:0:0:
290,68,64917,1,0,0:0:0:0:
290,68,65099,1,8,0:0:0:0:
288,57,65280,1,0,0:0:0:0:
288,57,65462,1,0,0:0:0:0:
288,57,65644,1,8,0:0:0:0:
288,57,65780,1,0,0:0:0:0:
288,57,65849,1,0,0:0:0:0:
288,57,65917,1,8,0:0:0:0:
288,57,66053,1,8,0:0:0:0:
286,46,66190,1,0,0:0:0:0:
296,81,66462,1,8,0:0:0:0:
290,86,66553,1,8,0:0:0:0:
296,81,66644,1,0,0:0:0:0:
295,81,66735,1,8,0:0:0:0:
294,66,66826,1,0,0:0:0:0:
289,60,66917,1,0,0:0:0:0:
294,66,67008,1,8,0:0:0:0:
289,73,67099,1,8,0:0:0:0:
294,69,67190,1,0,0:0:0:0:
294,69,67280,1,8,0:0:0:0:
294,69,67371,1,0,0:0:0:0:
294,69,67462,1,0,0:0:0:0:
294,69,67553,1,8,0:0:0:0:
294,69,67644,1,8,0:0:0:0:
294,69,67735,1,8,0:0:0:0:
294,69,67826,1,0,0:0:0:0:
302,62,68099,1,0,0:0:0:0:
302,62,68167,1,0,0:0:0:0:
302,62,68235,1,0,0:0:0:0:
302,62,68303,1,0,0:0:0:0:
302,62,68371,1,8,0:0:0:0:
297,60,68644,1,0,0:0:0:0:
297,60,68712,1,0,0:0:0:0:
297,60,68780,1,0,0:0:0:0:
297,60,68849,1,0,0:0:0:0:
297,60,68917,1,8,0:0:0:0:
297,60,69099,1,8,0:0:0:0:
297,60,69280,1,0,0:0:0:0:
297,60,69462,1,8,0:0:0:0:
297,60,69644,1,0,0:0:0:0:
297,60,69826,1,0,0:0:0:0:
290,51,70008,1,0,0:0:0:0:
290,51,70144,1,8,0:0:0:0:
290,51,70212,1,8,0:0:0:0:
290,51,70280,1,0,0:0:0:0:
290,51,70417,1,8,0:0:0:0:
294,68,70553,1,8,0:0:0:0:
286,55,70690,1,0,0:0:0:0:
286,55,70826,1,0,0:0:0:0:
274,38,70917,1,8,0:0:0:0:
281,43,71008,1,8,0:0:0:0:
289,51,71099,1,0,0:0:0:0:
288,51,71190,1,8,0:0:0:0:
289,51,71280,1,8,0:0:0:0:
288,51,71371,1,0,0:0:0:0:
289,51,71462,1,8,0:0:0:0:
288,51,71553,1,0,0:0:0:0:
289,51,71644,1,8,0:0:0:0:
288,51,71735,1,0,0:0:0:0:
289,51,71826,1,0,0:0:0:0:
288,51,71917,1,8,0:0:0:0:
289,51,72008,1,8,0:0:0:0:
288,51,72099,1,8,0:0:0:0:
289,51,72190,1,0,0:0:0:0:
290,53,72462,1,0,0:0:0:0:
290,53,72530,1,0,0:0:0:0:
290,53,72599,1,0,0:0:0:0:
290,53,72667,1,0,0:0:0:0:
290,53,72735,1,8,0:0:0:0:
289,52,73008,1,0,0:0:0:0:
289,52,73076,1,0,0:0:0:0:
289,52,73144,1,0,0:0:0:0:
289,52,73212,1,0,0:0:0:0:
289,52,73280,1,8,0:0:0:0:
296,51,73462,1,8,0:0:0:0:
296,51,73644,1,0,0:0:0:0:
296,51,73826,1,8,0:0:0:0:
296,51,74008,1,0,0:0:0:0:
296,51,74190,1,0,0:0:0:0:
290,45,74371,1,8,0:0:0:0:
303,52,74508,1,0,0:0:0:0:
302,53,74576,1,0,0:0:0:0:
303,52,74644,1,8,0:0:0:0:
302,53,74780,1,8,0:0:0:0:
261,90,75190,1,8,0:0:0:0:
267,80,75280,1,8,0:0:0:0:
267,80,75371,1,0,0:0:0:0:
267,80,75462,1,8,0:0:0:0:
267,80,75553,1,0,0:0:0:0:
272,76,75644,1,0,0:0:0:0:
272,76,75735,1,8,0:0:0:0:
272,76,75826,1,8,0:0:0:0:
272,76,75917,1,0,0:0:0:0:
272,76,76008,1,8,0:0:0:0:
272,76,76099,1,0,0:0:0:0:
272,76,76190,1,0,0:0:0:0:
272,76,76280,1,8,0:0:0:0:
272,76,76371,1,8,0:0:0:0:
272,76,76462,1,8,0:0:0:0:
272,76,76553,1,0,0:0:0:0:
256,80,76826,1,0,0:0:0:0:
256,80,76894,1,0,0:0:0:0:
256,80,76962,1,0,0:0:0:0:
256,80,77030,1,0,0:0:0:0:
256,80,77099,1,8,0:0:0:0:
258,76,77371,1,0,0:0:0:0:
258,76,77440,1,0,0:0:0:0:
258,76,77508,1,0,0:0:0:0:
258,76,77576,1,0,0:0:0:0:
258,76,77644,1,8,0:0:0:0:
258,76,77826,1,8,0:0:0:0:
267,78,78008,1,0,0:0:0:0:
267,78,78190,1,8,0:0:0:0:
267,78,78371,1,8,0:0:0:0:
267,78,78553,1,8,0:0:0:0:
267,78,78735,1,0,0:0:0:0:
278,83,78803,1,0,0:0:0:0:
278,83,78871,1,8,0:0:0:0:
278,83,78940,1,8,0:0:0:0:
278,83,79008,1,8,0:0:0:0:
278,83,79076,1,8,0:0:0:0:
278,83,79144,1,8,0:0:0:0:
278,83,79212,1,8,0:0:0:0:
278,83,79280,1,8,0:0:0:0:
278,83,79349,1,8,0:0:0:0:
278,83,79417,1,8,0:0:0:0:
278,83,79485,1,8,0:0:0:0:
278,83,79553,1,8,0:0:0:0:
278,83,79621,1,8,0:0:0:0:
278,83,79690,1,8,0:0:0:0:
278,83,79758,1,8,0:0:0:0:
278,83,79826,1,0,0:0:0:0:
266,85,80008,1,8,0:0:0:0:
266,85,80099,1,0,0:0:0:0:
266,85,80190,1,0,0:0:0:0:
266,85,80371,1,8,0:0:0:0:
266,85,80553,1,0,0:0:0:0:
266,85,80644,1,0,0:0:0:0:
266,85,80735,1,8,0:0:0:0:
266,85,80917,1,0,0:0:0:0:
262,76,81099,1,8,0:0:0:0:
262,76,81190,1,8,0:0:0:0:
262,76,81280,1,0,0:0:0:0:
269,77,81462,1,8,0:0:0:0:
259,76,81644,1,0,0:0:0:0:
259,76,81735,1,8,0:0:0:0:
259,76,81826,1,8,0:0:0:0:
269,77,82008,1,0,0:0:0:0:
258,69,82190,1,8,0:0:0:0:
258,69,82280,1,0,0:0:0:0:
258,69,82371,1,0,0:0:0:0:
269,77,82553,1,8,0:0:0:0:
259,68,82735,1,0,0:0:0:0:
259,68,82826,1,0,0:0:0:0:
259,68,82917,1,8,0:0:0:0:
259,68,83099,1,0,0:0:0:0:
268,72,83167,1,0,0:0:0:0:
259,68,83235,1,0,0:0:0:0:
258,59,83303,1,0,0:0:0:0:
260,61,83371,1,0,0:0:0:0:
260,61,83440,1,0,0:0:0:0:
258,59,83508,1,0,0:0:0:0:
260,61,83576,1,0,0:0:0:0:
260,61,83644,1,8,0:0:0:0:
286,71,83826,1,0,0:0:0:0:
274,65,83917,1,0,0:0:0:0:
258,54,84190,1,0,0:0:0:0:
258,54,84371,1,8,0:0:0:0:
258,54,84462,1,8,0:0:0:0:
258,54,84553,1,0,0:0:0:0:
272,56,84735,1,8,0:0:0:0:
257,48,84917,1,0,0:0:0:0:
257,48,85008,1,0,0:0:0:0:
262,54,85099,1,8,0:0:0:0:
272,56,85280,1,0,0:0:0:0:
267,49,85462,1,8,0:0:0:0:
267,49,85553,1,8,0:0:0:0:
267,49,85644,1,0,0:0:0:0:
272,56,85826,1,8,0:0:0:0:
266,49,86008,1,0,0:0:0:0:
266,49,86099,1,0,0:0:0:0:
266,49,86190,1,8,0:0:0:0:
272,56,86371,1,0,0:0:0:0:
261,44,86553,1,8,0:0:0:0:
261,44,86644,1,8,0:0:0:0:
261,44,86735,1,0,0:0:0:0:
272,56,86917,1,8,0:0:0:0:
264,51,87099,1,0,0:0:0:0:
264,51,87190,1,8,0:0:0:0:
264,51,87280,1,0,0:0:0:0:
256,49,87462,1,0,0:0:0:0:
259,57,87530,1,0,0:0:0:0:
258,56,87599,1,0,0:0:0:0:
258,56,87667,1,0,0:0:0:0:
259,57,87735,1,0,0:0:0:0:
258,56,87803,1,0,0:0:0:0:
258,56,87871,1,0,0:0:0:0:
259,49,87940,1,0,0:0:0:0:
261,46,88008,1,8,0:0:0:0:
266,54,88144,1,0,0:0:0:0:
263,55,88212,1,0,0:0:0:0:
266,54,88280,1,8,0:0:0:0:
260,47,88349,1,8,0:0:0:0:
260,47,88417,1,8,0:0:0:0:
261,48,88485,1,8,0:0:0:0:
260,47,88553,1,0,0:0:0:0:
264,59,88735,1,8,0:0:0:0:
264,59,88826,1,8,0:0:0:0:
264,59,88917,1,0,0:0:0:0:
264,59,89099,1,8,0:0:0:0:
264,59,89280,1,0,0:0:0:0:
264,59,89371,1,8,0:0:0:0:
260,42,89462,1,8,0:0:0:0:
258,52,89644,1,0,0:0:0:0:
258,52,89826,1,8,0:0:0:0:
253,42,89917,1,0,0:0:0:0:
253,42,90008,1,8,0:0:0:0:
259,47,90190,1,8,0:0:0:0:
253,42,90371,1,0,0:0:0:0:
253,42,90462,1,0,0:0:0:0:
253,42,90553,1,8,0:0:0:0:
266,44,90735,1,0,0:0:0:0:
266,44,90917,1,8,0:0:0:0:
266,44,91008,1,0,0:0:0:0:
266,44,91099,1,8,0:0:0:0:
266,44,91280,1,8,0:0:0:0:
266,44,91462,1,0,0:0:0:0:
266,44,91553,1,0,0:0:0:0:
266,44,91644,1,8,0:0:0:0:
266,44,91826,1,0,0:0:0:0:
288,60,91894,1,0,0:0:0:0:
286,56,91962,1,8,0:0:0:0:
285,55,92030,1,8,0:0:0:0:
288,60,92099,1,8,0:0:0:0:
286,56,92167,1,8,0:0:0:0:
285,55,92235,1,8,0:0:0:0:
284,53,92303,1,8,0:0:0:0:
286,56,92371,1,8,0:0:0:0:
303,83,92644,1,8,0:0:0:0:
303,83,92712,1,8,0:0:0:0:
303,83,92780,1,8,0:0:0:0:
303,83,92849,1,8,0:0:0:0:
303,83,92917,1,0,0:0:0:0:
290,86,93099,1,8,0:0:0:0:
290,87,93190,1,0,0:0:0:0:
290,86,93280,1,0,0:0:0:0:
290,86,93462,1,8,0:0:0:0:
290,77,93644,1,0,0:0:0:0:
290,77,93735,1,0,0:0:0:0:
290,77,93826,1,8,0:0:0:0:
290,84,94008,1,0,0:0:0:0:
290,84,94190,1,8,0:0:0:0:
290,84,94280,1,8,0:0:0:0:
290,84,94371,1,0,0:0:0:0:
290,84,94553,1,8,0:0:0:0:
290,84,94735,1,0,0:0:0:0:
290,84,94826,1,8,0:0:0:0:
290,84,94917,1,8,0:0:0:0:
290,84,95099,1,0,0:0:0:0:
288,77,95280,1,8,0:0:0:0:
288,77,95371,1,0,0:0:0:0:
288,77,95462,1,0,0:0:0:0:
290,84,95644,1,8,0:0:0:0:
290,84,95826,1,0,0:0:0:0:
290,84,95917,1,0,0:0:0:0:
290,84,96008,1,8,0:0:0:0:
289,84,96190,1,4,0:0:0:0:
285,80,98371,1,8,0:0:0:0:
268,82,98508,1,0,0:0:0:0:
268,82,98644,1,0,0:0:0:0:
315,110,100076,1,8,0:0:0:0:
274,83,100144,1,8,0:0:0:0:
274,83,100212,1,8,0:0:0:0:
274,83,100280,1,8,0:0:0:0:
274,83,100349,1,8,0:0:0:0:
274,83,100417,1,8,0:0:0:0:
274,83,100485,1,8,0:0:0:0:
265,88,100553,1,0,0:0:0:0:
253,79,100690,1,0,0:0:0:0:
253,79,100826,1,0,0:0:0:0:
281,78,101099,1,8,0:0:0:0:
272,73,102190,1,8,0:0:0:0:
270,73,102735,1,8,0:0:0:0:
270,73,102871,1,8,0:0:0:0:
270,73,103008,1,0,0:0:0:0:
270,73,103280,1,8,0:0:0:0:
270,72,104371,1,8,0:0:0:0:
294,75,104644,1,8,0:0:0:0:
294,75,104712,1,8,0:0:0:0:
294,75,104780,1,8,0:0:0:0:
294,75,104849,1,8,0:0:0:0:
289,68,104917,1,0,0:0:0:0:
288,68,105462,1,8,0:0:0:0:
278,75,106008,1,8,0:0:0:0:
278,75,106553,1,8,0:0:0:0:
278,75,107099,1,8,0:0:0:0:
278,75,107644,1,8,0:0:0:0:
278,75,108190,1,8,0:0:0:0:
278,75,108735,1,8,0:0:0:0:
279,66,108871,1,8,0:0:0:0:
279,65,108940,1,8,0:0:0:0:
279,66,109008,1,8,0:0:0:0:
279,66,109076,1,8,0:0:0:0:
279,65,109144,1,8,0:0:0:0:
279,66,109212,1,8,0:0:0:0:
266,68,109280,1,0,0:0:0:0:
279,81,109826,1,8,0:0:0:0:
279,81,110371,1,8,0:0:0:0:
279,81,110917,1,8,0:0:0:0:
279,81,111462,1,8,0:0:0:0:
279,81,112008,1,8,0:0:0:0:
306,76,114871,1,8,0:0:0:0:
300,76,115144,1,0,0:0:0:0:
293,76,115690,1,8,0:0:0:0:
293,76,115758,1,8,0:0:0:0:
297,69,115826,1,0,0:0:0:0:
302,71,116008,1,8,0:0:0:0:
297,69,116099,1,8,0:0:0:0:
302,71,116190,1,8,0:0:0:0:
297,69,116280,1,8,0:0:0:0:
302,71,116371,1,0,0:0:0:0:
302,71,116553,1,8,0:0:0:0:
301,62,116644,1,8,0:0:0:0:
301,60,116735,1,8,0:0:0:0:
301,62,116826,1,8,0:0:0:0:
301,60,116917,1,0,0:0:0:0:
301,60,117099,1,8,0:0:0:0:
301,60,117190,1,8,0:0:0:0:
301,60,117280,1,8,0:0:0:0:
301,60,117371,1,8,0:0:0:0:
301,60,117462,1,0,0:0:0:0:
301,60,117644,1,8,0:0:0:0:
301,60,117735,1,8,0:0:0:0:
301,60,117826,1,8,0:0:0:0:
301,60,117917,1,8,0:0:0:0:
301,60,118008,1,0,0:0:0:0:
297,66,118190,1,8,0:0:0:0:
297,66,118280,1,8,0:0:0:0:
297,66,118371,1,8,0:0:0:0:
297,66,118462,1,8,0:0:0:0:
297,66,118553,1,0,0:0:0:0:
303,61,118735,1,8,0:0:0:0:
303,61,118826,1,8,0:0:0:0:
303,61,118917,1,8,0:0:0:0:
303,61,119008,1,8,0:0:0:0:
303,61,119099,1,0,0:0:0:0:
303,61,119280,1,8,0:0:0:0:
303,61,119371,1,8,0:0:0:0:
300,54,119462,1,8,0:0:0:0:
303,61,119553,1,8,0:0:0:0:
300,54,119644,1,0,0:0:0:0:
300,54,119826,1,8,0:0:0:0:
300,54,119917,1,8,0:0:0:0:
300,54,119985,1,8,0:0:0:0:
300,54,120053,1,8,0:0:0:0:
311,53,120121,1,8,0:0:0:0:
300,54,120190,1,0,0:0:0:0:
291,51,120326,1,0,0:0:0:0:
297,52,120462,1,8,0:0:0:0:
297,52,120530,1,8,0:0:0:0:
297,52,120599,1,8,0:0:0:0:
297,52,120667,1,8,0:0:0:0:
297,52,120735,1,0,0:0:0:0:
297,52,120871,1,0,0:0:0:0:
297,52,121008,1,8,0:0:0:0:
297,52,121076,1,8,0:0:0:0:
297,52,121144,1,8,0:0:0:0:
288,46,121212,1,8,0:0:0:0:
290,38,121280,1,0,0:0:0:0:
291,38,121417,1,0,0:0:0:0:
291,38,121553,1,8,0:0:0:0:
291,38,121621,1,8,0:0:0:0:
291,38,121690,1,8,0:0:0:0:
291,38,121758,1,8,0:0:0:0:
291,38,121826,1,0,0:0:0:0:
291,38,121962,1,0,0:0:0:0:
291,38,122099,1,8,0:0:0:0:
291,38,122167,1,8,0:0:0:0:
291,38,122235,1,8,0:0:0:0:
291,38,122303,1,8,0:0:0:0:
291,38,122371,1,0,0:0:0:0:
293,36,122917,1,8,0:0:0:0:
293,36,123190,1,0,0:0:0:0:
293,36,123462,1,8,0:0:0:0:
293,35,123871,1,0,0:0:0:0:
216,190,124008,2,0,L|258:181,4,32.6666656697591
284,106,124553,1,0,0:0:0:0:
268,87,124690,1,8,0:0:0:0:
268,87,124758,1,8,0:0:0:0:
268,87,124826,1,8,0:0:0:0:
268,87,124894,1,8,0:0:0:0:
268,87,124962,1,8,0:0:0:0:
268,87,125030,1,8,0:0:0:0:
272,106,125099,1,0,0:0:0:0:
268,78,125235,1,8,0:0:0:0:
268,78,125303,1,8,0:0:0:0:
268,78,125371,1,8,0:0:0:0:
268,78,125440,1,8,0:0:0:0:
268,78,125508,1,8,0:0:0:0:
268,78,125576,1,8,0:0:0:0:
272,106,125644,1,0,0:0:0:0:
268,78,125780,1,8,0:0:0:0:
268,79,125849,1,8,0:0:0:0:
268,78,125917,1,8,0:0:0:0:
268,78,125985,1,8,0:0:0:0:
268,78,126053,1,8,0:0:0:0:
268,78,126121,1,8,0:0:0:0:
270,105,126190,1,0,0:0:0:0:
268,78,126326,1,8,0:0:0:0:
267,78,126394,1,8,0:0:0:0:
268,78,126462,1,8,0:0:0:0:
268,78,126530,1,8,0:0:0:0:
268,78,126599,1,8,0:0:0:0:
268,78,126667,1,8,0:0:0:0:
270,105,126735,1,0,0:0:0:0:
268,78,126871,1,8,0:0:0:0:
265,79,126940,1,8,0:0:0:0:
268,78,127008,1,8,0:0:0:0:
265,79,127076,1,8,0:0:0:0:
265,79,127144,1,8,0:0:0:0:
268,78,127212,1,8,0:0:0:0:
270,105,127280,1,0,0:0:0:0:
268,78,127417,1,8,0:0:0:0:
268,78,127485,1,8,0:0:0:0:
265,80,127553,1,8,0:0:0:0:
268,78,127621,1,8,0:0:0:0:
268,78,127690,1,8,0:0:0:0:
265,80,127758,1,8,0:0:0:0:
270,105,127826,1,0,0:0:0:0:
246,127,127962,1,8,0:0:0:0:
246,127,128030,1,8,0:0:0:0:
246,127,128099,1,8,0:0:0:0:
246,127,128167,1,8,0:0:0:0:
246,127,128235,1,8,0:0:0:0:
246,127,128303,1,8,0:0:0:0:
270,105,128371,1,0,0:0:0:0:
246,127,128508,1,8,0:0:0:0:
262,97,128576,1,8,0:0:0:0:
245,122,128644,1,8,0:0:0:0:
261,99,128712,1,8,0:0:0:0:
245,122,128780,1,8,0:0:0:0:
261,99,128849,1,8,0:0:0:0:
262,97,128917,1,0,0:0:0:0:
254,86,129053,1,8,0:0:0:0:
259,84,129121,1,8,0:0:0:0:
253,86,129190,1,8,0:0:0:0:
254,86,129258,1,8,0:0:0:0:
259,84,129326,1,8,0:0:0:0:
253,86,129394,1,8,0:0:0:0:
268,97,129462,1,0,0:0:0:0:
261,86,129599,1,0,0:0:0:0:
261,86,129667,1,0,0:0:0:0:
261,86,129735,1,0,0:0:0:0:
261,86,129803,1,0,0:0:0:0:
269,79,129871,1,0,0:0:0:0:
261,86,129940,1,0,0:0:0:0:
261,86,130008,1,8,0:0:0:0:
200,173,130553,2,4,L|246:165,20,41.9999987182618
284,80,132190,1,0,0:0:0:0:
283,70,132371,1,8,0:0:0:0:
284,71,132462,1,8,0:0:0:0:
284,71,132553,1,0,0:0:0:0:
279,81,132735,1,8,0:0:0:0:
283,70,132917,1,0,0:0:0:0:
283,70,133008,1,0,0:0:0:0:
283,70,133099,1,8,0:0:0:0:
279,81,133280,1,0,0:0:0:0:
281,69,133462,1,8,0:0:0:0:
281,69,133553,1,0,0:0:0:0:
281,69,133644,1,0,0:0:0:0:
279,79,133826,1,8,0:0:0:0:
279,69,134008,1,0,0:0:0:0:
279,69,134099,1,8,0:0:0:0:
279,69,134190,1,8,0:0:0:0:
279,79,134371,1,0,0:0:0:0:
279,66,134553,1,8,0:0:0:0:
279,66,134644,1,8,0:0:0:0:
281,59,134735,1,0,0:0:0:0:
279,79,134917,1,8,0:0:0:0:
280,58,135099,1,0,0:0:0:0:
280,58,135190,1,0,0:0:0:0:
280,58,135280,1,8,0:0:0:0:
279,78,135462,1,0,0:0:0:0:
248,112,135530,1,0,0:0:0:0:
287,108,135599,1,0,0:0:0:0:
284,106,135667,1,0,0:0:0:0:
283,105,135735,1,0,0:0:0:0:
287,108,135803,1,0,0:0:0:0:
284,106,135871,1,0,0:0:0:0:
283,105,135940,1,0,0:0:0:0:
278,78,136008,1,8,0:0:0:0:
286,83,136280,1,8,0:0:0:0:
286,83,136349,1,8,0:0:0:0:
286,83,136417,1,8,0:0:0:0:
286,83,136485,1,8,0:0:0:0:
278,78,136553,1,0,0:0:0:0:
285,68,136735,1,8,0:0:0:0:
285,68,136826,1,8,0:0:0:0:
285,68,136917,1,0,0:0:0:0:
278,78,137099,1,8,0:0:0:0:
282,66,137280,1,0,0:0:0:0:
282,66,137371,1,0,0:0:0:0:
282,66,137462,1,8,0:0:0:0:
276,76,137644,1,0,0:0:0:0:
282,66,137826,1,8,0:0:0:0:
282,66,137917,1,0,0:0:0:0:
282,66,138008,1,0,0:0:0:0:
276,76,138190,1,8,0:0:0:0:
280,65,138371,1,0,0:0:0:0:
280,65,138462,1,8,0:0:0:0:
280,65,138553,1,8,0:0:0:0:
276,76,138735,1,0,0:0:0:0:
280,65,138917,1,8,0:0:0:0:
280,65,139008,1,8,0:0:0:0:
280,65,139099,1,0,0:0:0:0:
276,76,139280,1,8,0:0:0:0:
279,64,139462,1,0,0:0:0:0:
279,64,139553,1,0,0:0:0:0:
279,64,139644,1,8,0:0:0:0:
276,76,139826,1,0,0:0:0:0:
279,87,139894,1,0,0:0:0:0:
277,84,139962,1,0,0:0:0:0:
277,84,140030,1,0,0:0:0:0:
279,87,140099,1,0,0:0:0:0:
277,84,140167,1,0,0:0:0:0:
277,84,140235,1,0,0:0:0:0:
279,87,140303,1,0,0:0:0:0:
276,75,140371,1,8,0:0:0:0:
279,87,140508,1,0,0:0:0:0:
276,86,140576,1,0,0:0:0:0:
281,77,140644,1,8,0:0:0:0:
281,77,140712,1,8,0:0:0:0:
281,77,140780,1,8,0:0:0:0:
281,77,140849,1,8,0:0:0:0:
302,78,140917,1,0,0:0:0:0:
285,68,141099,1,8,0:0:0:0:
282,68,141190,1,0,0:0:0:0:
285,68,141280,1,8,0:0:0:0:
296,79,141462,1,8,0:0:0:0:
286,68,141644,1,0,0:0:0:0:
286,68,141735,1,8,0:0:0:0:
286,68,141826,1,0,0:0:0:0:
296,79,142008,1,0,0:0:0:0:
288,68,142190,1,8,0:0:0:0:
288,68,142280,1,0,0:0:0:0:
288,68,142371,1,8,0:0:0:0:
296,79,142553,1,8,0:0:0:0:
288,68,142735,1,0,0:0:0:0:
288,68,142826,1,8,0:0:0:0:
288,68,142917,1,0,0:0:0:0:
296,79,143099,1,0,0:0:0:0:
287,73,143280,1,8,0:0:0:0:
287,73,143371,1,0,0:0:0:0:
287,73,143462,1,8,0:0:0:0:
296,79,143644,1,8,0:0:0:0:
287,72,143826,1,0,0:0:0:0:
287,72,143917,1,8,0:0:0:0:
287,72,144008,1,0,0:0:0:0:
295,81,144190,1,0,0:0:0:0:
301,79,144258,1,0,0:0:0:0:
301,79,144326,1,0,0:0:0:0:
301,79,144394,1,0,0:0:0:0:
301,79,144462,1,0,0:0:0:0:
301,79,144530,1,0,0:0:0:0:
301,79,144599,1,0,0:0:0:0:
301,79,144667,1,0,0:0:0:0:
295,81,144735,1,8,0:0:0:0:
290,75,145008,1,8,0:0:0:0:
290,75,145076,1,8,0:0:0:0:
290,75,145144,1,8,0:0:0:0:
290,75,145212,1,8,0:0:0:0:
295,81,145280,1,0,0:0:0:0:
295,81,145462,1,8,0:0:0:0:
295,81,145553,1,0,0:0:0:0:
290,74,145644,1,8,0:0:0:0:
295,81,145826,1,8,0:0:0:0:
290,73,146008,1,0,0:0:0:0:
290,73,146099,1,8,0:0:0:0:
290,73,146190,1,0,0:0:0:0:
295,81,146371,1,0,0:0:0:0:
287,70,146553,1,8,0:0:0:0:
287,70,146644,1,0,0:0:0:0:
287,70,146735,1,8,0:0:0:0:
295,81,146917,1,8,0:0:0:0:
289,67,147099,1,0,0:0:0:0:
289,67,147190,1,8,0:0:0:0:
289,67,147280,1,0,0:0:0:0:
295,81,147462,1,0,0:0:0:0:
289,67,147644,1,8,0:0:0:0:
289,67,147735,1,0,0:0:0:0:
289,67,147826,1,8,0:0:0:0:
295,81,148008,1,8,0:0:0:0:
289,67,148190,1,0,0:0:0:0:
289,67,148280,1,8,0:0:0:0:
289,67,148371,1,0,0:0:0:0:
295,81,148553,1,4,0:0:0:0:
