osu file format v14

[General]
AudioFilename: audio.mp3
AudioLeadIn: 0
PreviewTime: 55037
Countdown: 3
SampleSet: Drum
StackLeniency: 0.5
Mode: 0
LetterboxInBreaks: 0
WidescreenStoryboard: 0

[Editor]
Bookmarks: 36751,55037,73322,82465,91608,109894,128180
DistanceSpacing: 0.8
BeatDivisor: 4
GridSize: 16
TimelineZoom: 2.4

[Metadata]
Title:DESIRE
TitleUnicode:慾望
Artist:onumi
ArtistUnicode:オヌミ
Creator:Hectic
Version:Hard
Source:
Tags:leader mirash h4d0uk3n1 electronic instrumental Childhood Friend experimental electro progressive mappers' guild osu! featured artist fa
BeatmapID:2201400
BeatmapSetID:1043754

[Difficulty]
HPDrainRate:4.5
CircleSize:4
OverallDifficulty:7
ApproachRate:8
SliderMultiplier:1.4
SliderTickRate:1

[Events]
//Background and Video events
0,0,"bg.jpg",0,0
//Break Periods
//Storyboard Layer 0 (Background)
//Storyboard Layer 1 (Fail)
//Storyboard Layer 2 (Pass)
//Storyboard Layer 3 (Foreground)
//Storyboard Layer 4 (Overlay)
//Storyboard Sound Samples

[TimingPoints]
196,285.714285714286,4,3,3,40,1,0
296,-100,4,3,3,40,0,0
55624,-100,4,3,3,90,0,0
56053,-100,4,3,3,90,0,1
64196,-100,4,3,3,90,0,0
65196,-100,4,3,3,90,0,1
73338,-100,4,3,3,75,0,0
83053,-100,4,3,4,75,0,0
91124,-100,4,3,4,20,0,0
91196,-100,4,3,4,30,0,0
91267,-100,4,3,4,40,0,0
91338,-100,4,3,4,50,0,0
91410,-100,4,3,4,60,0,0
91481,-100,4,3,4,70,0,0
91553,-100,4,3,4,80,0,0
91624,-100,4,3,4,75,0,0
92196,-125,4,3,3,80,0,0
95910,-125,4,3,4,80,0,0
96196,-125,4,3,5,30,0,0
96338,-125,4,3,5,50,0,0
96481,-125,4,3,5,80,0,0
96767,-125,4,3,3,80,0,0
100767,-125,4,3,3,40,0,0
101338,-125,4,3,3,80,0,0
105053,-125,4,3,4,80,0,0
105338,-125,4,3,5,30,0,0
105481,-125,4,3,5,50,0,0
105624,-125,4,3,5,80,0,0
105910,-125,4,3,3,80,0,0
109910,-125,4,3,3,75,0,0
112767,-125,4,3,4,75,0,0
114481,-125,4,3,3,75,0,0
115053,-125,4,3,5,75,0,0
121624,-125,4,3,3,75,0,0
121910,-125,4,3,4,75,0,0
123624,-125,4,3,3,75,0,0
124196,-125,4,3,5,75,0,0
127053,-125,4,3,4,75,0,0

[Colours]
Combo1 : 249,213,66
Combo2 : 73,201,12
Combo3 : 244,64,64
Combo4 : 9,151,151

[HitObjects]
256,192,53910,12,0,55053,0:0:0:0:
98,124,55624,5,8,0:0:0:0:
171,147,55767,1,0,0:0:0:0:
298,59,56053,6,0,P|253:116|276:207,1,140,4|0,0:0|0:0,0:0:0:0:
314,232,56481,2,0,P|320:270|304:314,1,70,0|0,0:0|0:0,0:0:0:0:
240,329,56767,2,0,L|118:322,2,105,8|0|0,0:0|0:0|0:0,0:0:0:0:
298,378,57338,6,0,L|457:372,1,140,4|0,0:0|0:0,0:0:0:0:
499,230,57910,1,8,0:0:0:0:
437,184,58053,2,0,P|391:186|357:206,1,70,0|0,0:0|0:0,0:0:0:0:
315,140,58338,2,0,P|282:172|268:224,1,70,0|0,0:0|0:0,0:0:0:0:
164,305,58767,2,0,P|159:255|135:211,1,70,4|0,0:0|0:0,0:0:0:0:
97,181,59053,2,0,L|55:174,8,35,8|0|0|0|0|0|0|0|0,0:0|0:0|0:0|0:0|0:0|0:0|0:0|0:0|0:0,0:0:0:0:
249,204,59910,5,4,0:0:0:0:
397,163,60196,1,8,0:0:0:0:
466,195,60338,2,0,L|381:186,1,70,0|0,0:0|0:0,0:0:0:0:
327,222,60624,1,4,0:0:0:0:
181,272,60910,1,0,0:0:0:0:
109,243,61053,2,0,L|29:235,1,70,0|0,0:0|0:0,0:0:0:0:
18,161,61338,5,8,0:0:0:0:
133,151,61553,1,0,0:0:0:0:
125,35,61767,1,0,0:0:0:0:
52,59,61910,6,0,L|209:73,1,140,4|0,0:0|0:0,0:0:0:0:
344,88,62481,1,8,0:0:0:0:
360,12,62624,2,0,L|364:104,1,70,0|0,0:0|0:0,0:0:0:0:
405,146,62910,2,0,L|409:238,1,70,0|0,0:0|0:0,0:0:0:0:
267,279,63338,2,0,L|263:209,1,70,4|0,0:0|0:0,0:0:0:0:
259,131,63624,2,0,L|257:94,8,35,8|0|0|0|0|0|0|0|0,0:0|0:0|0:0|0:0|0:0|0:0|0:0|0:0|0:0,0:0:0:0:
259,131,64767,5,8,0:0:0:0:
202,183,64910,2,0,P|161:184|121:210,1,70
64,161,65196,6,0,P|115:208|135:275,1,140,4|0,0:0|0:0,0:0:0:0:
105,350,65624,2,0,L|184:359,1,70
246,329,65910,2,0,L|370:320,2,105,8|0|0,0:0|0:0|0:0,0:0:0:0:
205,263,66481,6,0,P|184:205|220:122,1,140,4|0,0:0|0:0,0:0:0:0:
340,52,67053,1,8,0:0:0:0:
296,115,67196,2,0,P|248:126|206:119,1,70
164,80,67481,1,0,0:0:0:0:
19,134,67767,1,0,0:0:0:0:
82,177,67910,2,0,P|91:214|87:262,1,70,4|0,0:0|0:0,0:0:0:0:
54,314,68196,2,0,L|58:357,8,35,8|0|0|0|0|0|0|0|0,0:0|0:0|0:0|0:0|0:0|0:0|0:0|0:0|0:0,0:0:0:0:
199,264,69053,5,4,0:0:0:0:
349,293,69338,1,8,0:0:0:0:
334,368,69481,2,0,L|336:272,1,70
296,230,69767,2,0,L|292:155,1,70,4|0,0:0|0:0,0:0:0:0:
142,197,70196,2,0,L|145:266,1,70
95,325,70481,5,8,0:0:0:0:
208,349,70696,1,0,0:0:0:0:
307,291,70910,1,0,0:0:0:0:
359,347,71053,6,0,P|344:305|354:199,1,140,4|0,0:0|0:0,0:0:0:0:
460,104,71624,1,8,0:0:0:0:
397,59,71767,2,0,L|321:66,1,70
249,71,72053,2,0,L|179:77,1,70
56,170,72481,2,0,L|125:176,1,70,4|0,0:0|0:0,0:0:0:0:
181,230,72767,2,0,P|228:222|213:378,1,280,8|0,0:0|0:0,0:0:0:0:
220,377,73910,5,8,0:0:0:0:
69,345,74196,1,0,0:0:0:0:
3,306,74338,6,0,P|112:293|133:202,1,210,4|0,0:0|0:0,0:0:0:0:
249,104,75053,1,8,0:0:0:0:
400,129,75338,1,0,0:0:0:0:
495,7,75624,6,0,P|478:113|477:164,1,140,4|0,0:0|0:0,0:0:0:0:
431,293,76196,2,0,P|410:223|398:138,2,140,8|0|0,0:0|0:0|0:0,0:0:0:0:
303,378,77053,1,4,0:0:0:0:
368,239,77338,2,0,P|377:165|373:76,1,140,8|0,0:0|0:0,0:0:0:0:
241,22,77910,6,0,P|281:73|294:174,1,140,0|4,0:0|2:3,0:0:0:0:
197,262,78481,1,8,0:0:0:0:
50,212,78767,1,0,0:0:0:0:
66,136,78910,2,0,L|79:357,1,210,4|0,0:0|0:0,0:0:0:0:
232,342,79624,2,0,L|245:182,1,140,8|0,0:0|0:0,0:0:0:0:
257,48,80196,5,4,0:0:0:0:
367,154,80481,1,0,0:0:0:0:
217,118,80767,2,0,P|140:148|96:207,1,140,8|0,0:0|0:0,0:0:0:0:
93,344,81338,5,0,0:0:0:0:
181,217,81624,1,4,0:0:0:0:
148,66,81910,2,0,P|147:175|119:366,1,280,8|0,0:0|0:0,0:0:0:0:
123,344,83053,5,10,0:0:0:0:
123,344,83196,2,0,P|164:343|210:364,1,70,2|0,0:0|0:0,0:0:0:0:
267,345,83481,2,0,P|277:247|267:129,1,210,6|2,0:0|0:0,0:0:0:0:
232,67,84053,1,2,0:0:0:0:
232,67,84196,2,0,L|162:74,1,70,10|0,0:0|0:0,0:0:0:0:
86,88,84481,2,0,L|155:91,1,70,2|2,0:0|0:0,0:0:0:0:
125,5,84767,6,0,P|134:62|137:232,1,210,4|0,0:0|0:0,0:0:0:0:
65,238,85338,2,0,L|219:258,1,140,10|2,0:0|0:0,0:0:0:0:
231,331,85767,2,0,L|90:343,1,140,2|2,0:0|0:0,0:0:0:0:
17,318,86196,2,0,L|103:328,1,70,6|2,0:0|0:0,0:0:0:0:
159,300,86481,2,0,L|157:260,8,35,10|0|0|0|0|0|0|0|0,0:0|0:0|0:0|0:0|0:0|0:0|0:0|0:0|0:0,0:0:0:0:
311,320,87338,1,4,2:3:0:0:
438,233,87624,5,10,0:0:0:0:
438,233,87767,2,0,L|430:153,1,70,2|0,0:0|0:0,0:0:0:0:
414,87,88053,2,0,L|437:323,1,210,6|2,0:0|0:0,0:0:0:0:
382,352,88624,1,2,0:0:0:0:
382,352,88767,2,0,P|342:327|311:319,1,70,10|0,0:0|0:0,0:0:0:0:
284,251,89053,2,0,P|238:269|208:292,1,70,2|2,0:0|0:0,0:0:0:0:
158,235,89338,6,0,P|186:267|79:344,1,210,4|0,0:0|0:0,0:0:0:0:
55,283,89910,2,0,P|51:235|54:193,1,70,10|0,0:0|0:0,0:0:0:0:
101,153,90196,1,2,0:0:0:0:
101,153,90338,2,0,P|111:109|133:66,1,70,2|0,0:0|0:0,0:0:0:0:
194,112,90624,2,0,P|226:86|267:71,2,70,2|6|2,0:0|0:0|0:0,0:0:0:0:
251,164,91053,2,0,P|334:164|413:325,1,280,10|0,0:0|0:0,0:0:0:0:
414,321,92196,5,4,0:0:0:0:
414,321,92338,2,0,L|281:314,1,112,0|0,0:0|0:0,0:0:0:0:
251,261,92767,1,4,0:0:0:0:
251,261,92910,2,0,L|260:183,2,56,0|0|0,0:0|0:0|0:0,0:0:0:0:
187,296,93338,2,0,L|190:392,2,84,4|0|0,0:0|0:0|0:0,0:0:0:0:
139,239,93910,6,0,P|148:187|9:172,1,224,4|4,0:0|0:0,0:0:0:0:
75,202,94624,2,0,P|103:157|125:81,1,112,0|0,0:0|0:0,0:0:0:0:
182,60,95053,1,4,0:0:0:0:
232,112,95196,2,0,P|234:153|231:171,2,56,0|0|0,0:0|0:0|0:0,0:0:0:0:
302,91,95624,6,0,P|382:87|474:45,1,168,4|2,0:0|0:0,0:0:0:0:
506,111,96196,2,0,B|515:157|515:157|464:210|464:210|476:276,1,168,6|2,0:0|0:0,0:0:0:0:
439,321,96767,5,4,0:0:0:0:
439,321,96910,2,0,P|373:329|313:317,1,112,0|0,0:0|0:0,0:0:0:0:
277,270,97338,1,4,0:0:0:0:
277,270,97481,2,0,P|234:281|205:297,2,56,0|0|0,0:0|0:0|0:0,0:0:0:0:
299,200,97910,2,0,P|264:185|204:172,2,84,4|0|0,0:0|0:0|0:0,0:0:0:0:
359,159,98481,6,0,P|341:195|309:338,1,168,4|0,0:0|0:0,0:0:0:0:
384,344,99053,1,4,0:0:0:0:
384,344,99196,2,0,P|400:299|468:260,1,112,0|0,0:0|0:0,0:0:0:0:
482,197,99624,1,4,0:0:0:0:
482,197,99767,2,0,P|492:155|485:121,2,56,0|0|0,0:0|0:0|0:0,0:0:0:0:
417,161,100196,2,0,P|349:149|184:149,1,224,4|4,0:0|0:0,0:0:0:0:
194,147,101338,5,8,0:0:0:0:
194,147,101481,2,0,P|201:188|201:212,1,56,0|0,0:0|0:0,0:0:0:0:
133,230,101767,2,0,P|124:264|110:292,1,56,0|4,0:0|0:0,0:0:0:0:
44,265,102053,2,0,P|23:289|0:307,2,56,0|0|0,0:0|0:0|0:0,0:0:0:0:
58,193,102481,5,4,0:0:0:0:
46,84,102696,1,0,0:0:0:0:
154,69,102910,1,0,0:0:0:0:
192,6,103053,6,0,L|173:198,1,168,4|0,0:0|0:0,0:0:0:0:
225,234,103624,1,4,0:0:0:0:
225,234,103767,2,0,P|257:244|284:265,1,56,0|0,0:0|0:0,0:0:0:0:
347,240,104053,2,0,P|353:275|349:311,1,56,0|4,0:0|0:0,0:0:0:0:
422,312,104338,2,0,P|409:352|393:379,2,56,0|0|0,0:0|0:0|0:0,0:0:0:0:
482,269,104767,6,0,L|475:92,1,168,4|2,0:0|0:0,0:0:0:0:
434,40,105338,2,0,B|461:66|461:66|465:161|465:161|442:198,1,168,6|2,0:0|0:0,0:0:0:0:
390,142,105910,5,4,0:0:0:0:
390,142,106053,2,0,L|327:135,1,56,0|0,0:0|0:0,0:0:0:0:
290,77,106338,2,0,L|224:82,1,56,0|4,0:0|0:0,0:0:0:0:
187,24,106624,2,0,L|115:39,2,56,0|0|0,0:0|0:0|0:0,0:0:0:0:
258,7,107053,5,4,0:0:0:0:
359,46,107267,1,0,0:0:0:0:
317,146,107481,1,0,0:0:0:0:
386,168,107624,6,0,P|346:165|274:273,1,168,4|0,0:0|0:0,0:0:0:0:
216,303,108196,1,4,0:0:0:0:
216,303,108338,2,0,P|172:310|137:307,1,56,0|0,0:0|0:0,0:0:0:0:
152,236,108624,2,0,P|125:219|110:198,1,56,0|4,0:0|0:0,0:0:0:0:
172,160,108910,2,0,P|174:121|187:91,2,56,0|0|0,0:0|0:0|0:0,0:0:0:0:
244,155,109338,2,0,P|253:132|263:121,8,28,4|0|0|0|0|0|0|0|0,0:0|0:0|0:0|0:0|0:0|0:0|0:0|0:0|0:0,0:0:0:0:
244,155,110481,6,0,P|281:183|327:243,1,112,12|0,0:0|0:0,0:0:0:0:
465,261,111053,2,0,P|452:318|414:388,1,112,4|0,0:0|0:0,0:0:0:0:
294,310,111624,2,0,P|230:303|166:279,1,112,4|0,0:0|0:0,0:0:0:0:
179,141,112196,6,0,L|175:17,1,112,4|0,0:0|0:0,0:0:0:0:
103,155,112767,1,14,0:0:0:0:
241,200,113053,1,2,0:0:0:0:
289,63,113338,1,6,0:0:0:0:
428,104,113624,1,2,0:0:0:0:
384,243,113910,1,6,0:0:0:0:
241,200,114196,1,2,0:0:0:0:
277,59,114481,5,0,0:0:0:0:
277,59,115053,1,14,0:0:0:0:
277,59,115196,2,0,P|300:117|299:180,1,112,2|2,0:0|0:0,0:0:0:0:
254,221,115624,1,4,0:0:0:0:
254,221,115767,2,0,P|224:224|199:233,2,56,2|2|2,0:0|0:0|0:0,0:0:0:0:
307,271,116196,2,0,P|344:291|384:334,2,84,6|2|2,0:0|0:0|0:0,0:0:0:0:
255,323,116767,6,0,P|214:321|131:337,1,112,4|0,0:0|0:0,0:0:0:0:
48,222,117338,1,14,0:0:0:0:
48,222,117481,2,0,P|87:235|105:246,1,56,2|0,0:0|0:0,0:0:0:0:
161,203,117767,2,0,P|152:162|153:141,1,56,2|4,0:0|0:0,0:0:0:0:
89,115,118053,2,0,P|58:142|39:152,2,56,2|2|2,0:0|0:0|0:0,0:0:0:0:
111,45,118481,2,0,P|122:84|90:269,1,224,4|0,0:0|0:0,0:0:0:0:
94,261,119624,6,0,L|217:268,1,112,12|0,0:0|0:0,0:0:0:0:
246,126,120196,2,0,L|134:132,1,112,4|0,0:0|0:0,0:0:0:0:
84,269,120767,2,0,L|207:276,1,112,4|0,0:0|0:0,0:0:0:0:
311,186,121338,6,0,P|270:136|265:77,1,112,4|0,0:0|0:0,0:0:0:0:
392,22,121910,1,14,0:0:0:0:
467,146,122196,1,2,0:0:0:0:
343,221,122481,1,6,0:0:0:0:
418,345,122767,1,2,0:0:0:0:
343,221,123053,1,6,0:0:0:0:
467,146,123338,1,2,0:0:0:0:
392,22,123624,5,0,0:0:0:0:
392,22,124196,1,14,0:0:0:0:
392,22,124338,2,0,P|401:64|381:134,1,112,2|2,0:0|0:0,0:0:0:0:
313,149,124767,1,4,0:0:0:0:
313,149,124910,2,0,L|252:144,2,56,2|2|2,0:0|0:0|0:0,0:0:0:0:
361,203,125338,2,0,L|455:195,2,84,6|2|2,0:0|0:0|0:0,0:0:0:0:
290,222,125910,6,0,L|156:211,1,112,4|0,0:0|0:0,0:0:0:0:
47,148,126481,1,14,0:0:0:0:
47,148,126624,2,0,L|179:138,1,112,2|2,0:0|0:0,0:0:0:0:
231,133,127053,5,6,0:0:0:0:
211,276,127338,1,2,0:0:0:0:
305,164,127624,1,6,0:0:0:0:
276,21,127910,1,2,0:0:0:0:
321,159,128196,5,4,0:1:0:0:
