osu file format v14

[General]
AudioFilename: audio.mp3
AudioLeadIn: 0
PreviewTime: 55037
Countdown: 3
SampleSet: Drum
StackLeniency: 0.5
Mode: 0
LetterboxInBreaks: 0
WidescreenStoryboard: 0

[Editor]
Bookmarks: 36751,55037,73322,91608,109894,128180
DistanceSpacing: 1.05
BeatDivisor: 8
GridSize: 16
TimelineZoom: 6.799996

[Metadata]
Title:DESIRE
TitleUnicode:慾望
Artist:onumi
ArtistUnicode:オヌミ
Creator:Hectic
Version:Extra
Source:
Tags:leader mirash h4d0uk3n1 electronic instrumental Childhood Friend experimental electro progressive mappers' guild osu! featured artist fa
BeatmapID:2182173
BeatmapSetID:1043754

[Difficulty]
HPDrainRate:6
CircleSize:4.3
OverallDifficulty:9
ApproachRate:9.5
SliderMultiplier:1.4
SliderTickRate:1

[Events]
//Background and Video events
0,0,"bg.jpg",0,0
//Break Periods
//Storyboard Layer 0 (Background)
//Storyboard Layer 1 (Fail)
//Storyboard Layer 2 (Pass)
//Storyboard Layer 3 (Foreground)
//Storyboard Layer 4 (Overlay)
//Storyboard Sound Samples

[TimingPoints]
196,285.714285714286,4,3,3,40,1,0
55624,-100,4,3,3,90,0,0
56053,-66.6666666666667,4,3,3,90,0,1
56267,-66.6666666666667,4,3,3,5,0,1
56338,-66.6666666666667,4,3,3,90,0,1
56910,-66.6666666666667,4,3,3,5,0,1
56981,-66.6666666666667,4,3,3,90,0,1
57124,-66.6666666666667,4,3,3,5,0,1
57196,-66.6666666666667,4,3,3,90,0,1
57338,-200,4,3,3,90,0,1
57838,-200,4,3,3,5,0,1
57910,-66.6666666666667,4,3,3,90,0,1
59053,-66.6666666666667,4,3,3,90,0,1
60196,-66.6666666666667,4,3,3,90,0,1
60838,-66.6666666666667,4,3,3,5,0,1
60910,-66.6666666666667,4,3,3,90,0,1
61910,-200,4,3,3,90,0,1
62410,-200,4,3,3,5,0,1
62481,-66.6666666666667,4,3,3,90,0,1
64196,-66.6666666666667,4,3,3,90,0,0
64767,-100,4,3,3,90,0,0
65196,-66.6666666666667,4,3,3,90,0,1
66053,-66.6666666666667,4,3,3,5,0,1
66124,-66.6666666666667,4,3,3,90,0,1
66267,-66.6666666666667,4,3,3,5,0,1
66338,-66.6666666666667,4,3,3,90,0,1
66481,-200,4,3,3,90,0,1
66981,-200,4,3,3,5,0,1
67053,-66.6666666666667,4,3,3,90,0,1
68196,-66.6666666666667,4,3,3,90,0,1
69338,-66.6666666666667,4,3,3,90,0,1
71053,-200,4,3,3,90,0,1
71553,-200,4,3,3,5,0,1
71624,-66.6666666666667,4,3,3,90,0,1
73338,-100,4,3,3,75,0,0
75838,-100,4,3,3,5,0,0
75910,-100,4,3,3,75,0,0
78124,-100,4,3,3,5,0,0
78196,-100,4,3,3,75,0,0
80410,-100,4,3,3,5,0,0
80481,-100,4,3,3,75,0,0
81910,-200,4,3,3,75,0,0
82410,-200,4,3,3,5,0,0
82481,-100,4,3,3,40,0,0
83053,-333.333333333333,4,3,4,75,0,0
83481,-100,4,3,4,75,0,0
84767,-333.333333333333,4,3,4,75,0,0
85267,-333.333333333333,4,3,4,5,0,0
85338,-100,4,3,4,75,0,0
88981,-100,4,3,4,5,0,0
89053,-100,4,3,4,75,0,0
89338,-333.333333333333,4,3,4,75,0,0
89910,-100,4,3,4,75,0,0
90124,-100,4,3,4,5,0,0
90196,-100,4,3,4,75,0,0
91124,-100,4,3,4,20,0,0
91196,-100,4,3,4,30,0,0
91267,-100,4,3,4,40,0,0
91338,-100,4,3,4,50,0,0
91410,-100,4,3,4,60,0,0
91481,-100,4,3,4,70,0,0
91553,-100,4,3,4,80,0,0
91624,-100,4,3,4,75,0,0
92196,-200,4,3,3,80,0,0
93910,-333.333333333333,4,3,3,80,0,0
94410,-333.333333333333,4,3,3,5,0,0
94481,-133.333333333333,4,3,3,80,0,0
95910,-133.333333333333,4,3,4,80,0,0
96196,-100,4,3,5,30,0,0
96338,-100,4,3,5,50,0,0
96481,-100,4,3,5,80,0,0
96767,-100,4,3,3,80,0,0
98481,-333.333333333333,4,3,3,80,0,0
98981,-333.333333333333,4,3,3,5,0,0
99053,-80,4,3,3,80,0,0
100196,-333.333333333333,4,3,3,80,0,0
100767,-100,4,3,3,40,0,0
101338,-100,4,3,3,80,0,0
103053,-333.333333333333,4,3,3,80,0,0
103553,-333.333333333333,4,3,3,5,0,0
103624,-80,4,3,3,80,0,0
105053,-80,4,3,4,80,0,0
105338,-80,4,3,5,30,0,0
105481,-80,4,3,5,50,0,0
105624,-80,4,3,5,80,0,0
105910,-66.6666666666667,4,3,3,80,0,0
107624,-333.333333333333,4,3,3,80,0,0
108124,-333.333333333333,4,3,3,5,0,0
108196,-57.1428571428571,4,3,3,80,0,0
109910,-100,4,3,3,75,0,0
112410,-100,4,3,3,5,0,0
112481,-100,4,3,3,75,0,0
112767,-100,4,3,4,75,0,0
114481,-100,4,3,3,75,0,0
114696,-100,4,3,3,5,0,0
114767,-100,4,3,3,75,0,0
115053,-100,4,3,5,75,0,0
121553,-100,4,3,3,5,0,0
121624,-100,4,3,3,75,0,0
121910,-100,4,3,4,75,0,0
123624,-100,4,3,3,75,0,0
124196,-100,4,3,5,75,0,0
127624,-333.333333333333,4,3,3,75,0,0

[Colours]
Combo1 : 249,213,66
Combo2 : 73,201,12
Combo3 : 244,64,64
Combo4 : 9,151,151

[HitObjects]
195,250,55053,6,0,B|149:259|144:305|157:333,2,105
199,254,55553,1,0,0:0:0:0:
203,258,55624,6,0,L|201:197,1,35,8|0,0:0|0:0,0:0:0:0:
283,287,55767,2,0,L|292:241,1,35
289,295,56053,6,0,B|333:271|333:271|325:163,1,157.500006008148,4|0,0:0|0:0,0:0:0:0:
324,136,56338,5,0,0:0:0:0:
255,228,56481,1,0,0:0:0:0:
317,364,56624,1,0,0:0:0:0:
23,261,56767,6,0,P|74:250|125:260,1,105.000004005432,8|0,0:0|0:0,0:0:0:0:
177,207,56981,2,0,P|210:252|228:323,1,105.000004005432
216,373,57196,1,0,0:0:0:0:
60,327,57338,6,0,B|41:321|27:308|27:308|26:259|60:217,1,122.5,4|0,0:0|0:0,0:0:0:0:
61,215,57910,6,0,P|83:222|116:244,1,52.5000020027161,8|0,0:0|0:0,0:0:0:0:
167,116,58053,2,0,P|177:167|180:220,1,105.000004005432
176,107,58338,2,0,P|186:159|190:218,1,105.000004005432
154,355,58624,5,0,0:0:0:0:
249,257,58767,1,4,0:0:0:0:
110,177,58910,1,0,0:0:0:0:
164,261,59053,5,8,0:0:0:0:
160,264,59124,1,0,0:0:0:0:
155,263,59196,1,0,0:0:0:0:
151,259,59267,1,0,0:0:0:0:
151,254,59338,1,0,0:0:0:0:
155,250,59410,1,0,0:0:0:0:
160,249,59481,1,0,0:0:0:0:
164,252,59553,1,0,0:0:0:0:
166,257,59624,1,0,0:0:0:0:
166,257,59910,6,0,P|178:310|224:313,1,105.000004005432,4|0,0:0|0:0,0:0:0:0:
258,249,60124,1,0,0:0:0:0:
332,246,60196,6,0,P|354:261|377:311,1,52.5000020027161,8|0,0:0|0:0,0:0:0:0:
437,183,60338,2,0,P|444:235|442:288,1,105.000004005432
362,183,60624,2,0,P|363:121|483:78,1,157.500006008148,4|0,0:0|0:0,0:0:0:0:
456,66,60910,5,0,0:0:0:0:
348,90,61053,1,0,0:0:0:0:
252,36,61196,1,0,0:0:0:0:
360,15,61338,5,8,0:0:0:0:
360,15,61410,1,0,0:0:0:0:
346,191,61553,1,0,0:0:0:0:
346,191,61624,1,0,0:0:0:0:
332,367,61767,1,0,0:0:0:0:
332,367,61838,1,0,0:0:0:0:
332,367,61910,6,0,B|289:380|289:380|282:292,1,122.5,4|0,0:0|0:0,0:0:0:0:
271,310,62481,6,0,L|266:247,1,52.5000020027161,8|0,0:0|0:0,0:0:0:0:
185,348,62624,2,0,L|193:244,1,105.000004005432
169,29,62910,2,0,L|161:133,1,105.000004005432
4,217,63196,5,0,0:0:0:0:
132,202,63338,1,4,0:0:0:0:
260,187,63481,1,0,0:0:0:0:
310,86,63625,5,8,0:0:0:0:
311,93,63696,1,0,0:0:0:0:
312,99,63767,1,0,0:0:0:0:
312,106,63839,1,0,0:0:0:0:
313,112,63910,1,0,0:0:0:0:
314,119,63982,1,0,0:0:0:0:
314,125,64053,1,0,0:0:0:0:
315,132,64125,1,0,0:0:0:0:
316,139,64196,1,0,0:0:0:0:
316,139,64767,5,8,0:0:0:0:
314,217,64910,2,0,L|326:119,1,70,0|2,0:0|0:0,0:0:0:0:
386,21,65196,6,0,L|393:125,1,105.000004005432,4|2,0:0|0:0,0:0:0:0:
406,311,65481,5,0,0:0:0:0:
449,175,65624,1,2,0:0:0:0:
313,132,65767,1,0,0:0:0:0:
326,365,65910,6,0,P|331:291|303:224,1,105.000004005432,10|0,0:0|0:0,0:0:0:0:
253,284,66124,2,0,P|204:249|145:243,1,105.000004005432
88,257,66338,1,0,0:0:0:0:
3,122,66481,6,0,B|-6:141|-6:161|-6:161|19:189|69:185,1,122.5,4|0,0:0|0:0,0:0:0:0:
89,180,67053,6,0,P|125:170|156:172,1,52.5000020027161,10|0,0:0|0:0,0:0:0:0:
157,37,67196,2,0,P|193:74|200:126,1,105.000004005432,0|2,0:0|0:0,0:0:0:0:
228,276,67481,2,0,P|220:225|246:182,1,105.000004005432,0|2,0:0|0:0,0:0:0:0:
424,192,67767,5,0,0:0:0:0:
294,240,67910,1,6,0:0:0:0:
283,378,68053,1,0,0:0:0:0:
351,192,68196,5,8,0:0:0:0:
350,187,68267,1,0,0:0:0:0:
350,183,68338,1,0,0:0:0:0:
349,178,68410,1,0,0:0:0:0:
349,174,68481,1,0,0:0:0:0:
349,170,68553,1,0,0:0:0:0:
348,165,68624,1,0,0:0:0:0:
348,161,68696,1,0,0:0:0:0:
348,157,68767,1,0,0:0:0:0:
348,161,69053,6,0,P|364:106|415:78,1,105.000004005432,4|0,0:0|0:0,0:0:0:0:
474,99,69267,1,0,0:0:0:0:
421,150,69338,6,0,P|396:147|372:135,1,52.5000020027161,10|0,0:0|0:0,0:0:0:0:
235,235,69481,2,0,P|269:195|320:189,1,105.000004005432,0|2,0:0|0:0,0:0:0:0:
232,309,69767,2,0,P|184:291|162:245,1,105.000004005432,4|2,0:0|0:0,0:0:0:0:
258,26,70053,5,0,0:0:0:0:
205,126,70196,1,2,0:0:0:0:
235,235,70338,1,0,0:0:0:0:
123,77,70481,5,10,0:0:0:0:
123,77,70553,1,0,0:0:0:0:
280,103,70696,1,0,0:0:0:0:
280,103,70767,1,2,0:0:0:0:
404,22,70910,1,0,0:0:0:0:
404,22,70981,1,0,0:0:0:0:
404,22,71053,6,0,L|274:26,1,122.5,4|0,0:0|0:0,0:0:0:0:
270,15,71624,6,0,P|248:50|244:78,1,52.5000020027161,10|0,0:0|0:0,0:0:0:0:
131,166,71767,2,0,P|150:235|137:300,1,105.000004005432,0|2,0:0|0:0,0:0:0:0:
171,48,72053,2,0,P|178:99|207:142,1,105.000004005432,0|2,0:0|0:0,0:0:0:0:
388,173,72338,5,0,0:0:0:0:
225,215,72481,1,6,0:0:0:0:
425,236,72624,1,0,0:0:0:0:
294,359,72767,5,10,0:0:0:0:
297,346,72838,1,0,0:0:0:0:
300,333,72909,1,0,0:0:0:0:
300,320,72981,1,0,0:0:0:0:
300,307,73052,1,2,0:0:0:0:
298,294,73124,1,0,0:0:0:0:
294,281,73195,1,0,0:0:0:0:
290,269,73266,1,0,0:0:0:0:
284,258,73338,6,0,L|188:264,1,70
75,272,73624,2,0,L|57:273,6,17.5,0|0|0|0|0|0|0,2:0|2:0|2:0|2:0|2:0|2:0|2:0,0:0:0:0:
80,254,73910,2,0,B|133:260|133:260|157:276|157:276|214:273,1,140,8|0,0:0|0:0,0:0:0:0:
94,181,74338,6,0,P|10:227|43:318,1,210,4|0,0:0|0:0,0:0:0:0:
117,323,74910,1,0,0:0:0:0:
22,167,75053,2,0,P|22:121|38:77,1,70,8|0,0:0|0:0,0:0:0:0:
100,110,75338,2,0,P|122:82|166:62,1,70
272,190,75624,6,0,P|244:147|196:131,1,105,4|0,0:0|0:0,0:0:0:0:
168,137,75910,2,0,L|174:213,1,70
120,332,76196,2,0,L|126:263,1,70,8|0,0:0|0:0,0:0:0:0:
180,213,76481,2,0,L|174:143,1,70
248,136,76767,6,0,L|253:205,1,70
299,79,77053,2,0,L|241:117,1,70,4|0,0:0|0:0,0:0:0:0:
378,200,77338,6,0,L|321:239,1,70,8|0,0:0|0:0,0:0:0:0:
367,113,77624,2,0,L|372:182,1,70
473,0,77910,6,0,B|456:15|456:15|452:61,1,70
446,135,78196,2,0,L|463:137,4,17.5,4|0|0|0|0,2:3|2:0|2:0|2:0|2:0,0:0:0:0:
411,275,78481,2,0,B|383:245|383:245|374:147,1,140,8|0,0:0|0:0,0:0:0:0:
454,215,78910,6,0,L|234:235,1,210,4|0,0:0|0:0,0:0:0:0:
182,273,79481,1,0,0:0:0:0:
259,147,79624,2,0,P|287:169|309:198,1,70,8|0,0:0|0:0,0:0:0:0:
329,267,79910,2,0,P|327:304|312:345,1,70
228,215,80196,6,0,P|255:258|246:309,1,105,4|0,0:0|0:0,0:0:0:0:
238,323,80481,2,0,L|167:326,1,70
31,289,80767,2,0,L|101:293,1,70,8|0,0:0|0:0,0:0:0:0:
163,332,81053,2,0,L|232:329,1,70
305,315,81338,6,0,L|235:317,1,70
161,321,81624,2,0,L|91:323,1,70,4|0,0:0|0:0,0:0:0:0:
441,352,81910,6,0,L|315:346,1,122.5,8|0,0:0|0:0,0:0:0:0:
301,344,82481,5,0,0:0:0:0:
330,276,82624,1,0,0:0:0:0:
292,212,82767,2,0,L|266:225,4,17.5,0|0|0|0|0,2:0|2:0|2:0|2:0|2:0,0:0:0:0:
352,39,83053,5,10,0:0:0:0:
304,95,83196,2,0,L|306:115,1,20.9999993591309,2|0,0:0|0:0,0:0:0:0:
265,32,83481,6,0,L|288:193,1,140,6|0,0:0|0:0,0:0:0:0:
206,131,83910,2,0,L|165:138,1,35,2|0,0:0|0:0,0:0:0:0:
350,109,84053,2,0,L|384:103,1,35,2|0,0:0|0:0,0:0:0:0:
110,178,84196,6,0,B|93:146|93:146|105:90,1,70,10|0,0:0|0:0,0:0:0:0:
156,66,84481,1,2,0:0:0:0:
297,138,84624,2,0,L|301:104,1,35,2|0,0:0|0:0,0:0:0:0:
237,11,84767,6,0,L|229:91,1,73.4999977569581,4|0,0:0|0:0,0:0:0:0:
218,98,85338,6,0,L|209:175,1,70,10|0,0:0|0:0,0:0:0:0:
257,344,85624,2,0,L|271:298,1,35,2|0,0:0|0:0,0:0:0:0:
191,309,85767,2,0,L|200:240,1,70,2|0,0:0|0:0,0:0:0:0:
144,104,86053,6,0,L|145:138,1,35,2|0,0:0|0:0,0:0:0:0:
218,98,86196,1,6,0:0:0:0:
137,112,86338,6,0,L|138:146,1,35,2|0,0:0|0:0,0:0:0:0:
191,321,86481,1,10,0:0:0:0:
210,215,86624,5,0,0:0:0:0:
206,215,86696,1,0,0:0:0:0:
203,213,86767,1,0,0:0:0:0:
203,210,86838,1,0,0:0:0:0:
206,207,86910,1,0,0:0:0:0:
210,208,86981,1,0,0:0:0:0:
211,211,87053,6,0,L|209:280,1,70
247,343,87338,2,0,L|247:373,4,17.5,4|0|0|0|0,2:3|2:0|2:0|2:0|2:0,0:0:0:0:
313,266,87624,6,0,L|279:272,1,35,10|0,0:0|0:0,0:0:0:0:
72,313,87767,2,0,L|140:300,1,70,2|0,0:0|0:0,0:0:0:0:
346,331,88053,2,0,L|326:192,1,140,6|0,0:0|0:0,0:0:0:0:
441,227,88481,2,0,L|400:222,1,35,2|0,0:0|0:0,0:0:0:0:
447,236,88624,2,0,L|412:231,1,35,2|0,0:0|0:0,0:0:0:0:
478,308,88767,6,0,L|358:318,1,105,10|0,0:0|0:0,0:0:0:0:
356,319,89053,1,2,0:0:0:0:
351,245,89196,2,0,L|346:210,1,35,2|0,0:0|0:0,0:0:0:0:
443,148,89338,6,0,B|422:171|422:171|419:203,1,62.9999980773926,4|0,0:0|0:0,0:0:0:0:
302,306,89910,6,0,P|274:280|202:278,1,105,10|0,0:0|0:0,0:0:0:0:
196,280,90196,2,0,L|201:321,1,35,2|0,0:0|0:0,0:0:0:0:
316,302,90338,2,0,L|321:224,1,70,2|0,0:0|0:0,0:0:0:0:
190,285,90624,6,0,L|195:326,1,35,2|0,0:0|0:0,0:0:0:0:
137,366,90767,1,6,0:0:0:0:
196,280,90910,6,0,L|201:321,1,35,2|0,0:0|0:0,0:0:0:0:
64,353,91053,1,10,0:0:0:0:
256,192,91088,12,0,91624,0:0:0:0:
256,192,92196,5,4,0:0:0:0:
299,133,92338,2,0,L|296:98,1,35
213,251,92624,2,0,L|215:285,1,35,0|4,0:0|0:0,0:0:0:0:
368,226,92910,5,0,0:0:0:0:
256,192,93053,1,0,0:0:0:0:
144,158,93196,1,0,0:0:0:0:
187,216,93338,5,4,0:0:0:0:
187,216,93410,1,0,0:0:0:0:
256,192,93553,1,0,0:0:0:0:
256,192,93624,1,0,0:0:0:0:
325,168,93767,1,0,0:0:0:0:
325,168,93839,1,0,0:0:0:0:
325,168,93910,6,0,P|293:170|262:144,1,73.4999977569581,4|0,0:0|0:0,0:0:0:0:
256,133,94481,5,4,0:0:0:0:
135,96,94624,2,0,L|199:103,1,52.5000020027161
377,96,94910,2,0,L|313:103,1,52.5000020027161,0|4,0:0|0:0,0:0:0:0:
256,258,95196,5,0,0:0:0:0:
256,133,95338,1,0,0:0:0:0:
256,7,95481,1,0,0:0:0:0:
315,204,95624,5,4,0:0:0:0:
298,204,95695,1,0,0:0:0:0:
281,206,95766,1,0,0:0:0:0:
264,210,95838,1,0,0:0:0:0:
248,215,95909,1,2,0:0:0:0:
233,221,95981,1,2,0:0:0:0:
217,228,96052,1,2,0:0:0:0:
203,237,96123,1,2,0:0:0:0:
168,212,96196,5,6,0:0:0:0:
191,215,96267,1,2,0:0:0:0:
215,221,96338,1,2,0:0:0:0:
237,230,96410,1,2,0:0:0:0:
258,242,96481,1,2,0:0:0:0:
277,256,96553,1,2,0:0:0:0:
294,273,96624,1,2,0:0:0:0:
309,292,96695,1,2,0:0:0:0:
321,313,96767,5,4,0:0:0:0:
446,235,96910,2,0,P|448:191|438:153,1,70
377,264,97196,2,0,P|403:297|443:310,1,70,0|4,0:0|0:0,0:0:0:0:
442,165,97481,5,0,0:0:0:0:
256,182,97624,1,0,0:0:0:0:
70,199,97767,1,0,0:0:0:0:
131,153,97910,5,4,0:0:0:0:
131,153,97981,1,0,0:0:0:0:
256,182,98124,1,0,0:0:0:0:
256,182,98196,1,0,0:0:0:0:
381,211,98338,1,0,0:0:0:0:
381,211,98410,1,0,0:0:0:0:
381,211,98481,6,0,B|390:245|390:245|368:279,1,73.4999977569581,4|0,0:0|0:0,0:0:0:0:
361,287,99053,5,4,0:0:0:0:
512,317,99196,2,0,L|409:327,1,87.5
303,337,99481,2,0,L|215:345,1,87.5,0|4,0:0|0:0,0:0:0:0:
10,264,99767,5,0,0:0:0:0:
185,275,99910,1,0,0:0:0:0:
361,287,100053,1,0,0:0:0:0:
455,190,100196,6,0,L|459:156,2,31.4999990386963,4|0|0,0:0|0:0|0:0,0:0:0:0:
357,299,100767,5,4,0:0:0:0:
357,299,101053,2,0,L|388:302,4,17.5,0|0|0|0|0,2:0|2:0|2:0|2:0|2:0,0:0:0:0:
251,369,101338,5,8,0:0:0:0:
243,244,101481,2,0,P|221:271|213:305,1,70
254,120,101767,2,0,P|278:146|285:180,1,70,0|4,0:0|0:0,0:0:0:0:
287,304,102053,5,0,0:0:0:0:
213,182,102196,1,0,0:0:0:0:
268,48,102338,1,0,0:0:0:0:
209,3,102481,5,4,0:0:0:0:
209,3,102553,1,0,0:0:0:0:
276,146,102696,1,0,0:0:0:0:
276,146,102767,1,0,0:0:0:0:
260,302,102910,1,0,0:0:0:0:
260,302,102981,1,0,0:0:0:0:
260,302,103053,6,0,P|224:303|202:336,1,73.4999977569581,4|0,0:0|0:0,0:0:0:0:
201,346,103624,5,4,0:0:0:0:
41,359,103767,2,0,P|84:362|126:349,1,87.5
203,271,104053,2,0,P|212:227|200:166,1,87.5,0|4,0:0|0:0,0:0:0:0:
109,52,104338,5,0,0:0:0:0:
136,209,104481,1,0,0:0:0:0:
281,275,104624,1,0,0:0:0:0:
344,384,104767,5,4,0:0:0:0:
345,371,104838,1,0,0:0:0:0:
346,359,104909,1,0,0:0:0:0:
347,346,104981,1,0,0:0:0:0:
348,334,105052,1,2,0:0:0:0:
349,321,105124,1,2,0:0:0:0:
350,309,105195,1,2,0:0:0:0:
351,297,105266,1,2,0:0:0:0:
380,315,105338,5,6,0:0:0:0:
358,316,105409,1,2,0:0:0:0:
336,317,105480,1,2,0:0:0:0:
314,318,105552,1,2,0:0:0:0:
292,319,105623,1,2,0:0:0:0:
270,320,105695,1,2,0:0:0:0:
248,321,105766,1,2,0:0:0:0:
227,322,105837,1,2,0:0:0:0:
205,323,105909,5,4,0:0:0:0:
36,280,106053,2,0,L|140:288,1,105.000004005432
270,358,106338,2,0,L|374:366,1,105.000004005432,0|4,0:0|0:0,0:0:0:0:
508,329,106624,5,0,0:0:0:0:
466,140,106767,1,0,0:0:0:0:
448,371,106910,1,0,0:0:0:0:
508,255,107053,5,4,0:0:0:0:
508,255,107124,1,0,0:0:0:0:
396,164,107267,1,0,0:0:0:0:
396,164,107338,1,0,0:0:0:0:
419,21,107482,1,0,0:0:0:0:
419,21,107553,1,0,0:0:0:0:
419,21,107624,6,0,B|440:31|440:31|411:32|383:43,1,73.4999977569581,4|0,0:0|0:0,0:0:0:0:
354,56,108196,5,4,0:0:0:0:
171,26,108338,2,0,P|231:37|282:71,1,122.500001168251
432,107,108624,2,0,P|365:144|332:225,1,122.500001168251,0|4,0:0|0:0,0:0:0:0:
370,358,108910,5,0,0:0:0:0:
268,175,109053,1,0,0:0:0:0:
423,32,109196,1,0,0:0:0:0:
441,211,109338,5,4,0:0:0:0:
439,205,109410,1,0,0:0:0:0:
433,202,109481,1,0,0:0:0:0:
427,203,109552,1,0,0:0:0:0:
423,208,109624,1,0,0:0:0:0:
423,214,109695,1,0,0:0:0:0:
427,218,109767,1,0,0:0:0:0:
433,220,109838,1,0,0:0:0:0:
438,217,109910,6,0,L|445:302,1,70
385,331,110196,2,0,L|385:360,6,17.5,0|0|0|0|0|0|0,2:0|2:0|2:0|2:0|2:0|2:0|2:0,0:0:0:0:
374,317,110481,6,0,L|303:323,1,70,12|0,0:0|0:0,0:0:0:0:
230,328,110767,2,0,L|159:334,1,70
3,314,111053,6,0,B|24:301|24:301|69:303,1,70,4|0,0:0|0:0,0:0:0:0:
144,309,111339,2,0,L|215:315,1,70
272,270,111624,6,0,B|285:237|285:237|276:197,1,70,4|0,0:0|0:0,0:0:0:0:
214,165,111910,2,0,B|201:198|201:198|209:232,1,70
167,108,112196,6,0,P|117:102|99:52,1,105,4|0,0:0|0:0,0:0:0:0:
103,33,112481,2,0,L|175:37,1,70
233,78,112767,6,0,P|240:114|223:220,1,140,14|2,0:0|0:0,0:0:0:0:
371,204,113338,2,0,P|332:279|285:326,1,140,6|2,0:0|0:0,0:0:0:0:
155,267,113910,2,0,P|198:313|236:394,1,140,6|2,0:0|0:0,0:0:0:0:
377,356,114481,6,0,L|385:245,1,105,4|0,0:0|0:0,0:0:0:0:
387,231,114767,2,0,L|414:229,4,17.5,0|0|0|0|0,2:0|2:0|2:0|2:0|2:0,0:0:0:0:
315,102,115053,5,14,0:0:0:0:
259,150,115196,2,0,P|243:119|243:84,1,70,2|0,0:0|0:0,0:0:0:0:
370,53,115481,2,0,P|385:83|385:118,1,70,2|4,0:0|0:0,0:0:0:0:
454,145,115767,5,2,0:0:0:0:
459,71,115910,1,2,0:0:0:0:
427,4,116053,1,2,0:0:0:0:
359,33,116196,6,0,P|332:34|258:9,2,105,6|2|2,0:0|0:0|0:0,0:0:0:0:
389,100,116767,6,0,P|351:123|284:195,1,140,4|0,0:0|0:0,0:0:0:0:
285,192,117338,5,14,0:0:0:0:
211,187,117481,2,0,P|257:205|277:221,1,70,2|0,0:0|0:0,0:0:0:0:
312,279,117767,2,0,P|316:311|305:360,1,70,2|4,0:0|0:0,0:0:0:0:
238,368,118053,5,2,0:0:0:0:
196,307,118196,1,2,0:0:0:0:
127,281,118338,1,2,0:0:0:0:
111,209,118481,5,4,0:0:0:0:
156,151,118624,1,0,0:0:0:0:
158,145,118695,1,0,0:0:0:0:
159,140,118766,1,0,0:0:0:0:
161,134,118838,1,0,0:0:0:0:
162,128,118909,1,0,0:0:0:0:
163,122,118981,1,0,0:0:0:0:
163,117,119053,6,0,P|156:79|137:48,1,70
67,40,119338,2,0,L|38:37,6,17.5,0|0|0|0|0|0|0,2:0|2:0|2:0|2:0|2:0|2:0|2:0,0:0:0:0:
32,52,119624,6,0,L|35:136,1,70,12|0,0:0|0:0,0:0:0:0:
39,195,119910,2,0,L|42:279,1,70
57,337,120196,6,0,L|60:253,1,70,4|0,0:0|0:0,0:0:0:0:
64,194,120482,2,0,L|67:110,1,70
80,51,120767,6,0,L|77:120,1,70,4|0,0:0|0:0,0:0:0:0:
73,194,121053,2,0,L|70:263,1,70
112,324,121338,6,0,P|151:331|195:382,1,105,4|0,0:0|0:0,0:0:0:0:
213,382,121624,2,0,P|216:343|207:297,1,70
161,188,121910,5,14,0:0:0:0:
306,210,122196,1,2,0:0:0:0:
334,66,122481,1,6,0:0:0:0:
478,94,122767,1,2,0:0:0:0:
334,66,123053,1,6,0:0:0:0:
306,210,123338,1,2,0:0:0:0:
451,232,123624,6,0,L|453:301,1,70
399,352,123910,2,0,L|397:369,4,17.5,0|0|0|0|0,2:0|2:0|2:0|2:0|2:0,0:0:0:0:
412,168,124196,5,14,0:0:0:0:
450,105,124338,2,0,B|445:99|445:99|391:93|391:93|385:98,1,70,2|0,0:0|0:0,0:0:0:0:
373,229,124624,2,0,B|378:235|378:235|432:241|432:241|438:236,1,70,2|4,0:0|0:0,0:0:0:0:
485,174,124910,5,2,0:0:0:0:
339,162,125053,1,2,0:0:0:0:
193,150,125196,1,2,0:0:0:0:
131,189,125338,6,0,L|132:297,2,105,6|2|2,0:0|0:0|0:0,0:0:0:0:
120,115,125910,6,0,L|120:267,1,140,4|0,0:0|0:0,0:0:0:0:
120,255,126481,5,14,0:0:0:0:
166,311,126624,2,0,P|220:320|237:332,1,70,2|0,0:0|0:0,0:0:0:0:
344,243,126910,2,0,P|315:262|282:273,1,70,2|4,0:0|0:0,0:0:0:0:
207,272,127196,5,2,0:0:0:0:
342,335,127338,1,2,0:0:0:0:
492,323,127481,1,2,0:0:0:0:
506,164,127624,6,0,L|500:247,1,83.9999974365235,4|4,0:0|0:1,0:0:0:0:
