osu file format v14

[General]
AudioFilename: audio.mp3
AudioLeadIn: 0
PreviewTime: 33636
Countdown: 0
SampleSet: Soft
StackLeniency: 0.7
Mode: 0
LetterboxInBreaks: 0
WidescreenStoryboard: 0

[Editor]
DistanceSpacing: 0.8
BeatDivisor: 4
GridSize: 4
TimelineZoom: 2.3

[Metadata]
Title:CONFUSION PART ONE
TitleUnicode:混乱 (一)
Artist:onumi
ArtistUnicode:オヌミ
Creator:Leader
Version:Normal
Source:osu!
Tags:featured artist fa gouman childhood friend experimental electro progressive mappers' guild PandaHero Mirash
BeatmapID:2195769
BeatmapSetID:1037665

[Difficulty]
HPDrainRate:4
CircleSize:3.5
OverallDifficulty:5
ApproachRate:5.5
SliderMultiplier:1.1
SliderTickRate:1

[Events]
//Background and Video events
0,0,"ian-valerio-CAFq0pv9HjY-unsplash.jpg",0,0
//Break Periods
2,85086,91311
//Storyboard Layer 0 (Background)
//Storyboard Layer 1 (Fail)
//Storyboard Layer 2 (Pass)
//Storyboard Layer 3 (Foreground)
//Storyboard Layer 4 (Overlay)
//Storyboard Sound Samples

[TimingPoints]
29436,300,4,2,1,40,1,0
30486,300,4,2,1,40,1,0
31536,300,4,2,1,40,1,0
32586,300,4,2,1,40,1,0
33636,300,4,2,1,50,1,0
34686,300,4,2,1,70,1,0
35736,300,4,2,1,70,1,0
36786,300,4,2,1,70,1,0
37836,300,4,2,1,70,1,0
38886,300,4,2,1,70,1,0
39936,300,4,2,1,70,1,0
40986,300,4,2,1,70,1,0
42036,300,4,2,1,70,1,0
43086,300,4,2,1,70,1,0
44136,300,4,2,1,70,1,0
45186,300,4,2,1,70,1,0
46236,300,4,2,1,70,1,0
47286,300,4,2,1,70,1,0
48336,300,4,2,1,70,1,0
49386,300,4,2,1,70,1,0
50436,300,4,2,1,70,1,0
51486,300,4,2,1,70,1,0
52536,300,4,2,1,70,1,0
53586,300,4,2,1,70,1,0
54636,300,4,2,1,70,1,0
55686,300,4,2,1,70,1,0
56736,300,4,2,1,70,1,0
57786,300,4,2,1,70,1,0
58836,300,4,2,1,70,1,0
59886,300,4,2,1,70,1,0
60936,300,4,2,1,70,1,0
61986,300,4,2,1,70,1,0
63036,300,4,2,1,70,1,0
64086,300,4,2,1,70,1,0
65136,300,4,2,1,70,1,0
66186,300,4,2,1,70,1,0
67236,300,4,2,1,70,1,0
68286,300,4,3,1,70,1,0
69336,300,4,3,1,70,1,0
70386,300,4,3,1,70,1,0
71436,300,4,3,1,70,1,0
72486,300,4,3,1,70,1,0
73536,300,4,3,1,70,1,0
74586,300,4,3,1,70,1,0
75636,300,4,2,1,70,1,0
76686,300,4,3,1,70,1,0
77736,300,4,3,1,70,1,0
78786,300,4,3,1,70,1,0
79836,300,4,3,1,70,1,0
80886,300,4,3,1,70,1,0
81936,300,4,3,1,70,1,0
82986,300,4,3,1,70,1,0
84036,300,4,3,1,70,1,0
85086,300,4,3,1,70,1,0
86136,300,4,2,1,70,1,0
87186,300,4,2,1,70,1,0
88236,300,4,2,1,70,1,0
89286,300,4,2,1,70,1,0
90336,300,4,2,1,70,1,0
91386,300,4,2,1,70,1,0
92436,300,4,2,1,70,1,0
92436,-133.333333333333,4,2,1,50,0,0
93486,300,4,2,1,50,1,0
93486,-133.333333333333,4,2,1,50,0,0
94536,300,4,2,1,50,1,0
94536,-133.333333333333,4,2,1,50,0,0
95586,300,4,2,1,50,1,0
95586,-133.333333333333,4,2,1,50,0,0
96636,300,4,2,1,50,1,0
96636,-133.333333333333,4,2,1,50,0,0
97686,300,4,2,1,50,1,0
97686,-133.333333333333,4,2,1,50,0,0
98736,300,4,2,1,50,1,0
98736,-133.333333333333,4,2,1,50,0,0
99786,300,4,2,1,50,1,0
99786,-133.333333333333,4,2,1,50,0,0
100836,300,4,2,1,70,1,1
101886,300,4,2,1,70,1,1
102936,300,4,2,1,70,1,1
103986,300,4,2,1,70,1,1
105036,300,4,2,1,70,1,1
106086,300,4,2,1,70,1,1
107136,300,4,2,1,70,1,1
108186,300,4,2,1,70,1,1
109236,300,4,2,1,70,1,1
110286,300,4,2,1,70,1,1
111336,300,4,2,1,70,1,1
112386,300,4,2,1,70,1,1
113436,300,4,2,1,70,1,1
114486,300,4,2,1,70,1,1
115536,300,4,2,1,70,1,1
116586,300,4,2,1,70,1,1
117636,300,4,2,1,70,1,0
118691,312.5,4,2,1,70,1,0
118691,-133.333333333333,4,2,1,70,0,0
119784,320.855614973262,4,2,1,65,1,0
119784,-133.333333333333,4,2,1,65,0,0
120906,333.333333333333,4,2,1,60,1,0
120906,-133.333333333333,4,2,1,60,0,0
122072,343.839541547278,4,2,1,55,1,0
122072,-133.333333333333,4,2,1,55,0,0
123275,355.029585798817,4,2,1,50,1,0
123275,-133.333333333333,4,2,1,50,0,0
124517,369.230769230769,4,2,1,45,1,0
124517,-133.333333333333,4,2,1,45,0,0
125810,382.165605095541,4,2,1,40,1,0
125810,-133.333333333333,4,2,1,40,0,0
127147,397.350993377483,4,2,1,35,1,0
127147,-133.333333333333,4,2,1,35,0,0
128537,415.22491349481,4,2,1,30,1,0
128537,-133.333333333333,4,2,1,30,0,0
129990,430.879712746858,4,2,1,30,1,0
129990,-133.333333333333,4,2,1,30,0,0
131498,450.001125002813,4,2,1,30,1,0
131498,-133.333333333333,4,2,1,30,0,0
133073,470.588235294118,4,2,1,30,1,0
133073,-133.333333333333,4,2,1,30,0,0
133778,476.190476190476,4,2,1,30,1,0
134730,491.803278688525,4,2,1,30,1,0
135467,497.92531120332,4,2,1,30,1,0
136462,515.021459227468,4,2,1,30,1,0
136462,-133.333333333333,4,2,1,30,0,0
137234,526.315789473684,4,2,1,30,1,0
137234,-133.333333333333,4,2,1,30,0,0
138286,540.540540540541,4,2,1,30,1,0
138286,-133.333333333333,4,2,1,30,0,0
139096,558.139534883721,4,2,1,30,1,0
140212,576.923076923077,4,2,1,30,1,0
141365,591.133004926108,4,2,1,30,1,0
142547,615.384615384615,4,2,1,30,1,0
143777,634.920634920635,4,2,1,30,1,0
145046,659.340659340659,4,2,1,30,1,0
146364,684.415851071111,4,2,1,30,1,0
147732,711.465262708548,4,2,1,30,1,0
149154,740.740740740741,4,2,1,30,1,0
149894,753.138705555402,4,2,1,30,1,0
150647,769.230769230769,4,2,1,30,1,0
151416,782.609376182066,4,2,1,30,1,0
152198,796.463701166819,4,2,1,30,1,0
152994,821.917808219178,4,2,1,30,1,0
153815,837.217090391539,4,2,1,30,1,0
154652,863.309352517986,4,2,1,30,1,0
155515,882.352941176471,4,2,1,30,1,0
156397,909.090909090909,4,2,1,30,1,0
157306,921.305182341651,4,2,1,30,1,0
158227,950.495049504951,4,2,1,30,1,0
159177,979.591836734694,4,2,1,30,1,0
159666,995.850622406639,4,2,1,30,1,0
160163,1008.40336134454,4,2,1,30,1,0
160667,1016.94915254237,4,2,1,30,1,0

[Colours]
Combo1 : 64,73,72
Combo2 : 192,112,89
Combo3 : 21,118,135
Combo4 : 200,12,6

[HitObjects]
256,192,29436,12,0,32586,0:0:0:0:
74,255,33636,6,0,P|104:255|163:312,1,110,2|2,0:0|0:0,0:0:0:0:
185,342,34086,2,0,L|263:348,1,55,8|0,0:0|0:0,0:0:0:0:
283,347,34386,1,2,0:3:0:0:
273,259,34686,6,0,P|260:213|279:146,1,110,2|2,0:0|0:0,0:0:0:0:
296,115,35136,1,8,0:0:0:0:
367,166,35436,2,0,L|427:165,1,55,0|8,0:0|0:3,0:0:0:0:
458,190,35736,6,0,L|444:314,1,110,2|2,0:0|0:0,0:0:0:0:
440,342,36186,1,8,0:0:0:0:
353,324,36486,2,0,P|319:329|288:343,1,55,8|8,0:3|0:3,0:0:0:0:
261,357,36786,6,0,L|150:363,1,110,2|2,0:0|0:0,0:0:0:0:
106,360,37236,1,8,0:0:0:0:
146,281,37536,1,0,1:0:0:0:
58,281,37836,6,0,P|47:229|60:154,1,110,2|2,0:0|0:0,0:0:0:0:
76,132,38286,1,8,1:2:0:0:
149,180,38586,1,2,0:0:0:0:
236,171,38886,6,0,P|284:164|346:196,1,110,2|2,0:0|0:0,0:0:0:0:
369,220,39336,1,8,0:0:0:0:
218,311,39936,6,0,P|164:303|106:342,1,110,2|2,0:0|0:0,0:0:0:0:
80,353,40386,1,8,0:0:0:0:
29,281,40686,1,8,0:3:0:0:
89,217,40986,6,0,L|94:97,1,110,8|2,0:3|0:0,0:0:0:0:
117,70,41436,2,0,P|160:58|211:120,1,110,8|0,0:0|1:0,0:0:0:0:
266,162,42036,6,0,L|387:170,1,110,2|2,0:0|0:0,0:0:0:0:
419,175,42486,1,8,0:0:0:0:
366,245,42786,2,0,P|359:276|356:308,1,55,2|8,0:3|0:3,0:0:0:0:
347,342,43086,6,0,L|224:358,1,110,2|2,0:0|0:0,0:0:0:0:
194,364,43536,1,8,0:0:0:0:
127,306,43836,1,0,0:0:0:0:
210,278,44136,6,0,P|217:228|194:155,1,110,2|2,0:0|0:0,0:0:0:0:
173,137,44586,1,8,0:0:0:0:
253,100,44886,2,0,L|259:39,1,55,8|8,0:3|0:3,0:0:0:0:
296,24,45186,6,0,P|349:13|402:35,1,110,2|2,0:0|0:0,0:0:0:0:
435,58,45636,1,8,0:0:0:0:
487,226,46236,6,0,P|500:267|486:343,1,110,2|2,0:0|0:0,0:0:0:0:
455,358,46686,1,8,1:2:0:0:
377,316,46986,1,2,0:0:0:0:
307,369,47286,6,0,L|182:379,1,110,10|8,0:3|0:3,0:0:0:0:
153,372,47736,2,0,P|163:339|146:250,1,110,8|0,0:0|1:0,0:0:0:0:
84,210,48336,6,0,L|72:80,1,110,2|2,0:0|0:0,0:0:0:0:
69,56,48786,1,8,0:0:0:0:
149,91,49086,1,8,0:3:0:0:
210,32,49386,6,0,P|247:26|293:95,1,110,2|2,0:0|0:0,0:0:0:0:
304,116,49836,1,8,0:0:0:0:
390,97,50136,1,0,1:0:0:0:
364,181,50436,1,4,1:0:0:0:
109,360,51486,6,0,P|97:313|108:232,1,110,2|2,0:0|0:0,0:0:0:0:
118,211,51936,1,8,0:0:0:0:
184,269,52236,1,8,0:3:0:0:
246,206,52536,6,0,L|254:76,1,110,2|2,0:0|0:0,0:0:0:0:
258,52,52986,1,8,0:0:0:0:
331,99,53286,1,8,0:3:0:0:
400,45,53586,6,0,P|413:106|393:170,1,110,2|2,0:0|0:0,0:0:0:0:
384,191,54036,1,8,0:0:0:0:
325,256,54336,2,0,P|320:308|324:370,1,110,0|2,0:3|0:0,0:0:0:0:
105,132,55686,6,0,P|150:114|203:159,1,110,2|2,0:0|0:0,0:0:0:0:
213,186,56136,1,8,0:0:0:0:
305,163,56436,1,2,0:0:0:0:
366,226,56736,6,0,P|379:275|367:343,1,110,2|2,0:0|0:0,0:0:0:0:
362,376,57186,1,8,0:0:0:0:
295,318,57486,1,8,0:3:0:0:
222,368,57786,6,0,L|94:381,1,110,2|2,0:0|0:0,0:0:0:0:
72,361,58236,1,8,0:0:0:0:
101,278,58536,2,0,P|98:247|83:166,1,110,0|4,0:0|0:0,0:0:0:0:
356,47,59886,6,0,P|365:91|359:164,1,110,2|2,0:0|0:0,0:0:0:0:
341,195,60336,1,8,0:0:0:0:
282,260,60636,2,0,P|272:301|268:335,1,55,2|2,0:0|0:0,0:0:0:0:
259,356,60936,6,0,L|134:368,1,110,2|2,0:0|0:0,0:0:0:0:
105,367,61386,1,8,0:0:0:0:
137,290,61686,1,2,0:0:0:0:
49,300,61986,6,0,P|40:264|39:171,1,110,2|2,0:0|0:0,0:0:0:0:
41,147,62436,2,0,L|105:139,1,55,8|2,0:0|0:0,0:0:0:0:
138,132,62736,1,8,0:3:0:0:
179,209,63036,6,0,L|247:214,1,55,2|0,0:0|0:0,0:0:0:0:
275,227,63336,2,0,P|283:266|288:302,1,55,0|8,0:0|0:0,0:0:0:0:
323,360,63786,1,0,0:0:0:0:
397,313,64086,6,0,L|409:180,1,110,6|2,0:0|0:0,0:0:0:0:
412,159,64536,1,8,0:0:0:0:
329,188,64836,1,0,0:0:0:0:
265,126,65136,6,0,P|231:119|179:183,1,110,2|2,0:0|0:0,0:0:0:0:
164,207,65586,1,8,0:0:0:0:
181,293,65886,2,0,P|194:328|201:359,1,55,8|2,0:3|0:0,0:0:0:0:
232,372,66186,6,0,L|352:378,1,110,2|8,0:0|0:3,0:0:0:0:
365,340,66636,2,0,P|381:291|361:211,1,110,8|8,0:0|0:3,0:0:0:0:
345,199,67086,2,0,L|289:194,1,55,8|0,0:3|0:0,0:0:0:0:
346,198,68286,6,0,P|334:159|342:26,1,165,2|8,2:0|2:0,0:0:0:0:
173,36,69336,2,0,P|183:117|166:198,1,165,2|8,2:0|2:0,0:0:0:0:
264,344,70386,6,0,P|324:343|442:359,1,165,2|8,2:0|2:0,0:0:0:0:
443,180,71436,2,0,P|383:181|265:165,1,165,2|8,2:0|2:0,0:0:0:0:
150,48,72486,6,0,L|169:219,1,165,2|8,2:0|2:0,0:0:0:0:
344,220,73536,2,0,L|362:56,1,165,2|8,2:0|2:0,0:0:0:0:
186,48,74586,6,0,P|178:97|194:170,1,110,2|0,2:0|0:0,0:0:0:0:
203,197,75036,1,8,2:0:0:0:
276,356,75636,2,0,L|389:357,1,110
429,358,76086,1,12,1:1:0:0:
346,198,76686,6,0,P|334:159|342:26,1,165,2|8,2:0|2:0,0:0:0:0:
173,36,77736,2,0,P|183:117|166:198,1,165,2|8,2:0|2:0,0:0:0:0:
264,344,78786,6,0,P|324:343|442:359,1,165,2|8,2:0|2:0,0:0:0:0:
443,180,79836,2,0,P|383:181|265:165,1,165,2|8,2:0|2:0,0:0:0:0:
150,48,80886,6,0,L|169:219,1,165,2|8,2:0|2:0,0:0:0:0:
344,220,81936,2,0,L|362:56,1,165,2|8,2:0|2:0,0:0:0:0:
256,196,82986,2,0,L|256:319,1,110,2|0,2:0|0:0,0:0:0:0:
257,349,83436,1,8,2:0:0:0:
104,260,84036,5,2,2:0:0:0:
73,201,92436,6,0,P|80:252|83:300,1,82.5000031471254,2|0,0:0|0:0,0:0:0:0:
85,315,92886,1,8,0:0:0:0:
212,349,93486,2,0,L|300:357,1,82.5000031471254,2|0,0:0|0:0,0:0:0:0:
326,360,93936,1,8,0:0:0:0:
441,296,94536,6,0,P|445:254|454:207,1,82.5000031471254,2|0,0:0|0:0,0:0:0:0:
460,182,94986,1,8,0:0:0:0:
344,245,95586,2,0,P|304:256|255:262,1,82.5000031471254,2|0,0:0|0:0,0:0:0:0:
230,260,96036,1,8,0:0:0:0:
117,190,96636,6,0,L|108:103,1,82.5000031471254,2|0,0:0|0:0,0:0:0:0:
103,75,97086,1,8,0:0:0:0:
234,58,97686,2,0,L|243:145,1,82.5000031471254,2|0,0:0|0:0,0:0:0:0:
247,173,98136,1,8,0:0:0:0:
376,149,98736,5,0,0:0:0:0:
469,350,100236,5,8,0:0:0:0:
336,339,100836,2,0,P|292:341|220:353,1,110,2|8,0:0|0:3,0:0:0:0:
183,361,101286,1,8,0:0:0:0:
107,315,101586,2,0,P|102:270|101:246,1,55,2|8,0:3|0:3,0:0:0:0:
118,219,101886,6,0,P|126:181|107:102,1,110,2|2,0:0|0:0,0:0:0:0:
88,74,102336,1,8,0:0:0:0:
164,30,102636,1,0,1:0:0:0:
228,89,102936,6,0,P|276:104|340:62,1,110,2|0,0:0|1:0,0:0:0:0:
359,49,103386,1,8,0:0:0:0:
403,125,103686,2,0,P|413:163|417:197,1,55,8|8,0:3|0:3,0:0:0:0:
418,222,103986,6,0,L|298:240,1,110,2|2,0:0|0:0,0:0:0:0:
264,240,104436,2,0,P|249:272|241:296,1,55,8|0,0:0|1:0,0:0:0:0:
223,330,104736,1,0,1:0:0:0:
142,293,105036,6,0,L|131:162,1,110,2|8,0:0|0:3,0:0:0:0:
126,139,105486,1,8,0:0:0:0:
211,159,105786,2,0,P|218:127|217:89,1,55,2|0,0:3|0:0,0:0:0:0:
199,65,106086,6,0,P|237:72|313:33,1,110,2|2,0:0|0:0,0:0:0:0:
337,20,106536,1,8,0:0:0:0:
391,89,106836,1,0,1:0:0:0:
318,139,107136,6,0,L|326:264,1,110,2|0,0:0|0:0,0:0:0:0:
329,292,107586,1,8,0:0:0:0:
248,328,107886,2,0,P|218:344|200:359,1,55,8|8,0:3|0:3,0:0:0:0:
164,380,108186,6,0,L|45:384,1,110,2|2,0:0|0:0,0:0:0:0:
31,345,108636,2,0,P|43:290|29:221,1,110,8|0,0:0|1:0,0:0:0:0:
69,155,109236,6,0,P|120:135|180:153,1,110,8|0,0:3|1:0,0:0:0:0:
205,176,109686,1,8,0:0:0:0:
283,135,109986,2,0,L|291:60,1,55,2|2,0:3|0:0,0:0:0:0:
301,38,110286,6,0,P|356:25|391:69,1,110,2|2,0:0|0:0,0:0:0:0:
406,100,110736,1,8,0:0:0:0:
468,162,111036,1,0,1:0:0:0:
384,188,111336,6,0,P|373:238|395:309,1,110,2|0,0:0|1:0,0:0:0:0:
402,335,111786,1,8,0:0:0:0:
314,346,112086,2,0,P|273:353|245:364,1,55,2|8,0:3|0:3,0:0:0:0:
217,369,112386,6,0,L|102:374,1,110,2|2,0:0|0:0,0:0:0:0:
64,364,112836,2,0,P|75:323|57:243,1,110,8|0,0:0|1:0,0:0:0:0:
67,169,113436,6,0,L|197:165,1,110,8|8,0:3|0:3,0:0:0:0:
220,162,113886,1,8,0:0:0:0:
255,242,114186,2,0,P|269:280|274:307,1,55,2|0,0:3|0:0,0:0:0:0:
299,328,114486,6,0,L|422:335,1,110,2|2,0:0|0:0,0:0:0:0:
437,300,114936,2,0,P|452:234|432:175,1,110,8|0,0:0|1:0,0:0:0:0:
398,117,115536,6,0,L|273:108,1,110,2|8,0:0|0:3,0:0:0:0:
261,73,115986,1,8,0:0:0:0:
196,132,116286,2,0,P|190:170|192:202,1,55,8|8,0:3|0:3,0:0:0:0:
194,230,116586,6,0,L|68:245,1,110,2|2,0:0|0:0,0:0:0:0:
42,253,117036,1,8,0:0:0:0:
61,167,117336,2,0,L|65:103,1,55,0|0,1:0|1:0,0:0:0:0:
150,351,118691,6,0,L|249:358,1,82.5000031471254,2|0,0:0|0:0,0:0:0:0:
265,359,119159,1,8,0:0:0:0:
376,295,119784,2,0,P|379:247|390:206,1,82.5000031471254,2|0,0:0|0:0,0:0:0:0:
405,186,120265,1,8,0:0:0:0:
311,97,120906,6,0,P|265:93|222:106,1,82.5000031471254,2|0,0:0|0:0,0:0:0:0:
201,116,121406,1,8,0:0:0:0:
232,239,122072,6,0,P|278:243|321:230,1,82.5000031471254,2|0,0:0|0:0,0:0:0:0:
339,220,122587,1,8,0:0:0:0:
293,97,123275,6,0,P|255:90|207:102,1,82.5000031471254,2|0,0:0|0:0,0:0:0:0:
182,112,123807,1,8,0:0:0:0:
136,230,124517,6,0,P|146:270|150:314,1,82.5000031471254,2|0,0:0|0:0,0:0:0:0:
148,343,125070,1,8,0:0:0:0:
317,355,125810,6,0,L|452:354,2,123.750004720688,2|8|0,0:0|0:0|0:0,0:0:0:0:
142,351,127743,2,0,P|140:329|123:264,1,82.5000031471254,8|0,0:0|0:0,0:0:0:0:
91,189,128537,5,2,0:0:0:0:
256,192,129990,1,2,0:0:0:0:
421,189,131498,5,2,0:0:0:0:
256,192,133073,1,2,0:0:0:0:
189,303,133778,1,8,0:0:0:0:
94,218,134730,5,2,0:0:0:0:
153,96,135467,1,8,0:0:0:0:
257,197,136462,6,0,P|296:199|355:193,1,82.5000031471254,2|0,0:0|0:0,0:0:0:0:
332,99,137234,2,0,P|293:97|249:103,1,82.5000031471254,8|0,0:0|0:0,0:0:0:0:
76,190,138286,5,2,0:0:0:0:
254,333,139096,1,8,0:0:0:0:
256,192,140212,12,0,145046,0:0:0:0:
