osu file format v14

[General]
AudioFilename: audio.mp3
AudioLeadIn: 0
PreviewTime: 33636
Countdown: 0
SampleSet: Soft
StackLeniency: 0.7
Mode: 0
LetterboxInBreaks: 0
WidescreenStoryboard: 0

[Editor]
DistanceSpacing: 1.2
BeatDivisor: 4
GridSize: 4
TimelineZoom: 2.3

[Metadata]
Title:CONFUSION PART ONE
TitleUnicode:混乱 (一)
Artist:onumi
ArtistUnicode:オヌミ
Creator:Leader
Version:Hard
Source:osu!
Tags:featured artist fa gouman childhood friend experimental electro progressive mappers' guild PandaHero Mirash
BeatmapID:2195768
BeatmapSetID:1037665

[Difficulty]
HPDrainRate:5
CircleSize:4
OverallDifficulty:6
ApproachRate:8
SliderMultiplier:1.4
SliderTickRate:1

[Events]
//Background and Video events
0,0,"ian-valerio-CAFq0pv9HjY-unsplash.jpg",0,0
//Break Periods
2,85086,91686
//Storyboard Layer 0 (Background)
//Storyboard Layer 1 (Fail)
//Storyboard Layer 2 (Pass)
//Storyboard Layer 3 (Foreground)
//Storyboard Layer 4 (Overlay)
//Storyboard Sound Samples

[TimingPoints]
29436,300,4,2,1,40,1,0
30486,300,4,2,1,40,1,0
31536,300,4,2,1,40,1,0
32586,300,4,2,1,40,1,0
33636,300,4,2,1,70,1,0
34686,300,4,2,1,70,1,0
35736,300,4,2,1,70,1,0
36786,300,4,2,1,70,1,0
37836,300,4,2,1,70,1,0
38886,300,4,2,1,70,1,0
39936,300,4,2,1,70,1,0
40986,300,4,2,1,70,1,0
42036,300,4,2,1,70,1,0
43086,300,4,2,1,70,1,0
44136,300,4,2,1,70,1,0
45186,300,4,2,1,70,1,0
46236,300,4,2,1,70,1,0
47286,300,4,2,1,70,1,0
48336,300,4,2,1,70,1,0
49386,300,4,2,1,70,1,0
50436,300,4,2,1,70,1,0
51486,300,4,2,1,70,1,0
52536,300,4,2,1,70,1,0
53586,300,4,2,1,70,1,0
54636,300,4,2,1,70,1,0
55686,300,4,2,1,70,1,0
56736,300,4,2,1,70,1,0
57786,300,4,2,1,70,1,0
58836,300,4,2,1,70,1,0
59886,300,4,2,1,70,1,0
60936,300,4,2,1,70,1,0
61986,300,4,2,1,70,1,0
63036,300,4,2,1,70,1,0
64086,300,4,2,1,70,1,0
65136,300,4,2,1,70,1,0
66186,300,4,2,1,70,1,0
67236,300,4,2,1,70,1,0
68286,300,4,3,1,70,1,0
69336,300,4,3,1,70,1,0
70386,300,4,3,1,70,1,0
71436,300,4,3,1,70,1,0
72486,300,4,3,1,70,1,0
73536,300,4,3,1,70,1,0
74586,300,4,3,1,70,1,0
75636,300,4,2,1,70,1,0
76686,300,4,3,1,70,1,0
77736,300,4,3,1,70,1,0
78786,300,4,3,1,70,1,0
79836,300,4,3,1,70,1,0
80886,300,4,3,1,70,1,0
81936,300,4,3,1,70,1,0
82986,300,4,3,1,70,1,0
84036,300,4,3,1,70,1,0
85086,300,4,3,1,70,1,0
86136,300,4,2,1,70,1,0
87186,300,4,2,1,70,1,0
88236,300,4,2,1,70,1,0
89286,300,4,2,1,70,1,0
90336,300,4,2,1,70,1,0
91386,300,4,2,1,70,1,0
92436,300,4,2,1,70,1,0
92436,-133.333333333333,4,2,1,50,0,0
93486,300,4,2,1,50,1,0
93486,-133.333333333333,4,2,1,50,0,0
94536,300,4,2,1,50,1,0
94536,-133.333333333333,4,2,1,50,0,0
95586,300,4,2,1,50,1,0
95586,-133.333333333333,4,2,1,50,0,0
96636,300,4,2,1,50,1,0
96636,-133.333333333333,4,2,1,50,0,0
97686,300,4,2,1,50,1,0
97686,-133.333333333333,4,2,1,50,0,0
98736,300,4,2,1,50,1,0
98736,-400,4,2,1,50,0,0
99786,300,4,2,1,50,1,0
99786,-200,4,2,1,50,0,0
100836,300,4,2,1,70,1,1
101886,300,4,2,1,70,1,1
102936,300,4,2,1,70,1,1
103986,300,4,2,1,70,1,1
105036,300,4,2,1,70,1,1
106086,300,4,2,1,70,1,1
107136,300,4,2,1,70,1,1
108186,300,4,2,1,70,1,1
109236,300,4,2,1,70,1,1
110286,300,4,2,1,70,1,1
111336,300,4,2,1,70,1,1
112386,300,4,2,1,70,1,1
113436,300,4,2,1,70,1,1
114486,300,4,2,1,70,1,1
115536,300,4,2,1,70,1,1
116586,300,4,2,1,70,1,1
117636,300,4,2,1,70,1,0
118691,312.5,4,2,1,70,1,0
118691,-133.333333333333,4,2,1,70,0,0
119784,320.855614973262,4,2,1,65,1,0
119784,-133.333333333333,4,2,1,65,0,0
120906,333.333333333333,4,2,1,60,1,0
120906,-133.333333333333,4,2,1,60,0,0
122072,343.839541547278,4,2,1,55,1,0
122072,-133.333333333333,4,2,1,55,0,0
123275,355.029585798817,4,2,1,50,1,0
124517,369.230769230769,4,2,1,45,1,0
125810,382.165605095541,4,2,1,40,1,0
127147,397.350993377483,4,2,1,35,1,0
128537,415.22491349481,4,2,1,30,1,0
128537,-133.333333333333,4,2,1,30,0,0
129990,430.879712746858,4,2,1,30,1,0
129990,-133.333333333333,4,2,1,30,0,0
131498,450.001125002813,4,2,1,30,1,0
131498,-133.333333333333,4,2,1,30,0,0
133073,470.588235294118,4,2,1,30,1,0
133073,-133.333333333333,4,2,1,30,0,0
133778,476.190476190476,4,2,1,30,1,0
134730,491.803278688525,4,2,1,30,1,0
135467,497.92531120332,4,2,1,30,1,0
136462,515.021459227468,4,2,1,30,1,0
136462,-133.333333333333,4,2,1,30,0,0
137234,526.315789473684,4,2,1,30,1,0
138286,540.540540540541,4,2,1,30,1,0
139096,558.139534883721,4,2,1,30,1,0
140212,576.923076923077,4,2,1,30,1,0
141365,591.133004926108,4,2,1,30,1,0
142547,615.384615384615,4,2,1,30,1,0
143777,634.920634920635,4,2,1,30,1,0
145046,659.340659340659,4,2,1,30,1,0
146364,684.415851071111,4,2,1,30,1,0
147732,711.465262708548,4,2,1,30,1,0
149154,740.740740740741,4,2,1,30,1,0
149894,753.138705555402,4,2,1,30,1,0
150647,769.230769230769,4,2,1,30,1,0
151416,782.609376182066,4,2,1,30,1,0
152198,796.463701166819,4,2,1,30,1,0
152994,821.917808219178,4,2,1,30,1,0
153815,837.217090391539,4,2,1,30,1,0
154652,863.309352517986,4,2,1,30,1,0
155515,882.352941176471,4,2,1,30,1,0
156397,909.090909090909,4,2,1,30,1,0
157306,921.305182341651,4,2,1,30,1,0
158227,950.495049504951,4,2,1,30,1,0
159177,979.591836734694,4,2,1,20,1,0
159666,995.850622406639,4,2,1,15,1,0
160163,1008.40336134454,4,2,1,15,1,0
160667,1016.94915254237,4,2,1,15,1,0

[Colours]
Combo1 : 64,73,72
Combo2 : 192,112,89
Combo3 : 21,118,135
Combo4 : 200,12,6

[HitObjects]
256,70,29436,5,2,0:0:0:0:
256,192,29736,12,0,32586,0:0:0:0:
79,108,33636,6,0,P|85:146|87:190,1,70,2|8,0:0|0:3,0:0:0:0:
87,261,33936,1,2,0:0:0:0:
87,261,34086,2,0,P|139:269|171:275,1,70,8|0,0:0|0:0,0:0:0:0:
214,333,34386,2,0,P|251:331|285:319,1,70,2|8,0:3|0:3,0:0:0:0:
357,356,34686,6,0,L|442:361,2,70,2|8|2,0:0|0:3|0:0,0:0:0:0:
281,320,35136,2,0,P|269:264|300:170,1,140,8|0,0:0|0:0,0:0:0:0:
337,115,35586,1,8,0:3:0:0:
337,115,35736,6,0,L|325:34,1,70,2|8,0:0|0:3,0:0:0:0:
248,13,36036,1,2,0:0:0:0:
208,87,36186,2,0,P|174:97|129:98,1,70,8|0,0:0|0:0,0:0:0:0:
81,159,36486,2,0,L|47:155,3,35,8|8|8|8,0:3|0:3|0:3|0:3,0:0:0:0:
81,177,36786,6,0,P|85:224|86:264,1,70,2|8,0:0|0:3,0:0:0:0:
77,330,37086,1,2,0:0:0:0:
155,299,37236,2,0,P|200:293|230:295,3,70,8|0|0|0,0:0|0:0|1:0|1:0,0:0:0:0:
287,350,37836,6,0,P|348:365|399:302,1,140,2|2,0:0|0:0,0:0:0:0:
325,269,38286,2,0,L|322:186,1,70,8|0,1:2|0:0,0:0:0:0:
258,143,38586,1,2,0:0:0:0:
258,143,38886,6,0,P|222:149|182:150,1,70,2|8,0:0|0:3,0:0:0:0:
96,128,39186,1,2,0:0:0:0:
96,128,39336,1,8,0:0:0:0:
118,209,39486,2,0,P|128:250|130:306,1,70,8|8,0:3|0:3,0:0:0:0:
125,362,39786,1,8,0:3:0:0:
203,330,39936,6,0,P|237:324|301:323,1,70,2|8,0:0|0:3,0:0:0:0:
350,354,40236,1,2,0:0:0:0:
335,271,40386,2,0,P|342:228|356:176,1,70,8|0,0:0|0:0,0:0:0:0:
417,166,40686,2,0,L|461:171,3,35,8|8|8|8,0:3|0:3|0:3|0:3,0:0:0:0:
415,149,40986,6,0,P|409:111|408:71,1,70,8|8,0:3|0:3,0:0:0:0:
407,79,41286,1,2,0:0:0:0:
330,112,41436,2,0,L|243:129,1,70,8|0,0:0|1:0,0:0:0:0:
200,66,41736,1,0,1:0:0:0:
200,66,41886,1,0,1:0:0:0:
181,147,42036,6,0,P|119:155|42:120,1,140,2|2,0:0|0:0,0:0:0:0:
32,208,42486,1,8,0:0:0:0:
32,208,42786,2,0,L|44:288,1,70,2|8,0:3|0:3,0:0:0:0:
60,316,43011,5,8,0:3:0:0:
60,316,43086,2,0,P|101:328|144:336,1,70,2|8,0:0|0:3,0:0:0:0:
201,373,43386,1,2,0:0:0:0:
276,335,43536,2,0,L|283:253,3,70,8|8|0|8,0:0|0:3|0:0|0:3,0:0:0:0:
198,270,44136,6,0,P|190:231|178:179,1,70,2|8,0:0|0:3,0:0:0:0:
129,136,44436,1,2,0:0:0:0:
129,136,44586,2,0,P|167:124|212:121,1,70,8|0,0:0|0:0,0:0:0:0:
273,85,44886,6,0,L|279:33,3,35,8|8|8|8,0:3|0:3|0:3|0:3,0:0:0:0:
276,92,45186,2,0,P|282:123|266:174,1,70,2|8,0:0|0:3,0:0:0:0:
233,233,45486,1,2,0:0:0:0:
233,233,45636,1,8,0:0:0:0:
151,211,45786,2,0,P|109:205|76:203,2,70,0|0|0,1:0|1:0|1:0,0:0:0:0:
233,233,46236,6,0,B|277:240|277:240|314:281|314:281|371:291,1,140,2|2,0:0|0:0,0:0:0:0:
419,236,46686,2,0,P|434:285|436:326,1,70,8|0,1:2|0:0,0:0:0:0:
349,188,46986,1,2,0:0:0:0:
349,188,47286,6,0,L|355:104,1,70,10|2,0:3|0:0,0:0:0:0:
363,34,47586,1,8,0:3:0:0:
287,70,47736,2,0,P|249:80|217:83,3,70,8|0|0|0,0:0|1:0|1:0|1:0,0:0:0:0:
137,59,48336,6,0,L|127:-19,2,70,2|8|2,0:0|0:3|0:0,0:0:0:0:
147,142,48786,2,0,L|137:216,1,70,8|0,0:0|0:0,0:0:0:0:
125,294,49086,2,0,L|87:301,3,35,8|8|8|2,0:3|0:3|0:3|0:0,0:0:0:0:
132,294,49386,6,0,P|175:290|242:353,1,140,2|2,0:0|0:0,0:0:0:0:
324,366,49836,2,0,L|463:355,1,140,8|0,0:0|1:0,0:0:0:0:
463,354,50286,1,0,1:0:0:0:
463,354,50436,1,4,1:0:0:0:
459,346,50886,6,0,P|445:286|468:200,1,140,8|0,0:0|0:0,0:0:0:0:
502,136,51336,1,0,1:0:0:0:
418,142,51486,6,0,P|379:150|339:151,1,70,2|8,0:0|0:3,0:0:0:0:
289,91,51786,1,2,0:0:0:0:
254,167,51936,2,0,L|182:177,2,70,8|8|8,0:0|0:3|0:3,0:0:0:0:
316,223,52386,1,8,0:3:0:0:
249,274,52536,6,0,B|207:281|207:281|169:318|169:318|116:326,1,140,2|2,0:0|0:0,0:0:0:0:
62,380,52986,2,0,P|43:343|81:256,1,140,8|8,0:0|0:3,0:0:0:0:
144,206,53436,1,8,0:3:0:0:
79,152,53586,6,0,L|69:80,2,70,2|8|2,0:0|0:3|0:0,0:0:0:0:
144,206,54036,2,0,P|197:215|237:230,1,70,8|2,0:0|0:0,0:0:0:0:
281,269,54336,1,0,0:3:0:0:
281,269,54486,1,8,0:3:0:0:
343,212,54636,6,0,L|352:60,1,140,2|0,0:0|0:0,0:0:0:0:
279,28,55086,2,0,L|272:118,1,70,8|0,0:0|0:0,0:0:0:0:
217,169,55386,1,2,0:0:0:0:
180,50,55536,1,2,0:0:0:0:
180,50,55611,1,2,0:0:0:0:
180,50,55686,6,0,P|133:35|86:121,1,140,2|2,0:0|0:0,0:0:0:0:
91,179,56136,2,0,L|99:265,1,70,8|8,0:0|0:3,0:0:0:0:
111,331,56436,1,2,0:0:0:0:
111,331,56586,1,2,0:0:0:0:
181,284,56736,6,0,B|245:274|243:325|325:318,1,140,2|2,0:0|0:0,0:0:0:0:
390,285,57186,2,0,L|469:269,2,70,8|2|8,0:0|0:0|0:3,0:0:0:0:
318,240,57636,1,8,0:3:0:0:
383,187,57786,6,0,P|399:135|373:54,1,140,2|2,0:0|0:0,0:0:0:0:
323,122,58236,2,0,L|253:126,2,70,8|2|0,0:0|0:0|0:0,0:0:0:0:
383,187,58686,1,8,0:3:0:0:
383,187,58836,1,4,0:0:0:0:
383,187,59286,6,0,P|399:243|386:336,1,140,8|0,0:0|0:0,0:0:0:0:
320,370,59736,1,2,0:0:0:0:
248,325,59886,6,0,B|201:331|201:331|166:368|166:368|103:375,1,140,2|2,0:0|0:0,0:0:0:0:
54,325,60336,2,0,P|43:287|39:238,2,70,8|8|2,0:0|0:3|0:0,0:0:0:0:
121,273,60786,1,2,0:0:0:0:
92,193,60936,6,0,B|74:132|117:132|91:34,1,140,2|2,0:0|0:0,0:0:0:0:
177,74,61386,2,0,P|237:92|299:29,1,140,8|2,0:0|0:0,0:0:0:0:
344,114,61836,1,8,0:3:0:0:
418,74,61986,6,0,L|501:59,2,70,2|8|2,0:0|0:3|0:0,0:0:0:0:
344,114,62436,1,8,0:0:0:0:
344,114,62586,1,2,0:0:0:0:
338,197,62736,2,0,P|335:241|344:279,1,70,8|8,0:3|0:3,0:0:0:0:
396,329,63036,6,0,P|358:346|270:309,1,140,2|0,0:0|0:0,0:0:0:0:
200,356,63486,1,8,0:0:0:0:
200,356,63636,2,0,L|116:364,2,70
271,311,64086,6,0,L|284:161,1,140,6|2,0:0|0:0,0:0:0:0:
210,127,64536,2,0,L|196:284,1,140,8|0,0:0|0:0,0:0:0:0:
186,349,64986,1,8,0:3:0:0:
124,291,65136,6,0,P|83:298|46:302,2,70,2|0|2,0:0|0:0|0:0,0:0:0:0:
192,241,65586,2,0,P|233:248|270:252,2,70,8|2|8,0:0|0:0|0:3,0:0:0:0:
121,195,66036,1,2,0:0:0:0:
121,195,66186,6,0,P|104:136|121:57,1,140,2|8,0:0|0:3,0:0:0:0:
203,57,66636,1,8,0:0:0:0:
203,57,66786,2,0,L|298:72,1,70,0|8,0:0|0:3,0:0:0:0:
354,85,67086,1,8,0:3:0:0:
354,85,67236,1,0,0:0:0:0:
354,85,68286,6,0,P|299:76|262:153,1,140,2|0,2:0|0:0,0:0:0:0:
280,221,68736,2,0,B|207:205|216:268|118:231,1,140,8|0,2:0|0:0,0:0:0:0:
109,167,69186,1,0,0:0:0:0:
109,167,69261,1,0,0:0:0:0:
109,167,69336,6,0,L|98:20,1,140,2|0,2:0|0:0,0:0:0:0:
177,56,69786,2,0,P|228:69|321:24,1,140,8|0,2:0|0:0,0:0:0:0:
397,37,70236,1,0,0:0:0:0:
397,37,70311,1,0,0:0:0:0:
397,37,70386,6,0,P|419:91|411:170,1,140,2|0,2:0|0:0,0:0:0:0:
347,222,70836,2,0,B|307:227|307:227|263:266|263:266|212:274,1,140,8|0,2:0|0:0,0:0:0:0:
174,205,71286,1,0,0:0:0:0:
174,205,71361,1,0,0:0:0:0:
174,205,71436,6,0,P|183:154|153:52,1,140,2|0,2:0|0:0,0:0:0:0:
81,79,71886,2,0,P|72:130|102:232,1,140,8|0,2:0|0:0,0:0:0:0:
138,281,72336,1,0,0:0:0:0:
210,323,72486,6,0,L|370:338,1,140,2|0,2:0|0:0,0:0:0:0:
376,256,72936,2,0,L|216:241,1,140,8|0,2:0|0:0,0:0:0:0:
204,166,73386,1,0,0:0:0:0:
204,166,73461,1,0,0:0:0:0:
204,166,73536,6,0,P|218:118|200:21,1,140,2|0,2:0|0:0,0:0:0:0:
307,30,73986,2,0,P|292:98|308:166,1,140,8|0,2:0|0:0,0:0:0:0:
375,216,74436,1,0,0:0:0:0:
375,216,74511,1,0,0:0:0:0:
375,216,74586,6,0,L|358:358,1,140,2|0,2:0|0:0,0:0:0:0:
279,326,75036,2,0,P|240:307|159:362,1,140,8|0,2:0|0:0,0:0:0:0:
81,376,75486,1,0,0:0:0:0:
107,296,75636,6,0,L|115:215,2,70
81,376,76086,2,0,P|38:340|59:178,1,210,12|0,1:1|0:0,0:0:0:0:
142,194,76686,6,0,B|212:210|212:210|267:168,1,140,2|0,2:0|0:0,0:0:0:0:
248,87,77136,2,0,B|178:71|178:71|123:113,1,140,8|0,2:0|0:0,0:0:0:0:
66,174,77586,1,0,0:0:0:0:
114,242,77736,6,0,B|175:233|174:285|254:275,1,140,2|0,2:0|0:0,0:0:0:0:
327,252,78186,2,0,P|367:247|403:343,1,140,8|0,2:0|0:0,0:0:0:0:
330,343,78636,1,0,0:0:0:0:
256,306,78786,6,0,P|245:262|268:149,1,140,2|0,2:0|0:0,0:0:0:0:
331,128,79236,2,0,P|265:142|186:96,1,140,8|0,2:0|0:0,0:0:0:0:
126,138,79686,1,0,0:0:0:0:
126,138,79761,1,0,0:0:0:0:
126,138,79836,6,0,L|115:287,1,140,2|0,2:0|0:0,0:0:0:0:
50,330,80286,2,0,P|94:306|180:348,1,140,8|0,2:0|0:0,0:0:0:0:
248,373,80736,1,0,0:0:0:0:
248,373,80811,1,0,0:0:0:0:
248,373,80886,6,0,L|401:362,1,140,2|0,2:0|0:0,0:0:0:0:
438,296,81336,2,0,P|416:241|434:150,1,140,8|0,2:0|0:0,0:0:0:0:
415,78,81786,1,0,0:0:0:0:
415,78,81861,1,0,0:0:0:0:
415,77,81936,6,0,B|374:85|374:85|343:119|343:119|291:126,1,140,2|0,2:0|0:0,0:0:0:0:
283,210,82386,2,0,B|324:218|324:218|355:252|355:252|407:259,1,140,8|0,2:0|0:0,0:0:0:0:
470,314,82836,1,0,0:0:0:0:
470,314,82911,1,0,0:0:0:0:
470,314,82986,6,0,P|407:315|336:355,1,140,2|0,2:0|0:0,0:0:0:0:
256,356,83436,2,0,B|189:334|189:379|101:366,1,140,8|0,2:0|0:0,0:0:0:0:
36,347,83886,1,0,0:0:0:0:
88,281,84036,1,2,2:0:0:0:
85,75,92436,6,0,P|93:124|98:185,1,105.000004005432,2|0,0:0|0:0,0:0:0:0:
97,261,92886,1,8,0:0:0:0:
97,261,93486,2,0,L|172:272,1,52.5000020027161,2|0,0:0|0:0,0:0:0:0:
232,283,93786,1,0,0:0:0:0:
232,283,93936,1,8,0:0:0:0:
427,309,94536,6,0,P|419:260|414:199,1,105.000004005432,2|0,0:0|0:0,0:0:0:0:
415,123,94986,1,8,0:0:0:0:
415,123,95586,2,0,L|340:112,1,52.5000020027161,2|0,0:0|0:0,0:0:0:0:
280,101,95886,1,0,0:0:0:0:
280,101,96036,1,8,0:0:0:0:
77,338,96636,6,0,P|137:342|193:348,1,105.000004005432,2|0,0:0|0:0,0:0:0:0:
272,359,97086,1,8,0:0:0:0:
272,359,97686,2,0,L|277:295,1,52.5000020027161,2|0,0:0|0:0,0:0:0:0:
286,221,97986,1,0,0:0:0:0:
355,277,98136,1,8,0:0:0:0:
256,94,98736,6,0,L|256:170,1,70
208,330,99786,6,0,P|257:352|310:324,1,105,0|8,0:0|0:0,0:0:0:0:
423,367,100836,6,0,P|430:328|440:286,1,70,2|0,0:0|0:0,0:0:0:0:
464,219,101136,1,8,0:3:0:0:
384,246,101286,2,0,L|307:256,1,70,8|0,0:0|0:0,0:0:0:0:
249,201,101586,2,0,P|264:151|232:94,1,105,2|8,0:3|0:3,0:0:0:0:
203,90,101886,6,0,L|194:14,1,70,2|8,0:0|0:3,0:0:0:0:
111,30,102186,1,2,0:0:0:0:
111,30,102336,2,0,L|120:115,1,70,8|0,0:0|1:0,0:0:0:0:
157,173,102636,1,0,1:0:0:0:
81,210,102786,1,0,1:0:0:0:
147,260,102936,6,0,B|209:248|209:307|288:300,1,140,2|0,0:0|1:0,0:0:0:0:
355,272,103386,1,8,0:0:0:0:
355,272,103686,2,0,L|416:281,3,35,8|8|8|8,0:3|0:3|0:3|0:3,0:0:0:0:
424,252,103986,6,0,P|431:204|423:158,1,70,2|8,0:0|0:3,0:0:0:0:
402,103,104286,1,2,0:0:0:0:
335,154,104436,2,0,P|302:162|259:165,2,70,8|0|0,0:0|1:0|1:0,0:0:0:0:
292,81,104886,1,0,1:0:0:0:
214,113,105036,6,0,P|148:121|80:66,1,140,2|8,0:0|0:3,0:0:0:0:
165,46,105486,2,0,L|145:202,1,140,8|2,0:0|0:3,0:0:0:0:
136,268,105936,1,0,0:0:0:0:
90,338,106086,6,0,P|58:345|19:346,2,70,2|8|2,0:0|0:3|0:0,0:0:0:0:
136,268,106536,1,8,0:0:0:0:
181,338,106686,2,0,L|259:348,1,70,0|0,1:0|1:0,0:0:0:0:
334,354,106986,1,0,1:0:0:0:
297,278,107136,6,0,P|289:219|310:130,1,140,2|0,0:0|0:0,0:0:0:0:
351,70,107586,1,8,0:0:0:0:
351,70,107886,2,0,L|396:73,3,35,8|8|8|8,0:3|0:3|0:3|0:3,0:0:0:0:
419,97,108186,6,0,P|431:142|435:192,1,70,2|8,0:0|0:3,0:0:0:0:
443,249,108486,1,2,0:0:0:0:
443,249,108636,2,0,L|364:263,1,70,8|0,0:0|1:0,0:0:0:0:
417,332,108936,2,0,L|349:345,1,70,0|0,1:0|1:0,0:0:0:0:
287,286,109236,6,0,P|245:265|178:328,1,140,8|0,0:3|1:0,0:0:0:0:
101,349,109686,2,0,L|15:360,1,70,8|0,0:0|0:0,0:0:0:0:
40,273,109986,2,0,L|123:262,1,70,2|2,0:3|0:0,0:0:0:0:
153,192,110286,6,0,L|75:178,2,70,2|8|2,0:0|0:3|0:0,0:0:0:0:
230,224,110736,1,8,0:0:0:0:
302,182,110886,2,0,L|377:170,2,70,0|0|0,1:0|1:0|1:0,0:0:0:0:
306,265,111336,6,0,B|369:253|367:300|446:291,1,140,2|0,0:0|1:0,0:0:0:0:
480,217,111786,1,8,0:0:0:0:
480,217,112086,2,0,L|482:167,3,35,2|8|8|8,0:3|0:3|0:3|0:3,0:0:0:0:
480,139,112386,6,0,P|444:158|413:166,1,70,2|8,0:0|0:3,0:0:0:0:
343,123,112686,1,2,0:0:0:0:
317,205,112836,2,0,B|274:207|274:207|230:238|230:238|178:245,1,140,8|0,0:0|1:0,0:0:0:0:
103,256,113286,1,0,1:0:0:0:
135,178,113436,6,0,P|139:141|138:96,2,70,8|0|8,0:3|1:0|0:3,0:0:0:0:
103,256,113886,2,0,L|24:267,1,70,8|0,0:0|0:0,0:0:0:0:
160,316,114186,2,0,L|245:330,1,70,2|0,0:3|0:0,0:0:0:0:
308,355,114486,6,0,P|367:363|416:300,1,140,2|2,0:0|0:0,0:0:0:0:
337,275,114936,2,0,L|327:188,3,70,8|0|0|0,0:0|1:0|1:0|1:0,0:0:0:0:
357,125,115536,6,0,P|323:117|247:189,1,140,2|8,0:0|0:3,0:0:0:0:
219,257,115986,1,8,0:0:0:0:
219,257,116286,2,0,L|169:264,3,35,8|8|8|8,0:3|0:3|0:3|0:3,0:0:0:0:
165,300,116586,6,0,L|156:215,1,70,2|8,0:0|0:3,0:0:0:0:
79,259,116886,1,2,0:0:0:0:
79,259,117036,2,0,L|70:187,1,70,8|0,0:0|1:0,0:0:0:0:
60,106,117336,1,0,1:0:0:0:
60,106,117486,1,0,1:0:0:0:
60,106,118691,6,0,P|65:136|66:152,4,26.2500010013581,2|0|0|0|0,0:0|0:0|0:0|0:0|0:0,0:0:0:0:
67,208,119159,1,8,0:0:0:0:
67,208,119784,6,0,P|87:211|105:218,4,26.2500010013581,2|0|0|0|0,0:0|0:0|0:0|0:0|0:0,0:0:0:0:
164,252,120265,1,8,0:0:0:0:
164,252,120906,6,0,P|165:227|168:206,4,26.2500010013581,2|0|0|0|0,0:0|0:0|0:0|0:0|0:0,0:0:0:0:
178,147,121406,1,8,0:0:0:0:
178,147,122072,6,0,P|163:151|144:153,4,26.2500010013581,2|0|0|0|0,0:0|0:0|0:0|0:0|0:0,0:0:0:0:
70,146,122587,1,8,0:0:0:0:
256,192,123275,12,0,127147,0:0:0:0:
257,192,127743,5,8,0:0:0:0:
156,67,128537,2,0,P|161:124|165:198,1,105,2|0,0:0|0:0,0:0:0:0:
168,257,129159,1,8,0:0:0:0:
332,72,129990,6,0,P|323:131|317:192,1,105.000004005432,2|0,0:0|0:0,0:0:0:0:
314,260,130636,1,8,0:0:0:0:
306,334,131498,2,0,P|258:348|207:332,1,105.000004005432,2|0,0:0|0:0,0:0:0:0:
256,265,132173,1,8,0:0:0:0:
204,76,133073,6,0,P|253:64|315:81,1,105.000004005432,2|0,0:0|0:0,0:0:0:0:
257,152,133778,1,8,0:0:0:0:
257,164,134730,1,2,0:0:0:0:
257,175,135467,1,8,0:0:0:0:
255,187,136462,6,0,L|256:304,1,105.000004005432,2|0,0:0|0:0,0:0:0:0:
255,370,137234,1,8,0:0:0:0:
255,370,138286,1,2,0:0:0:0:
255,370,139096,1,8,0:0:0:0:
256,192,140212,12,0,145046,0:0:0:0:
106,364,146364,6,0,L|101:277,1,70,0|0,3:0|3:0,0:0:0:0:
97,212,147048,1,0,3:0:0:0:
97,212,147732,6,0,P|136:205|174:191,1,70,0|0,3:0|3:0,0:0:0:0:
237,155,148443,1,0,3:0:0:0:
237,155,149154,6,0,L|246:229,1,70,2|0,3:0|3:0,0:0:0:0:
258,309,149894,1,0,3:0:0:0:
258,309,150647,6,0,P|299:321|338:325,1,70,0|2,3:0|3:0,0:0:0:0:
472,258,151416,2,0,P|436:263|405:292,1,70,0|0,0:0|3:0,0:0:0:0:
296,352,152198,6,0,P|340:355|343:336,1,70,0|0,3:0|3:0,0:0:0:0:
409,228,152994,2,0,P|373:233|378:259,1,70,0|0,3:0|3:0,0:0:0:0:
424,340,153815,5,2,3:0:0:0:
424,340,154652,2,0,L|328:350,1,70,0|0,3:0|3:0,0:0:0:0:
275,356,155515,1,0,3:0:0:0:
275,356,156397,6,0,P|264:317|266:278,1,70,0|2,3:0|3:0,0:0:0:0:
272,208,157306,2,0,P|257:247|219:248,1,70,0|0,3:0|3:0,0:0:0:0:
150,250,158227,2,0,P|144:222|139:165,1,70,2|2,0:0|0:0,0:0:0:0:
121,89,159177,5,2,0:0:0:0:
138,93,159666,1,2,0:0:0:0:
170,88,160163,1,2,0:3:0:0:
193,81,160667,2,0,L|197:130,1,35,2|0,0:0|0:0,0:0:0:0:
