osu file format v14

[General]
AudioFilename: audio.mp3
AudioLeadIn: 0
PreviewTime: 33636
Countdown: 0
SampleSet: Soft
StackLeniency: 0.7
Mode: 0
LetterboxInBreaks: 0
WidescreenStoryboard: 0

[Editor]
DistanceSpacing: 0.4
BeatDivisor: 4
GridSize: 4
TimelineZoom: 2.3

[Metadata]
Title:CONFUSION PART ONE
TitleUnicode:混乱 (一)
Artist:onumi
ArtistUnicode:オヌミ
Creator:Leader
Version:Extra
Source:osu!
Tags:featured artist fa gouman childhood friend experimental electro progressive mappers' guild PandaHero Mirash
BeatmapID:2169357
BeatmapSetID:1037665

[Difficulty]
HPDrainRate:6.5
CircleSize:4
OverallDifficulty:9
ApproachRate:9.4
SliderMultiplier:1.8
SliderTickRate:1

[Events]
//Background and Video events
0,0,"ian-valerio-CAFq0pv9HjY-unsplash.jpg",0,0
//Break Periods
2,84236,85596
//Storyboard Layer 0 (Background)
//Storyboard Layer 1 (Fail)
//Storyboard Layer 2 (Pass)
//Storyboard Layer 3 (Foreground)
//Storyboard Layer 4 (Overlay)
//Storyboard Sound Samples

[TimingPoints]
29436,300,4,2,1,40,1,0
30486,300,4,2,1,40,1,0
31536,300,4,2,1,40,1,0
32586,300,4,2,1,40,1,0
33486,-100,4,2,1,5,0,0
33636,300,4,2,1,70,1,0
33636,-100,4,2,1,70,0,0
34086,-133.333333333333,4,2,1,70,0,0
34686,300,4,2,1,70,1,0
35736,300,4,2,1,70,1,0
36786,300,4,2,1,70,1,0
37236,-133.333333333333,4,2,1,70,0,0
37836,300,4,2,1,70,1,0
37836,-100,4,2,1,70,0,0
38286,-125,4,2,1,70,0,0
38511,-125,4,2,1,5,0,0
38586,-125,4,2,1,70,0,0
38811,-125,4,2,1,5,0,0
38886,300,4,2,1,70,1,0
39936,300,4,2,1,70,1,0
40986,300,4,2,1,70,1,0
42036,300,4,2,1,70,1,0
43086,300,4,2,1,70,1,0
44136,300,4,2,1,70,1,0
45186,300,4,2,1,70,1,0
46236,300,4,2,1,70,1,0
46686,-66.6666666666667,4,2,1,70,0,0
46986,-100,4,2,1,70,0,0
47286,300,4,2,1,70,1,0
48336,300,4,2,1,70,1,0
49386,300,4,2,1,70,1,0
50436,300,4,2,1,70,1,0
50436,-50,4,2,1,70,0,0
51486,300,4,2,1,70,1,0
52536,300,4,2,1,70,1,0
53586,300,4,2,1,70,1,0
54636,300,4,2,1,70,1,0
55686,300,4,2,1,70,1,0
56736,300,4,2,1,70,1,0
57786,300,4,2,1,70,1,0
58836,300,4,2,1,70,1,0
58836,-200,4,2,1,70,0,0
59886,300,4,2,1,70,1,0
60936,300,4,2,1,70,1,0
61986,300,4,2,1,70,1,0
63036,300,4,2,1,70,1,0
63036,-133.333333333333,4,2,1,70,0,0
64086,300,4,2,1,70,1,0
65136,300,4,2,1,70,1,0
66186,300,4,2,1,70,1,0
67236,300,4,2,1,70,1,0
68286,300,4,3,1,70,1,0
69336,300,4,3,1,70,1,0
70386,300,4,3,1,70,1,0
71436,300,4,3,1,70,1,0
72486,300,4,3,1,70,1,0
73536,300,4,3,1,70,1,0
74586,300,4,3,1,70,1,0
75636,300,4,3,1,70,1,0
75636,-333.333333333333,4,2,1,40,0,0
76686,300,4,3,1,70,1,0
77736,300,4,3,1,70,1,0
78786,300,4,3,1,70,1,0
79836,300,4,3,1,70,1,0
80886,300,4,3,1,70,1,0
81936,300,4,3,1,70,1,0
82986,300,4,3,1,70,1,0
84036,300,4,3,1,70,1,0
85086,300,4,3,1,70,1,0
86136,300,4,2,1,50,1,0
86136,-200,4,2,1,50,0,0
87186,300,4,2,1,50,1,0
87186,-200,4,2,1,50,0,0
88236,300,4,2,1,50,1,0
88236,-200,4,2,1,50,0,0
89286,300,4,2,1,50,1,0
89286,-200,4,2,1,50,0,0
90336,300,4,2,1,50,1,0
90336,-200,4,2,1,50,0,0
91386,300,4,2,1,50,1,0
91386,-200,4,2,1,50,0,0
92436,300,4,2,1,50,1,0
92436,-200,4,2,1,50,0,0
93486,300,4,2,1,50,1,0
93486,-200,4,2,1,50,0,0
94536,300,4,2,1,50,1,0
94536,-200,4,2,1,50,0,0
95586,300,4,2,1,50,1,0
95586,-200,4,2,1,50,0,0
96636,300,4,2,1,50,1,0
96636,-200,4,2,1,50,0,0
97686,300,4,2,1,50,1,0
97686,-200,4,2,1,50,0,0
98736,300,4,2,1,70,1,0
99636,-100,4,2,1,70,0,0
99786,300,4,2,1,70,1,0
99786,-333.333333333333,4,2,1,70,0,0
100836,300,4,2,1,70,1,1
101886,300,4,2,1,70,1,1
102936,300,4,2,1,70,1,1
103986,300,4,2,1,70,1,1
105036,300,4,2,1,70,1,1
106086,300,4,2,1,70,1,1
107136,300,4,2,1,70,1,1
108186,300,4,2,1,70,1,1
109236,300,4,2,1,70,1,1
110286,300,4,2,1,70,1,1
111336,300,4,2,1,70,1,1
112386,300,4,2,1,70,1,1
113436,300,4,2,1,70,1,1
114486,300,4,2,1,70,1,1
115536,300,4,2,1,70,1,1
116586,300,4,2,1,70,1,1
117636,300,4,2,1,70,1,0
118691,312.5,4,2,1,70,1,0
119784,320.855614973262,4,2,1,65,1,0
120906,333.333333333333,4,2,1,60,1,0
122072,343.839541547278,4,2,1,55,1,0
123275,355.029585798817,4,2,1,50,1,0
124517,369.230769230769,4,2,1,45,1,0
125810,382.165605095541,4,2,1,40,1,0
127147,397.350993377483,4,2,1,35,1,0
128537,415.22491349481,4,2,1,30,1,0
128537,-200,4,2,1,30,0,0
129990,430.879712746858,4,2,1,30,1,0
129990,-200,4,2,1,30,0,0
131498,450.001125002813,4,2,1,30,1,0
131498,-200,4,2,1,30,0,0
133073,470.588235294118,4,2,1,30,1,0
133073,-200,4,2,1,30,0,0
133778,476.190476190476,4,2,1,30,1,0
134730,491.803278688525,4,2,1,30,1,0
134730,-200,4,2,1,30,0,0
135467,497.92531120332,4,2,1,30,1,0
136462,515.021459227468,4,2,1,30,1,0
136462,-200,4,2,1,30,0,0
137234,526.315789473684,4,2,1,30,1,0
138286,540.540540540541,4,2,1,30,1,0
138286,-400,4,2,1,30,0,0
139096,558.139534883721,4,2,1,30,1,0
140212,576.923076923077,4,2,1,30,1,0
141365,591.133004926108,4,2,1,30,1,0
142547,615.384615384615,4,2,1,30,1,0
143777,634.920634920635,4,2,1,30,1,0
145046,659.340659340659,4,2,1,30,1,0
146364,684.415851071111,4,2,1,30,1,0
147732,711.465262708548,4,2,1,30,1,0
149154,740.740740740741,4,2,1,30,1,0
149894,753.138705555402,4,2,1,30,1,0
150647,769.230769230769,4,2,1,30,1,0
151416,782.609376182066,4,2,1,30,1,0
152198,796.463701166819,4,2,1,30,1,0
152994,821.917808219178,4,2,1,30,1,0
153815,837.217090391539,4,2,1,30,1,0
154652,863.309352517986,4,2,1,30,1,0
155515,882.352941176471,4,2,1,30,1,0
156397,909.090909090909,4,2,1,30,1,0
157306,921.305182341651,4,2,1,30,1,0
158227,950.495049504951,4,2,1,20,1,0
159177,979.591836734694,4,2,1,15,1,0
159666,995.850622406639,4,2,1,15,1,0
160163,1008.40336134454,4,2,1,15,1,0
160667,1016.94915254237,4,2,1,15,1,0

[Colours]
Combo1 : 64,73,72
Combo2 : 192,112,89
Combo3 : 21,118,135
Combo4 : 200,12,6

[HitObjects]
256,192,29436,5,2,0:0:0:0:
256,192,29511,12,0,33486,0:0:0:0:
187,162,33636,5,2,0:0:0:0:
279,218,33786,1,8,0:3:0:0:
38,295,33936,1,2,0:0:0:0:
187,162,34086,6,0,P|197:221|205:314,1,135.000005149842,8|2,0:0|0:3,0:0:0:0:
288,227,34536,5,8,0:3:0:0:
288,227,34611,1,8,0:3:0:0:
288,227,34686,1,2,0:0:0:0:
350,352,34836,1,8,0:3:0:0:
458,265,34986,1,2,0:0:0:0:
200,264,35136,2,0,P|189:211|194:163,1,90,8|0,0:0|0:0,0:0:0:0:
288,227,35436,1,0,0:0:0:0:
57,335,35586,1,8,0:3:0:0:
336,304,35736,5,2,0:0:0:0:
336,304,35886,2,0,L|389:312,1,45,8|0,0:3|0:0,0:0:0:0:
443,261,36036,1,2,0:0:0:0:
443,261,36111,1,2,0:0:0:0:
443,261,36186,2,0,B|454:217|454:217|437:166,1,90,8|0,0:0|0:0,0:0:0:0:
320,44,36486,2,0,P|316:76|305:106,1,45,8|8,0:3|0:3,0:0:0:0:
199,88,36636,2,0,P|194:66|192:44,1,45,8|8,0:3|0:3,0:0:0:0:
265,161,36786,5,2,0:0:0:0:
103,79,36936,1,8,0:3:0:0:
372,169,37086,1,2,0:0:0:0:
87,231,37236,6,0,L|91:277,1,33.7500012874604,8|0,0:0|0:0,0:0:0:0:
101,242,37386,2,0,L|105:288,1,33.7500012874604
189,286,37536,6,0,L|185:332,1,33.7500012874604,0|0,1:0|0:0,0:0:0:0:
175,297,37686,2,0,L|171:343,1,33.7500012874604,0|0,1:0|1:0,0:0:0:0:
94,363,37836,5,2,0:0:0:0:
276,307,37986,1,8,0:3:0:0:
189,286,38136,1,2,0:0:0:0:
365,344,38286,6,0,B|416:363|416:363|471:345,1,108,8|0,1:2|0:0,0:0:0:0:
463,264,38586,2,0,B|412:245|412:245|357:263,1,108,2|0,0:0|0:0,0:0:0:0:
254,337,38886,5,2,0:0:0:0:
158,196,39036,1,8,0:3:0:0:
254,337,39186,1,2,0:0:0:0:
354,196,39336,1,8,0:0:0:0:
171,279,39486,5,8,0:3:0:0:
144,279,39636,1,8,0:3:0:0:
117,271,39786,1,8,0:3:0:0:
118,43,39936,6,0,P|127:91|131:162,1,90,2|8,0:0|0:3,0:0:0:0:
45,354,40236,1,2,0:0:0:0:
246,263,40386,2,0,P|292:257|352:254,1,90,8|0,0:0|0:0,0:0:0:0:
454,124,40686,5,8,0:3:0:0:
454,124,40761,1,8,0:3:0:0:
454,124,40836,1,8,0:3:0:0:
454,124,40911,1,8,0:3:0:0:
454,124,40986,1,8,0:3:0:0:
392,196,41136,1,8,0:3:0:0:
337,119,41286,1,2,0:0:0:0:
395,40,41436,1,8,0:0:0:0:
481,210,41586,6,0,P|473:237|459:268,1,45,0|0,1:0|1:0,0:0:0:0:
316,247,41736,2,0,P|308:226|302:205,1,45,0|0,1:0|0:0,0:0:0:0:
400,335,41886,1,0,1:0:0:0:
400,335,42036,1,2,0:0:0:0:
232,231,42186,5,8,0:3:0:0:
164,295,42336,1,2,0:0:0:0:
81,249,42486,2,0,L|69:141,1,90,8|0,0:0|0:0,0:0:0:0:
167,12,42786,6,0,P|194:61|160:170,1,135,2|8,0:3|0:3,0:0:0:0:
111,86,43086,5,2,0:0:0:0:
114,79,43236,1,8,0:3:0:0:
120,84,43386,1,2,0:0:0:0:
254,254,43536,2,0,L|351:269,1,90,8|8,0:0|0:3,0:0:0:0:
302,169,43836,1,0,0:0:0:0:
373,352,43986,1,8,0:3:0:0:
182,295,44136,6,0,P|173:246|183:199,1,90,2|8,0:0|0:3,0:0:0:0:
254,254,44436,1,2,0:0:0:0:
76,352,44586,2,0,B|88:314|69:290|69:290|83:247|83:247|52:223|76:166,1,180,8|8,0:0|0:3,0:0:0:0:
76,170,44961,5,8,0:3:0:0:
83,157,45036,1,8,0:3:0:0:
92,144,45111,1,8,0:3:0:0:
104,132,45186,1,2,0:0:0:0:
167,209,45336,1,8,0:3:0:0:
25,85,45486,1,2,0:0:0:0:
258,148,45636,1,8,0:0:0:0:
160,288,45786,6,0,P|204:283|229:276,1,45,0|0,1:0|0:0,0:0:0:0:
256,302,45936,2,0,P|212:307|187:314,1,45,0|0,1:0|0:0,0:0:0:0:
136,365,46086,5,0,1:0:0:0:
343,292,46236,1,2,0:0:0:0:
71,181,46386,6,0,L|76:281,1,90,8|2,0:3|0:0,0:0:0:0:
223,106,46686,2,0,B|250:91|256:49|256:49|259:90|290:111,1,135.000005149842,8|0,1:2|0:0,0:0:0:0:
436,270,46986,2,0,L|441:181,1,90,2|0,0:0|0:0,0:0:0:0:
225,228,47286,5,10,0:3:0:0:
304,207,47436,1,2,0:0:0:0:
155,183,47586,1,8,0:3:0:0:
365,271,47736,1,8,0:0:0:0:
101,259,47886,5,0,1:0:0:0:
405,182,48036,1,0,1:0:0:0:
58,164,48186,1,0,1:0:0:0:
486,247,48336,5,2,0:0:0:0:
259,204,48486,1,8,0:3:0:0:
58,164,48636,1,2,0:0:0:0:
299,119,48786,2,0,L|304:25,1,90,8|0,0:0|0:0,0:0:0:0:
187,263,49086,5,8,0:3:0:0:
188,285,49161,1,8,0:3:0:0:
189,307,49236,1,8,0:3:0:0:
190,330,49311,1,2,0:0:0:0:
191,352,49386,5,2,0:0:0:0:
315,257,49536,1,0,0:0:0:0:
64,338,49686,1,2,0:0:0:0:
393,304,49836,2,0,P|401:262|392:207,1,90,8|0,0:0|1:0,0:0:0:0:
194,64,50136,2,0,P|199:92|211:125,1,45,0|0,1:0|0:0,0:0:0:0:
308,107,50286,2,0,P|314:86|318:64,1,45,0|0,1:0|0:0,0:0:0:0:
116,192,50436,6,0,B|315:244|392:89|253:-8|123:89|201:246|406:191,2,540,4|8|0,1:0|0:0|1:0,0:0:0:0:
100,188,51411,1,2,0:0:0:0:
80,179,51486,5,2,0:0:0:0:
132,350,51636,1,8,0:3:0:0:
21,276,51786,1,2,0:0:0:0:
190,234,51936,2,0,L|195:137,1,90,8|8,0:0|0:3,0:0:0:0:
107,93,52236,1,8,0:3:0:0:
298,231,52386,5,8,0:3:0:0:
298,231,52461,1,8,0:3:0:0:
298,231,52536,2,0,P|336:223|412:194,1,90,2|8,0:0|0:3,0:0:0:0:
289,125,52836,1,2,0:0:0:0:
384,321,52986,2,0,L|485:331,1,90,8|8,0:0|0:3,0:0:0:0:
511,232,53286,1,8,0:3:0:0:
276,356,53436,5,8,0:3:0:0:
252,359,53511,1,8,0:3:0:0:
229,363,53586,2,0,L|222:267,1,90,2|8,0:0|0:3,0:0:0:0:
149,95,53886,1,2,0:0:0:0:
323,257,54036,2,0,L|330:161,1,90,8|2,0:0|0:0,0:0:0:0:
149,95,54336,1,0,0:3:0:0:
379,330,54486,5,8,0:3:0:0:
379,330,54561,1,8,0:3:0:0:
379,330,54636,2,0,P|339:345|241:231,1,180,2|0,0:0|0:0,0:0:0:0:
335,153,55086,2,0,L|328:248,1,90,8|0,0:0|0:0,0:0:0:0:
328,242,55311,1,2,0:0:0:0:
328,242,55386,1,2,0:0:0:0:
161,149,55536,5,2,0:0:0:0:
161,149,55611,1,2,0:0:0:0:
161,149,55686,2,0,P|153:101|164:55,1,90,2|8,0:0|0:3,0:0:0:0:
244,104,55986,1,2,0:0:0:0:
149,319,56136,2,0,L|53:330,1,90,8|8,0:0|0:3,0:0:0:0:
93,221,56436,1,2,0:0:0:0:
399,347,56586,5,2,0:0:0:0:
399,347,56661,1,2,0:0:0:0:
399,347,56736,2,0,L|407:257,1,90,2|8,0:0|0:3,0:0:0:0:
255,193,57036,1,2,0:0:0:0:
113,37,57186,2,0,L|105:127,1,90,8|2,0:0|0:0,0:0:0:0:
255,193,57486,1,8,0:3:0:0:
137,337,57636,5,8,0:3:0:0:
137,337,57711,1,8,0:3:0:0:
137,337,57786,2,0,L|40:350,1,90,2|8,0:0|0:3,0:0:0:0:
255,193,58086,1,2,0:0:0:0:
375,337,58236,2,0,L|472:350,1,90,8|2,0:0|0:0,0:0:0:0:
243,206,58536,6,0,P|208:214|175:217,1,45,2|0,0:0|0:0,0:0:0:0:
50,44,58686,1,8,0:3:0:0:
50,44,58761,1,8,0:3:0:0:
50,44,58836,2,0,B|82:31|105:68|105:68|128:30|168:45,2,135,4|8|2,0:0|0:0|0:0,0:0:0:0:
40,49,59811,5,2,0:0:0:0:
29,53,59886,2,0,P|45:122|48:184,1,90,2|8,0:0|0:3,0:0:0:0:
158,124,60186,1,2,0:0:0:0:
59,334,60336,1,8,0:0:0:0:
273,131,60486,1,8,0:3:0:0:
23,255,60636,1,2,0:0:0:0:
344,212,60786,5,8,0:3:0:0:
344,212,60861,1,8,0:3:0:0:
344,212,60936,2,0,P|360:281|363:343,1,90,2|8,0:0|0:3,0:0:0:0:
251,291,61236,1,2,0:0:0:0:
464,205,61386,1,8,0:0:0:0:
243,163,61536,1,8,0:3:0:0:
492,306,61686,1,2,0:0:0:0:
163,208,61836,5,8,0:3:0:0:
163,208,61911,1,8,0:3:0:0:
163,208,61986,2,0,P|155:167|163:117,1,90,2|8,0:0|0:3,0:0:0:0:
243,163,62286,1,2,0:0:0:0:
170,323,62436,2,0,L|76:336,1,90,8|2,0:0|0:0,0:0:0:0:
85,239,62736,1,8,0:3:0:0:
359,352,62886,5,8,0:3:0:0:
359,352,62961,1,8,0:3:0:0:
359,352,63036,2,0,L|436:360,2,67.5000025749208,2|0|0,0:0|0:0|0:0,0:0:0:0:
162,202,63486,5,8,0:0:0:0:
282,125,63636,1,0,0:0:0:0:
131,98,63786,1,0,0:0:0:0:
358,43,63936,1,8,0:3:0:0:
358,43,64011,1,8,0:3:0:0:
358,43,64086,6,0,P|385:127|353:218,1,180,6|2,0:0|0:0,0:0:0:0:
282,125,64536,1,8,0:0:0:0:
434,262,64686,1,0,0:0:0:0:
282,125,64836,1,0,0:0:0:0:
485,166,64986,5,8,0:3:0:0:
485,166,65061,1,8,0:3:0:0:
485,166,65136,1,2,0:0:0:0:
36,196,65286,1,0,0:0:0:0:
434,262,65436,5,2,0:0:0:0:
85,94,65586,1,8,0:0:0:0:
343,11,65736,5,2,0:0:0:0:
349,365,65886,1,8,0:3:0:0:
196,17,66036,5,8,0:3:0:0:
196,17,66111,1,8,0:3:0:0:
196,17,66186,1,2,0:0:0:0:
193,372,66336,1,0,0:0:0:0:
443,77,66486,5,8,0:3:0:0:
139,260,66636,2,0,P|131:220|132:151,1,90,8|0,0:0|0:0,0:0:0:0:
484,175,66936,1,8,0:3:0:0:
72,332,67086,1,8,0:3:0:0:
72,332,68286,5,2,2:0:0:0:
180,350,68436,1,0,0:0:0:0:
211,352,68511,1,0,0:0:0:0:
241,344,68586,1,0,0:0:0:0:
267,326,68661,1,0,0:0:0:0:
286,301,68736,1,8,2:0:0:0:
295,271,68811,1,0,0:0:0:0:
294,240,68886,1,0,0:0:0:0:
283,210,68961,1,0,0:0:0:0:
263,186,69036,1,0,0:0:0:0:
236,170,69111,1,0,0:0:0:0:
205,164,69186,1,0,0:0:0:0:
174,168,69261,1,0,0:0:0:0:
145,179,69336,6,0,P|149:222|159:253,1,45,2|0,2:0|0:0,0:0:0:0:
218,269,69486,1,0,0:0:0:0:
249,271,69561,1,0,0:0:0:0:
279,263,69636,1,0,0:0:0:0:
305,245,69711,1,0,0:0:0:0:
324,220,69786,1,8,2:0:0:0:
333,190,69861,1,0,0:0:0:0:
332,159,69936,1,0,0:0:0:0:
321,129,70011,1,0,0:0:0:0:
301,105,70086,1,0,0:0:0:0:
274,89,70161,1,0,0:0:0:0:
243,83,70236,1,0,0:0:0:0:
212,87,70311,1,0,0:0:0:0:
184,101,70386,6,0,L|174:58,1,45,2|0,2:0|0:0,0:0:0:0:
115,191,70536,1,0,0:0:0:0:
149,202,70611,1,0,0:0:0:0:
184,202,70686,1,0,0:0:0:0:
218,191,70761,1,0,0:0:0:0:
248,170,70836,1,8,2:0:0:0:
269,141,70911,1,0,0:0:0:0:
280,107,70986,1,0,0:0:0:0:
279,71,71061,1,0,0:0:0:0:
292,37,71136,1,0,0:0:0:0:
320,15,71211,1,0,0:0:0:0:
355,11,71286,1,0,0:0:0:0:
388,24,71361,1,0,0:0:0:0:
409,53,71436,6,0,P|414:81|413:129,1,45,2|0,2:0|0:0,0:0:0:0:
367,225,71586,1,0,0:0:0:0:
367,202,71661,1,0,0:0:0:0:
374,181,71736,1,0,0:0:0:0:
398,207,71811,1,0,0:0:0:0:
409,241,71886,1,8,2:0:0:0:
405,276,71961,1,0,0:0:0:0:
386,306,72036,1,0,0:0:0:0:
357,326,72111,1,0,0:0:0:0:
322,332,72186,1,0,0:0:0:0:
287,322,72261,1,0,0:0:0:0:
254,309,72336,1,0,0:0:0:0:
218,311,72411,1,0,0:0:0:0:
186,327,72486,6,0,L|180:267,1,45,2|0,2:0|0:0,0:0:0:0:
258,139,72636,1,0,0:0:0:0:
256,161,72711,1,0,0:0:0:0:
251,183,72786,1,0,0:0:0:0:
233,151,72861,1,0,0:0:0:0:
230,116,72936,1,8,2:0:0:0:
241,82,73011,1,0,0:0:0:0:
265,56,73086,1,0,0:0:0:0:
298,41,73161,1,0,0:0:0:0:
334,41,73236,1,0,0:0:0:0:
365,58,73311,1,0,0:0:0:0:
386,87,73386,1,0,0:0:0:0:
391,122,73461,1,0,0:0:0:0:
395,158,73536,6,0,L|391:226,1,45,2|0,2:0|0:0,0:0:0:0:
460,307,73686,1,0,0:0:0:0:
418,324,73761,1,0,0:0:0:0:
374,324,73836,1,0,0:0:0:0:
333,306,73911,1,0,0:0:0:0:
302,274,73986,1,8,2:0:0:0:
286,231,74061,1,0,0:0:0:0:
288,187,74136,1,0,0:0:0:0:
293,142,74211,1,0,0:0:0:0:
274,102,74286,1,0,0:0:0:0:
237,79,74361,1,0,0:0:0:0:
193,79,74436,1,0,0:0:0:0:
155,103,74511,1,0,0:0:0:0:
137,143,74586,6,0,L|141:192,1,45,2|0,2:0|0:0,0:0:0:0:
55,198,74736,1,0,0:0:0:0:
75,237,74811,1,0,0:0:0:0:
111,263,74886,1,0,0:0:0:0:
155,268,74961,1,0,0:0:0:0:
197,251,75036,1,8,2:0:0:0:
206,266,75111,1,0,0:0:0:0:
214,281,75186,1,0,0:0:0:0:
219,298,75261,1,0,0:0:0:0:
219,316,75336,1,0,0:0:0:0:
192,361,75411,1,0,0:0:0:0:
149,377,75486,1,0,0:0:0:0:
102,374,75561,1,0,0:0:0:0:
67,347,75636,6,0,L|63:310,2,26.9999991760254,0|0|0,0:0|0:0|0:0,0:0:0:0:
135,260,76086,1,12,1:1:0:0:
135,260,76236,2,0,L|139:223,2,26.9999991760254,0|0|0,0:0|0:0|0:0,0:0:0:0:
66,131,76686,5,2,2:0:0:0:
222,320,76836,1,0,0:0:0:0:
244,321,76911,1,0,0:0:0:0:
266,324,76986,1,0,0:0:0:0:
288,331,77061,1,0,0:0:0:0:
309,338,77136,1,8,2:0:0:0:
349,355,77211,1,0,0:0:0:0:
394,356,77286,1,0,0:0:0:0:
435,338,77361,1,0,0:0:0:0:
465,305,77436,1,0,0:0:0:0:
479,262,77511,1,0,0:0:0:0:
476,218,77586,1,0,0:0:0:0:
454,179,77661,1,0,0:0:0:0:
420,156,77736,6,0,P|394:158|362:169,1,45,2|0,2:0|0:0,0:0:0:0:
176,314,77886,1,0,0:0:0:0:
172,292,77961,1,0,0:0:0:0:
170,269,78036,1,0,0:0:0:0:
170,247,78111,1,0,0:0:0:0:
172,224,78186,1,8,2:0:0:0:
188,182,78261,1,0,0:0:0:0:
193,137,78336,1,0,0:0:0:0:
199,93,78411,1,0,0:0:0:0:
176,55,78486,1,0,0:0:0:0:
135,40,78561,1,0,0:0:0:0:
93,55,78636,1,0,0:0:0:0:
71,93,78711,1,0,0:0:0:0:
77,136,78786,6,0,P|84:177|86:202,1,45,2|0,2:0|0:0,0:0:0:0:
80,302,78936,2,0,P|83:279|87:257,1,45,0|0,0:0|0:0,0:0:0:0:
176,55,79086,6,0,P|183:96|185:121,1,45,0|0,0:0|0:0,0:0:0:0:
186,384,79236,2,0,P|189:361|193:339,1,45,8|0,2:0|0:0,0:0:0:0:
264,169,79386,6,0,P|287:174|324:186,1,45,0|0,0:0|0:0,0:0:0:0:
306,269,79536,2,0,P|284:275|262:280,1,45,0|0,0:0|0:0,0:0:0:0:
382,227,79686,1,0,0:0:0:0:
395,239,79761,1,0,0:0:0:0:
410,249,79836,6,0,P|415:211|413:180,1,45,2|0,2:0|0:0,0:0:0:0:
166,130,79986,1,0,0:0:0:0:
164,152,80061,1,0,0:0:0:0:
165,174,80136,1,0,0:0:0:0:
168,197,80211,1,0,0:0:0:0:
174,220,80286,1,8,2:0:0:0:
189,261,80361,1,0,0:0:0:0:
179,304,80436,1,0,0:0:0:0:
147,334,80511,1,0,0:0:0:0:
103,342,80586,1,0,0:0:0:0:
62,325,80661,1,0,0:0:0:0:
39,288,80736,1,0,0:0:0:0:
30,243,80811,1,0,0:0:0:0:
44,199,80886,6,0,P|66:201|88:208,1,45,2|0,2:0|0:0,0:0:0:0:
277,304,81036,1,0,0:0:0:0:
321,299,81111,1,0,0:0:0:0:
365,305,81186,1,0,0:0:0:0:
406,324,81261,1,0,0:0:0:0:
441,352,81336,1,8,2:0:0:0:
432,307,81411,1,0,0:0:0:0:
434,263,81486,1,0,0:0:0:0:
445,219,81561,1,0,0:0:0:0:
457,172,81636,1,0,0:0:0:0:
459,149,81711,1,0,0:0:0:0:
459,127,81786,1,0,0:0:0:0:
455,105,81861,1,0,0:0:0:0:
446,81,81936,6,0,P|420:73|394:67,1,45,2|0,2:0|0:0,0:0:0:0:
371,164,82086,1,0,0:0:0:0:
348,168,82161,1,0,0:0:0:0:
325,173,82236,1,0,0:0:0:0:
281,184,82311,1,0,0:0:0:0:
238,173,82386,1,8,2:0:0:0:
206,142,82461,1,0,0:0:0:0:
193,100,82536,1,0,0:0:0:0:
157,74,82611,1,0,0:0:0:0:
112,73,82686,1,0,0:0:0:0:
75,98,82761,1,0,0:0:0:0:
59,139,82836,1,0,0:0:0:0:
68,182,82911,1,0,0:0:0:0:
90,217,82986,6,0,P|97:253|100:283,1,45,2|0,2:0|0:0,0:0:0:0:
193,378,83136,1,0,0:0:0:0:
194,361,83211,1,0,0:0:0:0:
197,344,83286,6,0,P|200:321|205:299,1,45,0|0,0:0|0:0,0:0:0:0:
298,194,83436,1,8,2:0:0:0:
299,211,83511,1,0,0:0:0:0:
302,228,83586,6,0,P|305:250|310:272,1,45,0|0,0:0|0:0,0:0:0:0:
390,384,83736,1,0,0:0:0:0:
391,367,83811,1,0,0:0:0:0:
394,350,83886,6,0,P|397:327|402:305,1,45,0|0,0:0|0:0,0:0:0:0:
470,192,84036,1,2,2:0:0:0:
96,55,86136,6,0,P|102:99|103:156,1,90,2|0,0:0|0:0,0:0:0:0:
101,235,86586,1,8,0:0:0:0:
101,235,87036,1,8,0:3:0:0:
176,306,87186,6,0,P|223:310|276:318,1,90,2|0,0:0|0:0,0:0:0:0:
355,357,87636,1,8,0:0:0:0:
355,357,88086,1,8,0:3:0:0:
427,305,88236,6,0,P|421:261|420:204,1,90,2|0,0:0|0:0,0:0:0:0:
422,125,88686,1,8,0:0:0:0:
422,125,88986,2,0,L|364:134,1,45,0|8,0:0|0:3,0:0:0:0:
308,188,89286,6,0,P|296:143|302:91,1,90,2|0,0:0|0:0,0:0:0:0:
329,17,89736,1,8,0:0:0:0:
329,17,90186,1,0,0:0:0:0:
199,141,90336,6,0,P|149:152|81:155,1,90,2|0,0:0|0:0,0:0:0:0:
144,63,90786,1,8,0:0:0:0:
63,274,91086,2,0,L|75:334,1,45,0|8,0:0|0:3,0:0:0:0:
156,362,91386,6,0,L|258:370,1,90,2|8,0:0|0:3,0:0:0:0:
327,309,91836,1,8,0:0:0:0:
327,309,92286,1,8,0:3:0:0:
412,355,92436,6,0,P|419:307|409:261,1,90,2|0,0:0|0:0,0:0:0:0:
327,309,92886,1,8,0:0:0:0:
327,309,93336,1,8,0:3:0:0:
241,357,93486,6,0,L|184:363,2,45,2|0|0,0:0|0:0|0:0,0:0:0:0:
249,265,93936,2,0,P|243:217|244:173,1,90,8|0,0:0|0:0,0:0:0:0:
282,93,94386,1,0,0:0:0:0:
351,156,94536,6,0,L|403:165,2,45,2|0|0,0:0|0:0|0:0,0:0:0:0:
466,126,94986,2,0,P|474:167|461:220,1,90,8|0,0:0|0:0,0:0:0:0:
415,288,95436,1,8,0:3:0:0:
349,353,95586,6,0,L|255:361,1,90,2|0,0:0|0:0,0:0:0:0:
151,270,96036,2,0,L|245:278,1,90,8|0,0:0|0:0,0:0:0:0:
333,188,96486,1,8,0:3:0:0:
333,188,96636,6,0,L|270:193,1,45,2|0,0:0|0:0,0:0:0:0:
177,94,96936,1,0,0:0:0:0:
177,94,97086,2,0,L|277:106,1,90,8|0,0:0|0:0,0:0:0:0:
354,43,97536,1,8,0:3:0:0:
354,43,97686,6,0,P|367:88|351:143,1,90,2|0,0:0|0:0,0:0:0:0:
153,129,98136,2,0,P|145:85|158:43,1,90,8|0,0:0|0:0,0:0:0:0:
256,260,98586,1,0,0:0:0:0:
256,260,98736,1,0,0:0:0:0:
256,192,98811,12,0,99636,0:0:0:0:
213,344,99786,6,0,P|255:353|293:345,1,80.9999975280763,0|8,0:0|0:0,0:0:0:0:
423,142,100386,2,0,L|426:122,5,13.4999995880127,0|0|0|0|0|0,0:0|0:0|0:0|0:0|0:0|0:0,0:0:0:0:
423,142,100836,5,2,0:0:0:0:
276,184,100986,1,0,0:0:0:0:
364,231,101136,1,8,0:3:0:0:
161,97,101286,2,0,P|173:143|179:197,1,90,8|0,0:0|0:0,0:0:0:0:
297,349,101586,6,0,B|285:304|285:304|304:245,1,90,2|8,0:3|0:3,0:0:0:0:
370,308,101811,1,8,0:3:0:0:
370,308,101886,5,2,0:0:0:0:
201,336,102036,1,8,0:3:0:0:
465,338,102186,5,2,0:0:0:0:
130,262,102336,1,8,0:0:0:0:
460,227,102486,5,0,1:0:0:0:
65,355,102636,1,0,1:0:0:0:
148,135,102786,5,0,1:0:0:0:
370,308,102936,1,2,0:0:0:0:
365,135,103086,5,0,1:0:0:0:
261,358,103236,1,0,1:0:0:0:
62,184,103386,2,0,P|56:144|62:84,1,90,8|0,0:0|0:0,0:0:0:0:
212,139,103686,5,8,0:3:0:0:
203,139,103761,1,8,0:3:0:0:
194,140,103836,1,8,0:3:0:0:
185,141,103911,1,8,0:3:0:0:
176,142,103986,1,2,0:0:0:0:
334,257,104136,5,8,0:3:0:0:
246,268,104286,1,2,0:0:0:0:
421,312,104436,5,8,0:0:0:0:
154,230,104586,1,0,1:0:0:0:
451,176,104736,5,0,1:0:0:0:
110,328,104886,1,0,1:0:0:0:
365,137,105036,5,2,0:0:0:0:
257,355,105186,1,0,1:0:0:0:
147,137,105336,1,8,0:3:0:0:
234,175,105486,6,0,L|240:69,1,90,8|0,0:0|0:0,0:0:0:0:
335,275,105786,2,0,L|340:364,1,90,2|0,0:3|0:0,0:0:0:0:
48,280,106086,5,2,0:0:0:0:
269,231,106236,1,8,0:3:0:0:
216,314,106386,5,2,0:0:0:0:
432,354,106536,1,8,0:0:0:0:
343,370,106686,5,0,1:0:0:0:
389,98,106836,1,0,1:0:0:0:
389,98,106986,1,0,1:0:0:0:
304,149,107136,5,2,0:0:0:0:
506,188,107286,1,0,0:0:0:0:
213,216,107436,5,0,0:0:0:0:
432,354,107586,2,0,B|420:309|420:309|431:262,1,90,8|0,0:0|0:0,0:0:0:0:
462,57,107886,5,8,0:3:0:0:
460,65,107961,1,8,0:3:0:0:
459,74,108036,1,8,0:3:0:0:
458,83,108111,1,8,0:3:0:0:
456,92,108186,1,2,0:0:0:0:
310,161,108336,5,8,0:3:0:0:
397,177,108486,1,2,0:0:0:0:
165,189,108636,5,8,0:0:0:0:
344,248,108786,1,0,1:0:0:0:
253,359,108936,5,0,1:0:0:0:
436,268,109086,1,0,1:0:0:0:
225,100,109236,5,8,0:3:0:0:
225,100,109311,1,8,0:3:0:0:
225,100,109386,1,8,0:3:0:0:
431,152,109536,1,0,1:0:0:0:
90,241,109686,2,0,P|79:189|82:140,1,90,8|0,0:0|0:0,0:0:0:0:
431,152,109986,6,0,P|432:197|422:241,1,90,2|2,0:3|0:0,0:0:0:0:
351,186,110211,1,2,0:0:0:0:
351,186,110286,5,2,0:0:0:0:
257,358,110436,1,8,0:3:0:0:
161,186,110586,5,2,0:0:0:0:
426,357,110736,1,8,0:0:0:0:
254,50,110886,5,0,1:0:0:0:
86,357,111036,1,0,1:0:0:0:
86,357,111186,1,0,1:0:0:0:
454,267,111336,5,2,0:0:0:0:
104,255,111486,1,0,1:0:0:0:
474,178,111636,1,0,1:0:0:0:
197,348,111786,2,0,B|185:300|185:300|195:251,1,90,8|0,0:0|0:0,0:0:0:0:
315,36,112086,6,0,B|327:84|327:84|317:133,1,90,2|8,0:3|0:3,0:0:0:0:
306,159,112311,1,8,0:3:0:0:
306,159,112386,5,2,0:0:0:0:
236,82,112536,1,8,0:3:0:0:
487,149,112686,5,2,0:0:0:0:
188,232,112836,1,8,0:0:0:0:
404,78,112986,5,0,1:0:0:0:
154,132,113136,1,0,1:0:0:0:
450,247,113286,5,0,1:0:0:0:
148,27,113436,1,8,0:3:0:0:
317,31,113586,5,0,1:0:0:0:
175,355,113736,1,8,0:3:0:0:
74,181,113886,6,0,P|66:140|74:85,1,90,8|0,0:0|0:0,0:0:0:0:
237,94,114111,1,2,0:0:0:0:
237,94,114186,2,0,P|242:138|234:182,1,90,2|0,0:3|0:0,0:0:0:0:
59,319,114486,5,2,0:0:0:0:
483,259,114636,1,8,0:3:0:0:
137,258,114786,5,2,0:0:0:0:
416,325,114936,1,8,0:0:0:0:
180,329,115086,5,0,1:0:0:0:
352,266,115236,1,0,1:0:0:0:
217,149,115386,5,0,1:0:0:0:
287,354,115536,1,2,0:0:0:0:
248,252,115686,1,8,0:3:0:0:
324,145,115836,1,8,0:3:0:0:
126,197,115986,6,0,P|117:151|133:94,1,90,8|0,0:0|0:0,0:0:0:0:
281,354,116286,1,8,0:3:0:0:
272,354,116361,1,8,0:3:0:0:
263,354,116436,1,8,0:3:0:0:
254,354,116511,1,8,0:3:0:0:
245,354,116586,1,2,0:0:0:0:
62,140,116736,5,8,0:3:0:0:
476,236,116886,1,2,0:0:0:0:
43,232,117036,5,8,0:0:0:0:
463,325,117186,1,0,1:0:0:0:
60,323,117336,5,0,1:0:0:0:
458,148,117486,1,0,1:0:0:0:
256,192,117636,12,0,118236,0:0:0:0:
80,78,118691,5,2,0:0:0:0:
82,91,118769,1,0,0:0:0:0:
84,104,118847,1,0,0:0:0:0:
86,117,118925,1,0,0:0:0:0:
88,131,119003,1,0,0:0:0:0:
90,144,119081,1,0,0:0:0:0:
92,159,119159,2,0,P|89:199|84:222,7,45,8|0|0|0|0|0|0|0,0:0|0:0|0:0|0:0|0:0|0:0|0:0|0:0,0:0:0:0:
176,201,119784,5,2,0:0:0:0:
173,214,119864,1,0,0:0:0:0:
171,227,119944,1,0,0:0:0:0:
169,240,120024,1,0,0:0:0:0:
167,254,120104,1,0,0:0:0:0:
165,267,120185,1,0,0:0:0:0:
164,282,120265,2,0,P|167:322|171:341,7,45,8|0|0|0|0|0|0|0,0:0|0:0|0:0|0:0|0:0|0:0|0:0|0:0,0:0:0:0:
258,358,120906,5,2,0:0:0:0:
271,358,120989,1,0,0:0:0:0:
284,358,121072,1,0,0:0:0:0:
298,358,121155,1,0,0:0:0:0:
311,358,121239,1,0,0:0:0:0:
325,358,121322,1,0,0:0:0:0:
339,358,121406,2,0,L|395:358,7,45,8|0|0|0|0|0|0|0,0:0|0:0|0:0|0:0|0:0|0:0|0:0|0:0,0:0:0:0:
410,270,122072,5,2,0:0:0:0:
396,270,122157,1,0,0:0:0:0:
383,270,122243,1,0,0:0:0:0:
369,270,122329,1,0,0:0:0:0:
356,270,122415,1,0,0:0:0:0:
342,270,122501,1,0,0:0:0:0:
329,270,122587,2,0,L|266:270,7,45,8|0|0|0|0|0|0|0,0:0|0:0|0:0|0:0|0:0|0:0|0:0|0:0,0:0:0:0:
201,211,123275,5,2,0:0:0:0:
193,189,123363,1,0,0:0:0:0:
187,168,123452,1,0,0:0:0:0:
184,145,123541,1,0,0:0:0:0:
184,123,123630,1,0,0:0:0:0:
187,100,123718,1,0,0:0:0:0:
193,80,123807,2,0,L|201:32,7,45,8|0|0|0|0|0|0|0,0:0|0:0|0:0|0:0|0:0|0:0|0:0|0:0,0:0:0:0:
311,36,124517,5,2,0:0:0:0:
318,57,124609,1,0,0:0:0:0:
324,78,124701,1,0,0:0:0:0:
327,101,124793,1,0,0:0:0:0:
327,123,124886,1,0,0:0:0:0:
324,146,124978,1,0,0:0:0:0:
319,167,125070,2,0,L|311:211,7,45,8|0|0|0|0|0|0|0,0:0|0:0|0:0|0:0|0:0|0:0|0:0|0:0,0:0:0:0:
256,287,125810,6,0,L|239:351,5,45,2|0|0|0|0|0,0:0|0:0|0:0|0:0|0:0|0:0,0:0:0:0:
280,311,126383,2,0,L|292:374,8,45,8|0|0|0|0|0|0|0|0,0:0|0:0|0:0|0:0|0:0|0:0|0:0|0:0|0:0,0:0:0:0:
256,287,127743,5,8,0:0:0:0:
256,287,128537,6,0,L|225:294,1,22.5,2|0,0:0|0:0,0:0:0:0:
143,321,128744,2,0,L|174:328,1,22.5
241,315,128952,6,0,L|210:322,1,22.5
172,342,129159,2,0,L|203:349,1,22.5,8|0,0:0|0:0,0:0:0:0:
251,359,129990,6,0,L|277:359,1,22.5,2|0,0:0|0:0,0:0:0:0:
371,356,130205,2,0,L|345:356,1,22.5
281,291,130420,6,0,L|311:290,1,22.5
325,290,130636,2,0,L|287:290,1,22.5,8|0,0:0|0:0,0:0:0:0:
89,226,131498,6,0,L|120:219,1,22.5,2|0,0:0|0:0,0:0:0:0:
202,192,131723,2,0,L|171:185,1,22.5
104,198,131948,6,0,L|135:191,1,22.5
173,171,132173,2,0,L|142:164,1,22.5,8|0,0:0|0:0,0:0:0:0:
116,80,133073,6,0,L|119:117,1,22.5,2|0,0:0|0:0,0:0:0:0:
132,200,133308,2,0,L|133:177,1,22.5
194,94,133543,6,0,L|197:131,1,22.5
213,185,133778,2,0,L|219:125,1,45,8|0,0:0|0:0,0:0:0:0:
59,348,134730,6,0,L|57:315,1,22.5,2|0,0:0|0:0,0:0:0:0:
131,307,134975,2,0,L|133:274,1,22.5
49,244,135221,6,0,L|47:211,1,22.5
133,205,135467,2,0,L|137:154,1,45,8|0,0:0|0:0,0:0:0:0:
39,29,136462,6,0,P|47:70|50:106,1,67.5,2|0,0:0|0:0,0:0:0:0:
47,169,136977,2,0,L|83:179,1,22.5
138,193,137234,1,8,0:0:0:0:
138,193,138286,6,0,L|190:194,1,45,2|0,0:0|0:0,0:0:0:0:
256,192,139096,1,8,0:0:0:0:
256,192,140212,5,0,0:0:0:0:
256,192,140356,12,0,145046,0:0:0:0:
88,104,145375,5,0,3:0:0:0:
88,104,145540,1,0,0:0:0:0:
88,104,145705,2,0,L|91:155,3,45,0|0|0|0,3:0|3:0|3:0|3:0,3:0:0:0:
97,232,146364,5,0,3:0:0:0:
97,232,146535,1,0,0:0:0:0:
179,293,146706,5,0,3:0:0:0:
179,293,146877,1,0,0:0:0:0:
179,293,147048,2,0,L|234:283,3,45,0|0|0|0,3:0|3:0|3:0|3:0,3:0:0:0:
285,342,147732,6,0,P|329:346|349:349,1,45,0|0,3:0|0:0,0:0:0:0:
441,283,148087,2,0,P|418:285|396:287,1,45,0|0,3:0|0:0,0:0:0:0:
319,212,148443,2,0,L|310:150,3,45,0|0|0|0,3:0|3:0|3:0|3:0,3:0:0:0:
250,298,149154,6,0,L|192:307,1,45,2|0,3:0|0:0,0:0:0:0:
65,242,149524,2,0,L|124:250,1,45,0|0,3:0|0:0,0:0:0:0:
149,162,149894,5,0,3:0:0:0:
225,185,150082,1,0,0:0:0:0:
74,162,150270,5,0,3:0:0:0:
223,105,150458,1,0,0:0:0:0:
150,268,150647,6,0,L|156:331,1,45,0|0,3:0|0:0,0:0:0:0:
237,366,151031,2,0,L|240:321,1,45,2|0,3:0|0:0,0:0:0:0:
321,256,151416,1,0,0:0:0:0:
321,256,151611,1,0,0:0:0:0:
408,331,151807,1,0,3:0:0:0:
408,331,152002,1,0,0:0:0:0:
467,238,152198,5,0,3:0:0:0:
44,130,152596,1,0,3:0:0:0:
355,177,152994,5,0,3:0:0:0:
157,223,153404,1,0,3:0:0:0:
270,171,153815,5,2,3:0:0:0:
243,177,154233,1,0,3:0:0:0:
254,190,154652,5,0,3:0:0:0:
255,200,155083,1,0,3:0:0:0:
255,211,155515,6,0,L|255:279,1,45,0|0,3:0|0:0,0:0:0:0:
231,342,155956,2,0,P|256:346|285:340,1,45,0|0,3:0|0:0,0:0:0:0:
357,318,156397,1,0,3:0:0:0:
357,318,156624,1,0,0:0:0:0:
357,318,156851,1,2,3:0:0:0:
155,192,157306,5,0,3:0:0:0:
155,192,157536,1,0,3:0:0:0:
364,193,157766,1,0,3:0:0:0:
364,193,157996,1,0,3:0:0:0:
256,272,158227,5,2,0:0:0:0:
256,275,158702,1,2,0:0:0:0:
256,278,159177,1,2,0:0:0:0:
256,281,159666,1,2,0:0:0:0:
256,284,160163,1,2,0:3:0:0:
256,288,160667,1,2,0:0:0:0:
256,292,161175,5,4,0:0:0:0:
