osu file format v14

[General]
AudioFilename: audio.mp3
AudioLeadIn: 0
PreviewTime: 329908
Countdown: 0
SampleSet: Normal
StackLeniency: 0.7
Mode: 1
LetterboxInBreaks: 0
WidescreenStoryboard: 1

[Editor]
Bookmarks: 11201,52157,93896,146043,198979,263461,307768,352076,398230,439652
DistanceSpacing: 1
BeatDivisor: 16
GridSize: 4
TimelineZoom: 5.599997

[Metadata]
Title:Ethereal Cyber Angel XV
TitleUnicode:Ethereal Cyber Angel XV
Artist:onumi & Akira Complex
ArtistUnicode:onumi & Akira Complex
Creator:Maimaing
Version:Demon
Source:osu!taiko World Cup 2022
Tags:twc twc2022 osu! taiko grand finals final gf tiebreaker tb kei821 woosungko electronic Instrumental fa featured artist english happy hardcore dubstep speedcore house garage
BeatmapID:3568932
BeatmapSetID:1744942

[Difficulty]
HPDrainRate:5.5
CircleSize:5
OverallDifficulty:8
ApproachRate:5
SliderMultiplier:1.4
SliderTickRate:1

[Events]
//Background and Video events
0,0,"bg.png",0,110
//Break Periods
//Storyboard Layer 0 (Background)
//Storyboard Layer 1 (Fail)
//Storyboard Layer 2 (Pass)
//Storyboard Layer 3 (Foreground)
//Storyboard Layer 4 (Overlay)
//Storyboard Sound Samples

[TimingPoints]
767,260.869565217391,64,1,0,15,1,8
11158,-250,64,1,0,30,0,0
11202,260.869565217391,4,1,0,30,1,0
11202,-250,4,1,0,30,0,0
11707,-235.288433665088,4,1,0,33,0,0
11718,-235.288433665088,4,1,0,33,0,0
12229,-222.212082496806,4,1,0,36,0,0
12240,-222.212082496806,4,1,0,36,0,0
12750,-210.512665341056,4,1,0,39,0,0
12762,-210.512665341056,4,1,0,39,0,0
13272,-200.002737888267,4,1,0,41,0,0
13283,-200.002737888267,4,1,0,41,0,0
13794,-190.474948828599,4,1,0,44,0,0
13805,-190.474948828599,4,1,0,44,0,0
14316,-181.813656557612,4,1,0,47,0,0
14327,-181.813656557612,4,1,0,47,0,0
14837,-173.905798050255,4,1,0,50,0,0
14849,-173.905798050255,4,1,0,50,0,0
15359,-166.670469323964,4,1,0,53,0,0
15370,-166.670469323964,4,1,0,53,0,0
15881,-160.000876117049,4,1,0,56,0,0
15892,-160.000876117049,4,1,0,56,0,0
16403,-153.844533833161,4,1,0,59,0,0
16414,-153.844533833161,4,1,0,59,0,0
16924,-148.14439261813,4,1,0,61,0,0
16936,-148.14439261813,4,1,0,61,0,0
17446,-142.861333568013,4,1,0,64,0,0
17457,-142.861333568013,4,1,0,64,0,0
17968,-137.932987792789,4,1,0,67,0,0
17979,-137.932987792789,4,1,0,67,0,0
18489,-133.333333333333,4,1,0,70,0,0
18506,260.869565217391,4,1,0,70,1,8
18506,-133.333333333333,4,1,0,70,0,8
18749,-133.333333333333,4,1,0,90,0,0
18766,260.869565217391,4,1,0,90,1,0
18766,-83.3333333333333,4,1,0,90,0,0
18891,-84.3340107149455,4,1,0,90,0,0
19021,-85.3590127150337,4,1,0,90,0,0
19152,-86.4174159962139,4,1,0,90,0,0
19217,-86.9523809523809,4,1,0,90,0,0
19282,-87.4940105414471,4,1,0,90,0,0
19413,-88.6063664596273,4,1,0,90,0,0
19543,-89.7385492431689,4,1,0,90,0,0
19674,-90.9090909090909,4,1,0,90,0,0
19739,-91.5013028663059,4,1,0,90,0,0
19804,-92.1012811459699,4,1,0,90,0,0
19934,-93.3251558826536,4,1,0,90,0,0
20065,-94.5917944467468,4,1,0,90,0,0
20130,-95.23312819443,4,1,0,90,0,0
20195,-95.8832178113842,4,1,0,90,0,0
20326,-97.220743264828,4,1,0,90,0,0
20391,-97.898348702552,4,1,0,90,0,0
20456,-98.5854659324047,4,1,0,90,0,0
20521,-99.2822966507177,4,1,0,90,0,0
20587,-100,4,1,0,90,0,0
20847,-83.3333333333333,4,1,0,90,0,0
20913,-83.8381057268723,4,1,0,90,0,0
20978,-84.3412427292032,4,1,0,90,0,0
21043,-84.850455136541,4,1,0,90,0,0
21108,-85.3658536585366,4,1,0,90,0,0
21239,-86.4238410596027,4,1,0,90,0,0
21369,-87.5,4,1,0,90,0,0
21434,-88.0481927710843,4,1,0,90,0,0
21565,-89.1741507223741,4,1,0,90,0,0
21630,-89.7435897435897,4,1,0,90,0,0
21760,-90.9045676186685,4,1,0,90,0,0
21891,-92.1052631578947,4,1,0,90,0,0
21957,-92.7222898903776,4,1,0,90,0,0
22022,-93.3381015632983,4,1,0,90,0,0
22152,-94.5945945945946,4,1,0,90,0,0
22217,-95.2356130108424,4,1,0,90,0,0
22283,-95.895444047869,4,1,0,90,0,0
22413,-97.2222222222222,4,1,0,90,0,0
22457,-97.6796407185629,4,1,0,90,0,0
22500,-98.1308411214953,4,1,0,90,0,0
22544,-98.5968699406368,4,1,0,90,0,0
22609,-99.2934782608696,4,1,0,90,0,0
22674,-100,4,1,0,90,0,0
22934,-83.3333333333333,4,1,0,90,0,0
23065,-84.3687219237966,4,1,0,90,0,0
23130,-84.8920738478623,4,1,0,90,0,0
23195,-85.4219591615815,4,1,0,90,0,0
23326,-86.510238002617,4,1,0,90,0,0
23456,-87.6179731012375,4,1,0,90,0,0
23521,-88.1825473355984,4,1,0,90,0,0
23587,-88.7633008880866,4,1,0,90,0,0
23652,-89.3427804459378,4,1,0,90,0,0
23717,-89.9298758351944,4,1,0,90,0,0
23782,-90.5247381859897,4,1,0,90,0,0
23847,-91.1275226538272,4,1,0,90,0,0
23978,-92.36708956351,4,1,0,90,0,0
24043,-92.9947443951303,4,1,0,90,0,0
24108,-93.6309876944865,4,1,0,90,0,0
24239,-94.9400863532722,4,1,0,90,0,0
24304,-95.6033219345384,4,1,0,90,0,0
24369,-96.2758892113937,4,1,0,90,0,0
24500,-97.6605385552029,4,1,0,90,0,0
24565,-98.3624684606802,4,1,0,90,0,0
24630,-99.0745615811429,4,1,0,90,0,0
24695,-99.7970402553825,4,1,0,90,0,0
24760,-100.530133355251,4,1,0,90,0,0
24826,-101.285607817158,4,1,0,90,0,0
24891,-102.040816326531,4,1,0,90,0,0
25026,-104.166666666667,4,1,0,90,0,0
25113,-83.3333333333333,4,1,0,90,0,0
25331,-86.2068965517241,4,1,0,90,0,0
25543,-89.2857142857143,4,1,0,90,0,0
25717,-92.5925925925926,4,1,0,90,0,0
25891,-96.1538461538461,4,1,0,90,0,0
26065,-100,4,1,0,90,0,0
26157,-95.9963184537506,4,1,0,90,0,0
26374,-92.3008849557522,4,1,0,90,0,0
26587,-88.8794205368555,4,1,0,90,0,0
26760,-85.7201561536881,4,1,0,90,0,0
26934,-82.7613568736362,4,1,0,90,0,0
27108,-80,4,1,0,90,0,0
27174,-80.6118310511984,4,1,0,90,0,0
27239,-81.2236081651715,4,1,0,90,0,0
27304,-81.8447420537658,4,1,0,90,0,0
27369,-82.4754490308048,4,1,0,90,0,0
27500,-83.7765690544528,4,1,0,90,0,0
27565,-84.437521493739,4,1,0,90,0,0
27630,-85.1089859918847,4,1,0,90,0,0
27760,-86.4844705053561,4,1,0,90,0,0
27891,-87.9162541862376,4,1,0,90,0,0
27956,-88.6444241510396,4,1,0,90,0,0
28021,-89.3847570507741,4,1,0,90,0,0
28087,-90.1492408371309,4,1,0,90,0,0
28152,-90.915031256126,4,1,0,90,0,0
28282,-92.486317608739,4,1,0,90,0,0
28347,-93.2925057553474,4,1,0,90,0,0
28413,-94.1256060435224,4,1,0,90,0,0
28543,-95.8108573396075,4,1,0,90,0,0
28674,-97.5712382243624,4,1,0,90,0,0
28739,-98.4689424143056,4,1,0,90,0,0
28804,-99.3833186504441,4,1,0,90,0,0
28869,-100.314835732654,4,1,0,90,0,0
28934,-101.263980203304,4,1,0,90,0,0
29000,-102.246282732773,4,1,0,90,0,0
29065,-103.232508099819,4,1,0,90,0,0
29195,-80,4,1,0,90,0,0
29326,-81.2236081651715,4,1,0,90,0,0
29391,-81.8447420537658,4,1,0,90,0,0
29456,-82.4754490308048,4,1,0,90,0,0
29587,-83.7765690544528,4,1,0,90,0,0
29652,-84.437521493739,4,1,0,90,0,0
29717,-85.1089859918847,4,1,0,90,0,0
29847,-86.4844705053561,4,1,0,90,0,0
29913,-87.1999498610734,4,1,0,90,0,0
29978,-87.9162541862376,4,1,0,90,0,0
30043,-88.6444241510396,4,1,0,90,0,0
30108,-89.3847570507741,4,1,0,90,0,0
30239,-90.915031256126,4,1,0,90,0,0
30304,-91.6939434546693,4,1,0,90,0,0
30369,-92.486317608739,4,1,0,90,0,0
30500,-94.1256060435224,4,1,0,90,0,0
30565,-94.9607553179388,4,1,0,90,0,0
30630,-95.8108573396075,4,1,0,90,0,0
30760,-97.5575552179502,4,1,0,90,0,0
30804,-98.1632605065732,4,1,0,90,0,0
30847,-98.7625109433784,4,1,0,90,0,0
30891,-99.3833186504441,4,1,0,90,0,0
30956,-100.314835732654,4,1,0,90,0,0
31021,-101.263980203304,4,1,0,90,0,0
31065,-101.916737883042,4,1,0,90,0,0
31108,-102.562842469961,4,1,0,90,0,0
31152,-103.232508099819,4,1,0,90,0,0
31282,-105.263157894737,4,1,0,90,0,0
31347,-104.748042561735,4,1,0,90,0,0
31413,-104.230135344354,4,1,0,90,0,0
31543,-103.224849144327,4,1,0,90,0,0
31608,-102.729443036105,4,1,0,90,0,0
31739,-101.745319812793,4,1,0,90,0,0
31804,-101.263980203304,4,1,0,90,0,0
31934,-100.314835732654,4,1,0,90,0,0
32000,-99.8397397565001,4,1,0,90,0,0
32130,-98.9169846197597,4,1,0,90,0,0
32195,-98.4619739573504,4,1,0,90,0,0
32326,-97.5575552179502,4,1,0,90,0,0
32391,-97.1149371800837,4,1,0,90,0,0
32456,-96.67631731326,4,1,0,90,0,0
32587,-95.8042600073449,4,1,0,90,0,0
32652,-95.3773735804218,4,1,0,90,0,0
32782,-94.5349126899644,4,1,0,90,0,0
32847,-94.1192387480833,4,1,0,90,0,0
32978,-93.2925057553474,4,1,0,90,0,0
33043,-92.8876624532669,4,1,0,90,0,0
33108,-92.486317608739,4,1,0,90,0,0
33174,-92.0823313993249,4,1,0,90,0,0
33239,-91.687900887444,4,1,0,90,0,0
33369,-90.9090909090909,4,1,0,90,0,0
33402,-90.5187369882026,4,1,0,90,0,0
33434,-90.143400138217,4,1,0,90,0,0
33500,-89.3790149892934,4,1,0,90,0,0
33565,-88.6387768103631,4,1,0,90,0,0
33695,-87.1944850637142,4,1,0,90,0,0
33760,-86.4898466639038,4,1,0,90,0,0
33891,-85.1037801247808,4,1,0,90,0,0
33924,-84.7615953212574,4,1,0,90,0,0
33956,-84.4323974431588,4,1,0,90,0,0
34021,-83.7715249066752,4,1,0,90,0,0
34087,-83.1109872167576,4,1,0,90,0,0
34217,-81.8399278459668,4,1,0,90,0,0
34282,-81.2188667496887,4,1,0,90,0,0
34413,-79.9954003603051,4,1,0,90,0,0
34445,-79.7021195340844,4,1,0,90,0,0
34543,-78.8171758752219,4,1,0,90,0,0
34576,-78.5235909398751,4,1,0,90,0,0
34674,-77.6644834772254,4,1,0,90,0,0
34739,-77.1049617615547,4,1,0,90,0,0
34804,-76.5534443547795,4,1,0,90,0,0
34847,-76.1929100799533,4,1,0,90,0,0
34891,-75.8274897358573,4,1,0,90,0,0
34934,-75.4737451178938,4,1,0,90,0,0
35130,-73.9022662889519,4,1,0,90,0,0
35326,-72.3948938531983,4,1,0,90,0,0
35445,-72.3948938531983,4,1,0,80,0,0
35456,-71.4285714285714,4,1,0,80,0,0
35587,-72.0748722199199,4,1,0,80,0,0
35717,-72.7279063284082,4,1,0,80,0,0
35847,-73.3928822619215,4,1,0,80,0,0
35978,-74.0753886562079,4,1,0,80,0,0
36108,-74.7653507200688,4,1,0,80,0,0
36239,-75.4737451178938,4,1,0,80,0,0
36369,-76.1901285046729,4,1,0,80,0,0
36500,-68.8468158347677,4,1,0,80,0,0
36565,-71.1182608562539,4,1,0,80,0,0
36630,-73.464647070344,4,1,0,80,0,0
36760,-78.3922147121972,4,1,0,80,0,0
36891,-79.2090481250949,4,1,0,80,0,0
37021,-79.9984667279976,4,1,0,80,0,0
37152,-80.810036397429,4,1,0,80,0,0
37282,-81.6318548071658,4,1,0,80,0,0
37347,-82.0490643182891,4,1,0,80,0,0
37413,-82.4770787227316,4,1,0,80,0,0
37478,-82.90299515373,4,1,0,80,0,0
37543,-83.3333333333333,4,1,0,80,0,0
37674,-84.2143491243645,4,1,0,80,0,0
37804,-85.1072506320855,4,1,0,80,0,0
37934,-86.0192894237903,4,1,0,80,0,0
38065,-86.9583333333333,4,1,0,80,0,0
38195,-87.910699241786,4,1,0,80,0,0
38326,-88.8917284266122,4,1,0,80,0,0
38456,-89.8871565164958,4,1,0,80,0,0
38587,-83.3333333333333,4,1,0,80,0,0
38652,-85.6358947688454,4,1,0,80,0,0
38717,-88.0020776743292,4,1,0,80,0,0
38847,-92.932388099984,4,1,0,80,0,0
38978,-94.1192387480833,4,1,0,80,0,0
39108,-95.2359222414895,4,1,0,80,0,0
39174,-95.8130566522817,4,1,0,80,0,0
39239,-96.3883244042121,4,1,0,80,0,0
39304,-96.9705417712109,4,1,0,80,0,0
39369,-97.5598354525056,4,1,0,80,0,0
39500,-98.7695220066257,4,1,0,80,0,0
39630,-100,4,1,0,80,0,0
39760,-101.261523532266,4,1,0,80,0,0
39826,-101.914249438422,4,1,0,80,0,0
39891,-102.565362689208,4,1,0,80,0,0
40021,-103.89287136599,4,1,0,80,0,0
40087,-104.580076167569,4,1,0,80,0,0
40152,-105.265812569353,4,1,0,80,0,0
40217,-105.960601137287,4,1,0,80,0,0
40282,-106.664622303997,4,1,0,80,0,0
40347,-107.378061329492,4,1,0,80,0,0
40413,-108.11230832988,4,1,0,80,0,0
40543,-109.588321781138,4,1,0,80,0,0
40674,-102.040816326531,4,1,0,80,0,0
40739,-104.943887129326,4,1,0,80,0,0
40804,-107.929550568965,4,1,0,80,0,0
40934,-114.158121282984,4,1,0,80,0,0
41065,-115.944444444444,4,1,0,80,0,0
41195,-117.643742953777,4,1,0,80,0,0
41260,-118.512208972175,4,1,0,80,0,0
41326,-119.407254834649,4,1,0,80,0,0
41391,-120.302052109753,4,1,0,80,0,0
41456,-121.210361249855,4,1,0,80,0,0
41587,-123.08327435716,4,1,0,80,0,0
41717,-125,4,1,0,80,0,0
41847,-126.977366755902,4,1,0,80,0,0
41978,-129.034252504019,4,1,0,80,0,0
42108,-131.142390348121,4,1,0,80,0,0
42174,-132.23925991636,4,1,0,80,0,0
42239,-133.337592639918,4,1,0,80,0,0
42369,-135.589916839917,4,1,0,80,0,0
42500,-137.937871777925,4,1,0,80,0,0
42565,-139.133333333333,4,1,0,80,0,0
42630,-140.34969737727,4,1,0,80,0,0
42760,-142.847364818617,4,1,0,80,0,0
42891,-145.455812656816,4,1,0,80,0,0
42956,-146.785764523843,4,1,0,80,0,0
43021,-148.140261215219,4,1,0,80,0,0
43087,-149.541415878475,4,1,0,80,0,0
43152,-150.947490235788,4,1,0,80,0,0
43282,-153.840483561846,4,1,0,80,0,0
43413,-156.870114251353,4,1,0,80,0,0
43543,-159.996933455995,4,1,0,80,0,0
43608,-161.607557689329,4,1,0,80,0,0
43674,-163.276482553591,4,1,0,80,0,0
43739,-164.954157445463,4,1,0,80,0,0
43804,-166.666666666667,4,1,0,80,0,0
43934,-163.276482553591,4,1,0,80,0,0
44065,-159.996933455995,4,1,0,80,0,0
44195,-156.870114251353,4,1,0,80,0,0
44326,-153.840483561846,4,1,0,80,0,0
44456,-150.947490235788,4,1,0,80,0,0
44587,-148.140261215219,4,1,0,80,0,0
44717,-145.455812656816,4,1,0,80,0,0
44837,-128.205128205128,4,1,0,80,0,0
44913,-130.54774741287,4,1,0,80,0,0
44978,-132.933171965682,4,1,0,80,0,0
45108,-137.835580029089,4,1,0,80,0,0
45239,-135.589916839917,4,1,0,80,0,0
45369,-133.337592639918,4,1,0,80,0,0
45500,-131.142390348121,4,1,0,80,0,0
45630,-129.034252504019,4,1,0,80,0,0
45695,-128.005397448479,4,1,0,80,0,0
45760,-126.992819763904,4,1,0,80,0,0
45826,-125.980924785706,4,1,0,80,0,0
45891,-125,4,1,0,80,0,0
46021,-123.08327435716,4,1,0,80,0,0
46152,-121.210361249855,4,1,0,80,0,0
46282,-119.407254834649,4,1,0,80,0,0
46347,-118.525670149932,4,1,0,80,0,0
46413,-117.643742953777,4,1,0,80,0,0
46543,-115.944444444444,4,1,0,80,0,0
46674,-114.281020698719,4,1,0,80,0,0
46804,-112.676816758449,4,1,0,80,0,0
46924,-100,4,1,0,80,0,0
47000,-101.960542025042,4,1,0,80,0,0
47065,-103.959521300404,4,1,0,80,0,0
47195,-108.075820690091,4,1,0,80,0,0
47326,-106.664622303997,4,1,0,80,0,0
47391,-105.960601137287,4,1,0,80,0,0
47456,-105.265812569353,4,1,0,80,0,0
47587,-103.89287136599,4,1,0,80,0,0
47717,-102.565362689208,4,1,0,80,0,0
47847,-101.271350931677,4,1,0,80,0,0
47978,-100,4,1,0,80,0,0
48021,-99.589616338996,4,1,0,80,0,0
48065,-99.1731609960084,4,1,0,80,0,0
48108,-98.7695220066257,4,1,0,80,0,0
48152,-98.3598831181073,4,1,0,80,0,0
48195,-97.9628238828389,4,1,0,80,0,0
48239,-97.5598354525056,4,1,0,80,0,0
48369,-96.3883244042121,4,1,0,80,0,0
48434,-95.8130566522817,4,1,0,80,0,0
48500,-95.2359222414895,4,1,0,80,0,0
48630,-94.1192387480833,4,1,0,80,0,0
48760,-93.0284389765534,4,1,0,80,0,0
48826,-92.4842683683418,4,1,0,80,0,0
48891,-91.9545294324991,4,1,0,80,0,0
49011,-83.3333333333333,4,1,0,80,0,0
49087,-84.6835561862918,4,1,0,80,0,0
49152,-86.055656260282,4,1,0,80,0,0
49282,-88.8669116926538,4,1,0,80,0,0
49413,-87.910699241786,4,1,0,80,0,0
49543,-86.9583333333333,4,1,0,80,0,0
49674,-86.0192894237903,4,1,0,80,0,0
49804,-85.1072506320855,4,1,0,80,0,0
49869,-84.6584455622262,4,1,0,80,0,0
49934,-84.2143491243645,4,1,0,80,0,0
50000,-83.7681624789275,4,1,0,80,0,0
50065,-83.3333333333333,4,1,0,80,0,0
50195,-82.4770787227316,4,1,0,80,0,0
50260,-82.0555162381065,4,1,0,80,0,0
50326,-81.6318548071658,4,1,0,80,0,0
50456,-80.810036397429,4,1,0,80,0,0
50587,-79.9984667279976,4,1,0,80,0,0
50619,-79.8026919547262,4,1,0,80,0,0
50717,-79.2090481250949,4,1,0,80,0,0
50847,-78.4350571256765,4,1,0,80,0,0
50880,-76.650899161298,4,1,0,80,0,0
50913,-74.8510542495306,4,1,0,80,0,0
50945,-73.1461203947082,4,1,0,80,0,0
50978,-71.4285714285714,4,1,0,80,0,0
51108,-76.9259122742352,4,1,0,30,0,0
52140,-76.9259122742352,4,1,0,90,0,0
52152,-71.4285714285714,4,1,0,90,0,0
52282,-74.0670581549536,4,1,0,90,0,0
52413,-76.9306443679292,4,1,0,90,0,0
52478,-78.4353059177533,4,1,0,90,0,0
52543,-71.4285714285714,4,1,0,90,0,0
52674,-74.0881099005211,4,1,0,90,0,0
52739,-75.4826254826255,4,1,0,90,0,0
52804,-76.9306443679292,4,1,0,90,0,0
52869,-78.4353059177533,4,1,0,90,0,0
52934,-71.4285714285714,4,1,0,90,0,0
53065,-74.0810734196353,4,1,0,90,0,0
53195,-76.9155302658687,4,1,0,90,0,0
53260,-78.4156831366273,4,1,0,90,0,0
53326,-71.4285714285714,4,1,0,90,0,0
53456,-74.0670581549536,4,1,0,90,0,0
53587,-76.9306443679292,4,1,0,90,0,0
53652,-78.4353059177533,4,1,0,90,0,0
53717,-71.4285714285714,4,1,0,90,0,0
53847,-74.0635641316686,4,1,0,90,0,0
53978,-76.9230769230769,4,1,0,90,0,0
54043,-78.4254807692308,4,1,0,90,0,0
54108,-79.987741342323,4,1,0,90,0,0
54174,-81.6390365968095,4,1,0,90,0,0
54239,-71.4285714285714,4,1,0,90,0,0
54369,-82.4770787227316,4,1,0,90,0,0
54434,-82.0555162381065,4,1,0,90,0,0
54500,-81.6318548071658,4,1,0,90,0,0
54630,-80.8100363974289,4,1,0,90,0,0
54695,-80.4053012790877,4,1,0,90,0,0
54760,-80.0046001686729,4,1,0,90,0,0
54891,-79.2090481250949,4,1,0,90,0,0
54956,-78.8201525795,4,1,0,90,0,0
55021,-78.4350571256765,4,1,0,90,0,0
55087,-78.0478683620045,4,1,0,90,0,0
55152,-77.6702642352066,4,1,0,90,0,0
55282,-76.9259122742352,4,1,0,90,0,0
55347,-76.5590608950844,4,1,0,90,0,0
55413,-76.1901285046729,4,1,0,90,0,0
55478,-75.8302448949931,4,1,0,90,0,0
55543,-75.4737451178938,4,1,0,90,0,0
55608,-75.1205816715859,4,1,0,90,0,0
55674,-74.7653507200688,4,1,0,90,0,0
55739,-74.4187705034945,4,1,0,90,0,0
55804,-74.0753886562079,4,1,0,90,0,0
55934,-73.3980445944996,4,1,0,90,0,0
56065,-72.7279063284082,4,1,0,90,0,0
56130,-72.3999167418303,4,1,0,90,0,0
56195,-72.0748722199199,4,1,0,90,0,0
56260,-71.7527332737399,4,1,0,90,0,0
56326,-71.4285714285714,4,1,0,90,0,0
56456,-74.0670581549536,4,1,0,90,0,0
56521,-75.4607739071697,4,1,0,90,0,0
56587,-76.9306443679292,4,1,0,90,0,0
56717,-71.4285714285714,4,1,0,90,0,0
56847,-74.0670581549536,4,1,0,90,0,0
56913,-75.4826254826255,4,1,0,90,0,0
56978,-76.9306443679292,4,1,0,90,0,0
57043,-78.4353059177533,4,1,0,90,0,0
57108,-71.4285714285714,4,1,0,90,0,0
57239,-74.0810734196353,4,1,0,90,0,0
57369,-76.9155302658687,4,1,0,90,0,0
57434,-78.4156831366273,4,1,0,90,0,0
57500,-71.4285714285714,4,1,0,90,0,0
57630,-74.0670581549536,4,1,0,90,0,0
57760,-76.9079464988198,4,1,0,90,0,0
57826,-78.4353059177533,4,1,0,90,0,0
57891,-71.4285714285714,4,1,0,90,0,0
58021,-73.2921249096893,4,1,0,90,0,0
58152,-75.2710334308916,4,1,0,90,0,0
58217,-76.2931394668672,4,1,0,90,0,0
58282,-77.3433859968656,4,1,0,90,0,0
58347,-78.4229513829239,4,1,0,90,0,0
58413,-79.5504051581424,4,1,0,90,0,0
58543,-81.8687230989957,4,1,0,90,0,0
58674,-84.3456972608435,4,1,0,90,0,0
58739,-85.6312136559745,4,1,0,90,0,0
58804,-86.9565217391304,4,1,0,90,0,0
58934,-89.2857142857143,4,1,0,90,0,0
59065,-87.4567184184072,4,1,0,90,0,0
59130,-86.5767359575409,4,1,0,90,0,0
59195,-85.7142857142857,4,1,0,90,0,0
59326,-84.0273008241758,4,1,0,90,0,0
59456,-82.4175824175824,4,1,0,90,0,0
59521,-81.6356319202619,4,1,0,90,0,0
59587,-80.8566884900555,4,1,0,90,0,0
59652,-80.1039407455907,4,1,0,90,0,0
59717,-79.3650793650794,4,1,0,90,0,0
59782,-78.6397236059778,4,1,0,90,0,0
59847,-77.9275065188399,4,1,0,90,0,0
59913,-77.2174118853672,4,1,0,90,0,0
59978,-76.530612244898,4,1,0,90,0,0
60108,-75.1930242384666,4,1,0,90,0,0
60239,-73.8916256157635,4,1,0,90,0,0
60500,-71.4285714285714,4,1,0,90,0,0
60630,-74.0670581549536,4,1,0,90,0,0
60695,-75.4607739071697,4,1,0,90,0,0
60760,-76.9079464988198,4,1,0,90,0,0
60891,-71.4285714285714,4,1,0,90,0,0
61021,-74.0670581549536,4,1,0,90,0,0
61087,-75.4826254826255,4,1,0,90,0,0
61152,-76.9306443679292,4,1,0,90,0,0
61217,-78.4353059177533,4,1,0,90,0,0
61282,-71.4285714285714,4,1,0,90,0,0
61413,-74.0810734196353,4,1,0,90,0,0
61543,-76.9155302658687,4,1,0,90,0,0
61608,-78.4156831366273,4,1,0,90,0,0
61674,-71.4285714285714,4,1,0,90,0,0
61804,-74.0670581549536,4,1,0,90,0,0
61869,-75.4607739071697,4,1,0,90,0,0
61934,-76.9079464988198,4,1,0,90,0,0
62000,-78.4353059177533,4,1,0,90,0,0
62065,-71.4285714285714,4,1,0,90,0,0
62195,-74.0635641316686,4,1,0,90,0,0
62326,-76.9230769230769,4,1,0,90,0,0
62391,-78.4254807692308,4,1,0,90,0,0
62456,-79.987741342323,4,1,0,90,0,0
62521,-81.6135084427767,4,1,0,90,0,0
62587,-83.3333333333333,4,1,0,90,0,0
62847,-71.4285714285714,4,1,0,90,0,0
63108,-83.3333333333333,4,1,0,90,0,0
63239,-71.4285714285714,4,1,0,90,0,0
63304,-72.7272727272727,4,1,0,90,0,0
63369,-74.0740740740741,4,1,0,90,0,0
63500,-71.4285714285714,4,1,0,90,0,0
63565,-72.7272727272727,4,1,0,90,0,0
63630,-74.0740740740741,4,1,0,90,0,0
63760,-71.4285714285714,4,1,0,90,0,0
63826,-72.3616499089542,4,1,0,90,0,0
63891,-73.3047279143442,4,1,0,90,0,0
63956,-74.2727124979685,4,1,0,90,0,0
64021,-75.2666035327541,4,1,0,90,0,0
64087,-76.3033768835831,4,1,0,90,0,0
64152,-77.3527420446852,4,1,0,90,0,0
64282,-79.5405099643199,4,1,0,90,0,0
64413,-81.8739642585211,4,1,0,90,0,0
64478,-83.0833560585401,4,1,0,90,0,0
64543,-84.3290123172026,4,1,0,90,0,0
64608,-85.6125889846385,4,1,0,90,0,0
64674,-71.4285714285714,4,1,0,90,0,0
64804,-74.0670581549536,4,1,0,90,0,0
64934,-76.9079464988198,4,1,0,90,0,0
65000,-78.4353059177533,4,1,0,90,0,0
65065,-71.4285714285714,4,1,0,90,0,0
65326,-76.9306443679292,4,1,0,90,0,0
65391,-78.4353059177533,4,1,0,90,0,0
65456,-71.4285714285714,4,1,0,90,0,0
65717,-76.9306443679292,4,1,0,90,0,0
65782,-78.4353059177533,4,1,0,90,0,0
65847,-71.4285714285714,4,1,0,90,0,0
65978,-74.0810734196353,4,1,0,90,0,0
66108,-76.9155302658687,4,1,0,90,0,0
66174,-78.4392196098049,4,1,0,90,0,0
66239,-71.4285714285714,4,1,0,90,0,0
66369,-74.0688086437305,4,1,0,90,0,0
66500,-76.9344359125812,4,1,0,90,0,0
66565,-78.4402288467329,4,1,0,90,0,0
66630,-80.0061425061425,4,1,0,90,0,0
66695,-81.6358508304607,4,1,0,90,0,0
66760,-71.4285714285714,4,1,0,90,0,0
66891,-82.470560341421,4,1,0,90,0,0
66956,-82.0490643182891,4,1,0,90,0,0
67021,-81.6318548071658,4,1,0,90,0,0
67087,-81.2125457234026,4,1,0,90,0,0
67152,-80.8037788446647,4,1,0,90,0,0
67282,-79.9984667279975,4,1,0,90,0,0
67347,-79.6018002898772,4,1,0,90,0,0
67413,-79.2030360531309,4,1,0,90,0,0
67478,-78.8141993957704,4,1,0,90,0,0
67543,-78.4291619691845,4,1,0,90,0,0
67674,-77.6644834772254,4,1,0,90,0,0
67739,-77.2905710688097,4,1,0,90,0,0
67804,-76.9202417809229,4,1,0,90,0,0
68065,-75.4682866854705,4,1,0,90,0,0
68326,-74.0701306076093,4,1,0,90,0,0
68587,-72.7228378284201,4,1,0,90,0,0
68847,-62.5,4,1,0,90,0,0
68978,-62.8699673148469,4,1,0,90,0,0
69043,-63.0551694966463,4,1,0,90,0,0
69108,-63.2414660383934,4,1,0,90,0,0
69174,-63.4317584304667,4,1,0,90,0,0
69239,-63.6202902085112,4,1,0,90,0,0
69369,-64.0007359931307,4,1,0,90,0,0
69434,-64.1926702858988,4,1,0,90,0,0
69500,-64.3887389124566,4,1,0,90,0,0
69565,-64.5830109856104,4,1,0,90,0,0
69630,-64.7784589120819,4,1,0,90,0,0
69695,-64.9750933997509,4,1,0,90,0,0
69760,-65.1729252869076,4,1,0,90,0,0
69891,-65.5753157795513,4,1,0,90,0,0
69956,-65.7768252517453,4,1,0,90,0,0
70021,-65.9795769972495,4,1,0,90,0,0
70152,-66.3920215050343,4,1,0,90,0,0
70217,-66.5985895267575,4,1,0,90,0,0
70282,-66.8064469661806,4,1,0,90,0,0
70413,-67.2293270624617,4,1,0,90,0,0
70478,-67.4411465318059,4,1,0,90,0,0
70543,-67.6543049792531,4,1,0,90,0,0
70608,-67.8688151412172,4,1,0,90,0,0
70674,-68.0880217933869,4,1,0,90,0,0
70717,-68.2316016608363,4,1,0,90,0,0
70760,-68.3757883528544,4,1,0,90,0,0
70804,-68.5239604025413,4,1,0,90,0,0
70934,-68.9655172413793,4,1,0,90,0,0
71000,-69.1918773311231,4,1,0,90,0,0
71065,-69.4162647596873,4,1,0,90,0,0
71130,-69.6421122883123,4,1,0,90,0,0
71195,-69.8694342149314,4,1,0,90,0,0
71260,-70.0982450247712,4,1,0,90,0,0
71326,-70.3321145129493,4,1,0,90,0,0
71456,-70.7973607883712,4,1,0,90,0,0
71521,-71.0322997855757,4,1,0,90,0,0
71587,-71.2724540673451,4,1,0,90,0,0
71717,-71.7502664420531,4,1,0,90,0,0
71782,-71.9915831594198,4,1,0,90,0,0
71847,-72.2345285892288,4,1,0,90,0,0
71978,-72.7291735637992,4,1,0,90,0,0
72043,-72.9771312679208,4,1,0,90,0,0
72108,-73.2267854949913,4,1,0,90,0,0
72174,-73.4820343995916,4,1,0,90,0,0
72239,-73.7351611079706,4,1,0,90,0,0
72369,-74.2466825571881,4,1,0,90,0,0
72500,-74.769368562472,4,1,0,90,0,0
72565,-75.0314578464857,4,1,0,90,0,0
72630,-75.2953909984667,4,1,0,90,0,0
72695,-75.5611875452571,4,1,0,90,0,0
72760,-75.8288672903988,4,1,0,90,0,0
72826,-76.1026127226649,4,1,0,90,0,0
72891,-76.3741491619703,4,1,0,90,0,0
73021,-76.9230769230769,4,1,0,90,0,0
73152,-77.4842673894076,4,1,0,90,0,0
73217,-77.7657711368633,4,1,0,90,0,0
73282,-78.0493277735186,4,1,0,90,0,0
73347,-78.33495983785,4,1,0,90,0,0
73413,-78.6271333308217,4,1,0,90,0,0
73543,-79.2090481250949,4,1,0,90,0,0
73674,-79.8042177312965,4,1,0,90,0,0
73739,-80.1028632839487,4,1,0,90,0,0
73804,-80.4037524319535,4,1,0,90,0,0
73934,-81.0123634105157,4,1,0,90,0,0
74065,-81.6350479170741,4,1,0,90,0,0
74130,-81.9475802493374,4,1,0,90,0,0
74195,-82.2625147812377,4,1,0,90,0,0
74260,-82.5798793154615,4,1,0,90,0,0
74326,-82.9046417860051,4,1,0,90,0,0
74391,-83.2269899505503,4,1,0,90,0,0
74456,-83.5518545949517,4,1,0,90,0,0
74521,-83.8792653028415,4,1,0,90,0,0
74587,-84.2143491243645,4,1,0,90,0,0
74652,-84.5469829245073,4,1,0,90,0,0
74717,-84.882254850124,4,1,0,90,0,0
74782,-85.2201964107066,4,1,0,90,0,0
74847,-85.5608396195474,4,1,0,90,0,0
74978,-86.2557087061644,4,1,0,90,0,0
75108,-74.2115027829313,4,1,0,90,0,0
75369,-88.3984921004702,4,1,0,90,0,0
75500,-89.1404164442071,4,1,0,90,0,0
75630,-76.3369249240791,4,1,0,90,0,0
75760,-90.6504506461071,4,1,0,90,0,0
75891,-91.430824498379,4,1,0,90,0,0
76021,-92.2186381512085,4,1,0,90,0,0
76152,-78.5876810891567,4,1,0,90,0,0
76347,-94.2552614939933,4,1,0,90,0,0
76543,-95.523617722446,4,1,0,90,0,0
76674,-80.9751943142765,4,1,0,90,0,0
76804,-97.2665625801039,4,1,0,90,0,0
76934,-98.1586435576041,4,1,0,90,0,0
77065,-99.0742938523617,4,1,0,90,0,0
77195,-83.5073068893528,4,1,0,90,0,0
77369,-99.1731609960083,4,1,0,90,0,0
77456,-98.764847853864,4,1,0,90,0,0
77543,-98.3598831181073,4,1,0,90,0,0
77717,-81.7987894798212,4,1,0,90,0,0
77891,-96.7726977650005,4,1,0,90,0,0
77978,-96.3838729044474,4,1,0,90,0,0
78065,-95.9981600735971,4,1,0,90,0,0
78239,-80.1587812178027,4,1,0,90,0,0
78413,-94.4856935892793,4,1,0,90,0,0
78500,-94.1149943630214,4,1,0,90,0,0
78587,-93.7471925253796,4,1,0,90,0,0
78760,-78.5862014755152,4,1,0,90,0,0
78934,-92.308372771905,4,1,0,90,0,0
79021,-91.9545294324991,4,1,0,90,0,0
79065,-91.7766051011434,4,1,0,90,0,0
79108,-91.603388491419,4,1,0,90,0,0
79152,-91.4268191177115,4,1,0,90,0,0
79282,-77.0712909441233,4,1,0,90,0,0
79456,-90.2252388569452,4,1,0,90,0,0
79543,-89.8871565164958,4,1,0,90,0,0
79630,-89.5515983694486,4,1,0,90,0,0
79804,-75.6136818374088,4,1,0,90,0,0
79978,-88.2340506489663,4,1,0,90,0,0
80065,-87.910699241786,4,1,0,90,0,0
80152,-87.5897091534813,4,1,0,90,0,0
80239,-87.271054612361,4,1,0,90,0,0
80326,-74.2101833652914,4,1,0,90,0,0
80500,-86.3288521199586,4,1,0,90,0,0
80587,-86.0192894237903,4,1,0,90,0,0
80674,-85.7119388886607,4,1,0,90,0,0
80847,-85.1072506320855,4,1,0,90,0,0
80934,-84.8063716526474,4,1,0,90,0,0
81021,-84.5076125688371,4,1,0,90,0,0
81108,-84.2109510551588,4,1,0,90,0,0
81282,-83.6238329927475,4,1,0,90,0,0
81369,-83.3333333333333,4,1,0,90,0,0
81434,-82.7961041794775,4,1,0,90,0,0
81500,-82.2576513016574,4,1,0,90,0,0
81565,-81.7341583770659,4,1,0,90,0,0
81630,-81.2172864008717,4,1,0,90,0,0
81695,-80.7069105533857,4,1,0,90,0,0
81760,-80.2029091328325,4,1,0,90,0,0
81891,-79.2060419750275,4,1,0,90,0,0
81956,-78.7205552307489,4,1,0,90,0,0
82021,-78.2409837294744,4,1,0,90,0,0
82087,-77.7599761541041,4,1,0,90,0,0
82152,-77.2920022961687,4,1,0,90,0,0
82217,-76.8296274480931,4,1,0,90,0,0
82282,-76.3727517245165,4,1,0,90,0,0
82413,-75.4682866854705,4,1,0,90,0,0
82478,-75.0274117879676,4,1,0,90,0,0
82543,-74.5916580292362,4,1,0,90,0,0
82608,-74.1609366949168,4,1,0,90,0,0
82674,-73.7286488968965,4,1,0,90,0,0
82739,-73.307808493449,4,1,0,90,0,0
82804,-72.8917451059148,4,1,0,90,0,0
82934,-72.0736276829037,4,1,0,90,0,0
83000,-71.6652644953042,4,1,0,90,0,0
83065,-71.2675863953012,4,1,0,90,0,0
83130,-70.874297454706,4,1,0,90,0,0
83195,-70.4853254078152,4,1,0,90,0,0
83260,-70.1005995666997,4,1,0,90,0,0
83326,-69.7142284502196,4,1,0,90,0,0
83456,-68.9655172413793,4,1,0,90,0,0
83500,-68.7157367927169,4,1,0,90,0,0
83543,-68.473375110732,4,1,0,90,0,0
83587,-68.2271404753343,4,1,0,90,0,0
83717,-67.5098660800932,4,1,0,90,0,0
83760,-67.275921538288,4,1,0,90,0,0
83804,-67.0382088881037,4,1,0,90,0,0
83847,-66.8075162457185,4,1,0,90,0,0
83978,-66.1143934234077,4,1,0,90,0,0
84021,-65.890004420029,4,1,0,90,0,0
84065,-65.66196828593,4,1,0,90,0,0
84108,-65.4406346518665,4,1,0,90,0,0
84239,-64.7754430615475,4,1,0,90,0,0
84282,-64.5600358838724,4,1,0,90,0,0
84326,-64.3410972207236,4,1,0,90,0,0
84369,-64.1285644051131,4,1,0,90,0,0
84500,-63.4896490881158,4,1,0,90,0,0
84565,-63.1773324453593,4,1,0,90,0,0
84630,-62.8680734414773,4,1,0,90,0,0
84695,-62.5618273929075,4,1,0,90,0,0
84760,-62.2585504825261,4,1,0,90,0,0
84826,-61.9536015911419,4,1,0,90,0,0
84891,-61.6561789122278,4,1,0,90,0,0
84956,-61.3615982829337,4,1,0,90,0,0
85021,-61.0698191607655,4,1,0,90,0,0
85065,-60.8738770271847,4,1,0,90,0,0
85108,-60.6835991451376,4,1,0,90,0,0
85152,-60.4901236178137,4,1,0,90,0,0
85217,-60.2065543503346,4,1,0,90,0,0
85282,-59.9256313439479,4,1,0,90,0,0
85326,-59.7369513259771,4,1,0,90,0,0
85369,-59.5537039150782,4,1,0,90,0,0
85413,-59.3673550662798,4,1,0,90,0,0
85456,-59.1863647320732,4,1,0,90,0,0
85500,-59.0023041148948,4,1,0,90,0,0
85543,-58.8235294117647,4,1,0,90,0,0
85907,-58.8235294117647,4,1,0,70,0,0
85924,-72.4375226367258,4,1,0,70,0,0
86054,-73.2092841363966,4,1,0,70,0,0
86315,-74.7824543916818,4,1,0,70,0,0
86576,-76.3877601439447,4,1,0,70,0,0
86836,-78.0194463369283,4,1,0,70,0,0
86967,-78.8540508943142,4,1,0,70,0,0
87097,-79.6906540750893,4,1,0,70,0,0
87358,-81.3957696761193,4,1,0,70,0,0
87619,-83.14213190747,4,1,0,70,0,0
88010,-85.8074345237765,4,1,0,70,0,0
88141,-86.7206637785001,4,1,0,70,0,0
88402,-88.5675472443188,4,1,0,70,0,0
88663,-90.451442786808,4,1,0,70,0,0
88923,-92.3655576021637,4,1,0,70,0,0
89054,-93.3443359117741,4,1,0,70,0,0
89315,-95.3235113361722,4,1,0,70,0,0
89445,-96.3239239519671,4,1,0,70,0,0
89706,-98.370090631727,4,1,0,70,0,0
89836,-99.3924281233143,4,1,0,70,0,0
89902,-99.9193167651684,4,1,0,70,0,0
89967,-100.4407717437,4,1,0,70,0,0
90032,-100.964767275637,4,1,0,70,0,0
90097,-101.491313848335,4,1,0,70,0,0
90228,-102.560302023061,4,1,0,70,0,0
90489,-104.721476149777,4,1,0,70,0,0
90750,-106.924981307754,4,1,0,70,0,0
91010,-109.162820059346,4,1,0,70,0,0
91141,-110.30673975041,4,1,0,70,0,0
91271,-111.452902806332,4,1,0,70,0,0
91532,-113.787409144133,4,1,0,70,0,0
91793,-99.9171375028897,4,1,0,70,0,0
92054,-118.592533022832,4,1,0,70,0,0
92184,-119.817956601389,4,1,0,70,0,0
92315,-103.519089161202,4,1,0,70,0,0
92576,-123.583919335171,4,1,0,70,0,0
92837,-107.215712245409,4,1,0,70,0,0
93032,-128.101178223692,4,1,0,70,0,0
93228,-130.08881324071,4,1,0,70,0,0
93358,-110.999621253317,4,1,0,70,0,0
93489,-132.779303900332,4,1,0,70,0,0
93554,-133.457187812565,4,1,0,70,0,0
93749,-135.509776953247,4,1,0,70,0,0
93896,250,4,1,0,70,1,0
93896,-119.047619047619,4,1,0,70,0,0
94255,-141.64780173758,4,1,0,70,0,0
94380,-141.247582276149,4,1,0,70,0,0
94630,-140.451443199424,4,1,0,70,0,0
94880,-139.660991693493,4,1,0,70,0,0
95255,-138.4858605319,4,1,0,70,0,0
95380,-138.096935779349,4,1,0,70,0,0
95630,-137.32322523521,4,1,0,70,0,0
95880,-136.554989969321,4,1,0,70,0,0
96255,-135.412790859228,4,1,0,70,0,0
96380,-135.034740133274,4,1,0,70,0,0
96630,-134.282624564196,4,1,0,70,0,0
96880,-133.53578225632,4,1,0,70,0,0
97255,-132.425299196269,4,1,0,70,0,0
97380,-132.05772213145,4,1,0,70,0,0
97505,-131.691427087634,4,1,0,70,0,0
97630,-131.326408145079,4,1,0,70,0,0
97755,-130.962659419802,4,1,0,70,0,0
97896,240,4,1,0,70,1,0
97896,-136.041852065057,4,1,0,70,0,0
98001,-135.680601160524,4,1,0,70,0,0
98061,-135.500427122617,4,1,0,70,0,0
98121,-135.320553143167,4,1,0,70,0,0
98181,-135.140978561229,4,1,0,70,0,0
98241,-134.961702717763,4,1,0,70,0,0
98361,-134.604044619571,4,1,0,70,0,0
98601,-133.892284496969,4,1,0,70,0,0
98841,-133.185231258834,4,1,0,70,0,0
99201,-132.13338715719,4,1,0,70,0,0
99321,-131.785081732628,4,1,0,70,0,0
99561,-131.091904754128,4,1,0,70,0,0
99801,-130.40327326608,4,1,0,70,0,0
100041,-129.719148055097,4,1,0,70,0,0
100161,-129.378763170152,4,1,0,70,0,0
100281,-129.039490349064,4,1,0,70,0,0
100521,-128.364261810942,4,1,0,70,0,0
100761,-127.693424532675,4,1,0,70,0,0
100941,-127.193155772905,4,1,0,70,0,0
101121,-126.695320343122,4,1,0,70,0,0
101241,-126.364774232526,4,1,0,70,0,0
101361,-126.035298128131,4,1,0,70,0,0
101601,-125.379537787412,4,1,0,70,0,0
101721,-125.379537787412,4,1,0,80,0,0
101736,230.769230769231,4,1,0,80,1,0
101736,-84.288371787631,4,1,0,80,0,0
101952,-129.408013677407,4,1,0,80,0,0
102068,-129.083034945051,4,1,0,80,0,0
102183,-128.761854692451,4,1,0,80,0,0
102298,-128.44166304713,4,1,0,80,0,0
102414,-128.119684619192,4,1,0,80,0,0
102645,-127.481471259689,4,1,0,80,0,0
102875,-126.849920178805,4,1,0,80,0,0
102991,-126.532864955368,4,1,0,80,0,0
103106,-126.219508215308,4,1,0,80,0,0
103222,-125.904396364341,4,1,0,80,0,0
103337,-125.59295851868,4,1,0,80,0,0
103568,-124.970240216743,4,1,0,80,0,0
103798,-124.353993906862,4,1,0,80,0,0
103914,-124.044611377834,4,1,0,80,0,0
104029,-123.73883079953,4,1,0,80,0,0
104145,-123.431330496729,4,1,0,80,0,0
104260,-123.127408508917,4,1,0,80,0,0
104491,-122.519697420974,4,1,0,80,0,0
104722,-121.915668226434,4,1,0,80,0,0
104837,-121.616324784173,4,1,0,80,0,0
105068,-121.017756287376,4,1,0,80,0,0
105183,-120.721115353818,4,1,0,80,0,0
105298,-120.425365618781,4,1,0,80,0,0
105414,-120.127943468105,4,1,0,80,0,0
105529,-119.833973382862,4,1,0,80,0,0
105586,-119.688593157292,4,1,0,80,0,0
105644,-119.540884080185,4,1,0,80,0,0
105702,-119.393398172911,4,1,0,80,0,0
105759,-119.248672133235,4,1,0,80,0,0
105875,-118.954804581423,4,1,0,80,0,0
105991,-118.66182275954,4,1,0,80,0,0
106106,-118.372237543151,4,1,0,80,0,0
106337,-117.793155680826,4,1,0,80,0,0
106568,-117.217531985017,4,1,0,80,0,0
106683,-116.932247100502,4,1,0,80,0,0
106798,-116.647809383605,4,1,0,80,0,0
106914,-116.361753235004,4,1,0,80,0,0
107029,-116.079007392304,4,1,0,80,0,0
107145,-115.794651250184,4,1,0,80,0,0
107202,-115.655235724615,4,1,0,80,0,0
107260,-115.513584268404,4,1,0,80,0,0
107491,-114.951514067685,4,1,0,80,0,0
107606,-114.672937682497,4,1,0,80,0,0
107722,-114.392771104249,4,1,0,80,0,0
107837,-114.115841638535,4,1,0,80,0,0
107952,-113.839727374845,4,1,0,80,0,0
108183,-113.285165418043,4,1,0,80,0,0
108356,-112.876143273067,4,1,0,80,0,0
108529,-112.46655130948,4,1,0,80,0,0
108645,-112.192922125006,4,1,0,80,0,0
108760,-111.922449021021,4,1,0,80,0,0
108818,-111.786336664649,4,1,0,80,0,0
108875,-111.652766671831,4,1,0,80,0,0
108933,-111.517051999921,4,1,0,80,0,0
108991,-111.381537330987,4,1,0,80,0,0
109106,-82.135523613963,4,1,0,90,0,0
109222,-110.172391406021,4,1,0,90,0,0
109279,-109.71005675753,4,1,0,90,0,0
109337,-109.241602453093,4,1,0,90,0,0
109395,-108.775148415923,4,1,0,90,0,0
109452,-108.318677249548,4,1,0,90,0,0
109510,-107.856164038744,4,1,0,90,0,0
109568,-107.39562572715,4,1,0,90,0,0
109683,-106.488296216155,4,1,0,90,0,0
109741,-106.033598604934,4,1,0,90,0,0
109798,-105.588632257979,4,1,0,90,0,0
109856,-105.137776149225,4,1,0,90,0,0
109914,-104.688845164668,4,1,0,90,0,0
109972,-104.24183108416,4,1,0,90,0,0
110029,-103.796725722656,4,1,0,90,0,0
110145,-102.919801436818,4,1,0,90,0,0
110202,-102.487902032505,4,1,0,90,0,0
110260,-102.050285825944,4,1,0,90,0,0
110318,-101.614538210119,4,1,0,90,0,0
110375,-101.18811629801,4,1,0,90,0,0
110433,-100.756050086045,4,1,0,90,0,0
110491,-83.3333333333333,4,1,0,90,0,0
110548,-84.5364560088344,4,1,0,90,0,0
110606,-85.7785174295402,4,1,0,90,0,0
110664,-87.0388279778489,4,1,0,90,0,0
110722,-88.3176557811275,4,1,0,90,0,0
110837,-90.9090909090909,4,1,0,90,0,0
110952,-80.0760873151175,4,1,0,90,0,0
111068,-96.1446456105085,4,1,0,90,0,0
111125,-95.7411779144249,4,1,0,90,0,0
111183,-95.3323697501471,4,1,0,90,0,0
111298,-94.5269563839905,4,1,0,90,0,0
111356,-94.1233328611146,4,1,0,90,0,0
111414,-93.7214327825815,4,1,0,90,0,0
111529,-92.9296293809009,4,1,0,90,0,0
111587,-92.5328263331237,4,1,0,90,0,0
111645,-92.1377176067354,4,1,0,90,0,0
111760,-91.3592941868402,4,1,0,90,0,0
111818,-90.9691963610163,4,1,0,90,0,0
111875,-90.5807642257504,4,1,0,90,0,0
111991,-89.8154946912229,4,1,0,90,0,0
112048,-89.4385870591278,4,1,0,90,0,0
112106,-89.0566905190213,4,1,0,90,0,0
112164,-88.6764246505537,4,1,0,90,0,0
112222,-88.2977824908707,4,1,0,90,0,0
112337,-50,4,1,0,90,0,0
112799,-84.6166864105602,4,1,0,90,0,0
112856,-84.36413815104,4,1,0,90,0,0
112914,-84.1079329179658,4,1,0,90,0,0
112972,-83.8525057539017,4,1,0,90,0,0
113029,-83.6022382796851,4,1,0,90,0,0
113087,-83.3483468583607,4,1,0,90,0,0
113145,-83.0952264792374,4,1,0,90,0,0
113202,-82.8472191923539,4,1,0,90,0,0
113260,-82.5956206865441,4,1,0,90,0,0
113318,-82.3447862595863,4,1,0,90,0,0
113375,-82.0990187480873,4,1,0,90,0,0
113433,-81.8496924502727,4,1,0,90,0,0
113491,-81.6011233308475,4,1,0,90,0,0
113548,-81.3575753671267,4,1,0,90,0,0
113606,-81.1105007567991,4,1,0,90,0,0
113664,-80.864176486717,4,1,0,90,0,0
113722,-80.6186002781739,4,1,0,90,0,0
113779,-80.3779847678192,4,1,0,90,0,0
113837,-80.1338850736505,4,1,0,90,0,0
113895,-79.8905266852121,4,1,0,90,0,0
113952,-79.652084194465,4,1,0,90,0,0
114010,-79.4101889858711,4,1,0,90,0,0
114068,-79.1690283882109,4,1,0,90,0,0
114125,-78.9327392923424,4,1,0,90,0,0
114183,-78.6930286604223,4,1,0,90,0,0
114241,-78.4540460051006,4,1,0,90,0,0
114298,-78.2198908566141,4,1,0,90,0,0
114356,-77.9823450722658,4,1,0,90,0,0
114414,-77.7455206900959,4,1,0,90,0,0
114472,-77.5094155192801,4,1,0,90,0,0
114529,-77.2780797294237,4,1,0,90,0,0
114587,-77.043394128853,4,1,0,90,0,0
114645,-76.8094212443761,4,1,0,90,0,0
114702,-76.5801746681642,4,1,0,90,0,0
114760,-76.34760853367,4,1,0,90,0,0
114818,-76.1157486786685,4,1,0,90,0,0
114875,-75.8885724482309,4,1,0,90,0,0
114914,-75.7335268704872,4,1,0,90,0,0
114952,-75.5827615152068,4,1,0,90,0,0
114991,-75.4283407302516,4,1,0,90,0,0
115048,-75.2032161481155,4,1,0,90,0,0
115106,-74.9748316953915,4,1,0,90,0,0
115145,-74.8216529529085,4,1,0,90,0,0
115183,-74.6727028966223,4,1,0,90,0,0
115222,-74.520141424074,4,1,0,90,0,0
115279,-74.2977274675108,4,1,0,90,0,0
115337,-74.0720928910203,4,1,0,90,0,0
115375,-73.9246350099134,4,1,0,90,0,0
115414,-73.7736018915552,4,1,0,90,0,0
115452,-73.6267382268204,4,1,0,90,0,0
115510,-73.4031413758205,4,1,0,90,0,0
115568,-73.1802235655193,4,1,0,90,0,0
115625,-72.9618087483391,4,1,0,90,0,0
115683,-72.7402312199535,4,1,0,90,0,0
115741,-72.5193265997911,4,1,0,90,0,0
115798,-72.302884305827,4,1,0,90,0,0
115856,-72.0833078633776,4,1,0,90,0,0
115914,-71.8643982520587,4,1,0,90,0,0
115972,-71.6461534467725,4,1,0,90,0,0
116029,-71.4323172387875,4,1,0,90,0,0
116500,-50,4,1,0,90,0,0
116731,-86.9606180516299,4,1,0,90,0,0
116788,-87.9047619047619,4,1,0,90,0,0
116846,-88.886748844376,4,1,0,90,0,0
116904,-89.8909232567199,4,1,0,90,0,0
116990,-91.4223454833597,4,1,0,90,0,0
117077,-93.0255996774844,4,1,0,90,0,0
117134,-94.1068515497553,4,1,0,90,0,0
117192,-95.233182005778,4,1,0,90,0,0
117250,-96.3868003341688,4,1,0,90,0,0
117423,-66.6666666666667,4,1,0,90,0,0
117428,-100,4,1,0,90,0,0
117577,-96.7708114908786,4,1,0,90,0,0
117654,-95.233182005778,4,1,0,90,0,0
117769,-93.0255996774844,4,1,0,90,0,0
117827,-91.9505877664873,4,1,0,90,0,0
117884,-90.9180457052797,4,1,0,90,0,0
117942,-89.8909232567199,4,1,0,90,0,0
118000,-88.886748844376,4,1,0,90,0,0
118115,-86.9606180516299,4,1,0,90,0,0
118173,-86.0205032618826,4,1,0,90,0,0
118231,-85.1004978794026,4,1,0,90,0,0
118346,-83.3333333333333,4,1,0,90,0,0
118577,-86.9606180516299,4,1,0,90,0,0
118634,-87.9047619047619,4,1,0,90,0,0
118692,-88.886748844376,4,1,0,90,0,0
118750,-89.8909232567199,4,1,0,90,0,0
118836,-91.4223454833597,4,1,0,90,0,0
118923,-93.0255996774844,4,1,0,90,0,0
118981,-94.126045278401,4,1,0,90,0,0
119038,-95.233182005778,4,1,0,90,0,0
119096,-96.3868003341688,4,1,0,90,0,0
119269,-66.6666666666667,4,1,0,90,0,0
119274,-100,4,1,0,90,0,0
119442,-96.3868003341688,4,1,0,90,0,0
119529,-94.6666666666667,4,1,0,90,0,0
119615,-93.0255996774844,4,1,0,90,0,0
119702,-91.4223454833597,4,1,0,90,0,0
119788,-89.8909232567199,4,1,0,90,0,0
119875,-88.3930281555258,4,1,0,90,0,0
119961,-86.9606180516299,4,1,0,90,0,0
120048,-85.558027437894,4,1,0,90,0,0
120192,-83.3333333333333,4,1,0,90,0,0
120423,-86.9606180516299,4,1,0,90,0,0
120481,-87.9215088588303,4,1,0,90,0,0
120538,-88.886748844376,4,1,0,90,0,0
120654,-90.9180457052797,4,1,0,90,0,0
120692,-91.6038110361255,4,1,0,90,0,0
120731,-92.3184636927386,4,1,0,90,0,0
120769,-93.0255996774844,4,1,0,90,0,0
120827,-94.126045278401,4,1,0,90,0,0
120884,-95.233182005778,4,1,0,90,0,0
121000,-97.568710359408,4,1,0,90,0,0
121115,-50,4,1,0,90,0,0
121120,-100,4,1,0,90,0,0
121288,-96.3868003341688,4,1,0,90,0,0
121461,-93.0255996774844,4,1,0,90,0,0
121519,-91.9505877664873,4,1,0,90,0,0
121577,-90.9001378766988,4,1,0,90,0,0
121634,-89.8909232567199,4,1,0,90,0,0
121807,-86.9606180516299,4,1,0,90,0,0
121923,-85.1004978794026,4,1,0,90,0,0
122038,-83.3333333333333,4,1,0,90,0,0
122077,-81.4940577249576,4,1,0,90,0,0
122115,-79.7783933518005,4,1,0,90,0,0
122154,-78.0911062906724,4,1,0,90,0,0
122182,-76.9230769230769,4,1,0,90,0,0
122384,-83.3333333333333,4,1,0,90,0,0
122423,-81.5064643057898,4,1,0,90,0,0
122461,-79.8018712162906,4,1,0,90,0,0
122500,-78.125,4,1,0,90,0,0
122529,-76.9230769230769,4,1,0,90,0,0
122731,-83.3333333333333,4,1,0,90,0,0
122769,-81.5402038505096,4,1,0,90,0,0
122807,-79.8226164079823,4,1,0,90,0,0
122846,-78.1334780249593,4,1,0,90,0,0
122875,-76.9230769230769,4,1,0,90,0,0
122966,-100,4,1,0,90,0,0
123077,-83.3333333333333,4,1,0,90,0,0
123115,-81.5402038505096,4,1,0,90,0,0
123154,-79.7783933518005,4,1,0,90,0,0
123192,-78.1334780249593,4,1,0,90,0,0
123221,-76.9230769230769,4,1,0,90,0,0
123414,-55.5555555555556,4,1,0,90,0,0
123875,-50,4,1,0,90,0,0
124115,-76.9294882480413,4,1,0,90,0,0
124173,-78.4463708992011,4,1,0,90,0,0
124231,-80.0242760534073,4,1,0,90,0,0
124288,-81.638068282328,4,1,0,90,0,0
124375,-84.2306990326702,4,1,0,90,0,0
124461,-86.9606180516299,4,1,0,90,0,0
124519,-88.9038720863032,4,1,0,90,0,0
124577,-90.935960591133,4,1,0,90,0,0
124634,-93.0255996774844,4,1,0,90,0,0
124807,-62.5,4,1,0,90,0,0
124812,-100,4,1,0,90,0,0
124961,-93.75,4,1,0,90,0,0
125038,-90.9090909090909,4,1,0,90,0,0
125154,-86.9401580730147,4,1,0,90,0,0
125211,-85.1142225497421,4,1,0,90,0,0
125269,-83.3333333333333,4,1,0,90,0,0
125327,-81.6254416961131,4,1,0,90,0,0
125384,-80.0138552130239,4,1,0,90,0,0
125500,-76.9230769230769,4,1,0,90,0,0
125557,-75.4901960784314,4,1,0,90,0,0
125615,-74.0859525336754,4,1,0,90,0,0
125731,-71.4285714285714,4,1,0,90,0,0
125961,-76.9038493584403,4,1,0,90,0,0
126019,-78.4197111299915,4,1,0,90,0,0
126077,-79.9965331946611,4,1,0,90,0,0
126134,-81.6091954022989,4,1,0,90,0,0
126221,-84.1999635103084,4,1,0,90,0,0
126307,-86.9278583537389,4,1,0,90,0,0
126365,-88.8696321971885,4,1,0,90,0,0
126423,-90.9001378766988,4,1,0,90,0,0
126481,-93.0255996774844,4,1,0,90,0,0
126654,-62.5,4,1,0,90,0,0
126659,-100,4,1,0,90,0,0
126827,-93.0255996774844,4,1,0,90,0,0
126913,-89.9084356127021,4,1,0,90,0,0
127000,-86.9606180516299,4,1,0,90,0,0
127086,-84.2306990326702,4,1,0,90,0,0
127173,-81.638068282328,4,1,0,90,0,0
127259,-79.2274678111588,4,1,0,90,0,0
127346,-76.9294882480413,4,1,0,90,0,0
127432,-74.7852860152325,4,1,0,90,0,0
127577,-71.4285714285714,4,1,0,90,0,0
127807,-76.9038493584403,4,1,0,90,0,0
127865,-78.4197111299915,4,1,0,90,0,0
127923,-79.9965331946611,4,1,0,90,0,0
128038,-83.3182884997292,4,1,0,90,0,0
128077,-84.5083318073613,4,1,0,90,0,0
128115,-85.7010213556175,4,1,0,90,0,0
128154,-86.9606180516299,4,1,0,90,0,0
128211,-88.8696321971885,4,1,0,90,0,0
128269,-90.9001378766988,4,1,0,90,0,0
128384,-95.2135341448319,4,1,0,90,0,0
128500,-62.5,4,1,0,90,0,0
128505,-100,4,1,0,90,0,0
128673,-95.20140043378,4,1,0,90,0,0
128846,-90.6330664455292,4,1,0,90,0,0
128904,-89.1510857458972,4,1,0,90,0,0
128961,-87.7182680756162,4,1,0,90,0,0
129019,-86.2839485122221,4,1,0,90,0,0
129192,-82.1435273331971,4,1,0,90,0,0
129307,-79.5017561898406,4,1,0,90,0,0
129423,-76.9230769230769,4,1,0,90,0,0
129461,-74.7529125984995,4,1,0,90,0,0
129500,-72.5892857685536,4,1,0,90,0,0
129538,-70.5413869503744,4,1,0,90,0,0
129567,-69.0174746355311,4,1,0,90,0,0
129769,-82.135523613963,4,1,0,90,0,0
129807,-79.6660071029831,4,1,0,90,0,0
129846,-77.2132934742912,4,1,0,90,0,0
129884,-74.9003351055223,4,1,0,90,0,0
129913,-73.1845608315255,4,1,0,90,0,0
130115,-87.719298245614,4,1,0,90,0,0
130154,-84.9084943969842,4,1,0,90,0,0
130192,-82.1981450582419,4,1,0,90,0,0
130231,-79.5164804027395,4,1,0,90,0,0
130259,-77.6512482374014,4,1,0,90,0,0
130346,-100,4,1,0,90,0,0
130461,-94.3396226415094,4,1,0,90,0,0
130500,-91.0741504608915,4,1,0,90,0,0
130538,-87.9411613300753,4,1,0,90,0,0
130577,-84.8564814687704,4,1,0,90,0,0
130606,-82.6446280991735,4,1,0,90,0,0
130692,-78.5854616895874,4,1,0,90,0,0
130807,-76.6283524904215,4,1,0,90,0,0
130923,-80.7080171810282,4,1,0,90,0,0
131038,-85.0048816866755,4,1,0,90,0,0
131154,-89.5709015050149,4,1,0,90,0,0
131260,-89.5709015050149,4,1,0,80,0,0
131269,-94.3396226415094,4,1,0,80,0,0
131722,-66.6666666666667,4,1,0,80,0,0
131750,-94.3396226415094,4,1,0,80,0,0
132645,-66.6666666666667,4,1,0,80,0,0
132673,-94.3396226415094,4,1,0,80,0,0
133568,-66.6666666666667,4,1,0,80,0,0
133596,-94.3396226415094,4,1,0,80,0,0
134491,-66.6666666666667,4,1,0,80,0,0
134519,-94.3396226415094,4,1,0,80,0,0
134722,-66.6666666666667,4,1,0,80,0,0
134750,-94.3396226415094,4,1,0,80,0,0
135414,-66.6666666666667,4,1,0,80,0,0
135442,-94.3396226415094,4,1,0,80,0,0
136337,-66.6666666666667,4,1,0,80,0,0
136365,-94.3396226415094,4,1,0,80,0,0
137260,-66.6666666666667,4,1,0,80,0,0
137288,-94.3396226415094,4,1,0,80,0,0
138183,-66.6666666666667,4,1,0,80,0,0
138211,-94.3396226415094,4,1,0,80,0,0
139106,-66.6666666666667,4,1,0,80,0,0
139134,-94.3396226415094,4,1,0,80,0,0
140029,-66.6666666666667,4,1,0,80,0,0
140057,-94.3396226415094,4,1,0,80,0,0
140952,-66.6666666666667,4,1,0,80,0,0
140980,-94.3396226415094,4,1,0,80,0,0
141875,-66.6666666666667,4,1,0,80,0,0
141903,-94.3396226415094,4,1,0,80,0,0
142798,-66.6666666666667,4,1,0,80,0,0
142826,-94.3396226415094,4,1,0,80,0,0
143722,-66.6666666666667,4,1,0,80,0,0
143750,-94.3396226415094,4,1,0,80,0,0
145568,-66.6666666666667,4,1,0,80,0,0
145596,-94.3396226415094,4,1,0,80,0,0
146029,-76.9230769230769,4,1,0,70,0,0
146096,-77.727118265205,4,1,0,70,0,0
146154,-78.5538928524202,4,1,0,70,0,0
146211,-79.37498035912,4,1,0,70,0,0
146269,-80.2192830695037,4,1,0,70,0,0
146384,-81.9199805702169,4,1,0,70,0,0
146500,-83.6719964537491,4,1,0,70,0,0
146846,-89.1235651899396,4,1,0,70,0,0
146952,-91.0296435449748,4,1,0,70,0,0
147307,-96.9429061967354,4,1,0,70,0,0
147423,-99.0162161544553,4,1,0,70,0,0
147769,-105.467522819068,4,1,0,70,0,0
147875,-107.723148051027,4,1,0,70,0,0
148000,-110.006944186435,4,1,0,70,0,0
148115,-112.339158186364,4,1,0,70,0,0
148346,-117.174341202259,4,1,0,70,0,0
148692,-124.808723101286,4,1,0,70,0,0
148798,-127.477996992158,4,1,0,70,0,0
149038,-132.940515836015,4,1,0,70,0,0
149154,-135.783703708966,4,1,0,70,0,0
149269,-138.662400659366,4,1,0,70,0,0
149731,-150.855596138306,4,1,0,70,0,0
149961,-157.319861000088,4,1,0,70,0,0
150192,-164.091055766463,4,1,0,70,0,0
150423,-171.153689123445,4,1,0,70,0,0
150538,-174.782251237094,4,1,0,70,0,0
150654,-178.520304862051,4,1,0,70,0,0
150769,-182.305043701494,4,1,0,70,0,0
150884,-186.170021301978,4,1,0,70,0,0
151000,-190.151624228251,4,1,0,70,0,0
151115,-194.182954099416,4,1,0,70,0,0
151346,-202.54077106009,4,1,0,70,0,0
151461,-206.834758365312,4,1,0,70,0,0
151577,-211.258316322725,4,1,0,70,0,0
151692,-215.737120879775,4,1,0,70,0,0
151807,-220.310878812433,4,1,0,70,0,0
152038,-229.793266224341,4,1,0,70,0,0
152269,-239.683784508016,4,1,0,70,0,0
152384,-244.765226247169,4,1,0,70,0,0
152490,-244.765226247169,4,1,0,90,0,0
152500,-166.666666666667,4,1,0,90,0,0
152543,-164.704327318159,4,1,0,90,0,0
152582,-162.714369652408,4,1,0,90,0,0
152620,-160.798564791589,4,1,0,90,0,0
152736,-155.088724805911,4,1,0,90,0,0
152774,-153.262704562732,4,1,0,90,0,0
152812,-151.458183947798,4,1,0,90,0,0
152851,-149.628266184889,4,1,0,90,0,0
153024,-141.773836087441,4,1,0,90,0,0
153062,-140.104585824581,4,1,0,90,0,0
153139,-136.782176207151,4,1,0,90,0,0
153168,-135.551404964755,4,1,0,90,0,0
153197,-134.331708248976,4,1,0,90,0,0
153293,-130.371849329968,4,1,0,90,0,0
153413,-130.371849329968,4,1,0,90,0,0
153428,-100,4,1,0,90,0,0
153644,-197.667523225934,4,1,0,70,0,0
153760,-196.778813254595,4,1,0,70,0,0
153875,-195.896123537285,4,1,0,70,0,0
153990,-195.011797479997,4,1,0,70,0,0
154221,-193.26859955189,4,1,0,70,0,0
154452,-191.556153395522,4,1,0,71,0,0
154567,-190.701127673875,4,1,0,71,0,0
154683,-189.85912001584,4,1,0,71,0,0
154798,-189.022681173587,4,1,0,71,0,0
154913,-188.184556713747,4,1,0,71,0,0
155029,-187.359144300335,4,1,0,71,0,0
155144,-186.532036240114,4,1,0,71,0,0
155202,-186.127613871551,4,1,0,71,0,0
155260,-185.717441584205,4,1,0,71,0,0
155375,-184.908156219688,4,1,0,71,0,0
155490,-184.097161748436,4,1,0,72,0,0
155721,-182.497903765586,4,1,0,72,0,0
155836,-181.709452327654,4,1,0,72,0,0
155952,-180.926066512533,4,1,0,72,0,0
156067,-180.14095301029,4,1,0,72,0,0
156125,-179.757021137592,4,1,0,72,0,0
156183,-179.360898602915,4,1,0,72,0,0
156298,-178.599177049574,4,1,0,72,0,0
156529,-177.070351405506,4,1,0,72,0,0
156644,-176.309945247429,4,1,0,73,0,0
156702,-175.938070574721,4,1,0,73,0,0
156760,-175.560863886471,4,1,0,73,0,0
156875,-174.816488395376,4,1,0,73,0,0
157106,-186.668804752558,4,1,0,73,0,0
157120,214.285714285714,4,1,0,73,1,0
157120,-186.668804752558,4,1,0,73,0,0
157320,-185.208848509462,4,1,0,73,0,0
157428,-184.48518663004,4,1,0,73,0,0
157535,-183.765689151296,4,1,0,73,0,0
157642,-183.050321730343,4,1,0,73,0,0
157869,-181.625251191859,4,1,0,74,0,0
158070,-180.222963138838,4,1,0,74,0,0
158178,-179.527780734309,4,1,0,74,0,0
158285,-178.836529747772,4,1,0,74,0,0
158392,-178.149178365743,4,1,0,74,0,0
158499,-177.465695116356,4,1,0,74,0,0
158619,-176.779715030558,4,1,0,74,0,0
158713,-176.103910402197,4,1,0,74,0,0
158767,-175.770566127553,4,1,0,74,0,0
158820,-175.43188121192,4,1,0,74,0,0
158928,-174.763597312312,4,1,0,74,0,0
159035,-174.099028875378,4,1,0,74,0,0
159249,-172.780920649415,4,1,0,75,0,0
159369,-172.121231392868,4,1,0,75,0,0
159463,-171.471266272868,4,1,0,75,0,0
159570,-170.824871858479,4,1,0,75,0,0
159624,-170.506008919071,4,1,0,75,0,0
159678,-170.18202015464,4,1,0,75,0,0
159785,-169.542683457494,4,1,0,75,0,0
159999,-168.274445701243,4,1,0,75,0,0
160119,-167.639628682854,4,1,0,75,0,0
160213,-167.014112383824,4,1,0,75,0,0
160267,-166.70553075622,4,1,0,76,0,0
160320,-166.391976565469,4,1,0,76,0,0
160535,-115.591391499169,4,1,0,76,0,0
160548,200,4,1,0,76,1,0
160548,-115.591391499169,4,1,0,76,0,0
160735,-175.731637888052,4,1,0,76,0,0
160835,-175.124679818627,4,1,0,76,0,0
160935,-174.52074732135,4,1,0,76,0,0
161035,-173.919818931188,4,1,0,76,0,0
161235,-172.726889619846,4,1,0,76,0,0
161435,-171.545724162429,4,1,0,76,0,0
161535,-170.959501320996,4,1,0,77,0,0
161635,-170.376157957197,4,1,0,77,0,0
161735,-169.795673971525,4,1,0,77,0,0
161835,-169.218029450579,4,1,0,77,0,0
161935,-168.64320466491,4,1,0,77,0,0
162035,-168.071180066904,4,1,0,77,0,0
162085,-167.786211778851,4,1,0,77,0,0
162135,-167.501936288691,4,1,0,77,0,0
162235,-166.935454140078,4,1,0,77,0,0
162335,-166.371714606523,4,1,0,77,0,0
162535,-165.252388192634,4,1,0,77,0,0
162635,-164.696764143531,4,1,0,77,0,0
162735,-164.143808368068,4,1,0,78,0,0
162835,-163.593502700388,4,1,0,78,0,0
162885,-163.319338025036,4,1,0,78,0,0
162935,-163.04582913865,4,1,0,78,0,0
163035,-162.500769843178,4,1,0,78,0,0
163235,-161.418423492242,4,1,0,78,0,0
163335,-160.881101551975,4,1,0,78,0,0
163385,-160.61339583632,4,1,0,78,0,0
163435,-160.346324104841,4,1,0,78,0,0
163535,-159.814074095137,4,1,0,78,0,0
163736,-169.340896402425,4,1,0,78,0,0
163748,187.5,4,1,0,78,1,0
163748,-169.340896402425,4,1,0,78,0,0
163923,-168.296293837193,4,1,0,79,0,0
164017,-167.774653144353,4,1,0,79,0,0
164111,-167.255303957316,4,1,0,79,0,0
164205,-166.743720877517,4,1,0,79,0,0
164392,-165.716304703138,4,1,0,79,0,0
164580,-164.703224343826,4,1,0,79,0,0
164673,-164.197282614817,4,1,0,79,0,0
164767,-163.693535496864,4,1,0,79,0,0
164861,-163.191969554283,4,1,0,79,0,0
164955,-162.697872843901,4,1,0,79,0,0
165048,-162.200606527688,4,1,0,80,0,0
165142,-161.705481868597,4,1,0,80,0,0
165189,-161.458718591621,4,1,0,80,0,0
165236,-161.212485859435,4,1,0,80,0,0
165330,-160.726816638672,4,1,0,80,0,0
165423,-160.23801702081,4,1,0,80,0,0
165611,-159.266676350396,4,1,0,80,0,0
165705,-158.789233064091,4,1,0,80,0,0
165798,-158.308698047129,4,1,0,80,0,0
165892,-157.830203764393,4,1,0,80,0,0
165939,-157.591718081985,4,1,0,80,0,0
165986,-157.353738015602,4,1,0,80,0,0
166080,-156.884325460712,4,1,0,80,0,0
166267,-155.941385782579,4,1,0,81,0,0
166361,-155.472893076483,4,1,0,81,0,0
166408,-155.244348983881,4,1,0,81,0,0
166455,-155.011322153665,4,1,0,81,0,0
166548,-154.546735224786,4,1,0,81,0,0
166642,-154.08409432641,4,1,0,81,0,0
166736,-109.570810500301,4,1,0,81,0,0
166748,176.470588235294,4,1,0,81,1,0
166748,-109.570810500301,4,1,0,81,0,0
166913,-162.313820620777,4,1,0,81,0,0
167001,-161.860969350166,4,1,0,81,0,0
167045,-161.635204913244,4,1,0,81,0,0
167089,-161.409879667428,4,1,0,81,0,0
167178,-160.955445872104,4,1,0,81,0,0
167354,-160.062027591207,4,1,0,81,0,0
167531,-159.17048551487,4,1,0,82,0,0
167619,-158.729804380398,4,1,0,82,0,0
167663,-158.5101001893,4,1,0,82,0,0
167707,-158.290818720721,4,1,0,82,0,0
167795,-157.853519391018,4,1,0,82,0,0
167884,-157.412956664242,4,1,0,82,0,0
167972,-156.979021726476,4,1,0,82,0,0
168060,-156.546745972602,4,1,0,82,0,0
168104,-156.331227510215,4,1,0,82,0,0
168148,-156.111236494512,4,1,0,82,0,0
168247,-155.682271115503,4,1,0,82,0,0
168325,-155.254938351136,4,1,0,82,0,0
168501,-154.405135935499,4,1,0,82,0,0
168589,-153.982649071717,4,1,0,82,0,0
168678,-153.556986721794,4,1,0,83,0,0
168766,-153.137705796117,4,1,0,83,0,0
168810,-152.928658821163,4,1,0,83,0,0
168854,-152.715268578545,4,1,0,83,0,0
168942,-152.303879331198,4,1,0,83,0,0
169119,-151.47162708961,4,1,0,83,0,0
169207,-151.060187125163,4,1,0,83,0,0
169251,-150.855045162718,4,1,0,83,0,0
169295,-150.650287201551,4,1,0,83,0,0
169384,-150.237287496175,4,1,0,83,0,0
169560,-105.250916811247,4,1,0,83,0,0
169571,171.428571428571,4,1,0,83,1,0
169571,-105.250916811247,4,1,0,83,0,0
169731,-153.013682330093,4,1,0,83,0,0
169817,-152.61035904341,4,1,0,83,0,0
169870,-152.409245489747,4,1,0,84,0,0
169903,-152.213160558611,4,1,0,84,0,0
169988,-151.812733726238,4,1,0,84,0,0
170170,-151.016209966579,4,1,0,84,0,0
170245,-150.620098535454,4,1,0,84,0,0
170331,-150.229992380343,4,1,0,84,0,0
170417,-149.836705469628,4,1,0,84,0,0
170503,-149.449377102395,4,1,0,84,0,0
170588,-149.058886699461,4,1,0,84,0,0
170674,-148.669792256569,4,1,0,84,0,0
170770,-148.282086827488,4,1,0,84,0,0
170845,-147.900247727357,4,1,0,84,0,0
170888,-147.707594232012,4,1,0,84,0,0
170931,-147.515283717651,4,1,0,84,0,0
171017,-147.131688234954,4,1,0,84,0,0
171103,-146.753891291899,4,1,0,85,0,0
171274,-145.993450930142,4,1,0,85,0,0
171370,-145.615246772644,4,1,0,85,0,0
171445,-145.24275237694,4,1,0,85,0,0
171531,-144.867196683307,4,1,0,85,0,0
171574,-144.67991507879,4,1,0,85,0,0
171617,-144.492963222413,4,1,0,85,0,0
171703,-144.124374245526,4,1,0,85,0,0
171874,-143.382430212232,4,1,0,85,0,0
171970,-143.013406411887,4,1,0,85,0,0
172045,-142.649941587621,4,1,0,85,0,0
172088,-142.466549370566,4,1,0,85,0,0
172131,-142.283477426846,4,1,0,85,0,0
172217,-141.91829125708,4,1,0,85,0,0
172302,-135.135135135135,4,1,0,86,0,0
172313,166.666666666667,4,1,0,86,1,0
172313,-135.135135135135,4,1,0,86,0,0
172385,-145.243103778451,4,1,0,86,0,0
172469,-144.884276261475,4,1,0,86,0,0
172552,-144.522348707552,4,1,0,86,0,0
172635,-144.165932810328,4,1,0,86,0,0
172677,-143.986031652393,4,1,0,86,0,0
172719,-143.810707143952,4,1,0,86,0,0
172802,-143.452407850759,4,1,0,86,0,0
172885,-143.09956034045,4,1,0,86,0,0
172969,-142.74365668308,4,1,0,86,0,0
173052,-142.393165317036,4,1,0,86,0,0
173094,-142.220460468632,4,1,0,86,0,0
173135,-142.04383686363,4,1,0,86,0,0
173219,-141.695665984775,4,1,0,86,0,0
173302,-141.344473431086,4,1,0,86,0,0
173344,-141.173484979511,4,1,0,86,0,0
173385,-140.998615603612,4,1,0,86,0,0
173427,-140.824038568981,4,1,0,86,0,0
173469,-140.653899466872,4,1,0,87,0,0
173552,-140.306187204914,4,1,0,87,0,0
173635,-131.578947368421,4,1,0,87,0,0
173719,-139.622443791369,4,1,0,87,0,0
173802,-139.278164276927,4,1,0,87,0,0
173885,-138.939105903097,4,1,0,87,0,0
173969,-138.601158307767,4,1,0,87,0,0
174010,-138.43057033448,4,1,0,87,0,0
174052,-138.260264852677,4,1,0,87,0,0
174135,-137.924537004807,4,1,0,87,0,0
174219,-137.589904894253,4,1,0,87,0,0
174302,-137.252351647205,4,1,0,87,0,0
174385,-136.919909291881,4,1,0,87,0,0
174427,-136.75209764731,4,1,0,87,0,0
174469,-136.588547901079,4,1,0,87,0,0
174552,-136.254289828932,4,1,0,87,0,0
174635,-135.925088735113,4,1,0,87,0,0
174677,-135.758911712504,4,1,0,88,0,0
174719,-135.596954095451,4,1,0,88,0,0
174760,-135.431314908657,4,1,0,88,0,0
174802,-135.26594696505,4,1,0,88,0,0
174885,-134.939943686262,4,1,0,88,0,0
174969,-126.582278481013,4,1,0,88,0,0
175052,-134.287192968361,4,1,0,88,0,0
175094,-134.127583720007,4,1,0,88,0,0
175135,-133.964344825365,4,1,0,88,0,0
175219,-133.642534880004,4,1,0,88,0,0
175260,-133.480085426897,4,1,0,88,0,0
175302,-133.317900045532,4,1,0,88,0,0
175385,-132.998165109441,4,1,0,88,0,0
175427,-132.836762166199,4,1,0,88,0,0
175469,-132.679454613672,4,1,0,88,0,0
175510,-132.518568340209,4,1,0,88,0,0
175552,-132.357942646704,4,1,0,88,0,0
175635,-132.041279722555,4,1,0,88,0,0
175719,-131.725627721516,4,1,0,88,0,0
175760,-131.566283994484,4,1,0,88,0,0
175802,-131.407197416432,4,1,0,88,0,0
175885,-131.093566027181,4,1,0,89,0,0
175927,-130.935241404178,4,1,0,89,0,0
175969,-130.78093227871,4,1,0,89,0,0
176052,-130.465543145904,4,1,0,89,0,0
176094,-130.311971329045,4,1,0,89,0,0
176135,-130.154903516837,4,1,0,89,0,0
176177,-129.998087818282,4,1,0,89,0,0
176219,-129.845248476019,4,1,0,89,0,0
176302,-129.532860726403,4,1,0,89,0,0
176344,-129.380749066536,4,1,0,89,0,0
176385,-129.225173769958,4,1,0,89,0,0
176469,-128.918458574074,4,1,0,89,0,0
176552,-128.609033103977,4,1,0,89,0,0
176635,-128.30426040495,4,1,0,89,0,0
176677,-128.150403813265,4,1,0,89,0,0
176719,-128.000446858818,4,1,0,89,0,0
176802,-127.693945235275,4,1,0,89,0,0
176885,-127.392049036415,4,1,0,89,0,0
176969,-127.087479456689,4,1,0,89,0,0
177010,-126.9391713907,4,1,0,89,0,0
177052,-126.78748404452,4,1,0,90,0,0
177135,-126.488427232486,4,1,0,90,0,0
177219,-126.190304999381,4,1,0,90,0,0
177302,-91.378679166873,4,1,0,90,0,0
177469,-125.297953168525,4,1,0,90,0,0
177552,-124.999998981117,4,1,0,90,0,0
177635,-90.909090909091,4,1,0,90,0,0
177646,-90.9090909090909,4,1,0,90,0,1
177729,-95.3190548149609,4,1,0,90,0,1
177813,-100,4,1,0,90,0,1
180303,-90.9090909090909,4,1,0,90,0,1
180344,-93.0614019584072,4,1,0,90,0,1
180386,-95.3190548149609,4,1,0,90,0,1
180428,-97.6314779233424,4,1,0,90,0,1
180469,-99.9429443189928,4,1,0,90,0,1
182636,-90.9090909090909,4,1,0,90,0,1
182657,-99.940035978413,4,1,0,90,0,1
185636,-90.9090909090909,4,1,0,90,0,1
185678,-93.1145290870945,4,1,0,90,0,1
185719,-95.3190548149609,4,1,0,90,0,1
185761,-97.6314779233424,4,1,0,90,0,1
185803,-100,4,1,0,90,0,1
188303,-90.9090909090909,4,1,0,90,0,1
188386,-91.8145369564996,4,1,0,90,0,1
188469,-92.7290011619008,4,1,0,90,0,1
188636,-94.5966388797972,4,1,0,90,0,1
188691,-95.2199265989105,4,1,0,90,0,1
188747,-95.8587664520865,4,1,0,90,0,1
188803,-96.5018923446724,4,1,0,90,0,1
188886,-97.4630421715728,4,1,0,90,0,1
188970,-98.4455191683519,4,1,0,90,0,1
189053,-99.4260273367289,4,1,0,90,0,1
189094,-99.9139722248501,4,1,0,90,0,1
189136,-100.416301274806,4,1,0,90,0,1
189219,-101.416438248738,4,1,0,90,0,1
189303,-102.43876748713,4,1,0,90,0,1
189386,-103.459048035479,4,1,0,90,0,1
189469,-104.489490482715,4,1,0,90,0,1
189511,-105.014823479851,4,1,0,90,0,1
189553,-105.542797649382,4,1,0,90,0,1
189594,-106.060761305082,4,1,0,90,0,1
189636,-106.593994047987,4,1,0,90,0,1
189719,-107.655660264458,4,1,0,90,0,1
189761,-108.196911546324,4,1,0,90,0,1
189803,-108.740884031604,4,1,0,90,0,1
189886,-109.823933071623,4,1,0,90,0,1
189969,-110.91776917884,4,1,0,90,0,1
190136,-113.151743520282,4,1,0,90,0,1
190178,-113.720626996314,4,1,0,90,0,1
190219,-114.278724308489,4,1,0,90,0,1
190303,-115.430711927105,4,1,0,90,0,1
190386,-116.580391027609,4,1,0,90,0,1
190428,-117.166512425492,4,1,0,90,0,1
190469,-117.741520824484,4,1,0,90,0,1
190553,-118.928415191809,4,1,0,90,0,1
190636,-120.112931089869,4,1,0,90,0,1
190678,-120.716812741437,4,1,0,90,0,1
190719,-121.309244655547,4,1,0,90,0,1
190803,-122.532103492242,4,1,0,90,0,1
190970,-90.9090909090909,4,1,0,90,0,1
191011,-91.1900773019589,4,1,0,90,0,1
191053,-91.4788175632117,4,1,0,90,0,1
191094,-91.7615648958918,4,1,0,90,0,1
191136,-92.0521146903971,4,1,0,90,0,1
191219,-92.6290046667775,4,1,0,90,0,1
191303,-93.2165261831924,4,1,0,90,0,1
191358,-93.603230202203,4,1,0,90,0,1
191414,-93.9986134834039,4,1,0,90,0,1
191469,-94.388561951812,4,1,0,90,0,1
191553,-94.9872438792454,4,1,0,90,0,1
191636,-95.5825282902797,4,1,0,90,0,1
191719,-96.1815433446672,4,1,0,90,0,1
191761,-96.4860883650764,4,1,0,90,0,1
191803,-96.7915976834812,4,1,0,90,0,1
191886,-97.3981899675286,4,1,0,90,0,1
191969,-98.0085837612925,4,1,0,90,0,1
192011,-98.3189138423445,4,1,0,90,0,1
192053,-98.6302265389543,4,1,0,90,0,1
192136,-99.2483414975277,4,1,0,90,0,1
192178,-99.5625970931011,4,1,0,90,0,1
192219,-99.8703301783404,4,1,0,90,0,1
192261,-100.186555211593,4,1,0,90,0,1
192303,-100.503781525921,4,1,0,90,0,1
192386,-101.133638040849,4,1,0,90,0,1
192469,-101.76744186227,4,1,0,90,0,1
192511,-102.089673826753,4,1,0,90,0,1
192553,-102.412926092395,4,1,0,90,0,1
192594,-102.729469117938,4,1,0,90,0,1
192636,-103.05474720333,4,1,0,90,0,1
192719,-103.700590602799,4,1,0,90,0,1
192803,-104.35833628908,4,1,0,90,0,1
192886,-105.01234927248,4,1,0,90,0,1
192928,-105.344855769468,4,1,0,90,0,1
192969,-105.670460950796,4,1,0,90,0,1
193053,-106.340701008772,4,1,0,90,0,1
193219,-107.677750460683,4,1,0,90,0,1
193303,-108.360722230297,4,1,0,90,0,1
193469,-109.723169937453,4,1,0,90,0,1
193511,-110.070592570382,4,1,0,90,0,1
193553,-110.419115267098,4,1,0,90,0,1
193594,-110.760404225026,4,1,0,90,0,1
193636,-111.111111111111,4,1,0,90,0,1
196302,-111.111111111111,4,1,0,90,0,1
196343,-110.76886968544,4,1,0,90,0,1
196385,-110.419373923754,4,1,0,90,0,1
196427,-110.07098088423,4,1,0,90,0,1
196468,-109.731943239425,4,1,0,90,0,1
196552,-109.040587495349,4,1,0,90,0,1
196635,-108.361740631633,4,1,0,90,0,1
196802,-107.008647491977,4,1,0,90,0,1
196885,-106.342450744426,4,1,0,90,0,1
196969,-105.672450177673,4,1,0,90,0,1
197052,-105.01457210647,4,1,0,90,0,1
197135,-104.360789743807,4,1,0,90,0,1
197302,-103.05765574256,4,1,0,90,0,1
197385,-102.416056426289,4,1,0,90,0,1
197468,-101.778451472976,4,1,0,90,0,1
197552,-101.137205952559,4,1,0,90,0,1
197593,-100.825685878577,4,1,0,90,0,1
197635,-100.507562655114,4,1,0,90,0,1
197718,-99.8818392868217,4,1,0,90,0,1
197802,-99.2525431923456,4,1,0,90,0,1
197843,-98.9468282053932,4,1,0,90,0,1
197885,-98.6346331167526,4,1,0,90,0,1
197927,-98.3234230599228,4,1,0,90,0,1
197968,-98.0205699235592,4,1,0,90,0,1
198052,-97.4030005809074,4,1,0,90,0,1
198135,-96.7966050819498,4,1,0,90,0,1
198218,-96.1939847798441,4,1,0,90,0,1
198302,-95.5879236643672,4,1,0,90,0,1
198468,-94.4014375252154,4,1,0,90,0,1
198510,-94.1035839639591,4,1,0,90,0,1
198552,-93.8066701844082,4,1,0,90,0,1
198635,-93.2226641247102,4,1,0,90,0,1
198718,-92.6422938733943,4,1,0,90,0,1
198802,-92.0586098510124,4,1,0,90,0,1
198885,-91.4854865763596,4,1,0,90,0,1
198969,-90.9159313578448,4,1,0,90,0,1
198979,-90.9159313578448,4,1,0,90,0,0
198980,-90.9159313578448,4,1,0,90,0,0
199136,-92.0303577755384,4,1,0,90,0,0
199303,-93.1723344569742,4,1,0,90,0,0
199386,-93.7451643415492,4,1,0,90,0,0
199553,-94.9084195354116,4,1,0,90,0,0
199636,-95.4919229897849,4,1,0,90,0,0
199719,-96.0790138633031,4,1,0,90,0,0
199803,-96.6768531797312,4,1,0,90,0,0
199886,-97.2712290850981,4,1,0,90,0,0
199969,-97.8692592541824,4,1,0,90,0,0
200053,-98.4782381424866,4,1,0,90,0,0
200219,-99.6928623829349,4,1,0,90,0,0
200303,-100.313188407352,4,1,0,90,0,0
200386,-100.929920750398,4,1,0,90,0,0
200469,-101.55044480607,4,1,0,90,0,0
200636,-102.810553348088,4,1,0,90,0,0
200719,-103.442639661592,4,1,0,90,0,0
200803,-104.086298193234,4,1,0,90,0,0
200886,-104.726227873298,4,1,0,90,0,0
200969,-105.370091884801,4,1,0,90,0,0
201136,-106.677597264131,4,1,0,90,0,0
201219,-107.33345842811,4,1,0,90,0,0
201386,-108.665326624925,4,1,0,90,0,0
201469,-109.333408484961,4,1,0,90,0,0
201636,-100,4,1,0,90,0,0
201803,-112.063613111501,4,1,0,90,0,0
201969,-113.44579849098,4,1,0,90,0,0
202053,-114.151700392908,4,1,0,90,0,0
202219,-115.5596401063,4,1,0,90,0,0
202303,-116.278695116024,4,1,0,90,0,0
202386,-116.993584486244,4,1,0,90,0,0
202469,-117.712869045205,4,1,0,90,0,0
202553,-118.445322245286,4,1,0,90,0,0
202636,-119.173532187278,4,1,0,90,0,0
202719,-119.906219213798,4,1,0,90,0,0
202886,-121.39409897012,4,1,0,90,0,0
202969,-122.140438193093,4,1,0,90,0,0
203053,-122.900441373199,4,1,0,90,0,0
203136,-123.656041692289,4,1,0,90,0,0
203303,-125.190451853723,4,1,0,90,0,0
203386,-125.960131313868,4,1,0,90,0,0
203469,-126.734542815974,4,1,0,90,0,0
203553,-127.523132221697,4,1,0,90,0,0
203636,-128.307153160283,4,1,0,90,0,0
203803,-129.89927754741,4,1,0,90,0,0
203886,-130.69790718997,4,1,0,90,0,0
203969,-131.501446862193,4,1,0,90,0,0
204053,-132.319697715738,4,1,0,90,0,0
204136,-133.133208267033,4,1,0,90,0,0
204303,-100,4,1,0,90,0,0
204469,-136.447649887846,4,1,0,90,0,0
204636,-138.140787219645,4,1,0,90,0,0
204719,-138.990086227331,4,1,0,90,0,0
204886,-140.714771877359,4,1,0,90,0,0
204969,-141.579895918763,4,1,0,90,0,0
205053,-142.460858626358,4,1,0,90,0,0
205136,-143.336717728515,4,1,0,90,0,0
205219,-144.217961672335,4,1,0,90,0,0
205303,-145.115339405057,4,1,0,90,0,0
205386,-146.00751843659,4,1,0,90,0,0
205553,-147.819281265716,4,1,0,90,0,0
205636,-148.728084316739,4,1,0,90,0,0
205719,-149.642474751075,4,1,0,90,0,0
205803,-150.573605819313,4,1,0,90,0,0
205969,-152.430770966147,4,1,0,90,0,0
206053,-153.379251849252,4,1,0,90,0,0
206136,-154.322237979685,4,1,0,90,0,0
206219,-155.271021653342,4,1,0,90,0,0
206303,-156.237175631342,4,1,0,90,0,0
206469,-158.164194883112,4,1,0,90,0,0
206553,-159.148351259726,4,1,0,90,0,0
206719,-161.111276764016,4,1,0,90,0,0
206803,-162.113770978897,4,1,0,90,0,0
206969,-100,4,1,0,90,0,0
207136,-166.149703386998,4,1,0,90,0,0
207303,-168.211404454794,4,1,0,90,0,0
207386,-169.245579673861,4,1,0,90,0,0
207553,-171.345696527639,4,1,0,90,0,0
207636,-100,4,1,0,90,0,0
207803,-174.538390031883,4,1,0,90,0,0
207886,-175.611463991,4,1,0,90,0,0
207969,-176.691135282208,4,1,0,90,0,0
208053,-177.790573164515,4,1,0,90,0,0
208219,-179.983430631932,4,1,0,90,0,0
208303,-111.111111111111,4,1,0,90,0,0
208553,-103.400539900233,4,1,0,90,0,0
208803,-96.2250448649376,4,1,0,90,0,0
208969,-190.247031814083,4,1,0,90,0,0
209053,-89.5474943186285,4,1,0,90,0,0
209303,-83.3333333333333,4,1,0,90,0,0
209636,-90.9090909090909,4,1,0,90,0,0
209719,-91.478603274684,4,1,0,90,0,0
209803,-92.0586098510124,4,1,0,90,0,0
209969,-93.2156501190554,4,1,0,90,0,0
210136,-94.3943348295047,4,1,0,90,0,0
210219,-94.9856809797053,4,1,0,90,0,0
210303,-95.5879236643672,4,1,0,90,0,0
210386,-96.1867472141777,4,1,0,90,0,0
210469,-96.7893221755688,4,1,0,90,0,0
210636,-98.013194926951,4,1,0,90,0,0
210803,-99.2525431923456,4,1,0,90,0,0
210844,-99.5592027437164,4,1,0,90,0,0
210886,-99.8743242496561,4,1,0,90,0,0
210928,-100.190443167797,4,1,0,90,0,0
210969,-100.500000538976,4,1,0,90,0,0
211053,-101.137205952559,4,1,0,90,0,0
211136,-101.770793736085,4,1,0,90,0,0
211303,-103.05765574256,4,1,0,90,0,0
211469,-104.352937713656,4,1,0,90,0,0
211553,-105.01457210647,4,1,0,90,0,0
211636,-105.672450177673,4,1,0,90,0,0
211719,-106.334449615539,4,1,0,90,0,0
211803,-107.008647491977,4,1,0,90,0,0
211969,-108.353587572839,4,1,0,90,0,0
212053,-109.040587495349,4,1,0,90,0,0
212136,-109.72368708758,4,1,0,90,0,0
212219,-110.411066050123,4,1,0,90,0,0
212303,-90.9090909090909,4,1,0,90,0,0
212343,-91.1899717826388,4,1,0,90,0,0
212385,-91.478603274684,4,1,0,90,0,0
212427,-91.7681483336113,4,1,0,90,0,0
212468,-92.0516834279572,4,1,0,90,0,0
212635,-93.2156501190554,4,1,0,90,0,0
212802,-94.3943348295047,4,1,0,90,0,0
212885,-94.9856809797053,4,1,0,90,0,0
212969,-95.5879236643672,4,1,0,90,0,0
213052,-96.1867472141777,4,1,0,90,0,0
213135,-96.7893221755688,4,1,0,90,0,0
213302,-98.013194926951,4,1,0,90,0,0
213385,-98.627211918475,4,1,0,90,0,0
213468,-99.2450755029619,4,1,0,90,0,0
213510,-99.5592027437164,4,1,0,90,0,0
213552,-99.8743242496561,4,1,0,90,0,0
213593,-100.182904911499,4,1,0,90,0,0
213635,-100.500000538976,4,1,0,90,0,0
213802,-101.770793736085,4,1,0,90,0,0
213843,-102.085233899994,4,1,0,90,0,0
213885,-102.408350716464,4,1,0,90,0,0
213927,-102.732490251627,4,1,0,90,0,0
213968,-103.049901759267,4,1,0,90,0,0
214052,-103.703274445018,4,1,0,90,0,0
214135,-104.352937713656,4,1,0,90,0,0
214302,-105.672450177673,4,1,0,90,0,0
214385,-106.334449615539,4,1,0,90,0,0
214552,-107.67901771967,4,1,0,90,0,0
214718,-109.032383360609,4,1,0,90,0,0
214802,-109.72368708758,4,1,0,90,0,0
214885,-110.411066050123,4,1,0,90,0,0
214969,-100,4,1,0,90,0,0
215136,-115.252983789291,4,1,0,90,0,0
215219,-117.381463846547,4,1,0,90,0,0
215386,-121.783922913916,4,1,0,90,0,0
215553,-126.35149873145,4,1,0,90,0,0
215636,-128.684945002533,4,1,0,90,0,0
215803,-133.511347608152,4,1,0,90,0,0
215886,-135.977021219872,4,1,0,90,0,0
215969,-138.488230634118,4,1,0,90,0,0
216053,-141.076917322769,4,1,0,90,0,0
216136,-143.682311085152,4,1,0,90,0,0
216219,-146.335820987198,4,1,0,90,0,0
216303,-100,4,1,0,90,0,0
216469,-154.628103817521,4,1,0,90,0,0
216553,-157.518484553927,4,1,0,90,0,0
216719,-163.390278121267,4,1,0,90,0,0
216803,-166.444445512176,4,1,0,90,0,0
216886,-169.5183241335,4,1,0,90,0,0
216969,-172.648970823891,4,1,0,90,0,0
217219,-182.43231769534,4,1,0,90,0,0
217469,-192.770048850403,4,1,0,90,0,0
217636,-100,4,1,0,90,0,0
217803,-192.413174675313,4,1,0,90,0,0
217969,-185.124018109335,4,1,0,90,0,0
218053,-181.529466174499,4,1,0,90,0,0
218219,-174.607832785538,4,1,0,90,0,0
218303,-100,4,1,0,90,0,0
218469,-164.628131398258,4,1,0,90,0,0
218553,-161.391774713894,4,1,0,90,0,0
218636,-158.250394114845,4,1,0,90,0,0
218719,-155.164368365679,4,1,0,90,0,0
218803,-152.096752966688,4,1,0,90,0,0
218886,-149.119829056152,4,1,0,90,0,0
218969,-100,4,1,0,90,0,0
219136,-140.470995297912,4,1,0,90,0,0
219303,-100,4,1,0,90,0,0
219469,-129.663949503262,4,1,0,90,0,0
219553,-127.061535316267,4,1,0,90,0,0
219636,-100,4,1,0,90,0,0
219969,-114.871513678141,4,1,0,90,0,0
220053,-112.5459860824,4,1,0,90,0,0
220136,-110.29136231674,4,1,0,90,0,0
220301,-110.29136231674,4,1,0,80,0,0
220312,352.941176470588,4,1,0,80,1,8
220313,352.941176470588,4,1,0,80,1,0
220313,-50,4,1,0,80,0,0
220478,-50.74143714,4,1,0,80,0,0
220654,-51.49540423,4,1,0,80,0,0
220743,-51.88152355,4,1,0,80,0,0
220919,-52.65484532,4,1,0,80,0,0
221007,-53.04643499,4,1,0,80,0,0
221184,-53.84418818,4,1,0,80,0,0
221360,-54.65107822,4,1,0,80,0,0
221537,-55.47656403,4,1,0,80,0,0
221724,375,4,1,0,80,1,0
221724,-52.9991655,4,1,0,80,0,0
221900,-53.84916355,4,1,0,80,0,0
222088,-54.71957942,4,1,0,80,0,0
222181,-55.15615302,4,1,0,80,0,0
222463,-56.50477935,4,1,0,80,0,0
222838,-58.35780232,4,1,0,80,0,0
222931,-58.82821703,4,1,0,80,0,0
223025,-59.30818116,4,1,0,80,0,0
223224,400,4,1,0,80,1,0
223224,-56.51425247,4,1,0,80,0,0
223412,-57.50461773,4,1,0,80,0,0
223612,-58.515345,4,1,0,80,0,0
223712,-59.02850802,4,1,0,80,0,0
223912,-60.07076955,4,1,0,80,0,0
224012,-60.60000612,4,1,0,80,0,0
224212,-61.67504472,4,1,0,80,0,0
224312,-62.22099186,4,1,0,80,0,0
224412,-62.77265636,4,1,0,80,0,0
224612,-63.89344138,4,1,0,80,0,0
224824,428.571428571429,4,1,0,80,1,0
224824,-60.70215147,4,1,0,80,0,0
225025,-61.87047925,4,1,0,80,0,0
225239,-63.06568148,4,1,0,80,0,0
225346,-63.67360632,4,1,0,80,0,0
225453,-64.28854846,4,1,0,80,0,0
225507,-64.60159019,4,1,0,80,0,0
225561,-64.91645903,4,1,0,80,0,0
225614,-65.22728679,4,1,0,80,0,0
225668,-65.54581637,4,1,0,80,0,0
226096,-68.13770161,4,1,0,80,0,0
226203,-68.80485125,4,1,0,80,0,0
226311,-69.48625233,4,1,0,80,0,0
226538,461.538461538462,4,1,0,80,1,0
226538,-65.79923619,4,1,0,80,0,0
226870,-67.92821201,4,1,0,80,0,0
227216,-70.1416809,4,1,0,80,0,0
227447,-71.66865988,4,1,0,80,0,0
227793,-74.03296394,4,1,0,80,0,0
228139,-76.49418043,4,1,0,80,0,0
228370,-78.19390326,4,1,0,80,0,0
228716,-80.82863409,4,1,0,80,0,0
229062,-83.57518781,4,1,0,80,0,0
229293,-85.47424779,4,1,0,80,0,0
229639,-88.42166286,4,1,0,80,0,0
229985,-91.49896083,4,1,0,80,0,0
230216,-93.62957324,4,1,0,80,0,0
230331,-94.71389393,4,1,0,80,0,0
230447,-95.8239791,4,1,0,80,0,0
230562,-96.94101526,4,1,0,80,0,0
230677,-98.07483373,4,1,0,80,0,0
230793,-99.23585988,4,1,0,80,0,0
230908,-100.4044289,4,1,0,80,0,0
231024,-101.6012302,4,1,0,80,0,0
231139,-102.8060019,4,1,0,80,0,0
231254,-104.0293629,4,1,0,80,0,0
231370,-105.282591,4,1,0,80,0,0
231485,-106.5444831,4,1,0,80,0,0
231600,-107.8261724,4,1,0,80,0,0
231716,-109.1394941,4,1,0,80,0,0
231831,-110.4622443,4,1,0,80,0,0
231947,-111.817885,4,1,0,80,0,0
232062,-113.1835084,4,1,0,80,0,0
232120,-113.880593,4,1,0,80,0,0
232177,-114.5711841,4,1,0,80,0,0
232235,-115.2795755,4,1,0,80,0,0
232293,-115.9937647,4,1,0,80,0,0
232350,-116.7013522,4,1,0,80,0,0
232408,-117.4272306,4,1,0,80,0,0
232466,-118.159104,4,1,0,80,0,0
232524,-118.8970405,4,1,0,80,0,0
232581,-119.628228,4,1,0,80,0,0
232639,-120.3783913,4,1,0,80,0,0
232697,-121.134827,4,1,0,80,0,0
232754,-121.8844016,4,1,0,80,0,0
232812,-122.6534884,4,1,0,80,0,0
232870,-123.4290664,4,1,0,80,0,0
232927,-124.1976698,4,1,0,80,0,0
232985,-33.33333333,4,1,0,80,0,0
233447,-142.8571429,4,1,0,80,0,0
233475,-139.802186,4,1,0,80,0,0
233677,-119.615171,4,1,0,80,0,0
233706,-116.9669007,4,1,0,80,0,0
233908,-83.33333333,4,1,0,80,0,0
233937,-100,4,1,0,80,0,0
234831,-83.33333333,4,1,0,80,0,0
234845,-100,4,1,0,80,0,0
234869,-84.59242931,4,1,0,80,0,0
234908,-85.90444341,4,1,0,80,0,0
234946,-87.20238668,4,1,0,80,0,0
234985,-88.55488077,4,1,0,80,0,0
235023,-89.8928699,4,1,0,80,0,0
235062,-91.28709292,4,1,0,80,0,0
235293,-83.33333333,4,1,0,80,0,0
235331,-84.59242931,4,1,0,80,0,0
235370,-85.90444341,4,1,0,80,0,0
235408,-87.20238668,4,1,0,80,0,0
235447,-88.55488077,4,1,0,80,0,0
235485,-89.8928699,4,1,0,80,0,0
235524,-91.28709292,4,1,0,80,0,0
235754,-100,4,1,0,80,0,0
237139,-83.33333333,4,1,0,80,0,0
237177,-84.59242931,4,1,0,80,0,0
237216,-85.90444341,4,1,0,80,0,0
237254,-87.20238668,4,1,0,80,0,0
237293,-88.55488077,4,1,0,80,0,0
237331,-89.8928699,4,1,0,80,0,0
237370,-91.28709292,4,1,0,80,0,0
237600,-100,4,1,0,80,0,0
238524,-83.33333333,4,1,0,80,0,0
238538,-100,4,1,0,80,0,0
238562,-84.59242931,4,1,0,80,0,0
238600,-85.87054916,4,1,0,80,0,0
238639,-87.20238668,4,1,0,80,0,0
238677,-88.51994077,4,1,0,80,0,0
238716,-89.8928699,4,1,0,80,0,0
238754,-91.25107491,4,1,0,80,0,0
238870,-95.5254285,4,1,0,80,0,0
238985,-83.33333333,4,1,0,80,0,0
239038,-84.59518111,4,1,0,80,0,0
239076,-85.87613601,4,1,0,80,0,0
239114,-87.17648735,4,1,0,80,0,0
239153,-88.53153538,4,1,0,80,0,0
239191,-89.87209523,4,1,0,80,0,0
239230,-91.26904307,4,1,0,80,0,0
239268,-92.65105474,4,1,0,80,0,0
239307,-94.09119798,4,1,0,80,0,0
239345,-95.51594321,4,1,0,80,0,0
239461,-100,4,1,0,80,0,0
239677,-83.33333333,4,1,0,80,0,0
239715,-84.59242931,4,1,0,80,0,0
239753,-85.87054916,4,1,0,80,0,0
239792,-87.20238668,4,1,0,80,0,0
239830,-88.51994077,4,1,0,80,0,0
239869,-89.8928699,4,1,0,80,0,0
239907,-91.25107491,4,1,0,80,0,0
240023,-95.5254285,4,1,0,80,0,0
240139,-100,4,1,0,80,0,0
240215,-94.10360289,4,1,0,80,0,0
240292,-88.55488077,4,1,0,80,0,0
240369,-83.33333333,4,1,0,80,0,0
240384,-100,4,1,0,80,0,0
240407,-84.63500916,4,1,0,80,0,0
240446,-85.99208446,4,1,0,80,0,0
240484,-87.33529027,4,1,0,80,0,0
240523,-88.73566307,4,1,0,80,0,0
240561,-90.12172389,4,1,0,80,0,0
240599,-91.52943513,4,1,0,80,0,0
240831,-100,4,1,0,80,0,0
242216,-83.33333333,4,1,0,80,0,0
242230,-100,4,1,0,80,0,0
242254,-84.59242931,4,1,0,80,0,0
242293,-85.90444341,4,1,0,80,0,0
242331,-87.20238668,4,1,0,80,0,0
242370,-88.55488077,4,1,0,80,0,0
242408,-89.8928699,4,1,0,80,0,0
242447,-91.28709292,4,1,0,80,0,0
242678,-83.33333333,4,1,0,80,0,0
242716,-84.59242931,4,1,0,80,0,0
242755,-85.90444341,4,1,0,80,0,0
242793,-87.20238668,4,1,0,80,0,0
242832,-88.55488077,4,1,0,80,0,0
242870,-89.8928699,4,1,0,80,0,0
242909,-91.28709292,4,1,0,80,0,0
243139,-100,4,1,0,80,0,0
244062,-83.33333333,4,1,0,80,0,0
244076,-100,4,1,0,80,0,0
244100,-84.59242931,4,1,0,80,0,0
244139,-85.90444341,4,1,0,80,0,0
244177,-87.20238668,4,1,0,80,0,0
244216,-88.55488077,4,1,0,80,0,0
244254,-89.8928699,4,1,0,80,0,0
244293,-91.28709292,4,1,0,80,0,0
244524,-83.33333333,4,1,0,80,0,0
244562,-84.59242931,4,1,0,80,0,0
244601,-85.90444341,4,1,0,80,0,0
244639,-87.20238668,4,1,0,80,0,0
244678,-88.55488077,4,1,0,80,0,0
244716,-89.8928699,4,1,0,80,0,0
244755,-91.28709292,4,1,0,80,0,0
244985,-100,4,1,0,80,0,0
246370,-83.33333333,4,1,0,80,0,0
246408,-84.59242931,4,1,0,80,0,0
246447,-85.90444341,4,1,0,80,0,0
246485,-87.20238668,4,1,0,80,0,0
246524,-88.55488077,4,1,0,80,0,0
246562,-89.8928699,4,1,0,80,0,0
246600,-91.25107491,4,1,0,80,0,0
246639,-92.66636346,4,1,0,80,0,0
246677,-94.0664736,4,1,0,80,0,0
246716,-95.5254285,4,1,0,80,0,0
246831,-100,4,1,0,80,0,0
247754,-83.33333333,4,1,0,80,0,0
247768,-100,4,1,0,80,0,0
247792,-84.59242931,4,1,0,80,0,0
247830,-85.87054916,4,1,0,80,0,0
247869,-87.20238668,4,1,0,80,0,0
247907,-88.51994077,4,1,0,80,0,0
247946,-89.8928699,4,1,0,80,0,0
247984,-91.25107491,4,1,0,80,0,0
248100,-95.5254285,4,1,0,80,0,0
248216,-100,4,1,0,80,0,0
249600,-83.33333333,4,1,0,80,0,0
249614,-100,4,1,0,80,0,0
249638,-84.59242931,4,1,0,80,0,0
249677,-85.90444341,4,1,0,80,0,0
249715,-87.20238668,4,1,0,80,0,0
249754,-88.55488077,4,1,0,80,0,0
249792,-89.8928699,4,1,0,80,0,0
249831,-91.28709292,4,1,0,80,0,0
250062,-83.33333333,4,1,0,80,0,0
250100,-84.59242931,4,1,0,80,0,0
250139,-85.90444341,4,1,0,80,0,0
250177,-87.20238668,4,1,0,80,0,0
250216,-88.55488077,4,1,0,80,0,0
250254,-89.8928699,4,1,0,80,0,0
250293,-91.28709292,4,1,0,80,0,0
250523,-100,4,1,0,80,0,0
251909,-83.33333333,4,1,0,80,0,0
251947,-84.59242931,4,1,0,80,0,0
251986,-85.90444341,4,1,0,80,0,0
252024,-87.20238668,4,1,0,80,0,0
252063,-88.55488077,4,1,0,80,0,0
252101,-89.8928699,4,1,0,80,0,0
252140,-91.28709292,4,1,0,80,0,0
252370,-100,4,1,0,80,0,0
253293,-83.33333333,4,1,0,80,0,0
253307,-100,4,1,0,80,0,0
253331,-84.59242931,4,1,0,80,0,0
253369,-85.87054916,4,1,0,80,0,0
253408,-87.20238668,4,1,0,80,0,0
253446,-88.51994077,4,1,0,80,0,0
253485,-89.8928699,4,1,0,80,0,0
253523,-91.25107491,4,1,0,80,0,0
253639,-95.5254285,4,1,0,80,0,0
253755,-100,4,1,0,80,0,0
254216,-83.33333333,4,1,0,80,0,0
254230,-100,4,1,0,80,0,0
254254,-84.59242931,4,1,0,80,0,0
254292,-85.87054916,4,1,0,80,0,0
254331,-87.20238668,4,1,0,80,0,0
254369,-88.51994077,4,1,0,80,0,0
254408,-89.8928699,4,1,0,80,0,0
254446,-91.25107491,4,1,0,80,0,0
254562,-95.5254285,4,1,0,80,0,0
254678,-100,4,1,0,80,0,0
255139,-90.90909091,4,1,0,80,0,0
255153,-100,4,1,0,80,0,0
255177,-92.34566246,4,1,0,80,0,0
255216,-93.84364686,4,1,0,80,0,0
255254,-95.32659111,4,1,0,80,0,0
255370,-100,4,1,0,80,0,0
256985,-83.33333333,4,1,0,80,0,0
256999,-100,4,1,0,80,0,0
257023,-84.59242931,4,1,0,80,0,0
257062,-85.90444341,4,1,0,80,0,0
257100,-87.20238668,4,1,0,80,0,0
257139,-88.55488077,4,1,0,80,0,0
257177,-89.8928699,4,1,0,80,0,0
257216,-91.28709292,4,1,0,80,0,0
257447,-83.33333333,4,1,0,80,0,0
257485,-84.59242931,4,1,0,80,0,0
257524,-85.90444341,4,1,0,80,0,0
257562,-87.20238668,4,1,0,80,0,0
257601,-88.55488077,4,1,0,80,0,0
257639,-89.8928699,4,1,0,80,0,0
257678,-91.28709292,4,1,0,80,0,0
257908,-100,4,1,0,80,0,0
258831,-83.33333333,4,1,0,80,0,0
258845,-100,4,1,0,80,0,0
258869,-84.59242931,4,1,0,80,0,0
258908,-85.90444341,4,1,0,80,0,0
258946,-87.20238668,4,1,0,80,0,0
258985,-88.55488077,4,1,0,80,0,0
259023,-89.8928699,4,1,0,80,0,0
259062,-91.28709292,4,1,0,80,0,0
259293,-83.33333333,4,1,0,80,0,0
259331,-84.59242931,4,1,0,80,0,0
259370,-85.90444341,4,1,0,80,0,0
259408,-87.20238668,4,1,0,80,0,0
259447,-88.55488077,4,1,0,80,0,0
259485,-89.8928699,4,1,0,80,0,0
259524,-91.28709292,4,1,0,80,0,0
259754,-100,4,1,0,80,0,0
261139,-83.33333333,4,1,0,80,0,0
261177,-84.59242931,4,1,0,80,0,0
261216,-85.90444341,4,1,0,80,0,0
261254,-87.20238668,4,1,0,80,0,0
261293,-88.55488077,4,1,0,80,0,0
261331,-89.8928699,4,1,0,80,0,0
261370,-91.28709292,4,1,0,80,0,0
261601,-100,4,1,0,80,0,0
261639,-99.30976341,4,1,0,80,0,0
261677,-98.62429109,4,1,0,80,0,0
261716,-97.92569951,4,1,0,80,0,0
261754,-97.2497805,4,1,0,80,0,0
261793,-96.56092507,4,1,0,80,0,0
261831,-95.89442624,4,1,0,80,0,0
262062,-91.9406502,4,1,0,80,0,0
262293,-88.14989036,4,1,0,80,0,0
262524,-84.51542547,4,1,0,80,0,0
262562,-83.93206908,4,1,0,80,0,0
262600,-83.35273923,4,1,0,80,0,0
262639,-82.76232159,4,1,0,80,0,0
262677,-82.19106576,4,1,0,80,0,0
262716,-81.60887667,4,1,0,80,0,0
262754,-81.04558234,4,1,0,80,0,0
262985,-77.7040317,4,1,0,80,0,0
263216,-74.50025489,4,1,0,80,0,0
263447,-50,4,1,0,80,0,0
263908,-70.52549984,4,1,0,80,0,0
264370,-69.63192391,4,1,0,80,0,0
264831,-68.75156734,4,1,0,80,0,0
265293,-67.88046759,4,1,0,80,0,0
265754,-67.02225468,4,1,0,80,0,0
266216,-66.17306576,4,1,0,80,0,0
266447,-65.75251465,4,1,0,80,0,0
266562,-65.54414694,4,1,0,80,0,0
266677,-65.33643954,4,1,0,80,0,0
266793,-65.12759281,4,1,0,80,0,0
266908,-64.92120546,4,1,0,80,0,0
267139,-64.50861032,4,1,0,80,0,0
267600,-63.69302781,4,1,0,80,0,0
267947,-63.08593845,4,1,0,80,0,0
268004,-62.98676964,4,1,0,80,0,0
268062,-62.88602104,4,1,0,80,0,0
268524,-62.08923924,4,1,0,80,0,0
268985,-61.30424485,4,1,0,80,0,0
268986,-61.30255288,4,1,0,80,0,0
269447,-60.52750456,4,1,0,80,0,0
269908,-59.76225518,4,1,0,80,0,0
270139,-59.38244683,4,1,0,80,0,0
270370,-59.00505229,4,1,0,80,0,0
270832,-41.29639534,4,1,0,80,0,0
271177,-57.70534845,4,1,0,80,0,0
271293,-57.52089436,4,1,0,80,0,0
271524,-57.15533058,4,1,0,80,0,0
271754,-56.79365756,4,1,0,80,0,0
272100,-56.25388205,4,1,0,80,0,0
272216,-56.07406755,4,1,0,80,0,0
272447,-55.71769882,4,1,0,80,0,0
272678,-39.82094767,4,1,0,80,0,0
273024,-54.83741096,4,1,0,80,0,0
273139,-54.66363287,4,1,0,80,0,0
273370,-54.31622791,4,1,0,80,0,0
273601,-53.97103082,4,1,0,80,0,0
273831,-53.62950772,4,1,0,80,0,0
273947,-53.45808198,4,1,0,80,0,0
274062,-53.28867495,4,1,0,80,0,0
274177,-53.11980477,4,1,0,80,0,0
274293,-52.95000829,4,1,0,80,0,0
274524,-38.37809426,4,1,0,80,0,0
274639,-52.4467634,4,1,0,80,0,0
274754,-52.28056121,4,1,0,80,0,0
274870,-52.11344736,4,1,0,80,0,0
274985,-51.94830143,4,1,0,80,0,0
275100,-51.78367885,4,1,0,80,0,0
275216,-51.61815328,4,1,0,80,0,0
275331,-51.45457692,4,1,0,80,0,0
275389,-51.3722743,4,1,0,80,0,0
275447,-51.29010331,4,1,0,80,0,0
275562,-51.12756654,4,1,0,80,0,0
275677,-50.96554485,4,1,0,80,0,0
275793,-50.80263442,4,1,0,80,0,0
275908,-50.64164242,4,1,0,80,0,0
276024,-50.47976734,4,1,0,80,0,0
276139,-50.3197985,4,1,0,80,0,0
276254,-50.16033659,4,1,0,80,0,0
276370,-50,4,1,0,80,0,0
276427,-49.71930848,4,1,0,80,0,0
276485,-49.43530996,4,1,0,80,0,0
276543,-49.15293364,4,1,0,80,0,0
276600,-48.87699741,4,1,0,80,0,0
276658,-48.5978102,4,1,0,80,0,0
276716,-48.32021771,4,1,0,80,0,0
276774,-48.04421085,4,1,0,80,0,0
276831,-47.77449879,4,1,0,80,0,0
276889,-47.5016091,4,1,0,80,0,0
276947,-47.23027815,4,1,0,80,0,0
277004,-46.96513538,4,1,0,80,0,0
277062,-46.69686879,4,1,0,80,0,0
277120,-46.43013456,4,1,0,80,0,0
277177,-46.16948366,4,1,0,80,0,0
277235,-45.90576186,4,1,0,80,0,0
277293,-45.64354646,4,1,0,80,0,0
277350,-45.38731133,4,1,0,80,0,0
277408,-45.12805733,4,1,0,80,0,0
277466,-44.87028421,4,1,0,80,0,0
277524,-44.61398349,4,1,0,80,0,0
277581,-44.36352815,4,1,0,80,0,0
277639,-44.11012204,4,1,0,80,0,0
277697,-43.8581634,4,1,0,80,0,0
277754,-43.6119511,4,1,0,80,0,0
277908,-42.9536358,4,1,0,80,0,0
278072,-42.26349518,4,1,0,80,0,0
278216,-32.20611916,4,1,0,90,0,0
278245,-50,4,1,0,90,0,0
281908,-41.66666667,4,1,0,90,0,0
281937,-50,4,1,0,90,0,0
285600,-41.66666667,4,1,0,90,0,0
285629,-50,4,1,0,90,0,0
289293,-41.66666667,4,1,0,90,0,0
289322,-50,4,1,0,90,0,0
292985,-41.66666667,4,1,0,90,0,0
293014,-50,4,1,0,90,0,0
296677,-41.66666667,4,1,0,90,0,0
296706,-50,4,1,0,90,0,0
300370,-41.66666667,4,1,0,90,0,0
300399,-50,4,1,0,90,0,0
304062,-41.66666667,4,1,0,90,0,0
304091,-50,4,1,0,90,0,0
304985,-41.66666667,4,1,0,90,0,0
305014,-50,4,1,0,90,0,0
305908,-41.66666667,4,1,0,90,0,0
305937,-50,4,1,0,90,0,0
306370,-41.66666667,4,1,0,90,0,0
306399,-50,4,1,0,90,0,0
306831,-41.66666667,4,1,0,90,0,0
306860,-50,4,1,0,90,0,0
307062,-41.66666667,4,1,0,90,0,0
307091,-50,4,1,0,90,0,0
307754,-41.66666667,4,1,0,90,0,0
307783,-51.57335886,4,1,0,70,0,0
308600,-52.96444541,4,1,0,70,0,0
308678,-53.25156228,4,1,0,70,0,0
308908,-54.10728223,4,1,0,70,0,0
309139,-54.98056373,4,1,0,70,0,0
309601,-56.76963801,4,1,0,70,0,0
309754,-57.37486398,4,1,0,70,0,0
309831,-57.68189129,4,1,0,70,0,0
310062,-58.61286631,4,1,0,70,0,0
310447,-60.19800154,4,1,0,70,0,0
310524,-60.52013617,4,1,0,70,0,0
310677,-61.16534651,4,1,0,70,0,0
310754,-61.49265764,4,1,0,70,0,0
310985,-62.48513773,4,1,0,70,0,0
311447,-49.50629454,4,1,0,70,0,0
311908,-66.61323158,4,1,0,70,0,0
312254,-68.2300445,4,1,0,70,0,0
312370,-68.78083431,4,1,0,70,0,0
312600,-69.88610014,4,1,0,70,0,0
312831,-71.01404883,4,1,0,70,0,0
313177,-72.73767684,4,1,0,70,0,0
313293,-73.32485468,4,1,0,70,0,0
313447,-74.11171384,4,1,0,70,0,0
313524,-74.50830424,4,1,0,70,0,0
313754,-75.705607,4,1,0,70,0,0
314100,-77.54310685,4,1,0,70,0,0
314216,-78.16907673,4,1,0,70,0,0
314447,-79.43071113,4,1,0,70,0,0
314677,-80.70711395,4,1,0,70,0,0
314908,-82.0097118,4,1,0,70,0,0
314966,-82.34005981,4,1,0,70,0,0
315024,-82.67173853,4,1,0,70,0,0
315081,-82.99900031,4,1,0,70,0,0
315139,-59.88023952,4,1,0,80,0,0
315370,-82.01237884,4,1,0,80,0,0
315485,-81.36258851,4,1,0,80,0,0
315716,-80.07287319,4,1,0,80,0,0
315831,-79.43844972,4,1,0,80,0,0
316062,-78.17923479,4,1,0,80,0,0
316293,-76.93998026,4,1,0,80,0,0
316431,-76.20903948,4,1,0,80,0,0
316639,-75.12043145,4,1,0,80,0,0
316754,-74.52524654,4,1,0,80,0,0
316986,-54.53948568,4,1,0,80,0,0
317216,-72.18130538,4,1,0,80,0,0
317331,-71.60940739,4,1,0,80,0,0
317562,-70.47429417,4,1,0,80,0,0
317677,-69.91592097,4,1,0,80,0,0
317908,-68.80765197,4,1,0,80,0,0
318139,-67.71695065,4,1,0,80,0,0
318277,-67.07362997,4,1,0,80,0,0
318485,-66.11551669,4,1,0,80,0,0
318600,-65.59167842,4,1,0,80,0,0
318658,-65.32905828,4,1,0,80,0,0
318716,-65.06748963,4,1,0,80,0,0
318774,-64.80696827,4,1,0,80,0,0
318831,-49.52604172,4,1,0,80,0,0
319062,-63.52871261,4,1,0,80,0,0
319177,-63.02536978,4,1,0,80,0,0
319293,-62.52169015,4,1,0,80,0,0
319524,-61.53063046,4,1,0,80,0,0
319581,-61.28850943,4,1,0,80,0,0
319639,-61.04311859,4,1,0,80,0,0
319697,-60.79871026,4,1,0,80,0,0
319754,-47.14158365,4,1,0,80,0,0
319985,-59.59951367,4,1,0,80,0,0
320124,-59.02922657,4,1,0,80,0,0
320216,-58.65477473,4,1,0,80,0,0
320447,-57.72501127,4,1,0,80,0,0
320504,-57.49786523,4,1,0,80,0,0
320562,-57.26765161,4,1,0,80,0,0
320620,-57.03835974,4,1,0,80,0,0
320677,-44.8403919,4,1,0,80,0,0
320908,-55.91333248,4,1,0,80,0,0
321024,-55.46649009,4,1,0,80,0,0
321081,-55.24823125,4,1,0,80,0,0
321139,-43.71988216,4,1,0,80,0,0
321370,-54.15476652,4,1,0,80,0,0
321485,-53.72569417,4,1,0,80,0,0
321543,-53.51058382,4,1,0,80,0,0
321600,-42.62262366,4,1,0,90,0,0
321754,-42.26070779,4,1,0,90,0,0
321908,-41.90110821,4,1,0,90,0,0
322062,-41.54382294,4,1,0,90,0,0
322293,-41.01222953,4,1,0,90,0,0
322524,-40.48582996,4,1,0,90,0,0
322552,-50,4,1,0,90,0,0
326216,-41.66666667,4,1,0,90,0,0
326245,-50,4,1,0,90,0,0
327139,-41.66666667,4,1,0,90,0,0
327168,-50,4,1,0,90,0,0
328062,-41.66666667,4,1,0,90,0,0
328091,-50,4,1,0,90,0,0
328524,-41.66666667,4,1,0,90,0,0
328553,-50,4,1,0,90,0,0
328985,-45.45454545,4,1,0,90,0,0
329215,-44.4796012,4,1,0,90,0,0
329446,-43.52146533,4,1,0,90,0,0
329561,-43.05219434,4,1,0,90,0,0
329676,-42.58798327,4,1,0,90,0,0
329907,-83.3411895520411,4,1,0,100,0,0
329922,230.769230769231,4,1,0,80,1,0
329922,-83.3411895520411,4,1,0,100,0,1
331870,-76.9230769230769,4,1,0,100,0,1
332043,-78.2527348121328,4,1,0,100,0,1
332216,-79.6053765725137,4,1,0,100,0,1
332389,-80.9813994931354,4,1,0,100,0,1
332562,-82.3812077302722,4,1,0,100,0,1
332677,-83.3250785124609,4,1,0,100,0,1
332793,-76.9230769230769,4,1,0,100,0,1
332966,-78.2527348121328,4,1,0,100,0,1
333139,-79.6053765725137,4,1,0,100,0,1
333312,-80.9813994931354,4,1,0,100,0,1
333485,-82.3812077302722,4,1,0,100,0,1
333600,-83.3250785124609,4,1,0,100,0,1
335447,-66.7779632721202,4,1,0,100,0,1
335562,-82.9188335250483,4,1,0,100,0,1
335677,-82.5063954378561,4,1,0,100,0,1
335793,-82.0924492044242,4,1,0,100,0,1
335850,-81.8898062217482,4,1,0,100,0,1
335908,-81.6841215509416,4,1,0,100,0,1
335966,-81.478953503458,4,1,0,100,0,1
336024,-81.2743007816817,4,1,0,100,0,1
336139,-80.8700425965716,4,1,0,100,0,1
336254,-80.4677951907443,4,1,0,100,0,1
336312,-80.2656822205472,4,1,0,100,0,1
336370,-80.0640769025435,4,1,0,100,0,1
336485,-79.6658383682241,4,1,0,100,0,1
336600,-79.2695806714582,4,1,0,100,0,1
336716,-78.871873994654,4,1,0,100,0,1
336774,-78.6737695395702,4,1,0,100,0,1
336831,-78.4795654748557,4,1,0,100,0,1
336889,-78.2824463908756,4,1,0,100,0,1
336947,-78.0858224158202,4,1,0,100,0,1
337004,-77.8930696826224,4,1,0,100,0,1
337062,-77.6974237147666,4,1,0,100,0,1
337120,-77.5022691557729,4,1,0,100,0,1
337177,-77.3109569079585,4,1,0,100,0,1
337235,-77.1167730472922,4,1,0,100,0,1
337293,-66.8896321070234,4,1,0,100,0,1
337306,-66.8896321070234,4,1,0,100,0,0
337524,-78.8061475229866,4,1,0,80,0,0
337639,-79.7607239865523,4,1,0,80,0,0
337870,-81.713259953318,4,1,0,80,0,0
337985,-82.7030501811667,4,1,0,80,0,0
338216,-84.7276140513139,4,1,0,80,0,0
338447,-86.8017390785807,4,1,0,80,0,0
338562,-87.8531658990177,4,1,0,80,0,0
338677,-88.9173286204916,4,1,0,80,0,0
338793,-90.0038041785923,4,1,0,80,0,0
338908,-91.0940175160125,4,1,0,80,0,0
339139,-66.6666666666667,4,1,0,80,0,0
339370,-95.6085552192269,4,1,0,80,0,0
339485,-96.7666587352143,4,1,0,80,0,0
339716,-99.1354985867195,4,1,0,80,0,0
339831,-100.336323860244,4,1,0,80,0,0
340062,-102.792548820579,4,1,0,80,0,0
340293,-105.308901966039,4,1,0,80,0,0
340408,-106.584505486582,4,1,0,80,0,0
340639,-109.193685419522,4,1,0,80,0,0
340754,-110.516345203659,4,1,0,80,0,0
340985,-68.9655172413793,4,1,0,80,0,0
341100,-114.593228175291,4,1,0,80,0,0
341158,-115.291206435197,4,1,0,80,0,0
341216,-115.993436025301,4,1,0,80,0,0
341274,-116.699942840116,4,1,0,80,0,0
341331,-117.398460981324,4,1,0,80,0,0
341562,-120.272365655856,4,1,0,80,0,0
341677,-121.729221156107,4,1,0,80,0,0
341908,-124.722199883287,4,1,0,80,0,0
342139,-127.762012040487,4,1,0,80,0,0
342254,-129.30958939917,4,1,0,80,0,0
342485,-132.475077518262,4,1,0,80,0,0
342600,-134.079744095461,4,1,0,80,0,0
342716,-135.718056526302,4,1,0,80,0,0
342774,-136.544704439451,4,1,0,80,0,0
342831,-76.9230769230769,4,1,0,80,0,0
343062,-140.724615805614,4,1,0,80,0,0
343177,-142.429208788708,4,1,0,80,0,0
343293,-80,4,1,0,80,0,0
343408,-145.915864112008,4,1,0,80,0,0
343524,-147.698801390448,4,1,0,80,0,0
343754,-83.3333333333333,4,1,0,80,0,0
343870,-153.147323301026,4,1,0,80,0,0
343927,-154.064000558956,4,1,0,80,0,0
343985,-155.002392161467,4,1,0,80,0,0
344100,-156.879931414488,4,1,0,80,0,0
344216,-86.9565217391304,4,1,0,80,0,0
344370,-161.377933585131,4,1,0,80,0,0
344524,-164.000982509827,4,1,0,80,0,0
344677,-166.666666666667,4,1,0,90,0,0
344831,-163.766133388908,4,1,0,90,0,0
344985,-160.897614961972,4,1,0,90,0,0
345139,-158.07934134326,4,1,0,90,0,0
345293,-155.310432447523,4,1,0,90,0,0
345370,-153.944218966728,4,1,0,90,0,0
345447,-152.590023605036,4,1,0,90,0,0
345601,-149.91726529158,4,1,0,90,0,0
345754,-147.308225190247,4,1,0,90,0,0
345908,-144.727982562219,4,1,0,90,0,0
346062,-142.192935319655,4,1,0,90,0,0
346216,-139.702291822712,4,1,0,90,0,0
346370,-137.255274297868,4,1,0,90,0,0
346447,-136.047885952469,4,1,0,90,0,0
346524,-134.851118595037,4,1,0,90,0,0
346677,-132.504277652869,4,1,0,90,0,0
346831,-130.183340141373,4,1,0,90,0,0
346985,-127.903056041431,4,1,0,90,0,0
347139,-125.662713270164,4,1,0,90,0,0
347216,-124.557300773415,4,1,0,90,0,0
347293,-123.461612217493,4,1,0,90,0,0
347447,-121.299065527671,4,1,0,90,0,0
347600,-119.188073670927,4,1,0,90,0,0
347754,-117.100382043109,4,1,0,90,0,0
347908,-115.049258305003,4,1,0,90,0,0
347985,-114.03720879117,4,1,0,90,0,0
348062,-113.034061935498,4,1,0,90,0,0
348139,-112.039739424308,4,1,0,90,0,0
348293,-110.077257619083,4,1,0,90,0,0
348370,-109.108945117996,4,1,0,90,0,0
348485,-107.678601787062,4,1,0,90,0,0
348543,-106.964339979603,4,1,0,90,0,0
348600,-106.26700927479,4,1,0,90,0,0
348716,-104.861888407946,4,1,0,90,0,0
348831,-103.487221073464,4,1,0,90,0,0
348947,-102.118856095713,4,1,0,90,0,0
349004,-101.453114467153,4,1,0,90,0,0
349062,-100.780148030841,4,1,0,90,0,0
349177,-99.4589895092312,4,1,0,90,0,0
349293,-98.1438880256348,4,1,0,90,0,0
349350,-97.5040603351818,4,1,0,90,0,0
349408,-96.8572890620245,4,1,0,90,0,0
349524,-95.5765886932482,4,1,0,90,0,0
349639,-94.3236452605811,4,1,0,90,0,0
349754,-93.087127055754,4,1,0,90,0,0
349812,-92.4696545169341,4,1,0,90,0,0
349870,-91.8562778434424,4,1,0,90,0,0
349927,-91.2574408573753,4,1,0,90,0,0
349985,-90.652105130786,4,1,0,90,0,0
350100,-89.4637182953276,4,1,0,90,0,0
350216,-88.2807797873176,4,1,0,90,0,0
350274,-87.6951890730224,4,1,0,90,0,0
350331,-87.123479398409,4,1,0,90,0,0
350389,-86.5455653761755,4,1,0,90,0,0
350447,-85.9714848167398,4,1,0,90,0,0
350504,-85.4110124563954,4,1,0,90,0,0
350562,-84.8444576987968,4,1,0,90,0,0
350620,-84.2816610548667,4,1,0,90,0,0
350677,-83.7322051322912,4,1,0,90,0,0
350735,-83.1767863658161,4,1,0,90,0,0
350793,-82.6250518449149,4,1,0,90,0,0
350850,-82.0863958250751,4,1,0,90,0,0
350908,-81.5418941647938,4,1,0,90,0,0
350966,-81.0010043339157,4,1,0,90,0,0
351024,-80.4637023741822,4,1,0,90,0,0
351081,-79.9391368012152,4,1,0,90,0,0
351139,-79.4088785011374,4,1,0,90,0,0
351197,-78.8821375503337,4,1,0,90,0,0
351254,-78.367882644581,4,1,0,90,0,0
351312,-77.8480469058596,4,1,0,90,0,0
351370,-77.3316593806937,4,1,0,90,0,0
351427,-76.8275124794875,4,1,0,90,0,0
351485,-76.3178944401048,4,1,0,90,0,0
351543,-75.8116568374652,4,1,0,90,0,0
351600,-75.3174192616005,4,1,0,90,0,0
351639,-74.9811144723779,4,1,0,90,0,0
351677,-74.6548773324312,4,1,0,90,0,0
351716,-74.3215309029882,4,1,0,90,0,0
351754,-73.9981635611066,4,1,0,90,0,0
351793,-73.6677494677501,4,1,0,90,0,0
351831,-73.3472266792882,4,1,0,90,0,0
351889,-72.8606943336726,4,1,0,90,0,0
351947,-72.3773892910383,4,1,0,90,0,0
351985,-72.0624807618003,4,1,0,90,0,0
352024,-71.740709813711,4,1,0,90,0,0
352062,-55.5555555555556,4,1,0,90,0,0
352091,-141.911868941772,4,1,0,40,0,0
353908,-120.535007609229,4,1,0,80,0,0
354023,-118.107864574144,4,1,0,81,0,0
354138,-115.729595500488,4,1,0,83,0,0
354254,-113.399216241851,4,1,0,84,0,0
354369,-111.096109358552,4,1,0,85,0,0
354485,-108.859031903604,4,1,0,86,0,0
354600,-106.667001170529,4,1,0,87,0,0
354715,-104.50062372315,4,1,0,89,0,0
354831,-102.378244805711,4,1,0,90,0,0
354888,-101.351200879724,4,1,0,91,0,0
354946,-100.316713896534,4,1,0,91,0,0
355004,-99.310350954114,4,1,0,92,0,0
355062,-98.296694830986,4,1,0,93,0,0
355119,-97.293385048658,4,1,0,93,0,0
355177,-96.317351709324,4,1,0,94,0,0
355235,-95.334244989977,4,1,0,94,0,0
355292,-94.36117279509,4,1,0,95,0,0
355350,-93.414554990183,4,1,0,96,0,0
355408,-92.461076981644,4,1,0,96,0,0
355465,-91.517331078694,4,1,0,97,0,0
355523,-90.583217946185,4,1,0,98,0,0
355581,-89.674500044599,4,1,0,98,0,0
355638,-88.759196602557,4,1,0,99,0,0
355696,-87.853235620084,4,1,0,99,0,0
355754,-86.95652173913,4,1,0,100,0,0
355768,-86.9565217391304,4,1,0,100,0,1
357600,-80,4,1,0,100,0,1
357657,-81.1064842179616,4,1,0,100,0,1
357715,-82.248090635437,4,1,0,100,0,1
357773,-83.4057656228299,4,1,0,100,0,1
357830,-84.5593551646882,4,1,0,100,0,1
357946,-86.9565217391304,4,1,0,100,0,1
358524,-86.9565217391304,4,1,0,100,0,1
358562,-86.6585266478688,4,1,0,100,0,1
358600,-86.3615527689629,4,1,0,100,0,1
358639,-86.0578219941252,4,1,0,100,0,1
358754,-85.1684103532841,4,1,0,100,0,1
358792,-84.876543018802,4,1,0,100,0,1
358830,-84.5856758971991,4,1,0,100,0,1
358869,-84.2881908236136,4,1,0,100,0,1
358985,-83.4095330464475,4,1,0,100,0,1
359023,-83.1236932852065,4,1,0,100,0,1
359061,-82.8388330806914,4,1,0,100,0,1
359100,-82.5474915965293,4,1,0,100,0,1
359138,-82.2646060026744,4,1,0,100,0,1
359176,-81.9826898417806,4,1,0,100,0,1
359215,-81.6943593855701,4,1,0,100,0,1
359274,-81.2600934238706,4,1,0,100,0,1
359331,-80.8427408667322,4,1,0,100,0,1
359447,-80,4,1,0,100,0,1
359562,-82.248090635437,4,1,0,100,0,1
359620,-83.4057656228299,4,1,0,100,0,1
359677,-84.5593551646882,4,1,0,100,0,1
359793,-86.9565217391304,4,1,0,100,0,1
361402,-80,4,1,0,100,0,1
361440,-80.3303030098316,4,1,0,100,0,1
361566,-81.3382360055795,4,1,0,100,0,1
361605,-81.6829205938958,4,1,0,100,0,1
361749,-82.7078253654559,4,1,0,100,0,1
361788,-83.0583138212748,4,1,0,100,0,1
361913,-84.1004761427764,4,1,0,100,0,1
361952,-84.4568661927706,4,1,0,100,0,1
362086,-85.5165766502645,4,1,0,100,0,1
362124,-85.8696564334904,4,1,0,100,0,1
362211,-86.9565217391304,4,1,0,100,0,1
362316,-80,4,1,0,100,0,1
362354,-80.3303030098316,4,1,0,100,0,1
362489,-81.3470558764343,4,1,0,100,0,1
362527,-81.6829205938958,4,1,0,100,0,1
362672,-82.7078253654559,4,1,0,100,0,1
362711,-83.0583138212748,4,1,0,100,0,1
362836,-84.1004761427764,4,1,0,100,0,1
362875,-84.4568661927706,4,1,0,100,0,1
362913,-84.8055706565758,4,1,0,100,0,1
362951,-85.1557148470552,4,1,0,100,0,1
362990,-85.5165766502645,4,1,0,100,0,1
363134,-86.9565217391304,4,1,0,100,0,1
366827,-86.9565217391304,4,1,0,100,0,1
366980,-86.3806326311698,4,1,0,100,0,1
367057,-86.0922503900319,4,1,0,100,0,1
367134,-85.8048309146723,4,1,0,100,0,1
367211,-85.5183709908919,4,1,0,100,0,1
367288,-85.2328674152221,4,1,0,100,0,1
367442,-84.6647165477789,4,1,0,100,0,1
367519,-84.3820629023998,4,1,0,100,0,1
367595,-84.1040054347619,4,1,0,100,0,1
367672,-83.8232237266733,4,1,0,100,0,1
367750,-83.539751220348,4,1,0,100,0,1
367903,-82.9864904430383,4,1,0,100,0,1
367980,-82.7094395652065,4,1,0,100,0,1
368019,-82.5694681652167,4,1,0,100,0,1
368057,-82.4333136233311,4,1,0,100,0,1
368134,-82.1581095295081,4,1,0,100,0,1
368211,-81.8838242061424,4,1,0,100,0,1
368365,-81.3379976117414,4,1,0,100,0,1
368442,-81.0664502367517,4,1,0,100,0,1
368480,-80.9327741257201,4,1,0,100,0,1
368519,-80.7958094242424,4,1,0,100,0,1
368595,-80.5295694510594,4,1,0,100,0,1
368672,-80.2607210181552,4,1,0,100,0,1
368826,-79.7257138120039,4,1,0,100,0,1
368903,-79.4595490557952,4,1,0,100,0,1
368961,-79.2596482285021,4,1,0,100,0,1
369019,-79.0602503028895,4,1,0,100,0,1
369076,-78.8647790173213,4,1,0,100,0,1
369134,-78.6663744862463,4,1,0,100,0,1
369211,-78.4037463404974,4,1,0,100,0,1
369288,-78.1419949803306,4,1,0,100,0,1
369365,-77.881117478592,4,1,0,100,0,1
369422,-77.6885615216262,4,1,0,100,0,1
369480,-77.4931160666252,4,1,0,100,0,1
369538,-77.2981623046757,4,1,0,100,0,1
369595,-77.107047666158,4,1,0,100,0,1
369672,-76.8496253420077,4,1,0,100,0,1
369711,-76.7195706625858,4,1,0,100,0,1
369749,-76.5930624237739,4,1,0,100,0,1
369826,-76.337356042325,4,1,0,100,0,1
369903,-76.082503338108,4,1,0,100,0,1
369942,-75.9537468798011,4,1,0,100,0,1
369980,-75.8285014611166,4,1,0,100,0,1
370057,-75.575347570859,4,1,0,100,0,1
370095,-75.450726121127,4,1,0,100,0,1
370134,-75.3230388363269,4,1,0,100,0,1
370172,-75.1988334360248,4,1,0,100,0,1
370211,-75.0715724359627,4,1,0,100,0,1
370288,-74.8209455576292,4,1,0,100,0,1
370365,-74.571155398577,4,1,0,100,0,1
370403,-74.4481898311974,4,1,0,100,0,1
370442,-74.3221991654141,4,1,0,100,0,1
370519,-74.0740740740741,4,1,0,100,0,1
370557,-86.9565217391304,4,1,0,100,0,1
372365,-80,4,1,0,100,0,1
372480,-82.248090635437,4,1,0,100,0,1
372595,-84.5593551646882,4,1,0,100,0,1
372711,-86.9565217391304,4,1,0,100,0,1
374211,-80,4,1,0,100,0,1
374326,-82.248090635437,4,1,0,100,0,1
374384,-83.4057656228299,4,1,0,100,0,1
374442,-84.5797353517309,4,1,0,100,0,1
374557,-86.9565217391304,4,1,0,100,0,1
376173,-80,4,1,0,100,0,1
376230,-80.4719561664491,4,1,0,100,0,1
376288,-80.9550503459707,4,1,0,100,0,1
376345,-81.4326407861704,4,1,0,100,0,1
376461,-82.4132983896375,4,1,0,100,0,1
376519,-82.9080469537816,4,1,0,100,0,1
376634,-83.8978139403686,4,1,0,100,0,1
376692,-84.4014744392554,4,1,0,100,0,1
376749,-84.8993968932429,4,1,0,100,0,1
376807,-85.409070156301,4,1,0,100,0,1
376865,-85.9218031211306,4,1,0,100,0,1
376922,-86.4286946813236,4,1,0,100,0,1
376980,-86.9475487185964,4,1,0,100,0,1
377086,-80,4,1,0,100,0,1
377124,-80.3298731616974,4,1,0,100,0,1
377259,-81.3452918257564,4,1,0,100,0,1
377297,-81.6807121833034,4,1,0,100,0,1
377442,-82.7132062777183,4,1,0,100,0,1
377480,-83.0542671135804,4,1,0,100,0,1
377605,-84.0950168235512,4,1,0,100,0,1
377644,-84.4509199466064,4,1,0,100,0,1
377682,-84.7991460962445,4,1,0,100,0,1
377721,-85.1580292033304,4,1,0,100,0,1
377759,-85.5091710575458,4,1,0,100,0,1
377798,-85.8710591001286,4,1,0,100,0,1
377904,-74.0740740740741,4,1,0,100,0,1
379442,-90.9090909090909,4,1,0,100,0,1
379480,-88.6408810918407,4,1,0,100,0,1
379519,-86.3718146294484,4,1,0,100,0,1
379557,-84.2168112528099,4,1,0,100,0,1
379595,-82.1155758741374,4,1,0,100,0,1
379750,-74.0740740740741,4,1,0,100,0,1
381139,-86.9565217391304,4,1,0,100,0,1
381216,-86.425845426092,4,1,0,100,0,1
381293,-85.8984077125696,4,1,0,100,0,1
381370,-85.3741888341106,4,1,0,100,0,1
381524,-84.3353291269269,4,1,0,100,0,1
381601,-83.8206493694474,4,1,0,100,0,1
381716,-83.0578145379995,4,1,0,100,0,1
381774,-82.6757180748651,4,1,0,100,0,1
381831,-82.3019221125631,4,1,0,100,0,1
381947,-81.5464257389306,4,1,0,100,0,1
382004,-81.1777355673645,4,1,0,100,0,1
382062,-80.8042881582546,4,1,0,100,0,1
382120,-80.4325587444349,4,1,0,100,0,1
382177,-80.0689046220835,4,1,0,100,0,1
382235,-79.7005582427173,4,1,0,100,0,1
382293,-79.3339063920303,4,1,0,100,0,1
382408,-78.6119045038807,4,1,0,100,0,1
382466,-78.2502608603745,4,1,0,100,0,1
382524,-77.8902809104998,4,1,0,100,0,1
382639,-77.1814171668189,4,1,0,100,0,1
382697,-76.8263542906383,4,1,0,100,0,1
382754,-76.4790046491605,4,1,0,100,0,1
382870,-75.776960162369,4,1,0,100,0,1
382927,-75.4343550734291,4,1,0,100,0,1
382985,-75.0873293247659,4,1,0,100,0,1
383043,-74.7419000220472,4,1,0,100,0,1
383100,-74.4039746783844,4,1,0,100,0,1
383158,-74.0616890581103,4,1,0,100,0,1
383216,-73.7209780774486,4,1,0,100,0,1
383331,-73.0500583183089,4,1,0,100,0,1
383389,-72.7140012107333,4,1,0,100,0,1
383447,-72.3794900893234,4,1,0,100,0,1
383485,-72.1611624678104,4,1,0,100,0,1
383524,-71.937774158511,4,1,0,100,0,1
383562,-71.7207789419161,4,1,0,100,0,1
383677,-71.0680625918635,4,1,0,100,0,1
383715,-70.8536907988035,4,1,0,100,0,1
383754,-70.6343500114066,4,1,0,100,0,1
383792,-70.4212864817234,4,1,0,100,0,1
383908,-69.7748492516097,4,1,0,100,0,1
383946,-69.5643783452835,4,1,0,100,0,1
383985,-69.3490288645576,4,1,0,100,0,1
384023,-69.139842415364,4,1,0,100,0,1
384139,-68.5051682926031,4,1,0,100,0,1
384177,-68.2985272892441,4,1,0,100,0,1
384216,-68.0870964860667,4,1,0,100,0,1
384254,-67.8817165667943,4,1,0,100,0,1
384370,-67.25859150014,4,1,0,100,0,1
384408,-67.0557107076612,4,1,0,100,0,1
384447,-66.8481272745293,4,1,0,100,0,1
384485,-66.6464846184063,4,1,0,100,0,1
384543,-66.3398863025864,4,1,0,100,0,1
384600,-66.0399483980008,4,1,0,100,0,1
384639,-65.8355094461557,4,1,0,100,0,1
384677,-65.6369212802162,4,1,0,100,0,1
384716,-65.4337299738269,4,1,0,100,0,1
384774,-65.1327107749501,4,1,0,100,0,1
384831,-64.8382307889472,4,1,0,100,0,1
384870,-64.6375119776286,4,1,0,100,0,1
384908,-64.4425374864686,4,1,0,100,0,1
384947,-64.2430436174156,4,1,0,100,0,1
384985,-64.0492590122127,4,1,0,100,0,1
385024,-63.8509826098751,4,1,0,100,0,1
385062,-63.6583806290201,4,1,0,100,0,1
385100,-63.4663596184417,4,1,0,100,0,1
385139,-63.2698876896687,4,1,0,100,0,1
385177,-63.0790385406124,4,1,0,100,0,1
385216,-62.8837656363254,4,1,0,100,0,1
385254,-62.6940811971809,4,1,0,100,0,1
385307,230.769230769231,14,1,0,100,1,0
385307,-62.5,14,1,0,100,0,0
385379,-33.3333333333333,14,1,0,50,0,0
388509,-250,14,1,0,50,0,0
392215,-243.877098773723,4,1,0,50,0,0
392216,-243.877098773723,14,1,0,50,0,0
392561,-239.380317300054,4,1,0,51,0,0
392677,-237.904157225154,4,1,0,51,0,0
393023,-233.517509146682,4,1,0,51,0,0
393138,-232.065019828775,4,1,0,52,0,0
393484,-227.786037968239,4,1,0,52,0,0
393600,-226.381375050833,4,1,0,52,0,0
393946,-222.207192323422,4,1,0,53,0,0
394061,-220.825053680408,4,1,0,53,0,0
394407,-216.753322405495,4,1,0,54,0,0
394523,-215.416693712519,4,1,0,54,0,0
394754,-212.756668642389,4,1,0,54,0,0
394984,-210.129490299463,4,1,0,55,0,0
395331,-206.254971520121,4,1,0,55,0,0
395446,-204.983081844137,4,1,0,55,0,0
395677,-202.451893906652,4,1,0,56,0,0
395792,-201.192634100551,4,1,0,56,0,0
395907,-199.951961779731,4,1,0,56,0,0
396254,-196.265103596342,4,1,0,57,0,0
396369,-195.054817331821,4,1,0,57,0,0
396600,-192.646226357694,4,1,0,57,0,0
396715,-191.447958240917,4,1,0,57,0,0
396831,-190.26737733283,4,1,0,58,0,0
397177,-186.759090487791,4,1,0,58,0,0
397292,-185.597440618594,4,1,0,58,0,0
397523,-183.315491960632,4,1,0,59,0,0
397638,-182.175261427802,4,1,0,59,0,0
397754,-181.051861431564,4,1,0,59,0,0
397984,-178.816182839986,4,1,0,59,0,0
398215,-176.608111027621,4,1,0,60,0,0
398446,-174.436687539229,4,1,0,60,0,0
398561,-173.351683565747,4,1,0,60,0,0
398677,-172.282694949295,4,1,0,61,0,0
398907,-170.155300457175,4,1,0,61,0,0
399023,-169.10602262222,4,1,0,61,0,0
399138,-168.054175622181,4,1,0,61,0,0
399369,-165.987924065868,4,1,0,62,0,0
399484,-164.955471777866,4,1,0,62,0,0
399600,-163.93825915019,4,1,0,62,0,0
399831,-161.913904065272,4,1,0,62,0,0
399946,-160.915447536147,4,1,0,63,0,0
400061,-159.914546278307,4,1,0,63,0,0
400292,-157.939877115729,4,1,0,63,0,0
400422,-156.957484038565,4,1,0,63,0,0
400537,-155.989591715555,4,1,0,64,0,0
400768,-154.063388980327,4,1,0,64,0,0
400883,-153.113343352593,4,1,0,64,0,0
400999,-152.16097153062,4,1,0,64,0,0
401215,-150.29012932708,4,1,0,65,0,0
401446,-148.434305133915,4,1,0,65,0,0
401677,-146.609282858463,4,1,0,65,0,0
401792,-145.697366582737,4,1,0,66,0,0
401907,-144.798910778211,4,1,0,66,0,0
402138,-143.010893674432,4,1,0,66,0,0
402254,-142.129004244678,4,1,0,66,0,0
402383,-141.244955501676,4,1,0,67,0,0
402600,-139.508327369431,4,1,0,67,0,0
402715,-138.640579353432,4,1,0,67,0,0
402831,-137.78563985669,4,1,0,67,0,0
402946,-136.935972420599,4,1,0,68,0,0
403177,-135.245049060093,4,1,0,68,0,0
403292,-134.403818825249,4,1,0,68,0,0
403407,-133.575005690144,4,1,0,68,0,0
403523,-132.751303505151,4,1,0,68,0,0
403754,-131.112053596844,4,1,0,69,0,0
403869,-130.303539425584,4,1,0,69,0,0
404100,-128.694515186908,4,1,0,69,0,0
404215,-127.894029564801,4,1,0,70,0,0
404331,-127.105359625723,4,1,0,70,0,0
404388,-126.709442508018,4,1,0,70,0,0
404446,-126.321553090158,4,1,0,70,0,0
404561,-125.535827398088,4,1,0,70,0,0
404677,-124.754988954852,4,1,0,70,0,0
404792,-123.985676189639,4,1,0,71,0,0
404850,-123.606124904366,4,1,0,71,0,0
404907,-123.221107460201,4,1,0,71,0,0
405023,-122.461253512018,4,1,0,71,0,0
405138,-121.699539055429,4,1,0,71,0,0
405254,-120.94906799451,4,1,0,71,0,0
405484,-119.455555363109,4,1,0,72,0,0
405600,-118.71892202775,4,1,0,72,0,0
405715,-117.980485039839,4,1,0,72,0,0
405960,-116.523629293966,4,1,0,72,0,0
406061,-115.805075942186,4,1,0,73,0,0
406177,-115.090953613731,4,1,0,73,0,0
406407,-113.669778603189,4,1,0,73,0,0
406523,-112.968823776204,4,1,0,73,0,0
406754,-111.573853413374,4,1,0,74,0,0
406869,-110.885823295989,4,1,0,74,0,0
406984,-110.196108531416,4,1,0,74,0,0
407100,-109.516574400715,4,1,0,74,0,0
407331,-108.1642333705,4,1,0,75,0,0
407446,-107.497228979184,4,1,0,75,0,0
407561,-106.828591422337,4,1,0,75,0,0
407677,-106.16982338621,4,1,0,75,0,0
407792,-105.509442351331,4,1,0,75,0,0
407922,230.769230769231,16,1,0,76,1,0
407922,-104.858808965593,4,1,0,76,0,0
408037,-104.20658249886,4,1,0,76,0,0
408080,-103.887579985531,4,1,0,76,0,0
408152,-103.563983314594,4,1,0,76,0,0
408253,-102.925346775504,4,1,0,76,0,0
408369,-102.290648445588,4,1,0,76,0,0
408498,-101.654396051787,4,1,0,77,0,0
408599,-101.027535152853,4,1,0,77,0,0
408830,-99.780019133326,4,1,0,77,0,0
408946,-99.164716746819,4,1,0,77,0,0
409075,-98.54790778755,4,1,0,78,0,0
409176,-97.940203325539,4,1,0,78,0,0
409306,-97.331010894342,4,1,0,78,0,0
409522,-96.134311365792,4,1,0,78,0,0
409652,-95.536351663099,4,1,0,78,0,0
409753,-94.947218230503,4,1,0,79,0,0
409869,-94.36171774176,4,1,0,79,0,0
409926,-94.067792926788,4,1,0,79,0,0
409998,-93.774783650436,4,1,0,79,0,0
410099,-93.196513084091,4,1,0,79,0,0
410229,-92.616826617686,4,1,0,79,0,0
410272,-92.333303257077,4,1,0,80,0,0
410330,-92.045696696651,4,1,0,80,0,0
410402,-91.758985994282,4,1,0,80,0,0
410446,-91.478088699208,4,1,0,80,0,0
410561,-90.9090909090909,16,1,0,100,0,0
410677,-66.6666666666667,16,1,0,100,0,0
411138,-43.4782608695652,16,1,0,100,0,0
411614,230.769230769231,6,1,0,100,1,1
411614,-83.3333333333333,14,1,0,100,0,1
411715,-88.3143698640471,14,1,0,100,0,1
411729,-88.3143698640471,14,1,0,100,0,1
411772,-90.8699595307888,14,1,0,100,0,1
411830,-93.5463065112729,14,1,0,100,0,1
411945,-99.0881945415264,14,1,0,100,0,1
412176,-111.232015418763,14,1,0,100,0,1
412292,-117.880624204993,14,1,0,100,0,1
412522,-132.261354996726,14,1,0,100,0,1
412638,-140.166938686811,14,1,0,100,0,1
412753,-148.47073504944,14,1,0,100,0,1
412868,-157.266466490898,14,1,0,100,0,1
412984,-83.3333333333333,14,1,0,100,0,1
412998,230.769230769231,8,1,0,100,1,1
412998,-83.3333333333333,14,1,0,100,0,1
413060,-85.7778703775139,14,1,0,100,0,1
413075,-85.7778703775139,14,1,0,100,0,1
413113,-85.7778703775139,14,1,0,100,0,1
413137,-88.2941165580189,14,1,0,100,0,1
413214,-90.8841754225302,14,1,0,100,0,1
413329,-94.8945988425392,14,1,0,100,0,1
413560,-103.493008414272,14,1,0,100,0,1
413617,-105.731912343613,14,1,0,100,0,1
413675,-108.059818673837,14,1,0,100,0,1
413906,-117.851130197758,14,1,0,100,0,1
413964,-120.445866128759,14,1,0,100,0,1
414021,-123.051517728616,14,1,0,100,0,1
414137,-128.529633487638,14,1,0,100,0,1
414252,-134.201228679073,14,1,0,100,0,1
414367,-140.123092941871,14,1,0,100,0,1
414598,-152.819661116118,14,1,0,100,0,1
414627,-154.492821900351,14,1,0,100,0,1
414714,-159.623021280232,14,1,0,100,0,1
414742,-161.310088253839,14,1,0,100,0,1
414829,-83.3333333333333,14,1,0,100,0,1
414844,230.769230769231,6,1,0,100,1,1
414945,-88.2738532678641,14,1,0,100,0,1
414960,-88.2738532678641,14,1,0,100,0,1
415003,-90.8756443887715,14,1,0,100,0,1
415061,-93.5541209242862,14,1,0,100,0,1
415076,-93.5541209242862,14,1,0,100,0,1
415176,-99.1005929168934,14,1,0,100,0,1
415406,-111.1995203605,14,1,0,100,0,1
415464,-114.477024559225,14,1,0,100,0,1
415522,-117.851130197758,14,1,0,100,0,1
415753,-132.305506627018,14,1,0,100,0,1
415811,-136.205090474851,14,1,0,100,0,1
415868,-140.149402542286,14,1,0,100,0,1
415926,-144.280178050958,14,1,0,100,0,1
415984,-148.532704391196,14,1,0,100,0,1
416099,-157.33864983489,14,1,0,100,0,1
416215,-83.3646127621328,14,1,0,100,0,1
416228,230.769230769231,8,1,0,100,1,1
416228,-83.3646127621328,14,1,0,100,0,1
416271,-85.1670844847538,14,1,0,100,0,1
416329,-87.0411873555983,14,1,0,100,0,1
416344,-87.0411873555983,14,1,0,100,0,1
416444,-90.8799074961184,14,1,0,100,0,1
416560,-94.923540662749,14,1,0,100,0,1
416791,-103.519711135616,14,1,0,100,0,1
416906,-108.085172753846,14,1,0,100,0,1
417137,-117.873246018858,14,1,0,100,0,1
417194,-120.421847706828,14,1,0,100,0,1
417252,-123.07173212949,14,1,0,100,0,1
417367,-128.499483648137,14,1,0,100,0,1
417425,-131.327116561298,14,1,0,100,0,1
417483,-134.216971575782,14,1,0,100,0,1
417598,-140.136254246901,14,1,0,100,0,1
417829,-152.82683787373,14,1,0,100,0,1
417867,-155.021876417379,14,1,0,100,0,1
417906,-157.307465805575,14,1,0,100,0,1
417944,-159.566859217432,14,1,0,100,0,1
418060,-83.3333333333333,14,1,0,100,0,1
418074,230.769230769231,6,1,0,100,1,1
418074,-83.3333333333333,14,1,0,100,0,1
418174,-87.0138968977053,14,1,0,100,0,1
418189,-87.0138968977053,14,1,0,100,0,1
418232,-88.9314061844865,14,1,0,100,0,1
418289,-90.8911712717317,14,1,0,100,0,1
418405,-94.9055400714016,14,1,0,100,0,1
418636,-103.512908367192,14,1,0,100,0,1
418679,-105.001795928971,14,1,0,100,0,1
418751,-83.3333333333333,14,1,0,100,0,1
418766,-83.3333333333333,14,1,0,100,0,1
418881,-83.3333333333333,14,1,0,100,0,1
418981,-90.8911712717317,14,1,0,100,0,1
419025,-92.1985129020337,14,1,0,100,0,1
419064,-93.559813773045,14,1,0,100,0,1
419097,-94.9055400714016,14,1,0,100,0,1
419213,-99.1344601817671,14,1,0,100,0,1
419328,-103.512908367192,14,1,0,100,0,1
419444,-83.3333333333333,14,1,0,100,0,1
419458,230.769230769231,8,1,0,100,1,1
419458,-83.3333333333333,14,1,0,100,0,1
419530,-85.7778703775139,14,1,0,100,0,1
419574,-85.7778703775139,14,1,0,100,0,1
419607,-88.2941165580189,14,1,0,100,0,1
419674,-90.8841754225302,14,1,0,100,0,1
419790,-94.9302371275627,14,1,0,100,0,1
420020,-103.493008414272,14,1,0,100,0,1
420078,-105.771620652349,14,1,0,100,0,1
420136,-108.100401242966,14,1,0,100,0,1
420366,-117.851130197758,14,1,0,100,0,1
420424,-120.445866128759,14,1,0,100,0,1
420482,-123.097730528026,14,1,0,100,0,1
420597,-128.529633487638,14,1,0,100,0,1
420713,-134.251628825093,14,1,0,100,0,1
420828,-140.175717082608,14,1,0,100,0,1
421059,-152.877053535776,14,1,0,100,0,1
421088,-154.550842686446,14,1,0,100,0,1
421174,-159.623021280232,14,1,0,100,0,1
421203,-161.37066930874,14,1,0,100,0,1
421290,-83.3646288932237,14,1,0,100,0,1
421304,230.769230769231,6,1,0,100,1,1
421304,-83.3646288932237,14,1,0,100,0,1
421405,-87.0431411084701,14,1,0,100,0,1
421420,-87.0431411084701,14,1,0,100,0,1
421463,-88.9595250206636,14,1,0,100,0,1
421520,-90.8839697917122,14,1,0,100,0,1
421578,-92.8849152466571,14,1,0,100,0,1
421636,-94.9299144849352,14,1,0,100,0,1
421866,-103.492423524481,14,1,0,100,0,1
421924,-105.770962797657,14,1,0,100,0,1
421982,-108.099667493987,14,1,0,100,0,1
422212,-117.894322980212,14,1,0,100,0,1
422270,-120.444708825267,14,1,0,100,0,1
422328,-123.096477814325,14,1,0,100,0,1
422443,-128.528180723646,14,1,0,100,0,1
422559,-134.249958853719,14,1,0,100,0,1
422617,-137.154163111436,14,1,0,100,0,1
422674,-140.173815531259,14,1,0,100,0,1
422688,230.769230769231,10,1,0,100,1,1
422688,-140.173815531259,14,1,0,100,0,1
422789,-136.368818351503,14,1,0,100,0,1
422803,-136.368818351503,14,1,0,100,0,1
422846,-134.537143160385,14,1,0,100,0,1
422904,-132.698585198626,14,1,0,100,0,1
423019,-129.127132775533,14,1,0,100,0,1
423134,-125.651802495651,14,1,0,100,0,1
423149,-125.651802495651,14,1,0,100,0,0
423192,-123.934669840231,14,1,0,100,0,0
423250,-122.241003179708,14,1,0,100,0,0
423365,-118.951006331934,14,1,0,100,0,0
423480,-115.749556526289,14,1,0,100,0,0
423519,-114.683530005499,14,1,0,100,0,0
423558,-113.627321341271,14,1,0,100,0,0
423596,-112.607552190662,14,1,0,100,0,0
423654,-111.068679677311,14,1,0,100,0,0
423711,-109.576830238895,14,1,0,100,0,0
423827,-106.602383631693,14,1,0,100,0,0
423942,-103.733284908756,14,1,0,100,0,0
424058,-100.917460462309,14,1,0,100,0,0
424135,-99.090673224077,14,1,0,100,0,0
424212,-97.2969541149724,14,1,0,100,0,0
424289,-95.5357045424819,14,1,0,100,0,0
424404,-92.9644546458124,14,1,0,100,0,0
424520,-90.4409484802405,14,1,0,100,0,0
424576,-89.2473367811128,14,1,0,100,0,0
424635,-88.0068189519331,14,1,0,100,0,0
424750,-85.6382016352968,14,1,0,100,0,0
424880,-71.4285714285714,5,1,0,100,0,0
424883,230.769230769231,4,1,0,100,1,0
424883,-71.4285714285714,5,1,0,100,0,0
425806,-83.3333333333333,5,1,0,100,0,1
425849,-84.8270499892831,5,1,0,100,0,1
425907,-86.3744580487413,5,1,0,100,0,1
425965,-87.9500937985739,5,1,0,100,0,1
426023,-89.5544721659839,5,1,0,100,0,1
426138,-92.8226279901353,5,1,0,100,0,1
426253,-96.2100502476943,5,1,0,100,0,1
426368,-99.7210913878411,5,1,0,100,0,1
426425,-101.508552049707,5,1,0,100,0,1
426483,-103.360262695845,5,1,0,100,0,1
426715,-83.3333333333333,5,1,0,100,0,1
426729,-83.3333333333333,5,1,0,100,0,1
426772,-84.8270499892831,5,1,0,100,0,1
426830,-86.3744580487413,5,1,0,100,0,1
426888,-87.9500937985739,5,1,0,100,0,1
426945,-89.5265640385651,5,1,0,100,0,1
427061,-92.8226279901353,5,1,0,100,0,1
427176,-96.2100502476943,5,1,0,100,0,1
427292,-99.7521774565926,5,1,0,100,0,1
427349,-101.540195323803,5,1,0,100,0,1
427407,-103.392483203941,5,1,0,100,0,1
427638,-83.3333333333333,5,1,0,100,0,1
427652,-83.3333333333333,5,1,0,100,0,1
427695,-84.8270499892831,5,1,0,100,0,1
427753,-86.3744580487413,5,1,0,100,0,1
427811,-87.9500937985739,5,1,0,100,0,1
427868,-89.5265640385651,5,1,0,100,0,1
427984,-92.8226279901353,5,1,0,100,0,1
428099,-96.2100502476943,5,1,0,100,0,1
428215,-99.7521774565926,5,1,0,100,0,1
428272,-101.540195323803,5,1,0,100,0,1
428330,-103.392483203941,5,1,0,100,0,1
428445,-107.165636436647,5,1,0,100,0,1
428561,-83.3333333333333,5,1,0,100,0,1
428618,-84.8270499892831,5,1,0,100,0,1
428676,-86.3744580487413,5,1,0,100,0,1
428734,-87.9500937985739,5,1,0,100,0,1
428792,-89.5544721659839,5,1,0,100,0,1
428907,-92.8226279901353,5,1,0,100,0,1
428965,-94.5158907249607,5,1,0,100,0,1
429022,-96.2100502476943,5,1,0,100,0,1
429138,-99.7521774565926,5,1,0,100,0,1
429253,-103.392483203941,5,1,0,100,0,1
429484,-83.3333333333333,5,1,0,100,0,1
429498,-83.3333333333333,5,1,0,100,0,1
429542,-84.8534931365778,5,1,0,100,0,1
429600,-86.401383569751,5,1,0,100,0,1
429657,-87.9500937985739,5,1,0,100,0,1
429715,-89.5544721659839,5,1,0,100,0,1
429830,-92.8226279901353,5,1,0,100,0,1
429888,-94.5158907249607,5,1,0,100,0,1
429945,-96.2100502476943,5,1,0,100,0,1
430061,-99.7521774565926,5,1,0,100,0,1
430176,-103.392483203941,5,1,0,100,0,1
430407,-83.3333333333333,5,1,0,100,0,1
430421,-83.3333333333333,5,1,0,100,0,1
430465,-84.8534931365778,5,1,0,100,0,1
430522,-86.3744580487413,5,1,0,100,0,1
430580,-87.9500937985739,5,1,0,100,0,1
430638,-89.5544721659839,5,1,0,100,0,1
430753,-92.8226279901353,5,1,0,100,0,1
430811,-94.5158907249607,5,1,0,100,0,1
430868,-96.2100502476943,5,1,0,100,0,1
430984,-99.7521774565926,5,1,0,100,0,1
431099,-103.392483203941,5,1,0,100,0,1
431330,-83.3333333333333,5,1,0,100,0,1
431344,-83.3333333333333,5,1,0,100,0,1
431388,-84.8518330428942,5,1,0,100,0,1
431445,-86.3711075159028,5,1,0,100,0,1
431503,-87.9449615360309,5,1,0,100,0,1
431561,-89.5474943186285,5,1,0,100,0,1
431676,-92.8117951148874,5,1,0,100,0,1
431792,-96.2250448649376,5,1,0,100,0,1
431849,-97.947957017625,5,1,0,100,0,1
431907,-99.7327643490251,5,1,0,100,0,1
432022,-103.368351749374,5,1,0,100,0,1
432138,-107.169829787105,5,1,0,100,0,1
432254,-111.111111111111,5,1,0,100,0,1
432268,-111.111111111111,5,1,0,100,0,1
432311,-110.618709621251,5,1,0,100,0,1
432368,-110.128490264437,5,1,0,100,0,1
432426,-109.631900477247,5,1,0,100,0,1
432484,-109.137549905507,5,1,0,100,0,1
432599,-108.16395391465,5,1,0,100,0,1
432715,-107.190690528781,5,1,0,100,0,1
432772,-106.715662827341,5,1,0,100,0,1
432830,-106.234462112014,5,1,0,100,0,1
432888,-105.755431219956,5,1,0,100,0,1
432945,-105.286764032915,5,1,0,100,0,1
433061,-104.339389711421,5,1,0,100,0,1
433176,-103.408597224331,5,1,0,100,0,1
433234,-102.942308681141,5,1,0,100,0,1
433292,-102.47812271947,5,1,0,100,0,1
433349,-102.023979296724,5,1,0,100,0,1
433407,-101.563934252562,5,1,0,100,0,1
433522,-100.657901092669,5,1,0,100,0,1
433638,-99.7521774565926,5,1,0,100,0,1
433753,-98.8623066455379,5,1,0,100,0,1
433811,-98.4165181697287,5,1,0,100,0,1
433868,-97.9803742081665,5,1,0,100,0,1
433926,-97.5385625292818,5,1,0,100,0,1
433984,-97.0987430611962,5,1,0,100,0,1
434099,-96.2325430498946,5,1,0,100,0,1
434157,-95.7986126658578,5,1,0,100,0,1
434215,-95.3666389544,5,1,0,100,0,1
434272,-94.9440108784635,5,1,0,100,0,1
434330,-94.5158907249607,5,1,0,100,0,1
434445,-93.6727318638564,5,1,0,100,0,1
434503,-93.2503441432037,5,1,0,100,0,1
434561,-92.82986104712,5,1,0,100,0,1
434618,-92.4184749901724,5,1,0,100,0,1
434676,-92.0017429463794,5,1,0,100,0,1
434734,-91.5868900246596,5,1,0,100,0,1
434792,-91.173907751703,5,1,0,100,0,1
434907,-90.3605621054555,5,1,0,100,0,1
435022,-89.5544721659839,5,1,0,100,0,1
435080,-89.1506544420872,5,1,0,100,0,1
435138,-88.7486576072002,5,1,0,100,0,1
435195,-88.3553578661407,5,1,0,100,0,1
435253,-87.9569471710115,5,1,0,100,0,1
435368,-87.1722994378728,5,1,0,100,0,1
435484,-86.3856254319281,5,1,0,100,0,1
435522,-87.43176361815,5,1,0,100,0,1
435561,-88.5186064576606,5,1,0,100,0,1
435599,-89.5905752481103,5,1,0,100,0,1
435715,-92.9438677008484,5,1,0,100,0,1
435753,-94.0694268282015,5,1,0,100,0,1
435792,-95.2387808333616,5,1,0,100,0,1
435830,-96.3921315782435,5,1,0,100,0,1
435888,-98.1794945893711,5,1,0,100,0,1
435945,-99.9683277664222,5,1,0,100,0,1
436061,-99.1320208810538,5,1,0,100,0,1
436118,-98.7046017513581,5,1,0,100,0,1
436176,-98.2715756396169,5,1,0,100,0,1
436234,-97.8404492530164,5,1,0,100,0,1
436292,-97.4112142572887,5,1,0,100,0,1
436349,-96.9912145836171,5,1,0,100,0,1
436407,-96.5657052580235,5,1,0,100,0,1
436522,-95.7275351003208,5,1,0,100,0,1
436580,-95.3075696521496,5,1,0,100,0,1
436638,-94.8894466307941,5,1,0,100,0,1
436753,-94.0658260479552,5,1,0,100,0,1
436811,-93.6531506693151,5,1,0,100,0,1
436868,-93.2493543197947,5,1,0,100,0,1
436984,-92.4329621650785,5,1,0,100,0,1
437042,-92.0274503095736,5,1,0,100,0,1
437099,-91.6306633544622,5,1,0,100,0,1
437215,-90.8284427359957,5,1,0,100,0,1
437330,-90.0400708189832,5,1,0,100,0,1
437388,-89.6450567965787,5,1,0,100,0,1
437445,-89.2585418055901,5,1,0,100,0,1
437503,-88.8669564224169,5,1,0,100,0,1
437561,-88.4770889601196,5,1,0,100,0,1
437676,-87.7091263028943,5,1,0,100,0,1
437792,-86.9412384914127,5,1,0,100,0,1
437907,-86.186606695554,5,1,0,100,0,1
437965,-85.8084981725537,5,1,0,100,0,1
438022,-85.4385249461083,5,1,0,100,0,1
438080,-85.0636983261346,5,1,0,100,0,1
438138,-84.6905161048104,5,1,0,100,0,1
438253,-83.9554201092929,5,1,0,100,0,1
438368,-83.2267045935207,5,1,0,100,0,1
438426,-82.8615814316447,5,1,0,100,0,1
438484,-82.4980600984605,5,1,0,100,0,1
438599,-81.7819941632702,5,1,0,100,0,1
438715,-81.0659980159621,5,1,0,100,0,1
438945,-79.6648335582665,5,1,0,100,0,1
438974,-79.4898930233317,5,1,0,100,0,1
439061,-78.9673730171382,5,1,0,100,0,1
439176,-78.2819527085691,5,1,0,100,0,1
439205,-78.1100489202739,5,1,0,100,0,1
439292,-77.5965992011553,5,1,0,100,0,1
439407,-76.9230769230769,5,1,0,100,0,1
439637,-71.4285714285714,5,1,0,100,0,1
439652,230.769230769231,6,1,0,100,1,1
439652,-71.4285714285714,14,1,0,100,0,1
439753,-76.6816908542919,14,1,0,100,0,1
439768,-76.6816908542919,14,1,0,100,0,1
439810,-79.4028062628414,14,1,0,100,0,1
439868,-82.2707979805237,14,1,0,100,0,1
439983,-88.2672789938006,14,1,0,100,0,1
440214,-101.665472697453,14,1,0,100,0,1
440330,-109.142324871182,14,1,0,100,0,1
440560,-125.632284996718,14,1,0,100,0,1
440676,-134.871744552112,14,1,0,100,0,1
440791,-144.702156743152,14,1,0,100,0,1
440906,-155.249079306075,14,1,0,100,0,1
441022,-71.4285714285714,14,1,0,100,0,1
441036,230.769230769231,8,1,0,100,1,1
441036,-71.4285714285714,14,1,0,100,0,1
441037,-71.4285714285714,14,1,0,100,0,1
441099,-73.9981635611066,14,1,0,100,0,1
441152,-73.9981635611066,14,1,0,100,0,1
441176,-76.6601949458281,14,1,0,100,0,1
441253,-79.4179910191879,14,1,0,100,0,1
441368,-83.7225975960028,14,1,0,100,0,1
441599,-93.087127055754,14,1,0,100,0,1
441656,-95.5546568006901,14,1,0,100,0,1
441714,-98.1326268751109,14,1,0,100,0,1
441945,-109.108945117996,14,1,0,100,0,1
442003,-112.05259647716,14,1,0,100,0,1
442060,-115.02285803265,14,1,0,100,0,1
442176,-121.312985128917,14,1,0,100,0,1
442233,-124.528718697247,14,1,0,100,0,1
442291,-127.888380287337,14,1,0,100,0,1
442406,-134.820174403736,14,1,0,100,0,1
442464,-138.457489283805,14,1,0,100,0,1
442521,-142.127684981352,14,1,0,100,0,1
442579,-145.962149264896,14,1,0,100,0,1
442637,-149.900063600018,14,1,0,100,0,1
442666,-151.908683800392,14,1,0,100,0,1
442753,-158.097481642916,14,1,0,100,0,1
442781,-160.142424177991,14,1,0,100,0,1
442868,-71.4285714285714,14,1,0,100,0,1
442882,230.769230769231,6,1,0,100,1,1
442882,-71.4285714285714,14,1,0,100,0,1
442883,-71.4285714285714,14,1,0,100,0,1
442984,-76.6347938415145,14,1,0,100,0,1
442998,-76.6347938415145,14,1,0,100,0,1
443042,-79.4028062628414,14,1,0,100,0,1
443100,-82.2707979805237,14,1,0,100,0,1
443215,-88.2672789938006,14,1,0,100,0,1
443445,-101.603296095464,14,1,0,100,0,1
443503,-105.273158980743,14,1,0,100,0,1
443561,-109.075575573572,14,1,0,100,0,1
443792,-125.632284996718,14,1,0,100,0,1
443850,-130.170063569069,14,1,0,100,0,1
443907,-134.789259647866,14,1,0,100,0,1
443965,-139.657783803334,14,1,0,100,0,1
444023,-144.702156743152,14,1,0,100,0,1
444138,-155.249079306075,14,1,0,100,0,1
444254,-83.3333333333333,14,1,0,100,0,1
444266,230.769230769231,8,1,0,100,1,1
444266,-83.3333333333333,14,1,0,100,0,1
444268,-83.3333333333333,14,1,0,100,0,1
444311,-85.1361152826058,14,1,0,100,0,1
444369,-87.0105626212008,14,1,0,100,0,1
444383,-87.0105626212008,14,1,0,100,0,1
444484,-90.8500560918949,14,1,0,100,0,1
444600,-94.8945988425392,14,1,0,100,0,1
444657,-96.9474900810606,14,1,0,100,0,1
444715,-99.0819892200298,14,1,0,100,0,1
444831,-103.493008414272,14,1,0,100,0,1
444946,-108.059818673837,14,1,0,100,0,1
445177,-117.851130197758,14,1,0,100,0,1
445234,-120.40064888042,14,1,0,100,0,1
445292,-123.051517728616,14,1,0,100,0,1
445349,-125.713538388516,14,1,0,100,0,1
445407,-128.481381467514,14,1,0,100,0,1
445465,-131.310164326015,14,1,0,100,0,1
445523,-134.201228679073,14,1,0,100,0,1
445580,-137.104455310667,14,1,0,100,0,1
445638,-140.123092941871,14,1,0,100,0,1
445869,-152.81173594132,14,1,0,100,0,1
445907,-138.304733985253,14,1,0,100,0,1
445946,-124.846792993444,14,1,0,100,0,1
445984,-112.994609919887,14,1,0,100,0,1
446022,-102.267599870329,14,1,0,100,0,1
446061,-92.3163040269382,14,1,0,100,0,1
446099,-83.5523645634797,14,1,0,100,0,1
446112,230.769230769231,6,1,0,100,1,1
446112,-83.5523645634797,14,1,0,100,0,1
446114,-83.5523645634797,14,1,0,100,0,1
446215,-88.2738532678641,14,1,0,100,0,1
446229,-88.2738532678641,14,1,0,100,0,1
446272,-90.8301426361215,14,1,0,100,0,1
446330,-93.5072780490768,14,1,0,100,0,1
446445,-99.0509729037788,14,1,0,100,0,1
446676,-111.1995203605,14,1,0,100,0,1
446792,-83.5491686857716,14,1,0,100,0,1
446806,-83.5491686857716,14,1,0,100,0,1
446848,-85.9422740766566,14,1,0,100,0,1
446907,-88.2738532678641,14,1,0,100,0,1
446921,-88.2738532678641,14,1,0,100,0,1
447022,-93.5072780490768,14,1,0,100,0,1
447137,-99.1724547333045,14,1,0,100,0,1
447194,-102.013059131682,14,1,0,100,0,1
447252,-104.987029911756,14,1,0,100,0,1
447367,-111.142519153461,14,1,0,100,0,1
447484,-83.3333333333333,14,1,0,100,0,1
447496,230.769230769231,8,1,0,100,1,1
447496,-83.3333333333333,14,1,0,100,0,1
447498,-83.3333333333333,14,1,0,100,0,1
447600,-87.0105626212008,14,1,0,100,0,1
447614,-87.0105626212008,14,1,0,100,0,1
447657,-88.9262797876885,14,1,0,100,0,1
447715,-90.8841754225302,14,1,0,100,0,1
447772,-92.8503076336452,14,1,0,100,0,1
447830,-94.8945988425392,14,1,0,100,0,1
448061,-103.493008414272,14,1,0,100,0,1
448176,-108.059818673837,14,1,0,100,0,1
448234,-110.438978667805,14,1,0,100,0,1
448292,-112.870520780737,14,1,0,100,0,1
448407,-117.851130197758,14,1,0,100,0,1
448465,-120.445866128759,14,1,0,100,0,1
448522,-123.051517728616,14,1,0,100,0,1
448580,-125.760750927134,14,1,0,100,0,1
448638,-128.529633487638,14,1,0,100,0,1
448695,-131.310164326015,14,1,0,100,0,1
448753,-134.201228679073,14,1,0,100,0,1
448868,-140.123092941871,14,1,0,100,0,1
448926,-143.208192112402,14,1,0,100,0,1
448984,-146.361216110256,14,1,0,100,0,1
449042,-149.583660440734,14,1,0,100,0,1
449099,-152.819661116118,14,1,0,100,0,1
449215,-159.623021280232,14,1,0,100,0,1
449342,230.769230769231,6,1,0,100,1,1
449342,-166.666666666667,6,1,0,100,0,1
449388,-164.605722918498,14,1,0,100,0,1
449445,-162.605144082923,14,1,0,100,0,1
449503,-160.594423752217,14,1,0,100,0,1
449561,-158.60856731048,14,1,0,100,0,1
449676,-154.743413641839,14,1,0,100,0,1
449792,-150.940065745698,14,1,0,100,0,1
449907,-147.26178683079,14,1,0,100,0,1
450022,-143.673144393176,14,1,0,100,0,1
450080,-141.896530780875,14,1,0,100,0,1
450138,-140.141886172878,14,1,0,100,0,1
450253,-136.72674955916,14,1,0,100,0,1
450311,-135.036032720892,14,1,0,100,0,1
450368,-133.394836872342,14,1,0,100,0,1
450426,-131.745321341802,14,1,0,100,0,1
450484,-130.116203163583,14,1,0,100,0,1
450599,-126.945383777624,14,1,0,100,0,1
450726,230.769230769231,8,1,0,100,1,1
450726,-123.825267405931,14,1,0,100,0,1
450830,-120.807752685887,14,1,0,100,0,1
450888,-119.313884790118,14,1,0,100,0,1
450945,-117.863772190937,14,1,0,100,0,1
451061,-114.966867441044,14,1,0,100,0,1
451176,-112.16522427008,14,1,0,100,0,1
451292,-109.408380797987,14,1,0,100,0,1
451349,-108.07865734015,14,1,0,100,0,1
451407,-106.742193141216,14,1,0,100,0,1
451465,-105.422255207495,14,1,0,100,0,1
451522,-104.140978172728,14,1,0,100,0,1
451638,-101.581357954241,14,1,0,100,0,1
451754,-99.0846491446711,14,1,0,100,0,1
451811,-97.8803978677738,14,1,0,100,0,1
451869,-96.6700419034508,14,1,0,100,0,1
451927,-95.4746527924742,14,1,0,100,0,1
451984,-94.314276553277,14,1,0,100,0,1
452099,-92.0159191681335,14,1,0,100,0,1
452157,-90.8780813680843,14,1,0,100,0,1
452215,-89.7543136862378,14,1,0,100,0,1
452272,-88.6634610890218,14,1,0,100,0,1
452330,-87.5670786540874,14,1,0,100,0,1
452445,-85.4331446488112,14,1,0,100,0,1
452561,-71.4285714285714,14,1,0,100,0,1
452572,-71.4285714285714,14,1,0,100,0,0
452676,-50,14,1,0,100,0,0

[HitObjects]
156,202,11201,5,8,0:0:0:0:
156,202,11723,1,8,0:0:0:0:
156,202,12245,1,8,0:0:0:0:
156,202,12767,1,8,0:0:0:0:
261,208,13288,1,8,0:0:0:0:
261,208,13810,1,8,0:0:0:0:
154,176,14332,1,8,0:0:0:0:
154,176,14854,1,8,0:0:0:0:
154,176,15375,1,8,0:0:0:0:
154,176,15897,1,8,0:0:0:0:
154,176,16419,1,8,0:0:0:0:
154,176,16941,1,8,0:0:0:0:
154,176,17462,1,8,0:0:0:0:
154,176,17984,1,8,0:0:0:0:
154,176,18506,1,8,0:0:0:0:
237,188,18766,1,4,0:0:0:0:
251,185,18895,1,8,0:0:0:0:
251,185,19025,1,0,0:0:0:0:
251,185,19156,1,8,0:0:0:0:
251,185,19221,1,8,0:0:0:0:
214,169,19286,1,0,0:0:0:0:
141,110,19417,1,8,0:0:0:0:
141,110,19547,1,0,0:0:0:0:
141,110,19678,1,0,0:0:0:0:
141,110,19743,1,0,0:0:0:0:
141,110,19808,1,0,0:0:0:0:
141,110,19938,1,8,0:0:0:0:
141,110,20069,1,0,0:0:0:0:
141,110,20134,1,0,0:0:0:0:
141,110,20199,1,8,0:0:0:0:
241,198,20330,1,0,0:0:0:0:
226,204,20395,1,0,0:0:0:0:
241,198,20460,1,0,0:0:0:0:
233,209,20525,1,0,0:0:0:0:
231,210,20591,1,8,0:0:0:0:
229,203,20851,1,0,0:0:0:0:
231,203,20917,1,8,0:0:0:0:
229,203,20982,1,0,0:0:0:0:
191,158,21047,1,8,0:0:0:0:
191,158,21112,1,0,0:0:0:0:
209,174,21243,1,8,0:0:0:0:
250,122,21373,1,0,0:0:0:0:
250,122,21438,1,0,0:0:0:0:
250,122,21569,1,0,0:0:0:0:
250,122,21634,1,8,0:0:0:0:
263,127,21764,1,0,0:0:0:0:
293,113,21895,1,0,0:0:0:0:
293,113,21961,1,0,0:0:0:0:
293,113,22026,1,8,0:0:0:0:
77,121,22156,1,0,0:0:0:0:
77,121,22221,1,0,0:0:0:0:
293,113,22287,1,0,0:0:0:0:
77,121,22417,1,8,0:0:0:0:
262,166,22462,1,8,0:0:0:0:
262,166,22504,1,8,0:0:0:0:
77,121,22548,1,0,0:0:0:0:
242,209,22613,1,0,0:0:0:0:
242,209,22678,1,8,0:0:0:0:
144,146,22938,1,8,0:0:0:0:
144,146,23069,1,8,0:0:0:0:
144,146,23134,1,0,0:0:0:0:
144,146,23199,1,8,0:0:0:0:
144,146,23330,1,0,0:0:0:0:
161,73,23460,1,0,0:0:0:0:
162,121,23525,1,0,0:0:0:0:
170,124,23591,1,0,0:0:0:0:
170,124,23656,1,0,0:0:0:0:
170,124,23721,1,8,0:0:0:0:
170,124,23786,1,8,0:0:0:0:
166,124,23851,1,0,0:0:0:0:
259,169,23982,1,8,0:0:0:0:
259,169,24047,1,0,0:0:0:0:
259,169,24112,1,0,0:0:0:0:
259,169,24243,1,0,0:0:0:0:
259,169,24308,1,0,0:0:0:0:
259,169,24373,1,8,0:0:0:0:
201,119,24504,1,0,0:0:0:0:
201,119,24569,1,0,0:0:0:0:
201,119,24634,1,8,0:0:0:0:
201,119,24699,1,0,0:0:0:0:
201,119,24764,1,8,0:0:0:0:
201,119,24830,1,8,0:0:0:0:
201,119,24895,1,0,0:0:0:0:
85,176,25156,1,8,0:0:0:0:
85,176,25351,1,8,0:0:0:0:
85,176,25547,1,0,0:0:0:0:
85,176,25743,1,8,0:0:0:0:
85,176,25938,1,0,0:0:0:0:
85,176,26199,1,4,0:0:0:0:
85,176,26395,1,4,0:0:0:0:
85,176,26591,1,4,0:0:0:0:
85,176,26786,1,12,0:0:0:0:
85,176,26982,1,4,0:0:0:0:
216,208,27112,1,8,0:0:0:0:
216,208,27178,1,8,0:0:0:0:
216,208,27243,1,8,0:0:0:0:
216,208,27308,1,0,0:0:0:0:
216,208,27373,1,8,0:0:0:0:
216,208,27504,1,8,0:0:0:0:
216,208,27569,1,8,0:0:0:0:
216,208,27634,1,0,0:0:0:0:
125,143,27764,1,8,0:0:0:0:
138,129,27895,1,0,0:0:0:0:
134,127,27960,1,0,0:0:0:0:
138,129,28025,1,8,0:0:0:0:
138,129,28091,1,8,0:0:0:0:
138,129,28156,1,0,0:0:0:0:
216,138,28286,1,8,0:0:0:0:
216,138,28351,1,0,0:0:0:0:
216,138,28417,1,0,0:0:0:0:
231,123,28547,1,8,0:0:0:0:
236,121,28678,1,0,0:0:0:0:
236,121,28743,1,0,0:0:0:0:
236,121,28808,1,0,0:0:0:0:
236,121,28873,1,8,0:0:0:0:
236,121,28938,1,8,0:0:0:0:
236,121,29004,1,0,0:0:0:0:
236,121,29069,1,0,0:0:0:0:
194,247,29199,1,8,0:0:0:0:
252,256,29330,1,0,0:0:0:0:
250,202,29395,1,8,0:0:0:0:
252,256,29460,1,8,0:0:0:0:
262,229,29591,1,0,0:0:0:0:
262,229,29656,1,8,0:0:0:0:
262,229,29721,1,0,0:0:0:0:
229,244,29851,1,0,0:0:0:0:
229,244,29917,1,0,0:0:0:0:
229,244,29982,1,8,0:0:0:0:
229,244,30047,1,0,0:0:0:0:
229,244,30112,1,0,0:0:0:0:
281,186,30243,1,8,0:0:0:0:
281,186,30308,1,8,0:0:0:0:
281,186,30373,1,0,0:0:0:0:
281,186,30504,1,0,0:0:0:0:
153,52,30569,1,0,0:0:0:0:
281,186,30634,1,8,0:0:0:0:
301,141,30764,1,0,0:0:0:0:
198,263,30808,1,0,0:0:0:0:
198,263,30851,1,0,0:0:0:0:
301,141,30895,1,8,0:0:0:0:
301,141,30960,1,0,0:0:0:0:
301,141,31025,1,8,0:0:0:0:
198,263,31069,1,8,0:0:0:0:
198,263,31112,1,0,0:0:0:0:
301,141,31156,1,0,0:0:0:0:
342,227,31286,1,0,0:0:0:0:
342,227,31351,1,0,0:0:0:0:
342,227,31417,1,8,0:0:0:0:
342,227,31547,1,8,0:0:0:0:
342,227,31612,1,0,0:0:0:0:
342,227,31743,1,0,0:0:0:0:
342,227,31808,1,8,0:0:0:0:
91,182,31938,1,0,0:0:0:0:
91,182,32004,1,0,0:0:0:0:
182,77,32134,1,0,0:0:0:0:
159,76,32199,1,8,0:0:0:0:
221,97,32330,1,0,0:0:0:0:
221,97,32395,1,8,0:0:0:0:
221,97,32460,1,8,0:0:0:0:
221,97,32591,1,8,0:0:0:0:
221,97,32656,1,0,0:0:0:0:
259,127,32786,1,0,0:0:0:0:
259,127,32851,1,8,0:0:0:0:
296,78,32982,1,0,0:0:0:0:
296,78,33047,1,8,0:0:0:0:
292,62,33112,1,8,0:0:0:0:
294,65,33178,1,0,0:0:0:0:
294,65,33243,1,8,0:0:0:0:
141,202,33373,1,0,0:0:0:0:
56,143,33406,1,0,0:0:0:0:
136,191,33438,1,0,0:0:0:0:
130,176,33504,1,0,0:0:0:0:
135,188,33569,1,8,0:0:0:0:
135,188,33699,1,0,0:0:0:0:
131,183,33764,1,8,0:0:0:0:
131,182,33895,1,8,0:0:0:0:
76,152,33928,1,0,0:0:0:0:
131,182,33960,1,0,0:0:0:0:
131,178,34025,1,0,0:0:0:0:
136,116,34091,1,8,0:0:0:0:
136,116,34221,1,8,0:0:0:0:
136,116,34286,1,8,0:0:0:0:
284,138,34417,1,0,0:0:0:0:
284,138,34449,1,0,0:0:0:0:
284,138,34547,1,0,0:0:0:0:
121,177,34580,1,0,0:0:0:0:
138,275,34678,1,0,0:0:0:0:
138,275,34743,1,8,0:0:0:0:
27,53,34808,1,8,0:0:0:0:
77,52,34851,1,0,0:0:0:0:
307,68,34895,1,0,0:0:0:0:
307,68,34938,1,8,0:0:0:0:
146,249,35134,1,8,0:0:0:0:
146,249,35330,1,8,0:0:0:0:
172,134,35460,1,4,0:0:0:0:
172,134,35591,1,0,0:0:0:0:
172,134,35721,1,8,0:0:0:0:
78,140,35851,1,0,0:0:0:0:
78,140,35982,1,8,0:0:0:0:
78,140,36112,1,8,0:0:0:0:
78,140,36243,1,0,0:0:0:0:
78,140,36373,1,8,0:0:0:0:
225,139,36504,1,0,0:0:0:0:
225,139,36569,1,0,0:0:0:0:
225,139,36634,1,8,0:0:0:0:
241,215,36764,1,8,0:0:0:0:
241,215,36895,1,0,0:0:0:0:
241,215,37025,1,8,0:0:0:0:
241,215,37156,1,8,0:0:0:0:
241,215,37286,1,0,0:0:0:0:
146,112,37351,1,8,0:0:0:0:
146,112,37417,1,0,0:0:0:0:
146,112,37482,1,8,0:0:0:0:
146,112,37547,1,8,0:0:0:0:
181,102,37678,1,0,0:0:0:0:
181,102,37808,1,0,0:0:0:0:
181,102,37939,1,8,0:0:0:0:
181,102,38069,1,0,0:0:0:0:
181,102,38199,1,0,0:0:0:0:
86,222,38330,1,8,0:0:0:0:
33,155,38460,1,8,0:0:0:0:
254,283,38591,1,0,0:0:0:0:
251,271,38656,1,0,0:0:0:0:
251,271,38721,1,8,0:0:0:0:
268,295,38851,1,8,0:0:0:0:
268,295,38982,1,8,0:0:0:0:
120,317,39112,1,0,0:0:0:0:
120,317,39178,1,0,0:0:0:0:
120,317,39243,1,0,0:0:0:0:
120,317,39308,1,0,0:0:0:0:
120,317,39373,1,8,0:0:0:0:
120,317,39504,1,8,0:0:0:0:
133,250,39634,1,0,0:0:0:0:
133,250,39764,1,0,0:0:0:0:
133,250,39830,1,0,0:0:0:0:
129,256,39895,1,0,0:0:0:0:
240,173,40025,1,8,0:0:0:0:
240,173,40091,1,0,0:0:0:0:
240,173,40156,1,0,0:0:0:0:
240,173,40221,1,0,0:0:0:0:
240,173,40286,1,8,0:0:0:0:
240,173,40351,1,8,0:0:0:0:
240,173,40417,1,0,0:0:0:0:
126,145,40547,1,8,0:0:0:0:
126,145,40678,1,0,0:0:0:0:
126,145,40743,1,0,0:0:0:0:
126,145,40808,1,8,0:0:0:0:
126,145,40938,1,8,0:0:0:0:
126,145,41069,1,0,0:0:0:0:
84,188,41199,1,8,0:0:0:0:
82,179,41264,1,8,0:0:0:0:
83,183,41330,1,8,0:0:0:0:
83,179,41395,1,8,0:0:0:0:
82,179,41460,1,8,0:0:0:0:
173,245,41591,1,0,0:0:0:0:
173,245,41721,1,0,0:0:0:0:
199,223,41851,1,8,0:0:0:0:
199,223,41982,1,8,0:0:0:0:
199,223,42112,1,8,0:0:0:0:
191,217,42178,1,0,0:0:0:0:
191,217,42243,1,0,0:0:0:0:
191,217,42373,1,0,0:0:0:0:
210,162,42504,1,8,0:0:0:0:
221,159,42569,1,0,0:0:0:0:
210,162,42634,1,0,0:0:0:0:
221,159,42764,1,8,0:0:0:0:
157,129,42895,1,0,0:0:0:0:
157,129,42960,1,0,0:0:0:0:
90,210,43025,1,0,0:0:0:0:
90,210,43091,1,8,0:0:0:0:
90,210,43156,1,8,0:0:0:0:
70,107,43286,1,8,0:0:0:0:
70,107,43417,1,8,0:0:0:0:
70,107,43547,1,8,0:0:0:0:
131,67,43612,1,0,0:0:0:0:
139,81,43678,1,0,0:0:0:0:
143,91,43743,1,8,0:0:0:0:
143,91,43808,1,8,0:0:0:0:
198,178,43938,1,0,0:0:0:0:
198,178,44069,1,8,0:0:0:0:
101,268,44199,1,0,0:0:0:0:
101,268,44330,1,0,0:0:0:0:
101,268,44460,1,0,0:0:0:0:
140,204,44591,1,8,0:0:0:0:
140,204,44721,1,8,0:0:0:0:
195,151,44851,1,0,0:0:0:0:
195,151,44917,1,0,0:0:0:0:
195,151,44982,1,8,0:0:0:0:
195,151,45112,1,0,0:0:0:0:
195,151,45243,1,8,0:0:0:0:
271,201,45373,1,8,0:0:0:0:
271,201,45504,1,0,0:0:0:0:
219,86,45634,1,8,0:0:0:0:
202,102,45699,1,8,0:0:0:0:
219,86,45764,1,8,0:0:0:0:
202,102,45830,1,8,0:0:0:0:
202,102,45895,1,8,0:0:0:0:
131,279,46025,1,0,0:0:0:0:
131,279,46156,1,0,0:0:0:0:
137,144,46286,1,8,0:0:0:0:
137,144,46351,1,0,0:0:0:0:
31,112,46417,1,0,0:0:0:0:
184,289,46547,1,0,0:0:0:0:
191,277,46678,1,8,0:0:0:0:
191,277,46808,1,8,0:0:0:0:
79,150,46938,1,0,0:0:0:0:
206,243,47004,1,0,0:0:0:0:
79,150,47069,1,8,0:0:0:0:
211,137,47199,1,0,0:0:0:0:
91,204,47330,1,0,0:0:0:0:
100,233,47395,1,0,0:0:0:0:
91,204,47460,1,8,0:0:0:0:
91,204,47591,1,8,0:0:0:0:
76,102,47721,1,0,0:0:0:0:
76,102,47851,1,0,0:0:0:0:
219,217,47982,1,0,0:0:0:0:
276,271,48025,1,8,0:0:0:0:
276,271,48069,1,8,0:0:0:0:
276,271,48112,1,8,0:0:0:0:
276,271,48156,1,8,0:0:0:0:
276,271,48199,1,8,0:0:0:0:
219,217,48243,1,0,0:0:0:0:
306,174,48373,1,8,0:0:0:0:
306,174,48438,1,8,0:0:0:0:
298,166,48504,1,0,0:0:0:0:
100,163,48634,1,8,0:0:0:0:
115,159,48764,1,8,0:0:0:0:
115,159,48830,1,8,0:0:0:0:
115,159,48895,1,8,0:0:0:0:
110,268,49025,1,0,0:0:0:0:
110,268,49091,1,0,0:0:0:0:
110,268,49156,1,8,0:0:0:0:
207,158,49286,1,0,0:0:0:0:
207,158,49417,1,0,0:0:0:0:
207,158,49547,1,8,0:0:0:0:
92,230,49678,1,0,0:0:0:0:
71,180,49808,1,8,0:0:0:0:
92,230,49873,1,0,0:0:0:0:
92,230,49938,1,0,0:0:0:0:
92,230,50004,1,0,0:0:0:0:
92,230,50069,1,8,0:0:0:0:
183,101,50199,1,8,0:0:0:0:
183,101,50264,1,0,0:0:0:0:
186,48,50330,1,8,0:0:0:0:
238,190,50460,1,8,0:0:0:0:
179,292,50591,1,8,0:0:0:0:
199,161,50623,1,0,0:0:0:0:
179,292,50721,1,8,0:0:0:0:
179,292,50851,1,8,0:0:0:0:
313,134,50884,1,8,0:0:0:0:
313,134,50917,1,8,0:0:0:0:
118,78,50949,1,8,0:0:0:0:
313,134,50982,1,8,0:0:0:0:
321,208,52156,1,4,0:0:0:0:
184,136,52286,1,8,0:0:0:0:
184,136,52417,1,8,0:0:0:0:
184,136,52482,1,8,0:0:0:0:
321,208,52547,1,4,0:0:0:0:
190,104,52678,1,8,0:0:0:0:
190,104,52743,1,0,0:0:0:0:
190,104,52808,1,8,0:0:0:0:
190,104,52873,1,8,0:0:0:0:
321,208,52938,1,4,0:0:0:0:
71,239,53069,1,8,0:0:0:0:
71,239,53199,1,0,0:0:0:0:
71,239,53264,1,0,0:0:0:0:
321,208,53330,1,12,0:0:0:0:
65,158,53460,1,0,0:0:0:0:
99,57,53591,1,8,0:0:0:0:
99,57,53656,1,0,0:0:0:0:
321,208,53721,1,12,0:0:0:0:
136,316,53851,1,8,0:0:0:0:
188,87,53982,1,8,0:0:0:0:
188,87,54047,1,8,0:0:0:0:
188,87,54112,1,8,0:0:0:0:
188,87,54178,1,8,0:0:0:0:
321,208,54243,1,4,0:0:0:0:
284,173,54373,1,0,0:0:0:0:
196,108,54438,1,0,0:0:0:0:
284,173,54504,1,8,0:0:0:0:
200,208,54634,1,8,0:0:0:0:
200,208,54699,1,8,0:0:0:0:
284,162,54764,1,0,0:0:0:0:
284,162,54895,1,0,0:0:0:0:
173,127,54960,1,8,0:0:0:0:
284,162,55025,1,0,0:0:0:0:
80,181,55091,1,0,0:0:0:0:
80,181,55156,1,8,0:0:0:0:
78,95,55286,1,8,0:0:0:0:
74,91,55351,1,0,0:0:0:0:
78,95,55417,1,8,0:0:0:0:
74,91,55482,1,0,0:0:0:0:
74,91,55547,1,0,0:0:0:0:
74,91,55612,1,8,0:0:0:0:
74,91,55678,1,8,0:0:0:0:
74,91,55743,1,0,0:0:0:0:
74,91,55808,1,8,0:0:0:0:
241,227,55938,1,0,0:0:0:0:
101,239,56069,1,0,0:0:0:0:
101,239,56134,1,8,0:0:0:0:
101,239,56199,1,8,0:0:0:0:
101,239,56264,1,8,0:0:0:0:
292,130,56330,1,4,0:0:0:0:
57,294,56460,1,0,0:0:0:0:
63,293,56525,1,0,0:0:0:0:
63,293,56591,1,8,0:0:0:0:
292,130,56721,1,4,0:0:0:0:
110,233,56851,1,8,0:0:0:0:
110,233,56917,1,0,0:0:0:0:
110,233,56982,1,0,0:0:0:0:
110,233,57047,1,0,0:0:0:0:
292,130,57112,1,12,0:0:0:0:
117,202,57243,1,8,0:0:0:0:
111,151,57373,1,0,0:0:0:0:
111,151,57438,1,0,0:0:0:0:
292,130,57504,1,12,0:0:0:0:
261,260,57634,1,0,0:0:0:0:
261,260,57764,1,8,0:0:0:0:
261,260,57830,1,0,0:0:0:0:
292,130,57895,1,12,0:0:0:0:
185,199,58025,1,8,0:0:0:0:
166,79,58156,1,8,0:0:0:0:
166,79,58221,1,8,0:0:0:0:
166,79,58286,1,0,0:0:0:0:
166,79,58351,1,0,0:0:0:0:
166,79,58417,1,8,0:0:0:0:
166,79,58547,1,8,0:0:0:0:
66,177,58678,1,0,0:0:0:0:
66,177,58743,1,0,0:0:0:0:
66,177,58808,1,8,0:0:0:0:
99,212,58938,1,0,0:0:0:0:
130,245,59069,1,0,0:0:0:0:
130,245,59134,1,8,0:0:0:0:
130,245,59199,1,0,0:0:0:0:
259,257,59330,1,0,0:0:0:0:
232,193,59460,1,8,0:0:0:0:
225,191,59525,1,0,0:0:0:0:
225,191,59591,1,0,0:0:0:0:
225,191,59656,1,0,0:0:0:0:
225,191,59721,1,0,0:0:0:0:
225,191,59786,1,8,0:0:0:0:
225,191,59851,1,8,0:0:0:0:
225,191,59917,1,0,0:0:0:0:
225,191,59982,1,8,0:0:0:0:
225,191,60112,1,8,0:0:0:0:
225,191,60243,1,8,0:0:0:0:
77,246,60504,1,4,0:0:0:0:
76,105,60634,1,8,0:0:0:0:
90,104,60699,1,8,0:0:0:0:
90,104,60764,1,0,0:0:0:0:
77,246,60895,1,12,0:0:0:0:
211,77,61025,1,0,0:0:0:0:
211,77,61091,1,0,0:0:0:0:
211,77,61156,1,8,0:0:0:0:
211,77,61221,1,8,0:0:0:0:
77,246,61286,1,4,0:0:0:0:
196,104,61417,1,0,0:0:0:0:
110,83,61547,1,0,0:0:0:0:
136,104,61612,1,0,0:0:0:0:
77,246,61678,1,12,0:0:0:0:
270,186,61808,1,8,0:0:0:0:
270,186,61873,1,0,0:0:0:0:
270,186,61938,1,8,0:0:0:0:
270,186,62004,1,0,0:0:0:0:
77,246,62069,1,12,0:0:0:0:
221,127,62199,1,8,0:0:0:0:
216,134,62330,1,8,0:0:0:0:
211,143,62395,1,8,0:0:0:0:
211,143,62460,1,8,0:0:0:0:
211,146,62525,1,0,0:0:0:0:
105,187,62851,1,12,0:0:0:0:
201,275,63112,1,8,0:0:0:0:
201,275,63243,1,0,0:0:0:0:
177,309,63308,1,8,0:0:0:0:
201,275,63373,1,8,0:0:0:0:
152,293,63504,1,0,0:0:0:0:
177,309,63569,1,8,0:0:0:0:
152,293,63634,1,8,0:0:0:0:
109,169,63764,1,0,0:0:0:0:
109,169,63830,1,0,0:0:0:0:
109,169,63895,1,8,0:0:0:0:
109,169,63960,1,8,0:0:0:0:
109,169,64025,1,0,0:0:0:0:
109,169,64091,1,0,0:0:0:0:
109,169,64156,1,8,0:0:0:0:
166,292,64286,1,0,0:0:0:0:
171,247,64417,1,8,0:0:0:0:
171,247,64482,1,8,0:0:0:0:
171,247,64547,1,8,0:0:0:0:
171,247,64612,1,0,0:0:0:0:
171,247,64678,1,12,0:0:0:0:
124,137,64808,1,8,0:0:0:0:
124,137,64938,1,8,0:0:0:0:
124,137,65004,1,8,0:0:0:0:
174,240,65069,1,4,0:0:0:0:
136,103,65330,1,8,0:0:0:0:
136,103,65395,1,8,0:0:0:0:
174,240,65460,1,4,0:0:0:0:
62,148,65721,1,0,0:0:0:0:
121,201,65786,1,0,0:0:0:0:
217,146,65851,1,12,0:0:0:0:
111,193,65982,1,8,0:0:0:0:
279,182,66112,1,8,0:0:0:0:
279,182,66178,1,0,0:0:0:0:
217,146,66243,1,12,0:0:0:0:
168,292,66373,1,8,0:0:0:0:
190,279,66504,1,8,0:0:0:0:
190,279,66569,1,0,0:0:0:0:
190,279,66634,1,0,0:0:0:0:
190,279,66699,1,0,0:0:0:0:
190,279,66764,1,12,0:0:0:0:
131,184,66895,1,0,0:0:0:0:
131,184,66960,1,0,0:0:0:0:
131,184,67025,1,8,0:0:0:0:
131,184,67091,1,0,0:0:0:0:
131,184,67156,1,8,0:0:0:0:
130,107,67286,1,0,0:0:0:0:
130,107,67351,1,8,0:0:0:0:
130,107,67417,1,0,0:0:0:0:
130,107,67482,1,0,0:0:0:0:
130,98,67547,1,8,0:0:0:0:
96,233,67678,1,0,0:0:0:0:
96,233,67743,1,0,0:0:0:0:
96,233,67808,1,8,0:0:0:0:
96,233,68069,1,8,0:0:0:0:
96,233,68330,1,8,0:0:0:0:
96,233,68591,1,8,0:0:0:0:
186,237,68851,1,4,0:0:0:0:
138,120,68982,1,8,0:0:0:0:
138,120,69047,1,0,0:0:0:0:
138,120,69112,1,8,0:0:0:0:
138,120,69178,1,8,0:0:0:0:
138,120,69243,1,0,0:0:0:0:
244,233,69373,1,8,0:0:0:0:
242,245,69438,1,0,0:0:0:0:
245,247,69504,1,0,0:0:0:0:
246,250,69569,1,0,0:0:0:0:
246,250,69634,1,8,0:0:0:0:
240,252,69699,1,8,0:0:0:0:
246,250,69764,1,0,0:0:0:0:
78,288,69895,1,0,0:0:0:0:
78,288,69960,1,0,0:0:0:0:
78,288,70025,1,0,0:0:0:0:
168,132,70156,1,0,0:0:0:0:
168,132,70221,1,8,0:0:0:0:
168,132,70286,1,0,0:0:0:0:
69,205,70417,1,0,0:0:0:0:
75,206,70482,1,0,0:0:0:0:
69,205,70547,1,0,0:0:0:0:
75,206,70612,1,0,0:0:0:0:
75,206,70678,1,8,0:0:0:0:
430,121,70721,1,8,0:0:0:0:
430,121,70764,1,8,0:0:0:0:
75,206,70808,1,0,0:0:0:0:
270,258,70938,1,8,0:0:0:0:
270,258,71004,1,8,0:0:0:0:
268,249,71069,1,8,0:0:0:0:
270,258,71134,1,0,0:0:0:0:
270,258,71199,1,8,0:0:0:0:
270,258,71264,1,8,0:0:0:0:
268,249,71330,1,0,0:0:0:0:
226,106,71460,1,8,0:0:0:0:
226,106,71525,1,0,0:0:0:0:
226,106,71591,1,8,0:0:0:0:
131,233,71721,1,0,0:0:0:0:
131,233,71786,1,8,0:0:0:0:
131,233,71851,1,0,0:0:0:0:
161,51,71982,1,0,0:0:0:0:
161,51,72047,1,0,0:0:0:0:
183,99,72112,1,0,0:0:0:0:
161,51,72178,1,0,0:0:0:0:
161,51,72243,1,8,0:0:0:0:
58,173,72373,1,0,0:0:0:0:
196,248,72504,1,0,0:0:0:0:
196,248,72569,1,0,0:0:0:0:
196,248,72634,1,8,0:0:0:0:
196,248,72699,1,0,0:0:0:0:
196,248,72764,1,8,0:0:0:0:
196,248,72830,1,0,0:0:0:0:
196,248,72895,1,8,0:0:0:0:
248,123,73025,1,8,0:0:0:0:
179,107,73156,1,8,0:0:0:0:
179,107,73221,1,8,0:0:0:0:
179,107,73286,1,0,0:0:0:0:
179,107,73351,1,0,0:0:0:0:
179,107,73417,1,0,0:0:0:0:
98,252,73547,1,8,0:0:0:0:
98,252,73678,1,0,0:0:0:0:
98,252,73744,1,8,0:0:0:0:
98,252,73808,1,8,0:0:0:0:
98,252,73938,1,0,0:0:0:0:
37,197,74069,1,8,0:0:0:0:
16,181,74134,1,8,0:0:0:0:
16,181,74199,1,8,0:0:0:0:
12,189,74264,1,0,0:0:0:0:
12,189,74330,1,8,0:0:0:0:
12,189,74395,1,8,0:0:0:0:
12,189,74460,1,0,0:0:0:0:
12,189,74525,1,0,0:0:0:0:
12,189,74591,1,8,0:0:0:0:
12,189,74656,1,0,0:0:0:0:
12,189,74721,1,0,0:0:0:0:
12,189,74786,1,0,0:0:0:0:
12,189,74851,1,8,0:0:0:0:
204,173,74982,1,8,0:0:0:0:
160,105,75112,1,4,0:0:0:0:
152,264,75373,1,8,0:0:0:0:
152,264,75504,1,8,0:0:0:0:
160,105,75634,1,4,0:0:0:0:
152,264,75764,1,8,0:0:0:0:
152,264,75895,1,8,0:0:0:0:
152,264,76025,1,8,0:0:0:0:
160,105,76156,1,4,0:0:0:0:
287,211,76351,1,8,0:0:0:0:
287,211,76547,1,8,0:0:0:0:
177,146,76678,1,4,0:0:0:0:
287,211,76808,1,8,0:0:0:0:
287,211,76938,1,0,0:0:0:0:
287,211,77069,1,8,0:0:0:0:
213,183,77199,1,4,0:0:0:0:
116,141,77373,1,8,0:0:0:0:
260,93,77460,1,0,0:0:0:0:
116,141,77547,1,8,0:0:0:0:
184,143,77721,1,4,0:0:0:0:
116,141,77895,1,8,0:0:0:0:
260,93,77982,1,8,0:0:0:0:
116,141,78069,1,8,0:0:0:0:
173,135,78243,1,4,0:0:0:0:
264,129,78417,1,0,0:0:0:0:
264,129,78504,1,0,0:0:0:0:
116,141,78591,1,8,0:0:0:0:
173,135,78764,1,4,0:0:0:0:
257,155,78938,1,0,0:0:0:0:
396,142,79025,1,8,0:0:0:0:
396,142,79069,1,8,0:0:0:0:
396,142,79112,1,8,0:0:0:0:
396,142,79156,1,0,0:0:0:0:
218,215,79286,1,12,0:0:0:0:
147,153,79460,1,8,0:0:0:0:
147,153,79547,1,8,0:0:0:0:
147,153,79634,1,8,0:0:0:0:
115,92,79808,1,12,0:0:0:0:
211,90,79982,1,0,0:0:0:0:
161,54,80069,1,8,0:0:0:0:
211,90,80156,1,8,0:0:0:0:
119,250,80243,1,0,0:0:0:0:
115,92,80330,1,12,0:0:0:0:
119,250,80504,1,0,0:0:0:0:
119,250,80591,1,0,0:0:0:0:
119,250,80678,1,8,0:0:0:0:
115,92,80851,1,0,0:0:0:0:
173,205,80938,1,0,0:0:0:0:
173,205,81025,1,0,0:0:0:0:
173,205,81112,1,8,0:0:0:0:
173,205,81286,1,0,0:0:0:0:
173,205,81373,1,8,0:0:0:0:
269,137,81438,1,8,0:0:0:0:
269,114,81504,1,0,0:0:0:0:
269,124,81569,1,0,0:0:0:0:
269,114,81634,1,8,0:0:0:0:
269,124,81699,1,0,0:0:0:0:
269,114,81764,1,8,0:0:0:0:
105,138,81895,1,8,0:0:0:0:
96,126,81960,1,0,0:0:0:0:
101,131,82025,1,8,0:0:0:0:
96,127,82091,1,0,0:0:0:0:
96,126,82156,1,8,0:0:0:0:
96,126,82221,1,8,0:0:0:0:
96,126,82286,1,8,0:0:0:0:
158,95,82417,1,0,0:0:0:0:
150,73,82482,1,0,0:0:0:0:
145,67,82547,1,8,0:0:0:0:
145,67,82612,1,0,0:0:0:0:
145,67,82678,1,0,0:0:0:0:
140,59,82743,1,0,0:0:0:0:
145,67,82808,1,8,0:0:0:0:
127,174,82938,1,8,0:0:0:0:
123,165,83004,1,0,0:0:0:0:
123,157,83069,1,8,0:0:0:0:
116,148,83134,1,8,0:0:0:0:
143,182,83199,1,0,0:0:0:0:
116,148,83264,1,0,0:0:0:0:
147,188,83330,1,8,0:0:0:0:
116,42,83460,1,8,0:0:0:0:
116,42,83504,1,0,0:0:0:0:
116,42,83547,1,0,0:0:0:0:
116,42,83591,1,0,0:0:0:0:
116,42,83721,1,8,0:0:0:0:
116,42,83764,1,8,0:0:0:0:
116,42,83808,1,0,0:0:0:0:
116,42,83851,1,0,0:0:0:0:
116,42,83982,1,8,0:0:0:0:
116,42,84025,1,0,0:0:0:0:
116,42,84069,1,0,0:0:0:0:
116,42,84112,1,0,0:0:0:0:
116,42,84243,1,8,0:0:0:0:
116,42,84286,1,8,0:0:0:0:
116,42,84330,1,8,0:0:0:0:
116,42,84373,1,0,0:0:0:0:
403,98,84504,1,8,0:0:0:0:
403,98,84569,1,8,0:0:0:0:
403,98,84634,1,0,0:0:0:0:
403,98,84699,1,0,0:0:0:0:
403,98,84764,1,8,0:0:0:0:
300,101,84830,1,0,0:0:0:0:
300,101,84895,1,0,0:0:0:0:
300,101,84960,1,0,0:0:0:0:
251,108,85025,1,8,0:0:0:0:
272,156,85069,1,8,0:0:0:0:
272,156,85112,1,8,0:0:0:0:
272,156,85156,1,0,0:0:0:0:
272,156,85221,1,0,0:0:0:0:
272,156,85286,1,8,0:0:0:0:
272,156,85330,1,8,0:0:0:0:
272,156,85373,1,8,0:0:0:0:
272,156,85417,1,8,0:0:0:0:
272,156,85460,1,8,0:0:0:0:
272,156,85504,1,8,0:0:0:0:
294,268,85547,1,0,0:0:0:0:
301,252,85939,1,0,0:0:0:0:
301,252,86069,1,8,0:0:0:0:
145,216,86330,1,8,0:0:0:0:
145,216,86591,1,0,0:0:0:0:
145,216,86851,1,0,0:0:0:0:
145,216,86982,1,8,0:0:0:0:
145,216,87112,1,0,0:0:0:0:
145,216,87373,1,8,0:0:0:0:
145,216,87634,1,0,0:0:0:0:
107,135,88025,1,0,0:0:0:0:
107,135,88156,1,8,0:0:0:0:
107,135,88417,1,8,0:0:0:0:
217,90,88678,1,0,0:0:0:0:
217,90,88938,1,0,0:0:0:0:
217,90,89069,1,8,0:0:0:0:
217,90,89330,1,8,0:0:0:0:
217,90,89460,1,0,0:0:0:0:
217,90,89721,1,0,0:0:0:0:
138,247,89851,1,8,0:0:0:0:
138,247,89917,1,8,0:0:0:0:
138,247,89982,1,8,0:0:0:0:
138,247,90047,1,0,0:0:0:0:
138,247,90112,1,8,0:0:0:0:
147,251,90243,1,8,0:0:0:0:
147,290,90504,1,0,0:0:0:0:
149,283,90764,1,8,0:0:0:0:
149,283,91025,1,8,0:0:0:0:
149,283,91156,1,0,0:0:0:0:
149,283,91286,1,8,0:0:0:0:
149,283,91547,1,8,0:0:0:0:
180,146,91808,1,4,0:0:0:0:
180,146,92069,1,8,0:0:0:0:
180,146,92199,1,8,0:0:0:0:
180,146,92330,1,4,0:0:0:0:
180,146,92591,1,8,0:0:0:0:
180,146,92851,1,4,0:0:0:0:
180,146,93047,1,8,0:0:0:0:
180,146,93243,1,8,0:0:0:0:
180,146,93373,1,4,0:0:0:0:
180,146,93504,1,8,0:0:0:0:
109,62,93569,1,8,0:0:0:0:
61,196,93764,1,8,0:0:0:0:
256,192,93896,5,4,0:0:0:0:
256,192,94271,1,0,0:0:0:0:
256,192,94396,1,8,0:0:0:0:
256,192,94646,1,0,0:0:0:0:
256,192,94896,1,8,0:0:0:0:
256,192,95271,1,8,0:0:0:0:
256,192,95396,1,0,0:0:0:0:
256,192,95646,1,8,0:0:0:0:
256,192,95896,1,0,0:0:0:0:
256,192,96271,1,0,0:0:0:0:
256,192,96396,1,8,0:0:0:0:
256,192,96646,1,0,0:0:0:0:
256,192,96896,1,8,0:0:0:0:
256,192,97271,1,0,0:0:0:0:
256,192,97396,1,8,0:0:0:0:
256,192,97521,1,8,0:0:0:0:
256,192,97646,1,0,0:0:0:0:
256,192,97771,1,8,0:0:0:0:
256,192,98016,1,0,0:0:0:0:
256,192,98076,1,0,0:0:0:0:
256,192,98136,1,8,0:0:0:0:
256,192,98196,1,8,0:0:0:0:
256,192,98256,1,0,0:0:0:0:
256,192,98376,1,8,0:0:0:0:
256,192,98616,1,0,0:0:0:0:
256,192,98856,1,8,0:0:0:0:
256,192,99216,1,8,0:0:0:0:
256,192,99336,1,0,0:0:0:0:
256,192,99576,1,8,0:0:0:0:
256,192,99816,1,0,0:0:0:0:
256,192,100056,1,8,0:0:0:0:
256,192,100176,1,0,0:0:0:0:
256,192,100296,1,0,0:0:0:0:
256,192,100536,1,0,0:0:0:0:
256,192,100776,1,0,0:0:0:0:
256,192,100956,1,8,0:0:0:0:
256,192,101136,1,8,0:0:0:0:
256,192,101256,1,0,0:0:0:0:
256,192,101376,1,8,0:0:0:0:
256,192,101616,1,8,0:0:0:0:
256,192,101736,1,4,0:0:0:0:
256,192,101966,1,8,0:0:0:0:
256,192,102082,1,8,0:0:0:0:
256,192,102197,1,0,0:0:0:0:
256,192,102312,1,8,0:0:0:0:
256,192,102428,1,8,0:0:0:0:
256,192,102659,1,0,0:0:0:0:
256,192,102889,1,8,0:0:0:0:
256,192,103005,1,8,0:0:0:0:
256,192,103120,1,0,0:0:0:0:
256,192,103236,1,8,0:0:0:0:
256,192,103351,1,8,0:0:0:0:
256,192,103582,1,0,0:0:0:0:
256,192,103812,1,8,0:0:0:0:
256,192,103928,1,8,0:0:0:0:
256,192,104043,1,0,0:0:0:0:
256,192,104159,1,8,0:0:0:0:
256,192,104274,1,8,0:0:0:0:
256,192,104505,1,0,0:0:0:0:
256,192,104736,1,8,0:0:0:0:
256,192,104851,1,8,0:0:0:0:
256,192,105082,1,8,0:0:0:0:
256,192,105197,1,0,0:0:0:0:
256,192,105312,1,8,0:0:0:0:
256,192,105543,1,0,0:0:0:0:
256,192,105600,1,0,0:0:0:0:
256,192,105658,1,8,0:0:0:0:
256,192,105716,1,8,0:0:0:0:
256,192,105773,1,0,0:0:0:0:
256,192,105889,1,0,0:0:0:0:
256,192,106005,1,8,0:0:0:0:
256,192,106120,1,8,0:0:0:0:
256,192,106351,1,0,0:0:0:0:
256,192,106582,1,8,0:0:0:0:
256,192,106697,1,8,0:0:0:0:
256,192,106812,1,0,0:0:0:0:
256,192,106928,1,8,0:0:0:0:
256,192,107043,1,8,0:0:0:0:
256,192,107159,1,8,0:0:0:0:
256,192,107216,1,8,0:0:0:0:
256,192,107274,1,0,0:0:0:0:
256,192,107505,1,8,0:0:0:0:
256,192,107620,1,8,0:0:0:0:
256,192,107736,1,0,0:0:0:0:
256,192,107851,1,8,0:0:0:0:
256,192,107966,1,8,0:0:0:0:
256,192,108197,1,0,0:0:0:0:
256,192,108370,1,8,0:0:0:0:
256,192,108543,1,8,0:0:0:0:
256,192,108659,1,0,0:0:0:0:
256,192,108774,1,8,0:0:0:0:
256,192,108832,1,8,0:0:0:0:
256,192,108889,1,0,0:0:0:0:
256,192,108947,1,0,0:0:0:0:
256,192,109005,1,8,0:0:0:0:
256,192,109120,5,4,0:0:0:0:
256,192,109236,1,0,0:0:0:0:
256,192,109293,1,8,0:0:0:0:
256,192,109351,1,0,0:0:0:0:
256,192,109409,1,0,0:0:0:0:
256,192,109466,1,8,0:0:0:0:
256,192,109524,1,8,0:0:0:0:
256,192,109582,1,0,0:0:0:0:
256,192,109697,1,0,0:0:0:0:
256,192,109755,1,8,0:0:0:0:
256,192,109812,1,0,0:0:0:0:
256,192,109870,1,0,0:0:0:0:
256,192,109928,1,8,0:0:0:0:
256,192,109986,1,8,0:0:0:0:
256,192,110043,1,0,0:0:0:0:
256,192,110159,1,0,0:0:0:0:
256,192,110216,1,8,0:0:0:0:
256,192,110274,1,0,0:0:0:0:
256,192,110332,1,0,0:0:0:0:
256,192,110389,1,8,0:0:0:0:
256,192,110447,1,8,0:0:0:0:
256,192,110505,1,0,0:0:0:0:
256,192,110562,1,0,0:0:0:0:
256,192,110620,1,0,0:0:0:0:
256,192,110678,1,0,0:0:0:0:
256,192,110736,1,8,0:0:0:0:
256,192,110851,1,8,0:0:0:0:
256,192,110966,1,4,0:0:0:0:
256,192,111082,1,0,0:0:0:0:
256,192,111139,1,8,0:0:0:0:
256,192,111197,1,0,0:0:0:0:
256,192,111312,1,8,0:0:0:0:
256,192,111370,1,8,0:0:0:0:
256,192,111428,1,0,0:0:0:0:
256,192,111543,1,0,0:0:0:0:
256,192,111601,1,8,0:0:0:0:
256,192,111659,1,0,0:0:0:0:
256,192,111774,1,8,0:0:0:0:
256,192,111832,1,8,0:0:0:0:
256,192,111889,1,0,0:0:0:0:
256,192,112005,1,0,0:0:0:0:
256,192,112062,1,8,0:0:0:0:
256,192,112120,1,0,0:0:0:0:
256,192,112178,1,0,0:0:0:0:
256,192,112236,1,8,0:0:0:0:
256,192,112351,12,8,112582,0:0:0:0:
256,192,112812,5,0,0:0:0:0:
256,192,112870,1,0,0:0:0:0:
256,192,112928,1,8,0:0:0:0:
256,192,112986,1,0,0:0:0:0:
256,192,113043,1,8,0:0:0:0:
256,192,113101,1,8,0:0:0:0:
256,192,113159,1,0,0:0:0:0:
256,192,113216,1,0,0:0:0:0:
256,192,113274,1,8,0:0:0:0:
256,192,113332,1,8,0:0:0:0:
256,192,113389,1,0,0:0:0:0:
256,192,113447,1,8,0:0:0:0:
256,192,113505,1,0,0:0:0:0:
256,192,113562,1,0,0:0:0:0:
256,192,113620,1,8,0:0:0:0:
256,192,113678,1,8,0:0:0:0:
256,192,113736,1,0,0:0:0:0:
256,192,113793,1,0,0:0:0:0:
256,192,113851,1,8,0:0:0:0:
256,192,113909,1,0,0:0:0:0:
256,192,113966,1,8,0:0:0:0:
256,192,114024,1,0,0:0:0:0:
256,192,114082,1,8,0:0:0:0:
256,192,114139,1,8,0:0:0:0:
256,192,114197,1,0,0:0:0:0:
256,192,114255,1,8,0:0:0:0:
256,192,114312,1,0,0:0:0:0:
256,192,114370,1,0,0:0:0:0:
256,192,114428,1,8,0:0:0:0:
256,192,114486,1,0,0:0:0:0:
256,192,114543,1,8,0:0:0:0:
256,192,114601,1,8,0:0:0:0:
256,192,114659,1,0,0:0:0:0:
256,192,114716,1,0,0:0:0:0:
256,192,114774,1,8,0:0:0:0:
256,192,114832,1,8,0:0:0:0:
256,192,114889,1,0,0:0:0:0:
256,192,114928,1,0,0:0:0:0:
256,192,114966,1,0,0:0:0:0:
256,192,115005,1,8,0:0:0:0:
256,192,115062,1,8,0:0:0:0:
256,192,115120,1,0,0:0:0:0:
256,192,115159,1,0,0:0:0:0:
256,192,115197,1,0,0:0:0:0:
256,192,115236,1,8,0:0:0:0:
256,192,115293,1,8,0:0:0:0:
256,192,115351,1,0,0:0:0:0:
256,192,115389,1,8,0:0:0:0:
256,192,115428,1,8,0:0:0:0:
256,192,115466,1,0,0:0:0:0:
256,192,115524,1,0,0:0:0:0:
256,192,115582,1,8,0:0:0:0:
256,192,115639,1,0,0:0:0:0:
256,192,115697,1,8,0:0:0:0:
256,192,115755,1,8,0:0:0:0:
256,192,115812,1,0,0:0:0:0:
256,192,115870,1,8,0:0:0:0:
256,192,115928,1,0,0:0:0:0:
256,192,115986,1,0,0:0:0:0:
256,192,116043,1,8,0:0:0:0:
256,192,116505,5,4,0:0:0:0:
256,192,116736,1,8,0:0:0:0:
256,192,116793,1,8,0:0:0:0:
256,192,116851,1,8,0:0:0:0:
256,192,116909,1,8,0:0:0:0:
256,192,116995,1,0,0:0:0:0:
256,192,117082,1,8,0:0:0:0:
256,192,117139,1,8,0:0:0:0:
256,192,117197,1,8,0:0:0:0:
256,192,117255,1,8,0:0:0:0:
256,192,117427,1,12,0:0:0:0:
256,192,117582,1,0,0:0:0:0:
256,192,117659,1,0,0:0:0:0:
256,192,117774,1,8,0:0:0:0:
256,192,117832,1,8,0:0:0:0:
256,192,117889,1,8,0:0:0:0:
256,192,117947,1,8,0:0:0:0:
256,192,118005,1,0,0:0:0:0:
256,192,118120,1,0,0:0:0:0:
256,192,118178,1,8,0:0:0:0:
256,192,118236,1,0,0:0:0:0:
256,192,118351,1,0,0:0:0:0:
256,192,118582,1,8,0:0:0:0:
256,192,118639,1,8,0:0:0:0:
256,192,118697,1,8,0:0:0:0:
256,192,118755,1,8,0:0:0:0:
256,192,118841,1,0,0:0:0:0:
256,192,118928,1,8,0:0:0:0:
256,192,118986,1,8,0:0:0:0:
256,192,119043,1,8,0:0:0:0:
256,192,119101,1,8,0:0:0:0:
256,192,119273,1,12,0:0:0:0:
256,192,119447,1,0,0:0:0:0:
256,192,119534,1,0,0:0:0:0:
256,192,119620,1,0,0:0:0:0:
256,192,119707,1,8,0:0:0:0:
256,192,119793,1,8,0:0:0:0:
256,192,119880,1,0,0:0:0:0:
256,192,119966,1,0,0:0:0:0:
256,192,120053,1,8,0:0:0:0:
256,192,120197,1,0,0:0:0:0:
256,192,120428,1,8,0:0:0:0:
256,192,120486,1,8,0:0:0:0:
256,192,120543,1,8,0:0:0:0:
256,192,120659,1,8,0:0:0:0:
256,192,120697,1,8,0:0:0:0:
256,192,120736,1,8,0:0:0:0:
256,192,120774,1,8,0:0:0:0:
256,192,120832,1,8,0:0:0:0:
256,192,120889,1,0,0:0:0:0:
256,192,121005,1,0,0:0:0:0:
256,192,121119,1,12,0:0:0:0:
256,192,121293,1,0,0:0:0:0:
256,192,121466,1,0,0:0:0:0:
256,192,121524,1,0,0:0:0:0:
256,192,121582,1,8,0:0:0:0:
256,192,121639,1,0,0:0:0:0:
256,192,121812,1,0,0:0:0:0:
256,192,121928,1,0,0:0:0:0:
256,192,122043,1,0,0:0:0:0:
256,192,122082,1,0,0:0:0:0:
256,192,122120,1,0,0:0:0:0:
256,192,122159,1,8,0:0:0:0:
256,192,122187,1,8,0:0:0:0:
256,192,122389,1,0,0:0:0:0:
256,192,122428,1,0,0:0:0:0:
256,192,122466,1,0,0:0:0:0:
256,192,122505,1,8,0:0:0:0:
256,192,122534,1,8,0:0:0:0:
256,192,122736,1,0,0:0:0:0:
256,192,122774,1,0,0:0:0:0:
256,192,122812,1,0,0:0:0:0:
256,192,122851,1,8,0:0:0:0:
256,192,122880,1,8,0:0:0:0:
256,192,123082,1,0,0:0:0:0:
256,192,123120,1,0,0:0:0:0:
256,192,123159,1,0,0:0:0:0:
256,192,123197,1,8,0:0:0:0:
256,192,123226,1,8,0:0:0:0:
256,192,123428,1,12,0:0:0:0:
256,192,123889,1,4,0:0:0:0:
256,192,124120,1,8,0:0:0:0:
256,192,124178,1,8,0:0:0:0:
256,192,124236,1,8,0:0:0:0:
256,192,124293,1,8,0:0:0:0:
256,192,124380,1,0,0:0:0:0:
256,192,124466,1,8,0:0:0:0:
256,192,124524,1,8,0:0:0:0:
256,192,124582,1,8,0:0:0:0:
256,192,124639,1,8,0:0:0:0:
256,192,124811,1,12,0:0:0:0:
256,192,124966,1,0,0:0:0:0:
256,192,125043,1,0,0:0:0:0:
256,192,125159,1,8,0:0:0:0:
256,192,125216,1,8,0:0:0:0:
256,192,125274,1,8,0:0:0:0:
256,192,125332,1,8,0:0:0:0:
256,192,125389,1,0,0:0:0:0:
256,192,125505,1,0,0:0:0:0:
256,192,125562,1,8,0:0:0:0:
256,192,125620,1,0,0:0:0:0:
256,192,125736,1,0,0:0:0:0:
256,192,125966,1,8,0:0:0:0:
256,192,126024,1,8,0:0:0:0:
256,192,126082,1,8,0:0:0:0:
256,192,126139,1,8,0:0:0:0:
256,192,126226,1,0,0:0:0:0:
256,192,126312,1,8,0:0:0:0:
256,192,126370,1,8,0:0:0:0:
256,192,126428,1,8,0:0:0:0:
256,192,126486,1,8,0:0:0:0:
256,192,126658,1,12,0:0:0:0:
256,192,126832,1,0,0:0:0:0:
256,192,126918,1,0,0:0:0:0:
256,192,127005,1,0,0:0:0:0:
256,192,127091,1,8,0:0:0:0:
256,192,127178,1,8,0:0:0:0:
256,192,127264,1,0,0:0:0:0:
256,192,127351,1,0,0:0:0:0:
256,192,127437,1,8,0:0:0:0:
256,192,127582,1,0,0:0:0:0:
256,192,127812,1,8,0:0:0:0:
256,192,127870,1,8,0:0:0:0:
256,192,127928,1,8,0:0:0:0:
256,192,128043,1,8,0:0:0:0:
256,192,128082,1,8,0:0:0:0:
256,192,128120,1,8,0:0:0:0:
256,192,128159,1,8,0:0:0:0:
256,192,128216,1,8,0:0:0:0:
256,192,128274,1,0,0:0:0:0:
256,192,128389,1,0,0:0:0:0:
256,192,128504,1,12,0:0:0:0:
256,192,128678,1,0,0:0:0:0:
256,192,128851,1,0,0:0:0:0:
256,192,128909,1,0,0:0:0:0:
256,192,128966,1,8,0:0:0:0:
256,192,129024,1,0,0:0:0:0:
256,192,129197,1,0,0:0:0:0:
256,192,129312,1,0,0:0:0:0:
256,192,129428,1,0,0:0:0:0:
256,192,129466,1,0,0:0:0:0:
256,192,129505,1,0,0:0:0:0:
256,192,129543,1,8,0:0:0:0:
256,192,129572,1,8,0:0:0:0:
256,192,129774,1,0,0:0:0:0:
256,192,129812,1,0,0:0:0:0:
256,192,129851,1,0,0:0:0:0:
256,192,129889,1,8,0:0:0:0:
256,192,129918,1,8,0:0:0:0:
256,192,130121,1,0,0:0:0:0:
256,192,130159,1,0,0:0:0:0:
256,192,130197,1,0,0:0:0:0:
256,192,130236,1,8,0:0:0:0:
256,192,130264,1,8,0:0:0:0:
256,192,130466,1,0,0:0:0:0:
256,192,130505,1,0,0:0:0:0:
256,192,130543,1,0,0:0:0:0:
256,192,130582,1,8,0:0:0:0:
256,192,130611,1,8,0:0:0:0:
256,192,130697,1,0,0:0:0:0:
256,192,130812,1,8,0:0:0:0:
256,192,130928,1,0,0:0:0:0:
256,192,131043,1,8,0:0:0:0:
256,192,131159,1,8,0:0:0:0:
256,192,131274,5,0,0:0:0:0:
256,192,131505,1,0,0:0:0:0:
256,192,131736,1,12,0:0:0:0:
256,192,131966,1,0,0:0:0:0:
256,192,132082,1,0,0:0:0:0:
256,192,132298,1,0,0:0:0:0:
256,192,132428,1,0,0:0:0:0:
256,192,132659,1,12,0:0:0:0:
256,192,132774,1,0,0:0:0:0:
256,192,133005,1,0,0:0:0:0:
256,192,133120,1,0,0:0:0:0:
256,192,133236,1,8,0:0:0:0:
256,192,133351,1,8,0:0:0:0:
256,192,133437,1,0,0:0:0:0:
256,192,133510,1,0,0:0:0:0:
256,192,133582,1,12,0:0:0:0:
256,192,133812,1,0,0:0:0:0:
256,192,133928,1,0,0:0:0:0:
256,192,134159,1,8,0:0:0:0:
256,192,134274,1,0,0:0:0:0:
256,192,134361,1,0,0:0:0:0:
256,192,134433,1,0,0:0:0:0:
256,192,134505,1,12,0:0:0:0:
256,192,134736,1,12,0:0:0:0:
256,192,134851,1,0,0:0:0:0:
256,192,134966,1,0,0:0:0:0:
256,192,135197,1,0,0:0:0:0:
256,192,135428,1,12,0:0:0:0:
256,192,135659,1,0,0:0:0:0:
256,192,135774,1,8,0:0:0:0:
256,192,135889,1,8,0:0:0:0:
256,192,135990,1,0,0:0:0:0:
256,192,136120,1,0,0:0:0:0:
256,192,136236,1,0,0:0:0:0:
256,192,136351,1,12,0:0:0:0:
256,192,136466,1,0,0:0:0:0:
256,192,136697,1,8,0:0:0:0:
256,192,136812,1,0,0:0:0:0:
256,192,136928,1,8,0:0:0:0:
256,192,137043,1,0,0:0:0:0:
256,192,137159,1,0,0:0:0:0:
256,192,137274,1,12,0:0:0:0:
256,192,137505,1,0,0:0:0:0:
256,192,137620,1,0,0:0:0:0:
256,192,137851,1,8,0:0:0:0:
256,192,137966,1,0,0:0:0:0:
256,192,138053,1,0,0:0:0:0:
256,192,138125,1,0,0:0:0:0:
256,192,138197,1,12,0:0:0:0:
256,192,138428,1,0,0:0:0:0:
256,192,138543,1,0,0:0:0:0:
256,192,138659,1,0,0:0:0:0:
256,192,138889,1,0,0:0:0:0:
256,192,139120,1,12,0:0:0:0:
256,192,139351,1,0,0:0:0:0:
256,192,139466,1,8,0:0:0:0:
256,192,139683,1,0,0:0:0:0:
256,192,139812,1,0,0:0:0:0:
256,192,139928,1,0,0:0:0:0:
256,192,140043,1,12,0:0:0:0:
256,192,140159,1,0,0:0:0:0:
256,192,140389,1,0,0:0:0:0:
256,192,140505,1,0,0:0:0:0:
256,192,140620,1,8,0:0:0:0:
256,192,140736,1,8,0:0:0:0:
256,192,140822,1,0,0:0:0:0:
256,192,140894,1,0,0:0:0:0:
256,192,140966,1,12,0:0:0:0:
256,192,141197,1,0,0:0:0:0:
256,192,141312,1,0,0:0:0:0:
256,192,141543,1,8,0:0:0:0:
256,192,141659,1,0,0:0:0:0:
256,192,141745,1,0,0:0:0:0:
256,192,141817,1,0,0:0:0:0:
256,192,141889,1,12,0:0:0:0:
256,192,142120,1,0,0:0:0:0:
256,192,142236,1,0,0:0:0:0:
256,192,142351,1,0,0:0:0:0:
256,192,142582,1,0,0:0:0:0:
256,192,142812,1,12,0:0:0:0:
256,192,143043,1,0,0:0:0:0:
256,192,143159,1,8,0:0:0:0:
256,192,143274,1,8,0:0:0:0:
256,192,143375,1,0,0:0:0:0:
256,192,143505,1,0,0:0:0:0:
256,192,143620,1,0,0:0:0:0:
256,192,143736,1,12,0:0:0:0:
256,192,143966,1,0,0:0:0:0:
256,192,144082,5,8,0:0:0:0:
256,192,144312,1,8,0:0:0:0:
256,192,144428,1,0,0:0:0:0:
256,192,144659,1,8,0:0:0:0:
256,192,144889,1,0,0:0:0:0:
256,192,145120,1,8,0:0:0:0:
256,192,145236,1,8,0:0:0:0:
256,192,145351,1,0,0:0:0:0:
256,192,145582,1,12,0:0:0:0:
256,192,146043,5,0,0:0:0:0:
256,192,146101,1,0,0:0:0:0:
256,192,146159,1,0,0:0:0:0:
256,192,146216,1,0,0:0:0:0:
256,192,146274,1,0,0:0:0:0:
256,192,146389,1,0,0:0:0:0:
256,192,146505,1,8,0:0:0:0:
256,192,146851,1,8,0:0:0:0:
256,192,146966,1,0,0:0:0:0:
256,192,147312,1,0,0:0:0:0:
256,192,147428,1,8,0:0:0:0:
256,192,147774,1,8,0:0:0:0:
256,192,147889,1,0,0:0:0:0:
256,192,148005,1,8,0:0:0:0:
256,192,148120,1,0,0:0:0:0:
256,192,148351,1,8,0:0:0:0:
256,192,148697,1,8,0:0:0:0:
256,192,148812,1,0,0:0:0:0:
256,192,149043,1,0,0:0:0:0:
256,192,149159,1,0,0:0:0:0:
256,192,149274,1,8,0:0:0:0:
256,192,149736,1,8,0:0:0:0:
256,192,149966,1,0,0:0:0:0:
256,192,150197,1,8,0:0:0:0:
256,192,150428,1,0,0:0:0:0:
256,192,150543,1,8,0:0:0:0:
256,192,150659,1,8,0:0:0:0:
256,192,150774,1,8,0:0:0:0:
256,192,150889,1,0,0:0:0:0:
256,192,151005,1,0,0:0:0:0:
256,192,151120,1,8,0:0:0:0:
256,192,151351,1,0,0:0:0:0:
256,192,151466,1,0,0:0:0:0:
256,192,151582,1,8,0:0:0:0:
256,192,151697,1,0,0:0:0:0:
256,192,151812,1,0,0:0:0:0:
256,192,152043,1,8,0:0:0:0:
256,192,152274,1,0,0:0:0:0:
256,192,152389,1,0,0:0:0:0:
256,192,152505,1,8,0:0:0:0:
256,192,152543,1,8,0:0:0:0:
256,192,152582,1,8,0:0:0:0:
256,192,152620,1,8,0:0:0:0:
256,192,152736,1,0,0:0:0:0:
256,192,152774,1,0,0:0:0:0:
256,192,152812,1,0,0:0:0:0:
256,192,152851,1,0,0:0:0:0:
256,192,153024,5,8,0:0:0:0:
256,192,153062,1,8,0:0:0:0:
256,192,153139,1,0,0:0:0:0:
256,192,153168,1,0,0:0:0:0:
256,192,153197,1,0,0:0:0:0:
256,192,153293,1,8,0:0:0:0:
256,192,153428,1,4,0:0:0:0:
256,192,153659,1,0,0:0:0:0:
256,192,153774,1,0,0:0:0:0:
256,192,153889,1,8,0:0:0:0:
256,192,154005,1,8,0:0:0:0:
256,192,154236,1,0,0:0:0:0:
256,192,154466,1,8,0:0:0:0:
256,192,154582,1,0,0:0:0:0:
256,192,154697,1,0,0:0:0:0:
256,192,154812,1,8,0:0:0:0:
256,192,154928,1,8,0:0:0:0:
256,192,155043,1,0,0:0:0:0:
256,192,155159,1,0,0:0:0:0:
256,192,155216,1,0,0:0:0:0:
256,192,155274,1,8,0:0:0:0:
256,192,155389,1,0,0:0:0:0:
256,192,155505,1,0,0:0:0:0:
256,192,155736,1,8,0:0:0:0:
256,192,155851,1,8,0:0:0:0:
256,192,155966,1,0,0:0:0:0:
256,192,156082,1,8,0:0:0:0:
256,192,156139,1,8,0:0:0:0:
256,192,156197,1,8,0:0:0:0:
256,192,156312,1,0,0:0:0:0:
256,192,156543,1,8,0:0:0:0:
256,192,156659,1,0,0:0:0:0:
256,192,156716,1,0,0:0:0:0:
256,192,156774,1,0,0:0:0:0:
256,192,156889,1,8,0:0:0:0:
256,192,157120,1,0,0:0:0:0:
256,192,157334,1,0,0:0:0:0:
256,192,157441,1,0,0:0:0:0:
256,192,157548,1,8,0:0:0:0:
256,192,157655,1,8,0:0:0:0:
256,192,157870,1,0,0:0:0:0:
256,192,158084,1,8,0:0:0:0:
256,192,158191,1,0,0:0:0:0:
256,192,158298,1,0,0:0:0:0:
256,192,158405,1,8,0:0:0:0:
256,192,158512,1,8,0:0:0:0:
256,192,158620,1,0,0:0:0:0:
256,192,158727,1,0,0:0:0:0:
256,192,158780,1,0,0:0:0:0:
256,192,158834,1,8,0:0:0:0:
256,192,158941,1,0,0:0:0:0:
256,192,159048,1,0,0:0:0:0:
256,192,159262,1,8,0:0:0:0:
256,192,159370,1,8,0:0:0:0:
256,192,159477,1,0,0:0:0:0:
256,192,159584,1,8,0:0:0:0:
256,192,159637,1,8,0:0:0:0:
256,192,159691,1,8,0:0:0:0:
256,192,159798,1,0,0:0:0:0:
256,192,160012,1,8,0:0:0:0:
256,192,160120,1,0,0:0:0:0:
256,192,160227,1,0,0:0:0:0:
256,192,160280,1,0,0:0:0:0:
256,192,160334,1,8,0:0:0:0:
256,192,160548,1,4,0:0:0:0:
256,192,160748,1,0,0:0:0:0:
256,192,160848,1,0,0:0:0:0:
256,192,160948,1,8,0:0:0:0:
256,192,161048,1,8,0:0:0:0:
256,192,161248,1,0,0:0:0:0:
256,192,161448,1,8,0:0:0:0:
256,192,161548,1,0,0:0:0:0:
256,192,161648,1,0,0:0:0:0:
256,192,161748,1,8,0:0:0:0:
256,192,161848,1,8,0:0:0:0:
256,192,161948,1,0,0:0:0:0:
256,192,162048,1,0,0:0:0:0:
256,192,162098,1,0,0:0:0:0:
256,192,162148,1,8,0:0:0:0:
256,192,162248,1,0,0:0:0:0:
256,192,162348,1,0,0:0:0:0:
256,192,162548,1,8,0:0:0:0:
256,192,162648,1,8,0:0:0:0:
256,192,162748,1,0,0:0:0:0:
256,192,162848,1,8,0:0:0:0:
256,192,162898,1,8,0:0:0:0:
256,192,162948,1,8,0:0:0:0:
256,192,163048,1,0,0:0:0:0:
256,192,163248,1,8,0:0:0:0:
256,192,163348,1,0,0:0:0:0:
256,192,163398,1,0,0:0:0:0:
256,192,163448,1,0,0:0:0:0:
256,192,163548,1,8,0:0:0:0:
256,192,163748,1,0,0:0:0:0:
256,192,163935,1,0,0:0:0:0:
256,192,164029,1,0,0:0:0:0:
256,192,164123,1,8,0:0:0:0:
256,192,164216,1,8,0:0:0:0:
256,192,164404,1,0,0:0:0:0:
256,192,164591,1,8,0:0:0:0:
256,192,164685,1,0,0:0:0:0:
256,192,164779,1,0,0:0:0:0:
256,192,164873,1,8,0:0:0:0:
256,192,164966,1,8,0:0:0:0:
256,192,165060,1,0,0:0:0:0:
256,192,165154,1,0,0:0:0:0:
256,192,165201,1,0,0:0:0:0:
256,192,165248,1,8,0:0:0:0:
256,192,165341,1,0,0:0:0:0:
256,192,165435,1,0,0:0:0:0:
256,192,165623,1,8,0:0:0:0:
256,192,165716,1,8,0:0:0:0:
256,192,165810,1,0,0:0:0:0:
256,192,165904,1,8,0:0:0:0:
256,192,165951,1,8,0:0:0:0:
256,192,165998,1,8,0:0:0:0:
256,192,166091,1,0,0:0:0:0:
256,192,166279,1,8,0:0:0:0:
256,192,166373,1,0,0:0:0:0:
256,192,166419,1,0,0:0:0:0:
256,192,166466,1,0,0:0:0:0:
256,192,166560,1,8,0:0:0:0:
256,192,166654,1,8,0:0:0:0:
256,192,166748,1,4,0:0:0:0:
256,192,166924,1,0,0:0:0:0:
256,192,167012,1,0,0:0:0:0:
256,192,167056,1,0,0:0:0:0:
256,192,167100,1,8,0:0:0:0:
256,192,167189,1,8,0:0:0:0:
256,192,167365,1,0,0:0:0:0:
256,192,167542,1,8,0:0:0:0:
256,192,167630,1,0,0:0:0:0:
256,192,167674,1,0,0:0:0:0:
256,192,167718,1,0,0:0:0:0:
256,192,167806,1,8,0:0:0:0:
256,192,167895,1,8,0:0:0:0:
256,192,167983,1,0,0:0:0:0:
256,192,168071,1,0,0:0:0:0:
256,192,168115,1,0,0:0:0:0:
256,192,168159,1,8,0:0:0:0:
256,192,168248,1,0,0:0:0:0:
256,192,168336,1,0,0:0:0:0:
256,192,168512,1,8,0:0:0:0:
256,192,168600,1,8,0:0:0:0:
256,192,168689,1,0,0:0:0:0:
256,192,168777,1,8,0:0:0:0:
256,192,168821,1,8,0:0:0:0:
256,192,168865,1,8,0:0:0:0:
256,192,168953,1,0,0:0:0:0:
256,192,169130,1,8,0:0:0:0:
256,192,169218,1,0,0:0:0:0:
256,192,169262,1,0,0:0:0:0:
256,192,169306,1,0,0:0:0:0:
256,192,169395,1,8,0:0:0:0:
256,192,169571,1,4,0:0:0:0:
256,192,169742,1,0,0:0:0:0:
256,192,169828,1,0,0:0:0:0:
256,192,169871,1,0,0:0:0:0:
256,192,169913,1,8,0:0:0:0:
256,192,169999,1,8,0:0:0:0:
256,192,170171,1,0,0:0:0:0:
256,192,170256,1,0,0:0:0:0:
256,192,170342,1,8,0:0:0:0:
256,192,170428,1,0,0:0:0:0:
256,192,170513,1,0,0:0:0:0:
256,192,170599,1,8,0:0:0:0:
256,192,170685,1,8,0:0:0:0:
256,192,170771,1,0,0:0:0:0:
256,192,170856,1,0,0:0:0:0:
256,192,170899,1,0,0:0:0:0:
256,192,170942,1,8,0:0:0:0:
256,192,171028,1,0,0:0:0:0:
256,192,171113,1,0,0:0:0:0:
256,192,171285,1,8,0:0:0:0:
256,192,171371,1,8,0:0:0:0:
256,192,171456,1,0,0:0:0:0:
256,192,171542,1,8,0:0:0:0:
256,192,171585,1,8,0:0:0:0:
256,192,171628,1,8,0:0:0:0:
256,192,171713,1,0,0:0:0:0:
256,192,171885,1,8,0:0:0:0:
256,192,171971,1,0,0:0:0:0:
256,192,172056,1,0,0:0:0:0:
256,192,172099,1,0,0:0:0:0:
256,192,172142,1,8,0:0:0:0:
256,192,172228,1,8,0:0:0:0:
256,192,172313,1,4,0:0:0:0:
256,192,172396,1,0,0:0:0:0:
256,192,172479,1,8,0:0:0:0:
256,192,172563,1,0,0:0:0:0:
256,192,172646,1,8,0:0:0:0:
256,192,172688,1,8,0:0:0:0:
256,192,172729,1,0,0:0:0:0:
256,192,172813,1,8,0:0:0:0:
256,192,172896,1,0,0:0:0:0:
256,192,172979,1,8,0:0:0:0:
256,192,173063,1,0,0:0:0:0:
256,192,173104,1,0,0:0:0:0:
256,192,173146,1,8,0:0:0:0:
256,192,173229,1,0,0:0:0:0:
256,192,173313,1,8,0:0:0:0:
256,192,173354,1,8,0:0:0:0:
256,192,173396,1,0,0:0:0:0:
256,192,173438,1,0,0:0:0:0:
256,192,173479,1,8,0:0:0:0:
256,192,173563,1,0,0:0:0:0:
256,192,173646,1,12,0:0:0:0:
256,192,173729,1,0,0:0:0:0:
256,192,173813,1,8,0:0:0:0:
256,192,173896,1,0,0:0:0:0:
256,192,173979,1,8,0:0:0:0:
256,192,174021,1,8,0:0:0:0:
256,192,174063,1,0,0:0:0:0:
256,192,174146,1,8,0:0:0:0:
256,192,174229,1,0,0:0:0:0:
256,192,174313,1,8,0:0:0:0:
256,192,174396,1,0,0:0:0:0:
256,192,174438,1,0,0:0:0:0:
256,192,174479,1,8,0:0:0:0:
256,192,174563,1,0,0:0:0:0:
256,192,174646,1,8,0:0:0:0:
256,192,174688,1,8,0:0:0:0:
256,192,174729,1,0,0:0:0:0:
256,192,174771,1,0,0:0:0:0:
256,192,174813,1,8,0:0:0:0:
256,192,174896,1,0,0:0:0:0:
256,192,174979,1,12,0:0:0:0:
256,192,175063,1,0,0:0:0:0:
256,192,175104,1,0,0:0:0:0:
256,192,175146,1,8,0:0:0:0:
256,192,175229,1,0,0:0:0:0:
256,192,175271,1,0,0:0:0:0:
256,192,175313,1,8,0:0:0:0:
256,192,175396,1,0,0:0:0:0:
256,192,175438,1,0,0:0:0:0:
256,192,175479,1,8,0:0:0:0:
256,192,175521,1,8,0:0:0:0:
256,192,175563,1,0,0:0:0:0:
256,192,175646,1,8,0:0:0:0:
256,192,175729,1,0,0:0:0:0:
256,192,175771,1,0,0:0:0:0:
256,192,175813,1,8,0:0:0:0:
256,192,175896,1,0,0:0:0:0:
256,192,175938,1,0,0:0:0:0:
256,192,175979,1,8,0:0:0:0:
256,192,176063,1,0,0:0:0:0:
256,192,176104,1,0,0:0:0:0:
256,192,176146,1,8,0:0:0:0:
256,192,176188,1,8,0:0:0:0:
256,192,176229,1,0,0:0:0:0:
256,192,176313,1,8,0:0:0:0:
256,192,176354,1,8,0:0:0:0:
256,192,176396,1,8,0:0:0:0:
256,192,176479,1,0,0:0:0:0:
256,192,176563,1,0,0:0:0:0:
256,192,176646,1,8,0:0:0:0:
256,192,176688,1,8,0:0:0:0:
256,192,176729,1,8,0:0:0:0:
256,192,176813,1,0,0:0:0:0:
256,192,176896,1,0,0:0:0:0:
256,192,176979,1,8,0:0:0:0:
256,192,177021,1,8,0:0:0:0:
256,192,177063,1,0,0:0:0:0:
256,192,177146,1,0,0:0:0:0:
256,192,177229,1,0,0:0:0:0:
256,192,177313,1,12,0:0:0:0:
256,192,177479,1,0,0:0:0:0:
256,192,177563,1,0,0:0:0:0:
256,192,177646,1,12,0:0:0:0:
256,192,177729,1,0,0:0:0:0:
256,192,177813,1,0,0:0:0:0:
256,192,177979,1,8,0:0:0:0:
256,192,178035,1,8,0:0:0:0:
256,192,178090,1,8,0:0:0:0:
256,192,178146,1,0,0:0:0:0:
256,192,178229,1,0,0:0:0:0:
256,192,178396,1,0,0:0:0:0:
256,192,178438,1,8,0:0:0:0:
256,192,178479,1,0,0:0:0:0:
256,192,178563,1,0,0:0:0:0:
256,192,178646,1,8,0:0:0:0:
256,192,178729,1,8,0:0:0:0:
256,192,178813,1,0,0:0:0:0:
256,192,178854,1,0,0:0:0:0:
256,192,178896,1,8,0:0:0:0:
256,192,178979,1,0,0:0:0:0:
256,192,179063,1,0,0:0:0:0:
256,192,179104,1,8,0:0:0:0:
256,192,179146,1,0,0:0:0:0:
256,192,179229,1,0,0:0:0:0:
256,192,179313,1,8,0:0:0:0:
256,192,179479,1,0,0:0:0:0:
256,192,179521,1,0,0:0:0:0:
256,192,179563,1,0,0:0:0:0:
256,192,179646,1,8,0:0:0:0:
256,192,179729,1,0,0:0:0:0:
256,192,179771,1,0,0:0:0:0:
256,192,179813,1,0,0:0:0:0:
256,192,179896,1,8,0:0:0:0:
256,192,179979,1,8,0:0:0:0:
256,192,180021,1,8,0:0:0:0:
256,192,180063,1,0,0:0:0:0:
256,192,180146,1,8,0:0:0:0:
256,192,180313,1,0,0:0:0:0:
256,192,180354,1,0,0:0:0:0:
256,192,180396,1,8,0:0:0:0:
256,192,180438,1,8,0:0:0:0:
256,192,180479,1,0,0:0:0:0:
256,192,180563,1,0,0:0:0:0:
256,192,180646,1,8,0:0:0:0:
256,192,180701,1,8,0:0:0:0:
256,192,180757,1,8,0:0:0:0:
256,192,180813,1,0,0:0:0:0:
256,192,180896,1,0,0:0:0:0:
256,192,181063,1,0,0:0:0:0:
256,192,181104,1,8,0:0:0:0:
256,192,181146,1,0,0:0:0:0:
256,192,181229,1,0,0:0:0:0:
256,192,181313,1,8,0:0:0:0:
256,192,181354,1,0,0:0:0:0:
256,192,181396,1,8,0:0:0:0:
256,192,181479,1,0,0:0:0:0:
256,192,181521,1,0,0:0:0:0:
256,192,181563,1,8,0:0:0:0:
256,192,181646,1,0,0:0:0:0:
256,192,181729,1,8,0:0:0:0:
256,192,181813,1,0,0:0:0:0:
256,192,181854,1,0,0:0:0:0:
256,192,181896,1,8,0:0:0:0:
256,192,181938,1,8,0:0:0:0:
256,192,181979,1,0,0:0:0:0:
256,192,182063,1,0,0:0:0:0:
256,192,182146,1,8,0:0:0:0:
256,192,182229,1,0,0:0:0:0:
256,192,182271,1,0,0:0:0:0:
256,192,182313,1,0,0:0:0:0:
256,192,182396,1,8,0:0:0:0:
256,192,182563,1,0,0:0:0:0:
256,192,182646,1,12,0:0:0:0:
256,192,182813,1,0,0:0:0:0:
256,192,182854,1,0,0:0:0:0:
256,192,182896,1,0,0:0:0:0:
256,192,182938,1,0,0:0:0:0:
256,192,182979,1,8,0:0:0:0:
256,192,183063,1,0,0:0:0:0:
256,192,183146,1,0,0:0:0:0:
256,192,183313,1,8,0:0:0:0:
256,192,183368,1,8,0:0:0:0:
256,192,183424,1,8,0:0:0:0:
256,192,183479,1,0,0:0:0:0:
256,192,183563,1,0,0:0:0:0:
256,192,183729,1,0,0:0:0:0:
256,192,183771,1,8,0:0:0:0:
256,192,183813,1,0,0:0:0:0:
256,192,183896,1,0,0:0:0:0:
256,192,183979,1,8,0:0:0:0:
256,192,184063,1,8,0:0:0:0:
256,192,184146,1,0,0:0:0:0:
256,192,184188,1,0,0:0:0:0:
256,192,184229,1,8,0:0:0:0:
256,192,184313,1,0,0:0:0:0:
256,192,184396,1,0,0:0:0:0:
256,192,184438,1,8,0:0:0:0:
256,192,184479,1,0,0:0:0:0:
256,192,184563,1,0,0:0:0:0:
256,192,184646,1,8,0:0:0:0:
256,192,184813,1,0,0:0:0:0:
256,192,184854,1,0,0:0:0:0:
256,192,184896,1,0,0:0:0:0:
256,192,184979,1,8,0:0:0:0:
256,192,185063,1,0,0:0:0:0:
256,192,185104,1,0,0:0:0:0:
256,192,185146,1,0,0:0:0:0:
256,192,185229,1,8,0:0:0:0:
256,192,185313,1,8,0:0:0:0:
256,192,185354,1,8,0:0:0:0:
256,192,185396,1,0,0:0:0:0:
256,192,185479,1,8,0:0:0:0:
256,192,185646,1,0,0:0:0:0:
256,192,185688,1,0,0:0:0:0:
256,192,185729,1,8,0:0:0:0:
256,192,185771,1,8,0:0:0:0:
256,192,185813,1,0,0:0:0:0:
256,192,185896,1,0,0:0:0:0:
256,192,185979,1,8,0:0:0:0:
256,192,186035,1,8,0:0:0:0:
256,192,186090,1,8,0:0:0:0:
256,192,186146,1,0,0:0:0:0:
256,192,186229,1,0,0:0:0:0:
256,192,186313,1,8,0:0:0:0:
256,192,186396,1,0,0:0:0:0:
256,192,186438,1,8,0:0:0:0:
256,192,186479,1,0,0:0:0:0:
256,192,186563,1,0,0:0:0:0:
256,192,186646,1,8,0:0:0:0:
256,192,186688,1,0,0:0:0:0:
256,192,186729,1,8,0:0:0:0:
256,192,186813,1,0,0:0:0:0:
256,192,186854,1,0,0:0:0:0:
256,192,186896,1,8,0:0:0:0:
256,192,186979,1,0,0:0:0:0:
256,192,187063,1,8,0:0:0:0:
256,192,187146,1,0,0:0:0:0:
256,192,187188,1,0,0:0:0:0:
256,192,187229,1,8,0:0:0:0:
256,192,187271,1,8,0:0:0:0:
256,192,187313,1,0,0:0:0:0:
256,192,187396,1,0,0:0:0:0:
256,192,187479,1,8,0:0:0:0:
256,192,187563,1,4,0:0:0:0:
256,192,187646,1,8,0:0:0:0:
256,192,187813,1,4,0:0:0:0:
256,192,187896,1,8,0:0:0:0:
256,192,188063,1,4,0:0:0:0:
256,192,188146,1,8,0:0:0:0:
256,192,188313,1,12,0:0:0:0:
256,192,188396,1,0,0:0:0:0:
256,192,188479,1,0,0:0:0:0:
256,192,188646,1,8,0:0:0:0:
256,192,188701,1,8,0:0:0:0:
256,192,188757,1,8,0:0:0:0:
256,192,188813,1,0,0:0:0:0:
256,192,188896,1,0,0:0:0:0:
256,192,189063,1,0,0:0:0:0:
256,192,189104,1,8,0:0:0:0:
256,192,189146,1,0,0:0:0:0:
256,192,189229,1,0,0:0:0:0:
256,192,189313,1,8,0:0:0:0:
256,192,189396,1,8,0:0:0:0:
256,192,189479,1,0,0:0:0:0:
256,192,189521,1,0,0:0:0:0:
256,192,189563,1,8,0:0:0:0:
256,192,189604,1,8,0:0:0:0:
256,192,189646,1,0,0:0:0:0:
256,192,189729,1,0,0:0:0:0:
256,192,189771,1,8,0:0:0:0:
256,192,189813,1,0,0:0:0:0:
256,192,189896,1,0,0:0:0:0:
256,192,189979,1,8,0:0:0:0:
256,192,190146,1,0,0:0:0:0:
256,192,190188,1,0,0:0:0:0:
256,192,190229,1,0,0:0:0:0:
256,192,190313,1,8,0:0:0:0:
256,192,190396,1,0,0:0:0:0:
256,192,190438,1,0,0:0:0:0:
256,192,190479,1,0,0:0:0:0:
256,192,190563,1,8,0:0:0:0:
256,192,190646,1,8,0:0:0:0:
256,192,190688,1,8,0:0:0:0:
256,192,190729,1,0,0:0:0:0:
256,192,190813,1,8,0:0:0:0:
256,192,190979,1,0,0:0:0:0:
256,192,191021,1,0,0:0:0:0:
256,192,191063,1,8,0:0:0:0:
256,192,191104,1,8,0:0:0:0:
256,192,191146,1,0,0:0:0:0:
256,192,191229,1,0,0:0:0:0:
256,192,191313,1,8,0:0:0:0:
256,192,191368,1,8,0:0:0:0:
256,192,191424,1,8,0:0:0:0:
256,192,191479,1,0,0:0:0:0:
256,192,191563,1,0,0:0:0:0:
256,192,191729,1,0,0:0:0:0:
256,192,191771,1,8,0:0:0:0:
256,192,191813,1,0,0:0:0:0:
256,192,191896,1,0,0:0:0:0:
256,192,191979,1,8,0:0:0:0:
256,192,192021,1,0,0:0:0:0:
256,192,192063,1,8,0:0:0:0:
256,192,192146,1,0,0:0:0:0:
256,192,192188,1,0,0:0:0:0:
256,192,192229,1,8,0:0:0:0:
256,192,192271,1,8,0:0:0:0:
256,192,192313,1,0,0:0:0:0:
256,192,192396,1,8,0:0:0:0:
256,192,192479,1,0,0:0:0:0:
256,192,192521,1,0,0:0:0:0:
256,192,192563,1,8,0:0:0:0:
256,192,192604,1,0,0:0:0:0:
256,192,192646,1,0,0:0:0:0:
256,192,192729,1,0,0:0:0:0:
256,192,192813,1,8,0:0:0:0:
256,192,192896,1,0,0:0:0:0:
256,192,192938,1,0,0:0:0:0:
256,192,192979,1,0,0:0:0:0:
256,192,193063,1,8,0:0:0:0:
256,192,193229,1,0,0:0:0:0:
256,192,193313,1,12,0:0:0:0:
256,192,193479,1,0,0:0:0:0:
256,192,193521,1,0,0:0:0:0:
256,192,193563,1,0,0:0:0:0:
256,192,193604,1,0,0:0:0:0:
256,192,193646,1,8,0:0:0:0:
256,192,193729,1,0,0:0:0:0:
256,192,193813,1,0,0:0:0:0:
256,192,193979,1,8,0:0:0:0:
256,192,194146,1,0,0:0:0:0:
256,192,194229,1,0,0:0:0:0:
256,192,194396,1,0,0:0:0:0:
256,192,194479,1,0,0:0:0:0:
256,192,194646,1,8,0:0:0:0:
256,192,194729,1,8,0:0:0:0:
256,192,194813,1,0,0:0:0:0:
256,192,194896,1,0,0:0:0:0:
256,192,194979,1,0,0:0:0:0:
256,192,195063,1,8,0:0:0:0:
256,192,195146,1,0,0:0:0:0:
256,192,195313,1,8,0:0:0:0:
256,192,195479,1,0,0:0:0:0:
256,192,195563,1,0,0:0:0:0:
256,192,195646,1,8,0:0:0:0:
256,192,195729,1,0,0:0:0:0:
256,192,195813,1,0,0:0:0:0:
256,192,195896,1,8,0:0:0:0:
256,192,196063,1,0,0:0:0:0:
256,192,196146,1,8,0:0:0:0:
256,192,196313,1,0,0:0:0:0:
256,192,196354,1,0,0:0:0:0:
256,192,196396,1,8,0:0:0:0:
256,192,196438,1,8,0:0:0:0:
256,192,196479,1,0,0:0:0:0:
256,192,196563,1,0,0:0:0:0:
256,192,196646,1,8,0:0:0:0:
256,192,196813,1,0,0:0:0:0:
256,192,196896,1,0,0:0:0:0:
256,192,196979,1,8,0:0:0:0:
256,192,197063,1,0,0:0:0:0:
256,192,197146,1,0,0:0:0:0:
256,192,197313,1,8,0:0:0:0:
256,192,197396,1,8,0:0:0:0:
256,192,197479,1,0,0:0:0:0:
256,192,197563,1,8,0:0:0:0:
256,192,197604,1,8,0:0:0:0:
256,192,197646,1,0,0:0:0:0:
256,192,197729,1,8,0:0:0:0:
256,192,197813,1,0,0:0:0:0:
256,192,197854,1,0,0:0:0:0:
256,192,197896,1,8,0:0:0:0:
256,192,197938,1,8,0:0:0:0:
256,192,197979,1,0,0:0:0:0:
256,192,198063,1,0,0:0:0:0:
256,192,198146,1,8,0:0:0:0:
256,192,198229,1,0,0:0:0:0:
256,192,198313,1,8,0:0:0:0:
256,192,198479,1,8,0:0:0:0:
256,192,198521,1,8,0:0:0:0:
256,192,198563,1,8,0:0:0:0:
256,192,198646,1,8,0:0:0:0:
256,192,198729,1,0,0:0:0:0:
256,192,198813,1,8,0:0:0:0:
256,192,198896,1,8,0:0:0:0:
367,181,198979,5,4,0:0:0:0:
367,189,199146,1,8,0:0:0:0:
376,174,199313,1,0,0:0:0:0:
355,171,199396,1,8,0:0:0:0:
355,171,199563,1,8,0:0:0:0:
299,187,199646,1,0,0:0:0:0:
299,187,199729,1,0,0:0:0:0:
355,171,199813,1,8,0:0:0:0:
355,171,199896,1,0,0:0:0:0:
363,162,199979,1,0,0:0:0:0:
257,172,200063,1,8,0:0:0:0:
311,183,200229,1,0,0:0:0:0:
345,164,200313,1,8,0:0:0:0:
345,164,200396,1,8,0:0:0:0:
311,183,200479,1,0,0:0:0:0:
342,170,200646,1,8,0:0:0:0:
342,170,200729,1,8,0:0:0:0:
360,184,200813,1,0,0:0:0:0:
360,184,200896,1,0,0:0:0:0:
342,170,200979,1,8,0:0:0:0:
369,182,201146,1,8,0:0:0:0:
357,178,201229,1,0,0:0:0:0:
357,178,201396,1,0,0:0:0:0:
369,182,201479,1,8,0:0:0:0:
360,184,201646,1,4,0:0:0:0:
380,180,201813,1,8,0:0:0:0:
403,172,201979,1,0,0:0:0:0:
380,180,202063,1,8,0:0:0:0:
383,205,202229,1,8,0:0:0:0:
349,207,202313,1,0,0:0:0:0:
383,205,202396,1,8,0:0:0:0:
349,207,202479,1,8,0:0:0:0:
383,205,202563,1,8,0:0:0:0:
395,193,202646,1,0,0:0:0:0:
379,202,202729,1,8,0:0:0:0:
383,205,202896,1,0,0:0:0:0:
396,195,202979,1,8,0:0:0:0:
396,195,203063,1,8,0:0:0:0:
361,206,203146,1,0,0:0:0:0:
388,191,203313,1,8,0:0:0:0:
388,191,203396,1,8,0:0:0:0:
383,212,203479,1,0,0:0:0:0:
388,191,203563,1,0,0:0:0:0:
363,216,203646,1,8,0:0:0:0:
416,212,203813,1,0,0:0:0:0:
342,171,203896,1,8,0:0:0:0:
388,191,203979,1,0,0:0:0:0:
388,191,204063,1,0,0:0:0:0:
388,191,204146,1,8,0:0:0:0:
391,238,204313,1,4,0:0:0:0:
350,210,204479,1,8,0:0:0:0:
340,229,204646,1,0,0:0:0:0:
368,211,204729,1,8,0:0:0:0:
368,211,204896,1,8,0:0:0:0:
368,211,204979,1,8,0:0:0:0:
386,203,205063,1,0,0:0:0:0:
368,211,205146,1,8,0:0:0:0:
386,203,205229,1,0,0:0:0:0:
386,203,205313,1,0,0:0:0:0:
368,211,205396,1,8,0:0:0:0:
339,214,205563,1,0,0:0:0:0:
377,209,205646,1,8,0:0:0:0:
377,209,205729,1,8,0:0:0:0:
339,214,205813,1,0,0:0:0:0:
322,208,205979,1,8,0:0:0:0:
361,230,206063,1,0,0:0:0:0:
322,208,206146,1,8,0:0:0:0:
322,208,206229,1,0,0:0:0:0:
361,230,206313,1,8,0:0:0:0:
349,195,206479,1,8,0:0:0:0:
372,218,206563,1,0,0:0:0:0:
372,218,206729,1,0,0:0:0:0:
349,195,206813,1,8,0:0:0:0:
360,214,206979,1,4,0:0:0:0:
317,214,207146,1,8,0:0:0:0:
375,187,207313,1,0,0:0:0:0:
319,189,207396,1,8,0:0:0:0:
319,189,207563,1,8,0:0:0:0:
278,209,207646,1,4,0:0:0:0:
308,200,207813,1,8,0:0:0:0:
308,200,207896,1,8,0:0:0:0:
342,187,207979,1,0,0:0:0:0:
308,200,208063,1,8,0:0:0:0:
308,213,208229,1,8,0:0:0:0:
420,172,208313,1,4,0:0:0:0:
420,172,208563,1,4,0:0:0:0:
420,172,208813,1,4,0:0:0:0:
420,172,209063,1,4,0:0:0:0:
420,172,209313,1,4,0:0:0:0:
400,201,209646,1,8,0:0:0:0:
400,201,209729,1,8,0:0:0:0:
337,191,209813,1,0,0:0:0:0:
315,206,209979,1,8,0:0:0:0:
387,197,210146,1,0,0:0:0:0:
387,197,210229,1,8,0:0:0:0:
387,197,210396,1,8,0:0:0:0:
387,197,210479,1,0,0:0:0:0:
360,196,210646,1,8,0:0:0:0:
377,187,210813,1,0,0:0:0:0:
377,187,210854,1,0,0:0:0:0:
377,187,210896,1,0,0:0:0:0:
377,187,210938,1,0,0:0:0:0:
385,186,210979,1,8,0:0:0:0:
385,186,211063,1,8,0:0:0:0:
373,196,211146,1,0,0:0:0:0:
383,183,211313,1,8,0:0:0:0:
366,176,211479,1,0,0:0:0:0:
366,176,211563,1,8,0:0:0:0:
366,176,211729,1,8,0:0:0:0:
366,176,211813,1,0,0:0:0:0:
397,212,211979,1,8,0:0:0:0:
397,212,212063,1,8,0:0:0:0:
397,212,212146,1,8,0:0:0:0:
397,212,212229,1,8,0:0:0:0:
446,199,212313,1,0,0:0:0:0:
414,156,212354,1,0,0:0:0:0:
414,156,212396,1,0,0:0:0:0:
414,156,212438,1,0,0:0:0:0:
398,163,212479,1,0,0:0:0:0:
413,184,212646,1,8,0:0:0:0:
436,183,212813,1,0,0:0:0:0:
436,183,212896,1,8,0:0:0:0:
436,183,213063,1,8,0:0:0:0:
436,183,213146,1,0,0:0:0:0:
389,182,213313,1,8,0:0:0:0:
389,182,213396,1,8,0:0:0:0:
453,189,213479,1,0,0:0:0:0:
453,189,213521,1,0,0:0:0:0:
453,189,213563,1,0,0:0:0:0:
453,189,213604,1,0,0:0:0:0:
327,178,213646,1,8,0:0:0:0:
319,183,213813,1,0,0:0:0:0:
319,183,213854,1,0,0:0:0:0:
389,182,213896,1,8,0:0:0:0:
389,182,213938,1,8,0:0:0:0:
319,183,213979,1,0,0:0:0:0:
389,182,214063,1,8,0:0:0:0:
355,193,214146,1,0,0:0:0:0:
435,186,214313,1,8,0:0:0:0:
425,181,214396,1,0,0:0:0:0:
383,186,214563,1,8,0:0:0:0:
374,190,214729,1,0,0:0:0:0:
428,189,214813,1,8,0:0:0:0:
428,189,214896,1,8,0:0:0:0:
303,198,214979,1,4,0:0:0:0:
397,218,215146,1,8,0:0:0:0:
401,181,215229,1,0,0:0:0:0:
367,181,215396,1,8,0:0:0:0:
389,198,215563,1,0,0:0:0:0:
389,198,215813,1,0,0:0:0:0:
389,198,215896,1,0,0:0:0:0:
389,198,215979,1,0,0:0:0:0:
443,180,216063,1,8,0:0:0:0:
403,198,216146,1,8,0:0:0:0:
428,182,216229,1,8,0:0:0:0:
338,189,216313,1,4,0:0:0:0:
378,173,216479,1,8,0:0:0:0:
338,169,216563,1,0,0:0:0:0:
378,173,216729,1,8,0:0:0:0:
346,192,216813,1,0,0:0:0:0:
346,192,216896,1,0,0:0:0:0:
394,199,216979,1,8,0:0:0:0:
349,216,217229,1,0,0:0:0:0:
365,204,217479,1,8,0:0:0:0:
294,220,217646,1,4,0:0:0:0:
403,195,217813,1,8,0:0:0:0:
411,171,217979,1,0,0:0:0:0:
403,195,218063,1,8,0:0:0:0:
404,212,218229,1,8,0:0:0:0:
384,207,218313,1,4,0:0:0:0:
340,250,218479,1,8,0:0:0:0:
340,250,218563,1,8,0:0:0:0:
352,203,218646,1,0,0:0:0:0:
340,250,218729,1,8,0:0:0:0:
398,241,218813,1,8,0:0:0:0:
398,241,218896,1,8,0:0:0:0:
357,200,218979,1,4,0:0:0:0:
352,203,219146,1,8,0:0:0:0:
407,200,219313,1,4,0:0:0:0:
430,246,219479,1,8,0:0:0:0:
429,212,219563,1,8,0:0:0:0:
387,215,219646,1,4,0:0:0:0:
320,190,219979,1,8,0:0:0:0:
302,192,220063,1,8,0:0:0:0:
302,192,220146,1,8,0:0:0:0:
349,199,220313,1,8,0:0:0:0:
346,178,220489,1,0,0:0:0:0:
289,165,220665,1,8,0:0:0:0:
346,178,220754,1,0,0:0:0:0:
346,179,220930,1,0,0:0:0:0:
289,165,221018,1,8,0:0:0:0:
360,184,221195,1,0,0:0:0:0:
375,182,221371,1,8,0:0:0:0:
376,182,221548,1,8,0:0:0:0:
376,182,221724,1,8,0:0:0:0:
329,191,221911,1,0,0:0:0:0:
362,197,222099,1,8,0:0:0:0:
355,194,222192,1,0,0:0:0:0:
320,189,222474,1,8,0:0:0:0:
320,190,222849,1,8,0:0:0:0:
320,190,222942,1,8,0:0:0:0:
320,190,223036,1,8,0:0:0:0:
306,181,223224,1,8,0:0:0:0:
363,185,223424,1,0,0:0:0:0:
305,184,223624,1,8,0:0:0:0:
363,185,223724,1,0,0:0:0:0:
363,185,223924,1,0,0:0:0:0:
306,181,224024,1,8,0:0:0:0:
311,190,224224,1,0,0:0:0:0:
311,190,224324,1,0,0:0:0:0:
378,193,224424,1,8,0:0:0:0:
378,193,224624,1,8,0:0:0:0:
378,193,224824,1,8,0:0:0:0:
316,190,225038,1,0,0:0:0:0:
344,203,225252,1,8,0:0:0:0:
394,178,225359,1,0,0:0:0:0:
376,165,225466,1,0,0:0:0:0:
376,165,225520,1,0,0:0:0:0:
394,178,225574,1,0,0:0:0:0:
394,178,225627,1,0,0:0:0:0:
403,159,225681,1,8,0:0:0:0:
360,177,226109,1,8,0:0:0:0:
360,177,226216,1,8,0:0:0:0:
360,177,226324,1,8,0:0:0:0:
385,172,226538,1,8,0:0:0:0:
388,206,226884,1,0,0:0:0:0:
388,206,227230,1,0,0:0:0:0:
384,172,227461,1,8,0:0:0:0:
401,197,227807,1,0,0:0:0:0:
401,197,228153,1,0,0:0:0:0:
384,172,228384,1,8,0:0:0:0:
384,172,228730,1,8,0:0:0:0:
401,197,229076,1,0,0:0:0:0:
384,172,229307,1,8,0:0:0:0:
384,172,229653,1,8,0:0:0:0:
401,197,229999,1,0,0:0:0:0:
400,199,230230,5,8,0:0:0:0:
418,178,230345,1,0,0:0:0:0:
418,178,230461,1,0,0:0:0:0:
418,178,230576,1,0,0:0:0:0:
67,180,230691,1,0,0:0:0:0:
418,178,230807,1,0,0:0:0:0:
418,178,230922,1,0,0:0:0:0:
418,178,231038,1,0,0:0:0:0:
423,189,231153,1,8,0:0:0:0:
333,191,231268,1,0,0:0:0:0:
333,191,231384,1,0,0:0:0:0:
333,191,231499,1,0,0:0:0:0:
71,172,231614,1,0,0:0:0:0:
360,178,231730,1,0,0:0:0:0:
360,178,231845,1,0,0:0:0:0:
360,178,231961,1,0,0:0:0:0:
329,181,232076,1,8,0:0:0:0:
379,165,232134,1,8,0:0:0:0:
389,201,232191,1,0,0:0:0:0:
389,201,232249,1,0,0:0:0:0:
427,183,232307,1,0,0:0:0:0:
389,201,232364,1,0,0:0:0:0:
389,201,232422,1,0,0:0:0:0:
389,201,232480,1,0,0:0:0:0:
351,182,232538,1,8,0:0:0:0:
406,182,232595,1,0,0:0:0:0:
351,182,232653,1,0,0:0:0:0:
406,182,232711,1,0,0:0:0:0:
351,182,232768,1,0,0:0:0:0:
351,182,232826,1,0,0:0:0:0:
406,182,232884,1,0,0:0:0:0:
406,182,232941,1,0,0:0:0:0:
399,199,232999,1,12,0:0:0:0:
388,203,233461,1,8,0:0:0:0:
388,203,233489,1,8,0:0:0:0:
371,182,233691,1,0,0:0:0:0:
371,182,233720,1,0,0:0:0:0:
399,185,233922,5,4,0:0:0:0:
428,195,234153,1,8,0:0:0:0:
399,185,234268,1,0,0:0:0:0:
399,185,234326,1,0,0:0:0:0:
420,187,234384,1,8,0:0:0:0:
365,174,234499,1,8,0:0:0:0:
399,185,234614,1,0,0:0:0:0:
411,205,234844,1,8,0:0:0:0:
411,205,234884,1,8,0:0:0:0:
411,205,234922,1,8,0:0:0:0:
424,195,234961,1,8,0:0:0:0:
424,195,234999,1,8,0:0:0:0:
424,195,235038,1,8,0:0:0:0:
382,190,235076,1,0,0:0:0:0:
399,185,235307,1,0,0:0:0:0:
399,185,235345,1,0,0:0:0:0:
428,186,235384,1,8,0:0:0:0:
429,186,235422,1,8,0:0:0:0:
429,186,235461,1,8,0:0:0:0:
429,186,235499,1,8,0:0:0:0:
398,182,235538,1,0,0:0:0:0:
348,163,235768,1,0,0:0:0:0:
367,161,235999,1,8,0:0:0:0:
405,170,236076,1,0,0:0:0:0:
405,169,236153,1,0,0:0:0:0:
367,161,236230,1,8,0:0:0:0:
367,161,236345,1,8,0:0:0:0:
348,163,236461,1,0,0:0:0:0:
396,193,236691,1,8,0:0:0:0:
344,198,236807,1,8,0:0:0:0:
357,177,236922,1,0,0:0:0:0:
381,169,237153,1,8,0:0:0:0:
381,169,237191,1,8,0:0:0:0:
381,169,237230,1,8,0:0:0:0:
413,165,237268,1,0,0:0:0:0:
407,165,237307,1,0,0:0:0:0:
406,165,237345,1,0,0:0:0:0:
382,169,237384,1,8,0:0:0:0:
405,167,237614,1,0,0:0:0:0:
351,136,237845,1,8,0:0:0:0:
350,180,237922,1,8,0:0:0:0:
350,180,237999,1,8,0:0:0:0:
380,155,238076,1,0,0:0:0:0:
391,147,238191,1,8,0:0:0:0:
344,138,238307,1,0,0:0:0:0:
380,155,238537,1,8,0:0:0:0:
380,155,238576,1,8,0:0:0:0:
380,155,238614,1,0,0:0:0:0:
381,155,238653,1,0,0:0:0:0:
380,155,238691,1,0,0:0:0:0:
380,155,238730,1,0,0:0:0:0:
385,157,238768,1,8,0:0:0:0:
381,155,238884,1,0,0:0:0:0:
377,173,238999,1,0,0:0:0:0:
377,173,239038,1,0,0:0:0:0:
354,154,239076,1,8,0:0:0:0:
356,154,239114,1,8,0:0:0:0:
356,154,239153,1,8,0:0:0:0:
356,154,239191,1,8,0:0:0:0:
331,150,239230,1,0,0:0:0:0:
380,155,239268,1,0,0:0:0:0:
413,167,239307,1,0,0:0:0:0:
380,155,239345,1,8,0:0:0:0:
380,155,239461,1,0,0:0:0:0:
389,152,239691,1,8,0:0:0:0:
389,152,239730,1,8,0:0:0:0:
389,152,239768,1,8,0:0:0:0:
361,161,239807,1,0,0:0:0:0:
332,176,239845,1,0,0:0:0:0:
332,176,239884,1,0,0:0:0:0:
366,157,239922,1,8,0:0:0:0:
397,134,240038,1,0,0:0:0:0:
380,155,240153,1,8,0:0:0:0:
373,165,240230,1,0,0:0:0:0:
373,165,240307,1,0,0:0:0:0:
363,166,240383,1,8,0:0:0:0:
340,137,240422,1,8,0:0:0:0:
389,152,240461,1,8,0:0:0:0:
389,152,240499,1,8,0:0:0:0:
361,161,240538,1,8,0:0:0:0:
361,161,240576,1,8,0:0:0:0:
348,138,240614,1,0,0:0:0:0:
343,166,240845,1,8,0:0:0:0:
311,226,240874,1,8,0:0:0:0:
366,142,240961,1,0,0:0:0:0:
354,168,241038,1,8,0:0:0:0:
354,168,241114,1,8,0:0:0:0:
279,163,241191,1,0,0:0:0:0:
343,156,241307,1,8,0:0:0:0:
354,148,241538,1,0,0:0:0:0:
321,182,241614,1,0,0:0:0:0:
321,182,241691,1,0,0:0:0:0:
356,172,241768,1,8,0:0:0:0:
356,172,241826,1,8,0:0:0:0:
356,172,241884,1,8,0:0:0:0:
370,163,241999,1,0,0:0:0:0:
352,196,242229,1,8,0:0:0:0:
352,196,242268,1,8,0:0:0:0:
356,157,242307,1,8,0:0:0:0:
356,157,242345,1,8,0:0:0:0:
352,196,242384,1,8,0:0:0:0:
352,196,242422,1,8,0:0:0:0:
356,157,242461,1,0,0:0:0:0:
332,149,242691,1,0,0:0:0:0:
370,172,242730,1,0,0:0:0:0:
370,172,242768,1,8,0:0:0:0:
332,149,242807,1,8,0:0:0:0:
332,149,242845,1,8,0:0:0:0:
310,148,242884,1,8,0:0:0:0:
310,148,242922,1,0,0:0:0:0:
358,165,243153,1,0,0:0:0:0:
253,149,243384,1,8,0:0:0:0:
351,167,243461,1,0,0:0:0:0:
351,167,243538,1,0,0:0:0:0:
351,165,243614,1,8,0:0:0:0:
351,165,243672,1,8,0:0:0:0:
233,137,243730,1,0,0:0:0:0:
233,137,243845,1,0,0:0:0:0:
294,159,244075,1,0,0:0:0:0:
419,63,244114,1,8,0:0:0:0:
419,63,244153,1,8,0:0:0:0:
419,63,244191,1,8,0:0:0:0:
419,63,244230,1,8,0:0:0:0:
419,63,244268,1,8,0:0:0:0:
294,159,244307,1,0,0:0:0:0:
422,165,244538,1,8,0:0:0:0:
422,165,244576,1,8,0:0:0:0:
422,165,244614,1,8,0:0:0:0:
422,165,244653,1,8,0:0:0:0:
422,165,244691,1,8,0:0:0:0:
422,165,244730,1,8,0:0:0:0:
376,141,244768,1,0,0:0:0:0:
403,162,244999,1,0,0:0:0:0:
403,162,245114,1,0,0:0:0:0:
395,167,245230,1,8,0:0:0:0:
395,167,245307,1,8,0:0:0:0:
395,167,245384,1,8,0:0:0:0:
411,168,245461,1,0,0:0:0:0:
396,172,245518,1,0,0:0:0:0:
365,170,245576,1,8,0:0:0:0:
394,184,245691,1,0,0:0:0:0:
339,198,245922,1,8,0:0:0:0:
339,198,246038,1,8,0:0:0:0:
350,177,246153,1,0,0:0:0:0:
349,155,246384,1,8,0:0:0:0:
356,171,246422,1,8,0:0:0:0:
356,171,246461,1,0,0:0:0:0:
349,155,246499,1,0,0:0:0:0:
356,171,246538,1,0,0:0:0:0:
356,171,246576,1,0,0:0:0:0:
349,155,246614,1,8,0:0:0:0:
342,161,246653,1,8,0:0:0:0:
342,161,246691,1,8,0:0:0:0:
282,149,246730,1,8,0:0:0:0:
342,161,246845,1,0,0:0:0:0:
360,159,247076,1,0,0:0:0:0:
356,171,247307,1,8,0:0:0:0:
349,166,247538,1,0,0:0:0:0:
388,148,247767,1,0,0:0:0:0:
388,148,247807,1,0,0:0:0:0:
388,148,247845,1,0,0:0:0:0:
404,161,247884,1,8,0:0:0:0:
404,161,247922,1,8,0:0:0:0:
404,161,247961,1,8,0:0:0:0:
388,148,247999,1,0,0:0:0:0:
412,171,248114,1,0,0:0:0:0:
315,163,248230,1,8,0:0:0:0:
367,170,248461,1,8,0:0:0:0:
363,191,248691,1,0,0:0:0:0:
374,183,248922,1,8,0:0:0:0:
352,175,249038,1,0,0:0:0:0:
351,175,249095,1,0,0:0:0:0:
381,164,249153,1,8,0:0:0:0:
381,164,249268,1,8,0:0:0:0:
357,155,249384,1,0,0:0:0:0:
416,170,249613,1,8,0:0:0:0:
416,170,249653,1,8,0:0:0:0:
416,170,249691,1,8,0:0:0:0:
416,170,249730,1,8,0:0:0:0:
416,170,249768,1,8,0:0:0:0:
416,170,249807,1,8,0:0:0:0:
374,170,249845,1,0,0:0:0:0:
352,175,250076,1,0,0:0:0:0:
385,168,250114,1,0,0:0:0:0:
426,164,250153,1,8,0:0:0:0:
426,164,250191,1,8,0:0:0:0:
426,164,250230,1,8,0:0:0:0:
426,164,250268,1,8,0:0:0:0:
352,175,250307,1,0,0:0:0:0:
384,183,250538,1,0,0:0:0:0:
413,159,250614,1,8,0:0:0:0:
413,159,250691,1,8,0:0:0:0:
420,157,250768,1,0,0:0:0:0:
332,142,250884,1,0,0:0:0:0:
382,166,250999,1,8,0:0:0:0:
428,160,251076,1,8,0:0:0:0:
428,160,251153,1,8,0:0:0:0:
356,146,251230,1,0,0:0:0:0:
356,149,251461,1,8,0:0:0:0:
355,149,251576,1,8,0:0:0:0:
356,146,251691,1,0,0:0:0:0:
374,149,251922,1,8,0:0:0:0:
374,149,251961,1,8,0:0:0:0:
375,149,251999,1,0,0:0:0:0:
369,169,252038,1,0,0:0:0:0:
375,149,252076,1,8,0:0:0:0:
375,149,252114,1,8,0:0:0:0:
377,176,252153,1,0,0:0:0:0:
345,148,252384,1,0,0:0:0:0:
345,148,252614,1,0,0:0:0:0:
345,148,252691,1,0,0:0:0:0:
345,148,252768,1,0,0:0:0:0:
333,168,252845,1,8,0:0:0:0:
366,183,252903,1,0,0:0:0:0:
333,168,252961,1,8,0:0:0:0:
357,172,253076,1,0,0:0:0:0:
370,173,253306,1,0,0:0:0:0:
370,173,253345,1,0,0:0:0:0:
370,173,253384,1,0,0:0:0:0:
370,173,253422,1,0,0:0:0:0:
370,173,253461,1,0,0:0:0:0:
370,173,253499,1,0,0:0:0:0:
373,157,253538,1,8,0:0:0:0:
439,165,253653,1,0,0:0:0:0:
390,159,253768,1,8,0:0:0:0:
306,203,253845,1,8,0:0:0:0:
306,203,253922,1,8,0:0:0:0:
394,157,253999,1,0,0:0:0:0:
366,178,254229,1,0,0:0:0:0:
414,175,254268,1,8,0:0:0:0:
414,175,254307,1,8,0:0:0:0:
366,178,254345,1,8,0:0:0:0:
414,175,254384,1,8,0:0:0:0:
414,175,254422,1,8,0:0:0:0:
366,178,254461,1,0,0:0:0:0:
334,201,254576,1,0,0:0:0:0:
364,212,254691,1,8,0:0:0:0:
419,178,254768,1,8,0:0:0:0:
419,178,254845,1,8,0:0:0:0:
391,221,254922,1,0,0:0:0:0:
411,167,255152,1,8,0:0:0:0:
411,167,255191,1,8,0:0:0:0:
397,212,255230,1,8,0:0:0:0:
397,212,255268,1,8,0:0:0:0:
409,166,255384,1,0,0:0:0:0:
390,179,255614,1,8,0:0:0:0:
349,191,255730,1,0,0:0:0:0:
340,181,255845,1,8,0:0:0:0:
340,181,255922,1,8,0:0:0:0:
340,181,255999,1,8,0:0:0:0:
378,198,256076,1,0,0:0:0:0:
372,194,256307,1,8,0:0:0:0:
377,168,256384,1,0,0:0:0:0:
377,168,256461,1,0,0:0:0:0:
372,194,256538,1,8,0:0:0:0:
392,187,256595,1,0,0:0:0:0:
380,187,256653,1,8,0:0:0:0:
416,218,256768,1,0,0:0:0:0:
372,194,256998,1,8,0:0:0:0:
372,194,257038,1,8,0:0:0:0:
406,166,257076,1,8,0:0:0:0:
406,166,257114,1,8,0:0:0:0:
397,203,257153,1,8,0:0:0:0:
397,203,257191,1,8,0:0:0:0:
407,167,257230,1,0,0:0:0:0:
433,194,257461,1,0,0:0:0:0:
370,188,257499,1,0,0:0:0:0:
361,187,257538,1,8,0:0:0:0:
361,187,257576,1,8,0:0:0:0:
361,187,257614,1,8,0:0:0:0:
361,187,257653,1,8,0:0:0:0:
370,188,257691,1,0,0:0:0:0:
343,185,257922,1,0,0:0:0:0:
343,184,257999,1,0,0:0:0:0:
343,184,258076,1,0,0:0:0:0:
315,168,258153,1,8,0:0:0:0:
345,183,258268,1,0,0:0:0:0:
361,187,258384,1,8,0:0:0:0:
361,187,258461,1,8,0:0:0:0:
323,176,258538,1,8,0:0:0:0:
323,176,258614,1,0,0:0:0:0:
356,184,258844,1,0,0:0:0:0:
356,184,258884,1,8,0:0:0:0:
355,185,258922,1,8,0:0:0:0:
383,184,258961,1,8,0:0:0:0:
384,184,258999,1,8,0:0:0:0:
384,184,259038,1,8,0:0:0:0:
353,186,259076,1,0,0:0:0:0:
360,166,259307,1,8,0:0:0:0:
354,176,259345,1,8,0:0:0:0:
339,164,259384,1,8,0:0:0:0:
360,166,259422,1,8,0:0:0:0:
340,164,259461,1,8,0:0:0:0:
340,165,259499,1,8,0:0:0:0:
328,172,259538,1,0,0:0:0:0:
394,163,259768,1,0,0:0:0:0:
394,163,259884,1,0,0:0:0:0:
346,166,259999,1,8,0:0:0:0:
346,166,260076,1,8,0:0:0:0:
346,166,260153,1,8,0:0:0:0:
394,163,260230,1,0,0:0:0:0:
393,179,260288,1,8,0:0:0:0:
394,163,260345,1,0,0:0:0:0:
365,181,260461,1,0,0:0:0:0:
293,152,260691,1,8,0:0:0:0:
365,181,260807,1,8,0:0:0:0:
365,181,260922,1,0,0:0:0:0:
246,175,261153,1,0,0:0:0:0:
246,175,261191,1,0,0:0:0:0:
246,175,261230,1,0,0:0:0:0:
360,192,261268,1,8,0:0:0:0:
360,192,261307,1,8,0:0:0:0:
360,192,261345,1,8,0:0:0:0:
246,175,261384,1,0,0:0:0:0:
283,181,261614,1,0,0:0:0:0:
354,205,261653,1,0,0:0:0:0:
304,195,261691,1,8,0:0:0:0:
302,196,261730,1,8,0:0:0:0:
302,196,261768,1,8,0:0:0:0:
302,196,261807,1,8,0:0:0:0:
327,171,261845,1,0,0:0:0:0:
401,175,262076,1,8,0:0:0:0:
344,177,262307,1,0,0:0:0:0:
401,175,262538,1,8,0:0:0:0:
413,184,262576,1,8,0:0:0:0:
441,181,262614,1,0,0:0:0:0:
441,181,262653,1,0,0:0:0:0:
447,169,262691,1,0,0:0:0:0:
447,169,262730,1,0,0:0:0:0:
401,175,262768,1,8,0:0:0:0:
383,199,262999,1,8,0:0:0:0:
383,199,263230,1,0,0:0:0:0:
256,192,263461,5,4,0:0:0:0:
256,192,263922,1,8,0:0:0:0:
256,192,264384,1,8,0:0:0:0:
256,192,264845,1,8,0:0:0:0:
256,192,265307,1,8,0:0:0:0:
256,192,265768,1,8,0:0:0:0:
256,192,266230,1,8,0:0:0:0:
256,192,266461,1,0,0:0:0:0:
256,192,266576,1,0,0:0:0:0:
256,192,266691,1,8,0:0:0:0:
256,192,266807,1,8,0:0:0:0:
256,192,266922,1,0,0:0:0:0:
256,192,267153,1,0,0:0:0:0:
256,192,267614,1,8,0:0:0:0:
256,192,267961,1,8,0:0:0:0:
256,192,268018,1,8,0:0:0:0:
256,192,268076,1,8,0:0:0:0:
256,192,268538,1,8,0:0:0:0:
256,192,268999,1,8,0:0:0:0:
256,192,269461,1,8,0:0:0:0:
256,192,269922,1,8,0:0:0:0:
256,192,270153,1,0,0:0:0:0:
256,192,270384,1,8,0:0:0:0:
256,192,270845,1,4,0:0:0:0:
256,192,271191,1,8,0:0:0:0:
256,192,271307,1,0,0:0:0:0:
256,192,271538,1,8,0:0:0:0:
256,192,271768,1,8,0:0:0:0:
256,192,272114,1,8,0:0:0:0:
256,192,272230,1,0,0:0:0:0:
256,192,272461,1,8,0:0:0:0:
256,192,272691,1,4,0:0:0:0:
256,192,273038,1,8,0:0:0:0:
256,192,273153,1,0,0:0:0:0:
256,192,273384,1,8,0:0:0:0:
256,192,273614,1,8,0:0:0:0:
256,192,273845,1,0,0:0:0:0:
256,192,273961,1,8,0:0:0:0:
256,192,274076,1,0,0:0:0:0:
256,192,274191,1,0,0:0:0:0:
256,192,274307,1,8,0:0:0:0:
256,192,274538,1,4,0:0:0:0:
256,192,274653,1,0,0:0:0:0:
256,192,274768,1,8,0:0:0:0:
256,192,274884,1,8,0:0:0:0:
256,192,274999,1,0,0:0:0:0:
256,192,275114,1,8,0:0:0:0:
256,192,275230,1,8,0:0:0:0:
256,192,275345,1,8,0:0:0:0:
256,192,275403,1,8,0:0:0:0:
256,192,275461,1,0,0:0:0:0:
256,192,275576,1,0,0:0:0:0:
256,192,275691,1,8,0:0:0:0:
256,192,275807,1,0,0:0:0:0:
256,192,275922,1,0,0:0:0:0:
256,192,276038,1,8,0:0:0:0:
256,192,276153,1,8,0:0:0:0:
256,192,276268,1,8,0:0:0:0:
256,192,276384,1,0,0:0:0:0:
256,192,276441,1,0,0:0:0:0:
256,192,276499,1,0,0:0:0:0:
256,192,276557,1,0,0:0:0:0:
256,192,276614,1,8,0:0:0:0:
256,192,276672,1,0,0:0:0:0:
256,192,276730,1,8,0:0:0:0:
256,192,276788,1,8,0:0:0:0:
256,192,276845,1,0,0:0:0:0:
256,192,276903,1,0,0:0:0:0:
256,192,276961,1,8,0:0:0:0:
256,192,277018,1,8,0:0:0:0:
256,192,277076,1,0,0:0:0:0:
256,192,277134,1,8,0:0:0:0:
256,192,277191,1,8,0:0:0:0:
256,192,277249,1,8,0:0:0:0:
256,192,277307,1,0,0:0:0:0:
256,192,277364,1,0,0:0:0:0:
256,192,277422,1,8,0:0:0:0:
256,192,277480,1,0,0:0:0:0:
256,192,277538,1,8,0:0:0:0:
256,192,277595,1,8,0:0:0:0:
256,192,277653,1,0,0:0:0:0:
256,192,277711,1,8,0:0:0:0:
256,192,277768,1,0,0:0:0:0:
256,192,277922,1,8,0:0:0:0:
256,192,278086,1,8,0:0:0:0:
256,192,278230,5,4,0:0:0:0:
256,192,278461,1,0,0:0:0:0:
256,192,278599,1,0,0:0:0:0:
256,192,278691,1,8,0:0:0:0:
256,192,278711,1,8,0:0:0:0:
256,192,278922,1,0,0:0:0:0:
256,192,279076,1,8,0:0:0:0:
256,192,279291,1,8,0:0:0:0:
256,192,279384,1,0,0:0:0:0:
256,192,279538,1,8,0:0:0:0:
256,192,279614,1,8,0:0:0:0:
256,192,279634,1,8,0:0:0:0:
256,192,279845,1,0,0:0:0:0:
256,192,279984,1,8,0:0:0:0:
256,192,280076,1,0,0:0:0:0:
256,192,280230,1,8,0:0:0:0:
256,192,280307,1,0,0:0:0:0:
256,192,280538,1,8,0:0:0:0:
256,192,280557,1,8,0:0:0:0:
256,192,280691,1,0,0:0:0:0:
256,192,280768,1,0,0:0:0:0:
256,192,280922,1,8,0:0:0:0:
256,192,281143,1,0,0:0:0:0:
256,192,281230,1,0,0:0:0:0:
256,192,281384,1,8,0:0:0:0:
256,192,281461,1,8,0:0:0:0:
256,192,281480,1,8,0:0:0:0:
256,192,281691,1,0,0:0:0:0:
256,192,281922,1,4,0:0:0:0:
256,192,282153,1,0,0:0:0:0:
256,192,282291,1,0,0:0:0:0:
256,192,282384,1,8,0:0:0:0:
256,192,282403,1,8,0:0:0:0:
256,192,282614,1,0,0:0:0:0:
256,192,282768,1,8,0:0:0:0:
256,192,282984,1,8,0:0:0:0:
256,192,283076,1,0,0:0:0:0:
256,192,283230,1,8,0:0:0:0:
256,192,283307,1,8,0:0:0:0:
256,192,283326,1,8,0:0:0:0:
256,192,283538,1,0,0:0:0:0:
256,192,283676,1,8,0:0:0:0:
256,192,283768,1,0,0:0:0:0:
256,192,283922,1,8,0:0:0:0:
256,192,283999,1,0,0:0:0:0:
256,192,284230,1,8,0:0:0:0:
256,192,284249,1,8,0:0:0:0:
256,192,284461,1,0,0:0:0:0:
256,192,284614,1,8,0:0:0:0:
256,192,284830,1,8,0:0:0:0:
256,192,284922,1,0,0:0:0:0:
256,192,285076,1,8,0:0:0:0:
256,192,285153,1,8,0:0:0:0:
256,192,285172,1,8,0:0:0:0:
256,192,285211,1,0,0:0:0:0:
256,192,285268,1,8,0:0:0:0:
256,192,285384,1,0,0:0:0:0:
256,192,285499,1,8,0:0:0:0:
256,192,285557,1,8,0:0:0:0:
256,192,285614,1,4,0:0:0:0:
256,192,285845,1,0,0:0:0:0:
256,192,285984,1,0,0:0:0:0:
256,192,286076,1,8,0:0:0:0:
256,192,286095,1,8,0:0:0:0:
256,192,286307,1,0,0:0:0:0:
256,192,286461,1,8,0:0:0:0:
256,192,286676,1,8,0:0:0:0:
256,192,286768,1,0,0:0:0:0:
256,192,286922,1,8,0:0:0:0:
256,192,286999,1,8,0:0:0:0:
256,192,287018,1,8,0:0:0:0:
256,192,287230,1,0,0:0:0:0:
256,192,287368,1,8,0:0:0:0:
256,192,287461,1,0,0:0:0:0:
256,192,287614,1,8,0:0:0:0:
256,192,287691,1,0,0:0:0:0:
256,192,287922,1,8,0:0:0:0:
256,192,287941,1,8,0:0:0:0:
256,192,288076,1,0,0:0:0:0:
256,192,288153,1,0,0:0:0:0:
256,192,288307,1,8,0:0:0:0:
256,192,288528,1,0,0:0:0:0:
256,192,288614,1,0,0:0:0:0:
256,192,288768,1,8,0:0:0:0:
256,192,288845,1,8,0:0:0:0:
256,192,288864,1,8,0:0:0:0:
256,192,288903,1,0,0:0:0:0:
256,192,288961,1,8,0:0:0:0:
256,192,289076,1,0,0:0:0:0:
256,192,289191,1,8,0:0:0:0:
256,192,289249,1,8,0:0:0:0:
256,192,289307,1,4,0:0:0:0:
256,192,289538,1,0,0:0:0:0:
256,192,289676,1,0,0:0:0:0:
256,192,289768,1,8,0:0:0:0:
256,192,289788,1,8,0:0:0:0:
256,192,289999,1,0,0:0:0:0:
256,192,290153,1,8,0:0:0:0:
256,192,290368,1,8,0:0:0:0:
256,192,290461,1,0,0:0:0:0:
256,192,290614,1,8,0:0:0:0:
256,192,290691,1,8,0:0:0:0:
256,192,290711,1,8,0:0:0:0:
256,192,290922,1,0,0:0:0:0:
256,192,291061,1,8,0:0:0:0:
256,192,291153,1,0,0:0:0:0:
256,192,291307,1,8,0:0:0:0:
256,192,291384,1,0,0:0:0:0:
256,192,291614,1,8,0:0:0:0:
256,192,291634,1,8,0:0:0:0:
256,192,291759,1,0,0:0:0:0:
256,192,291845,1,0,0:0:0:0:
256,192,291999,1,8,0:0:0:0:
256,192,292076,1,0,0:0:0:0:
256,192,292235,1,8,0:0:0:0:
256,192,292307,1,0,0:0:0:0:
256,192,292451,1,8,0:0:0:0:
256,192,292538,1,8,0:0:0:0:
256,192,292557,1,8,0:0:0:0:
256,192,292595,1,0,0:0:0:0:
256,192,292653,1,8,0:0:0:0:
256,192,292768,1,0,0:0:0:0:
256,192,292884,1,8,0:0:0:0:
256,192,292941,1,8,0:0:0:0:
256,192,292999,1,4,0:0:0:0:
256,192,293230,1,0,0:0:0:0:
256,192,293368,1,0,0:0:0:0:
256,192,293461,1,8,0:0:0:0:
256,192,293480,1,8,0:0:0:0:
256,192,293691,1,0,0:0:0:0:
256,192,293830,1,8,0:0:0:0:
256,192,293922,1,0,0:0:0:0:
256,192,294153,1,0,0:0:0:0:
256,192,294291,1,8,0:0:0:0:
256,192,294384,1,8,0:0:0:0:
256,192,294403,1,8,0:0:0:0:
256,192,294614,1,0,0:0:0:0:
256,192,294759,1,8,0:0:0:0:
256,192,294845,1,0,0:0:0:0:
256,192,294999,1,8,0:0:0:0:
256,192,295076,1,0,0:0:0:0:
256,192,295208,1,0,0:0:0:0:
256,192,295307,1,8,0:0:0:0:
256,192,295326,1,8,0:0:0:0:
256,192,295538,1,0,0:0:0:0:
256,192,295691,1,8,0:0:0:0:
256,192,295768,1,0,0:0:0:0:
256,192,295913,1,8,0:0:0:0:
256,192,295999,1,0,0:0:0:0:
256,192,296138,1,8,0:0:0:0:
256,192,296230,1,8,0:0:0:0:
256,192,296249,1,8,0:0:0:0:
256,192,296461,1,0,0:0:0:0:
256,192,296691,1,4,0:0:0:0:
256,192,296922,1,0,0:0:0:0:
256,192,297061,1,0,0:0:0:0:
256,192,297153,1,8,0:0:0:0:
256,192,297172,1,8,0:0:0:0:
256,192,297384,1,0,0:0:0:0:
256,192,297522,1,8,0:0:0:0:
256,192,297614,1,0,0:0:0:0:
256,192,297845,1,0,0:0:0:0:
256,192,297984,1,8,0:0:0:0:
256,192,298076,1,8,0:0:0:0:
256,192,298095,1,8,0:0:0:0:
256,192,298307,1,0,0:0:0:0:
256,192,298451,1,8,0:0:0:0:
256,192,298538,1,0,0:0:0:0:
256,192,298691,1,8,0:0:0:0:
256,192,298768,1,0,0:0:0:0:
256,192,298900,1,0,0:0:0:0:
256,192,298999,1,8,0:0:0:0:
256,192,299018,1,8,0:0:0:0:
256,192,299230,1,0,0:0:0:0:
256,192,299384,1,8,0:0:0:0:
256,192,299461,1,0,0:0:0:0:
256,192,299614,1,0,0:0:0:0:
256,192,299691,1,8,0:0:0:0:
256,192,299730,1,8,0:0:0:0:
256,192,299845,1,0,0:0:0:0:
256,192,299922,1,8,0:0:0:0:
256,192,299951,1,8,0:0:0:0:
256,192,299980,5,0,0:0:0:0:
256,192,300038,1,8,0:0:0:0:
256,192,300153,1,0,0:0:0:0:
256,192,300268,1,8,0:0:0:0:
256,192,300326,1,8,0:0:0:0:
256,192,300384,1,4,0:0:0:0:
256,192,300614,1,8,0:0:0:0:
256,192,300753,1,0,0:0:0:0:
256,192,300845,1,8,0:0:0:0:
256,192,300864,1,8,0:0:0:0:
256,192,301076,1,0,0:0:0:0:
256,192,301214,1,8,0:0:0:0:
256,192,301307,1,0,0:0:0:0:
256,192,301538,1,0,0:0:0:0:
256,192,301676,1,8,0:0:0:0:
256,192,301768,1,8,0:0:0:0:
256,192,301788,1,8,0:0:0:0:
256,192,301999,1,0,0:0:0:0:
256,192,302143,1,8,0:0:0:0:
256,192,302230,1,0,0:0:0:0:
256,192,302384,1,8,0:0:0:0:
256,192,302461,1,0,0:0:0:0:
256,192,302592,1,0,0:0:0:0:
256,192,302691,1,8,0:0:0:0:
256,192,302711,1,8,0:0:0:0:
256,192,302922,1,0,0:0:0:0:
256,192,303076,1,8,0:0:0:0:
256,192,303153,1,0,0:0:0:0:
256,192,303297,1,8,0:0:0:0:
256,192,303384,1,0,0:0:0:0:
256,192,303522,1,8,0:0:0:0:
256,192,303614,1,8,0:0:0:0:
256,192,303634,1,8,0:0:0:0:
256,192,303845,1,0,0:0:0:0:
256,192,304076,1,4,0:0:0:0:
256,192,304307,1,0,0:0:0:0:
256,192,304445,1,0,0:0:0:0:
256,192,304538,1,8,0:0:0:0:
256,192,304557,1,8,0:0:0:0:
256,192,304768,1,0,0:0:0:0:
256,192,304907,1,8,0:0:0:0:
256,192,304999,1,4,0:0:0:0:
256,192,305230,1,0,0:0:0:0:
256,192,305368,1,8,0:0:0:0:
256,192,305461,1,8,0:0:0:0:
256,192,305480,1,8,0:0:0:0:
256,192,305691,1,0,0:0:0:0:
256,192,305922,1,4,0:0:0:0:
256,192,306153,1,8,0:0:0:0:
256,192,306384,1,4,0:0:0:0:
256,192,306614,1,8,0:0:0:0:
256,192,306845,1,4,0:0:0:0:
256,192,307076,1,4,0:0:0:0:
256,192,307214,1,8,0:0:0:0:
256,192,307307,1,8,0:0:0:0:
256,192,307422,1,8,0:0:0:0:
256,192,307538,1,0,0:0:0:0:
256,192,307653,1,8,0:0:0:0:
256,192,307768,5,4,0:0:0:0:
256,192,308230,1,8,0:0:0:0:
256,192,308614,1,8,0:0:0:0:
256,192,308922,1,0,0:0:0:0:
256,192,309153,1,8,0:0:0:0:
256,192,309768,1,8,0:0:0:0:
256,192,309845,1,0,0:0:0:0:
256,192,310076,1,8,0:0:0:0:
256,192,310461,1,8,0:0:0:0:
256,192,310691,1,8,0:0:0:0:
256,192,310768,1,0,0:0:0:0:
256,192,310999,1,8,0:0:0:0:
256,192,311461,5,4,0:0:0:0:
256,192,311922,1,8,0:0:0:0:
256,192,312268,1,8,0:0:0:0:
256,192,312614,1,0,0:0:0:0:
256,192,312845,1,8,0:0:0:0:
256,192,313191,1,8,0:0:0:0:
256,192,313461,1,8,0:0:0:0:
256,192,313538,1,0,0:0:0:0:
256,192,313768,1,8,0:0:0:0:
256,192,314114,1,8,0:0:0:0:
256,192,314461,1,0,0:0:0:0:
256,192,314691,1,8,0:0:0:0:
256,192,314922,5,8,0:0:0:0:
256,192,314980,1,8,0:0:0:0:
256,192,315038,1,8,0:0:0:0:
256,192,315095,1,8,0:0:0:0:
256,192,315153,1,4,0:0:0:0:
256,192,315384,1,8,0:0:0:0:
256,192,315499,1,8,0:0:0:0:
256,192,315730,1,8,0:0:0:0:
256,192,315845,1,8,0:0:0:0:
256,192,316076,1,0,0:0:0:0:
256,192,316307,1,8,0:0:0:0:
256,192,316445,1,8,0:0:0:0:
256,192,316653,1,8,0:0:0:0:
256,192,316768,1,0,0:0:0:0:
256,192,316999,1,4,0:0:0:0:
256,192,317230,1,8,0:0:0:0:
256,192,317345,1,8,0:0:0:0:
256,192,317576,1,8,0:0:0:0:
256,192,317691,1,8,0:0:0:0:
256,192,317922,1,0,0:0:0:0:
256,192,318153,1,8,0:0:0:0:
256,192,318291,1,8,0:0:0:0:
256,192,318499,1,0,0:0:0:0:
256,192,318614,1,8,0:0:0:0:
256,192,318672,1,8,0:0:0:0:
256,192,318730,1,8,0:0:0:0:
256,192,318788,1,8,0:0:0:0:
256,192,318845,1,4,0:0:0:0:
256,192,319076,1,0,0:0:0:0:
256,192,319191,1,0,0:0:0:0:
256,192,319307,1,8,0:0:0:0:
256,192,319538,1,8,0:0:0:0:
256,192,319595,1,8,0:0:0:0:
256,192,319653,1,8,0:0:0:0:
256,192,319711,1,8,0:0:0:0:
256,192,319768,1,4,0:0:0:0:
256,192,319999,1,0,0:0:0:0:
256,192,320138,1,8,0:0:0:0:
256,192,320230,1,0,0:0:0:0:
256,192,320461,1,8,0:0:0:0:
256,192,320518,1,8,0:0:0:0:
256,192,320576,1,8,0:0:0:0:
256,192,320634,1,8,0:0:0:0:
256,192,320691,1,4,0:0:0:0:
256,192,320922,1,0,0:0:0:0:
256,192,321038,1,8,0:0:0:0:
256,192,321095,1,8,0:0:0:0:
256,192,321153,1,4,0:0:0:0:
256,192,321384,1,0,0:0:0:0:
256,192,321499,1,8,0:0:0:0:
256,192,321557,1,8,0:0:0:0:
256,192,321614,1,4,0:0:0:0:
256,192,321768,1,4,0:0:0:0:
256,192,321922,1,12,0:0:0:0:
256,192,322076,1,4,0:0:0:0:
256,192,322307,1,12,0:0:0:0:
256,192,322538,1,4,0:0:0:0:
256,192,322768,1,0,0:0:0:0:
256,192,322884,1,8,0:0:0:0:
256,192,322999,1,0,0:0:0:0:
256,192,323114,1,0,0:0:0:0:
256,192,323230,1,8,0:0:0:0:
256,192,323461,1,0,0:0:0:0:
256,192,323691,1,8,0:0:0:0:
256,192,323807,1,8,0:0:0:0:
256,192,323922,1,0,0:0:0:0:
256,192,324038,1,8,0:0:0:0:
256,192,324153,1,8,0:0:0:0:
256,192,324384,1,0,0:0:0:0:
256,192,324614,1,0,0:0:0:0:
256,192,324730,1,0,0:0:0:0:
256,192,324845,1,8,0:0:0:0:
256,192,324961,1,0,0:0:0:0:
256,192,325076,1,8,0:0:0:0:
256,192,325307,1,0,0:0:0:0:
256,192,325538,1,8,0:0:0:0:
256,192,325653,1,8,0:0:0:0:
256,192,325768,1,0,0:0:0:0:
256,192,325884,1,8,0:0:0:0:
256,192,325999,1,0,0:0:0:0:
256,192,326230,1,4,0:0:0:0:
256,192,326461,1,0,0:0:0:0:
256,192,326576,1,8,0:0:0:0:
256,192,326691,1,0,0:0:0:0:
256,192,326807,1,0,0:0:0:0:
256,192,326922,1,8,0:0:0:0:
256,192,327153,1,4,0:0:0:0:
256,192,327384,1,8,0:0:0:0:
256,192,327499,1,8,0:0:0:0:
256,192,327614,1,0,0:0:0:0:
256,192,327730,1,8,0:0:0:0:
256,192,327845,1,8,0:0:0:0:
256,192,328076,1,4,0:0:0:0:
256,192,328307,1,8,0:0:0:0:
256,192,328422,1,8,0:0:0:0:
256,192,328538,1,4,0:0:0:0:
256,192,328768,1,0,0:0:0:0:
256,192,328884,1,8,0:0:0:0:
256,192,328999,1,4,0:0:0:0:
256,192,329230,1,4,0:0:0:0:
256,192,329461,1,4,0:0:0:0:
256,192,329576,1,8,0:0:0:0:
256,192,329691,1,4,0:0:0:0:
256,192,329922,5,4,0:0:0:0:
256,192,330038,1,0,0:0:0:0:
256,192,330153,1,8,0:0:0:0:
256,192,330268,1,0,0:0:0:0:
256,192,330326,1,0,0:0:0:0:
256,192,330384,1,8,0:0:0:0:
256,192,330499,1,0,0:0:0:0:
256,192,330557,1,0,0:0:0:0:
256,192,330614,1,8,0:0:0:0:
256,192,330730,1,0,0:0:0:0:
256,192,330845,1,8,0:0:0:0:
256,192,330961,1,0,0:0:0:0:
256,192,331076,1,8,0:0:0:0:
256,192,331191,1,0,0:0:0:0:
256,192,331249,1,0,0:0:0:0:
256,192,331307,1,8,0:0:0:0:
256,192,331364,1,0,0:0:0:0:
256,192,331422,1,0,0:0:0:0:
256,192,331538,1,8,0:0:0:0:
256,192,331595,1,8,0:0:0:0:
256,192,331653,1,0,0:0:0:0:
256,192,331768,1,8,0:0:0:0:
256,192,331884,1,4,0:0:0:0:
256,192,332057,1,4,0:0:0:0:
256,192,332230,1,4,0:0:0:0:
256,192,332403,1,4,0:0:0:0:
256,192,332576,1,4,0:0:0:0:
256,192,332691,1,8,0:0:0:0:
256,192,332807,1,4,0:0:0:0:
256,192,332980,1,4,0:0:0:0:
256,192,333153,1,12,0:0:0:0:
256,192,333326,1,12,0:0:0:0:
256,192,333499,1,4,0:0:0:0:
256,192,333614,1,4,0:0:0:0:
256,192,333730,1,0,0:0:0:0:
256,192,333845,1,8,0:0:0:0:
256,192,333961,1,0,0:0:0:0:
256,192,334018,1,0,0:0:0:0:
256,192,334076,1,8,0:0:0:0:
256,192,334191,1,0,0:0:0:0:
256,192,334249,1,0,0:0:0:0:
256,192,334307,1,8,0:0:0:0:
256,192,334422,1,0,0:0:0:0:
256,192,334538,1,8,0:0:0:0:
256,192,334653,1,0,0:0:0:0:
256,192,334768,1,8,0:0:0:0:
256,192,334884,1,0,0:0:0:0:
256,192,334941,1,0,0:0:0:0:
256,192,334999,1,8,0:0:0:0:
256,192,335057,1,0,0:0:0:0:
256,192,335114,1,0,0:0:0:0:
256,192,335230,1,8,0:0:0:0:
256,192,335288,1,8,0:0:0:0:
256,192,335345,1,0,0:0:0:0:
256,192,335461,1,4,0:0:0:0:
256,192,335576,1,0,0:0:0:0:
256,192,335691,1,8,0:0:0:0:
256,192,335807,1,0,0:0:0:0:
256,192,335864,1,0,0:0:0:0:
256,192,335922,1,8,0:0:0:0:
256,192,335980,1,8,0:0:0:0:
256,192,336038,1,0,0:0:0:0:
256,192,336153,1,8,0:0:0:0:
256,192,336268,1,0,0:0:0:0:
256,192,336326,1,0,0:0:0:0:
256,192,336384,1,8,0:0:0:0:
256,192,336499,1,0,0:0:0:0:
256,192,336614,1,8,0:0:0:0:
256,192,336730,1,0,0:0:0:0:
256,192,336788,1,0,0:0:0:0:
256,192,336845,1,8,0:0:0:0:
256,192,336903,1,8,0:0:0:0:
256,192,336961,1,0,0:0:0:0:
256,192,337018,1,0,0:0:0:0:
256,192,337076,1,8,0:0:0:0:
256,192,337134,1,0,0:0:0:0:
256,192,337191,1,0,0:0:0:0:
256,192,337249,1,0,0:0:0:0:
256,192,337307,1,12,0:0:0:0:
256,192,337538,1,8,0:0:0:0:
256,192,337653,1,8,0:0:0:0:
256,192,337884,1,8,0:0:0:0:
256,192,337999,1,8,0:0:0:0:
256,192,338230,1,8,0:0:0:0:
256,192,338461,1,8,0:0:0:0:
256,192,338576,1,8,0:0:0:0:
256,192,338691,1,0,0:0:0:0:
256,192,338807,1,8,0:0:0:0:
256,192,338922,1,8,0:0:0:0:
256,192,339153,1,4,0:0:0:0:
256,192,339384,1,8,0:0:0:0:
256,192,339499,1,8,0:0:0:0:
256,192,339730,1,8,0:0:0:0:
256,192,339845,1,8,0:0:0:0:
256,192,340076,1,8,0:0:0:0:
256,192,340307,1,8,0:0:0:0:
256,192,340422,1,8,0:0:0:0:
256,192,340653,1,8,0:0:0:0:
256,192,340768,1,0,0:0:0:0:
256,192,340999,1,12,0:0:0:0:
256,192,341114,1,0,0:0:0:0:
256,192,341172,1,0,0:0:0:0:
256,192,341230,1,8,0:0:0:0:
256,192,341288,1,8,0:0:0:0:
256,192,341345,1,0,0:0:0:0:
256,192,341576,1,8,0:0:0:0:
256,192,341691,1,8,0:0:0:0:
256,192,341922,1,0,0:0:0:0:
256,192,342153,1,8,0:0:0:0:
256,192,342268,1,8,0:0:0:0:
256,192,342499,1,8,0:0:0:0:
256,192,342614,1,8,0:0:0:0:
256,192,342730,1,8,0:0:0:0:
256,192,342788,1,8,0:0:0:0:
256,192,342845,1,4,0:0:0:0:
256,192,343076,1,8,0:0:0:0:
256,192,343191,1,8,0:0:0:0:
256,192,343307,1,4,0:0:0:0:
256,192,343422,1,8,0:0:0:0:
256,192,343538,5,8,0:0:0:0:
256,192,343768,1,4,0:0:0:0:
256,192,343884,1,8,0:0:0:0:
256,192,343941,1,8,0:0:0:0:
256,192,343999,1,8,0:0:0:0:
256,192,344114,1,0,0:0:0:0:
256,192,344230,1,4,0:0:0:0:
256,192,344384,1,0,0:0:0:0:
256,192,344538,1,8,0:0:0:0:
256,192,344691,5,4,0:0:0:0:
256,192,344845,1,4,0:0:0:0:
256,192,344999,1,12,0:0:0:0:
256,192,345153,1,4,0:0:0:0:
256,192,345307,1,12,0:0:0:0:
256,192,345384,1,0,0:0:0:0:
256,192,345461,1,12,0:0:0:0:
256,192,345614,1,4,0:0:0:0:
256,192,345768,1,12,0:0:0:0:
256,192,345922,1,12,0:0:0:0:
256,192,346076,1,12,0:0:0:0:
256,192,346230,1,4,0:0:0:0:
256,192,346384,1,12,0:0:0:0:
256,192,346461,1,8,0:0:0:0:
256,192,346538,1,4,0:0:0:0:
256,192,346691,1,4,0:0:0:0:
256,192,346845,1,12,0:0:0:0:
256,192,346999,1,12,0:0:0:0:
256,192,347153,1,4,0:0:0:0:
256,192,347230,1,0,0:0:0:0:
256,192,347307,1,12,0:0:0:0:
256,192,347461,1,4,0:0:0:0:
256,192,347614,1,12,0:0:0:0:
256,192,347768,1,12,0:0:0:0:
256,192,347922,1,12,0:0:0:0:
256,192,347999,1,0,0:0:0:0:
256,192,348076,1,0,0:0:0:0:
256,192,348153,1,12,0:0:0:0:
256,192,348307,1,8,0:0:0:0:
256,192,348384,1,4,0:0:0:0:
256,192,348499,1,8,0:0:0:0:
256,192,348557,1,8,0:0:0:0:
256,192,348614,1,0,0:0:0:0:
256,192,348730,1,8,0:0:0:0:
256,192,348845,1,0,0:0:0:0:
256,192,348961,1,8,0:0:0:0:
256,192,349018,1,8,0:0:0:0:
256,192,349076,1,0,0:0:0:0:
256,192,349191,1,8,0:0:0:0:
256,192,349307,1,0,0:0:0:0:
256,192,349364,1,0,0:0:0:0:
256,192,349422,1,8,0:0:0:0:
256,192,349538,1,0,0:0:0:0:
256,192,349653,1,8,0:0:0:0:
256,192,349768,1,0,0:0:0:0:
256,192,349826,1,0,0:0:0:0:
256,192,349884,1,8,0:0:0:0:
256,192,349941,1,8,0:0:0:0:
256,192,349999,1,0,0:0:0:0:
256,192,350114,1,8,0:0:0:0:
256,192,350230,1,0,0:0:0:0:
256,192,350288,1,0,0:0:0:0:
256,192,350345,1,8,0:0:0:0:
256,192,350403,1,8,0:0:0:0:
256,192,350461,1,0,0:0:0:0:
256,192,350518,1,8,0:0:0:0:
256,192,350576,1,8,0:0:0:0:
256,192,350634,1,8,0:0:0:0:
256,192,350691,1,0,0:0:0:0:
256,192,350749,1,0,0:0:0:0:
256,192,350807,1,8,0:0:0:0:
256,192,350864,1,8,0:0:0:0:
256,192,350922,5,0,0:0:0:0:
256,192,350980,1,8,0:0:0:0:
256,192,351038,1,8,0:0:0:0:
256,192,351095,1,8,0:0:0:0:
256,192,351153,1,0,0:0:0:0:
256,192,351211,1,0,0:0:0:0:
256,192,351268,1,8,0:0:0:0:
256,192,351326,1,8,0:0:0:0:
256,192,351384,1,0,0:0:0:0:
256,192,351441,1,8,0:0:0:0:
256,192,351499,1,8,0:0:0:0:
256,192,351557,1,0,0:0:0:0:
256,192,351614,1,8,0:0:0:0:
256,192,351653,1,0,0:0:0:0:
256,192,351691,1,0,0:0:0:0:
256,192,351730,1,8,0:0:0:0:
256,192,351768,1,8,0:0:0:0:
256,192,351807,1,8,0:0:0:0:
256,192,351845,1,0,0:0:0:0:
256,192,351903,1,0,0:0:0:0:
256,192,351961,1,8,0:0:0:0:
256,192,351999,1,8,0:0:0:0:
256,192,352038,1,8,0:0:0:0:
102,122,352076,5,4,0:0:0:0:
77,142,353922,1,8,0:0:0:0:
77,142,354038,1,0,0:0:0:0:
69,145,354153,1,0,0:0:0:0:
77,142,354268,1,8,0:0:0:0:
212,146,354384,1,0,0:0:0:0:
212,146,354499,1,8,0:0:0:0:
212,146,354614,1,8,0:0:0:0:
212,146,354730,1,0,0:0:0:0:
212,146,354845,1,8,0:0:0:0:
217,217,354903,1,8,0:0:0:0:
116,134,354961,1,8,0:0:0:0:
207,83,355018,1,8,0:0:0:0:
207,83,355076,1,0,0:0:0:0:
207,83,355134,1,0,0:0:0:0:
207,83,355191,1,8,0:0:0:0:
266,47,355249,1,0,0:0:0:0:
266,47,355307,1,0,0:0:0:0:
266,47,355364,1,0,0:0:0:0:
116,134,355422,1,8,0:0:0:0:
321,188,355480,1,0,0:0:0:0:
116,134,355538,1,8,0:0:0:0:
321,188,355595,1,8,0:0:0:0:
116,134,355653,1,0,0:0:0:0:
197,249,355711,1,8,0:0:0:0:
30,115,355768,1,0,0:0:0:0:
135,149,355884,1,0,0:0:0:0:
136,142,355941,1,0,0:0:0:0:
136,142,355999,1,0,0:0:0:0:
136,142,356057,1,8,0:0:0:0:
136,142,356114,1,0,0:0:0:0:
157,72,356172,1,0,0:0:0:0:
157,72,356230,1,0,0:0:0:0:
296,137,356345,1,8,0:0:0:0:
296,137,356403,1,8,0:0:0:0:
296,137,356461,1,0,0:0:0:0:
296,137,356518,1,8,0:0:0:0:
296,137,356576,1,0,0:0:0:0:
296,137,356691,1,8,0:0:0:0:
194,147,356807,1,0,0:0:0:0:
194,147,356864,1,0,0:0:0:0:
194,147,356922,1,0,0:0:0:0:
422,160,356980,1,0,0:0:0:0:
194,147,357038,1,8,0:0:0:0:
194,147,357153,1,8,0:0:0:0:
194,147,357211,1,0,0:0:0:0:
194,147,357268,1,0,0:0:0:0:
271,82,357384,1,0,0:0:0:0:
291,108,357422,1,8,0:0:0:0:
291,108,357461,1,8,0:0:0:0:
271,82,357499,1,0,0:0:0:0:
463,72,357557,1,0,0:0:0:0:
271,82,357614,1,8,0:0:0:0:
81,87,357672,1,0,0:0:0:0:
64,127,357730,1,8,0:0:0:0:
81,87,357788,1,0,0:0:0:0:
64,127,357845,1,8,0:0:0:0:
129,199,357961,1,8,0:0:0:0:
177,263,358076,1,0,0:0:0:0:
177,263,358134,1,8,0:0:0:0:
177,263,358191,1,0,0:0:0:0:
177,263,358249,1,0,0:0:0:0:
177,263,358307,1,8,0:0:0:0:
177,263,358364,1,8,0:0:0:0:
177,263,358422,1,0,0:0:0:0:
286,162,358538,1,8,0:0:0:0:
286,162,358576,1,8,0:0:0:0:
286,162,358614,1,0,0:0:0:0:
297,132,358653,1,0,0:0:0:0:
286,162,358768,1,0,0:0:0:0:
286,162,358806,1,0,0:0:0:0:
286,162,358844,1,0,0:0:0:0:
297,132,358883,1,8,0:0:0:0:
286,162,358999,1,8,0:0:0:0:
286,162,359037,1,8,0:0:0:0:
286,162,359075,1,8,0:0:0:0:
286,162,359114,1,0,0:0:0:0:
286,162,359152,1,0,0:0:0:0:
286,162,359190,1,0,0:0:0:0:
297,132,359229,1,8,0:0:0:0:
267,211,359288,1,8,0:0:0:0:
267,211,359345,1,0,0:0:0:0:
226,80,359461,1,8,0:0:0:0:
226,80,359576,1,8,0:0:0:0:
226,80,359634,1,0,0:0:0:0:
226,80,359691,1,8,0:0:0:0:
226,80,359807,1,0,0:0:0:0:
148,193,359922,1,0,0:0:0:0:
148,193,359980,1,0,0:0:0:0:
148,193,360038,1,8,0:0:0:0:
151,189,360095,1,8,0:0:0:0:
151,189,360153,1,0,0:0:0:0:
151,189,360211,1,8,0:0:0:0:
154,190,360268,1,0,0:0:0:0:
123,81,360384,1,8,0:0:0:0:
302,54,360441,1,0,0:0:0:0:
291,59,360499,1,0,0:0:0:0:
302,54,360614,1,8,0:0:0:0:
195,32,360672,1,0,0:0:0:0:
315,123,360730,1,8,0:0:0:0:
315,123,360788,1,8,0:0:0:0:
315,123,360845,1,0,0:0:0:0:
315,123,360903,1,8,0:0:0:0:
315,123,360961,1,0,0:0:0:0:
315,123,361076,1,0,0:0:0:0:
315,123,361114,1,0,0:0:0:0:
85,118,361153,1,0,0:0:0:0:
106,126,361191,1,0,0:0:0:0:
450,43,361249,1,8,0:0:0:0:
106,126,361307,1,0,0:0:0:0:
358,182,361422,1,8,0:0:0:0:
228,215,361460,1,0,0:0:0:0:
358,182,361595,1,8,0:0:0:0:
137,193,361634,1,0,0:0:0:0:
358,182,361768,1,8,0:0:0:0:
123,145,361807,1,0,0:0:0:0:
358,182,361941,1,8,0:0:0:0:
123,145,361980,1,0,0:0:0:0:
358,182,362114,1,8,0:0:0:0:
123,145,362152,1,0,0:0:0:0:
209,97,362230,1,8,0:0:0:0:
141,81,362345,1,0,0:0:0:0:
321,67,362383,1,8,0:0:0:0:
141,81,362518,1,8,0:0:0:0:
251,70,362556,1,0,0:0:0:0:
141,81,362691,1,8,0:0:0:0:
251,70,362730,1,8,0:0:0:0:
141,81,362864,1,8,0:0:0:0:
284,178,362903,1,8,0:0:0:0:
284,178,362941,1,8,0:0:0:0:
284,178,362979,1,8,0:0:0:0:
284,178,363018,1,0,0:0:0:0:
223,252,363153,1,12,0:0:0:0:
98,165,363268,1,0,0:0:0:0:
98,165,363326,1,8,0:0:0:0:
98,165,363384,1,0,0:0:0:0:
98,165,363499,1,0,0:0:0:0:
230,64,363557,1,0,0:0:0:0:
230,64,363614,1,8,0:0:0:0:
98,165,363672,1,0,0:0:0:0:
241,66,363788,1,0,0:0:0:0:
241,66,363845,1,8,0:0:0:0:
241,66,363903,1,0,0:0:0:0:
222,131,363961,1,0,0:0:0:0:
228,132,364076,1,8,0:0:0:0:
248,100,364191,1,0,0:0:0:0:
242,102,364249,1,8,0:0:0:0:
248,100,364307,1,0,0:0:0:0:
242,102,364422,1,8,0:0:0:0:
252,132,364480,1,0,0:0:0:0:
252,132,364538,1,8,0:0:0:0:
252,132,364595,1,0,0:0:0:0:
86,157,364711,1,0,0:0:0:0:
86,157,364768,1,8,0:0:0:0:
174,27,364807,1,8,0:0:0:0:
86,157,364845,1,8,0:0:0:0:
86,157,364884,1,0,0:0:0:0:
445,143,364941,1,0,0:0:0:0:
133,157,364999,1,8,0:0:0:0:
201,182,365114,1,8,0:0:0:0:
201,182,365172,1,8,0:0:0:0:
201,182,365230,1,0,0:0:0:0:
126,280,365345,1,0,0:0:0:0:
126,280,365403,1,0,0:0:0:0:
126,280,365461,1,8,0:0:0:0:
126,280,365518,1,0,0:0:0:0:
126,280,365634,1,0,0:0:0:0:
126,280,365691,1,8,0:0:0:0:
126,280,365749,1,8,0:0:0:0:
126,280,365807,1,0,0:0:0:0:
126,280,365864,1,0,0:0:0:0:
126,280,365922,1,8,0:0:0:0:
254,186,365961,1,8,0:0:0:0:
254,186,365999,1,8,0:0:0:0:
254,186,366038,1,8,0:0:0:0:
441,103,366095,1,0,0:0:0:0:
261,190,366153,1,8,0:0:0:0:
261,190,366211,1,0,0:0:0:0:
261,190,366268,1,0,0:0:0:0:
261,190,366326,1,0,0:0:0:0:
338,137,366384,1,8,0:0:0:0:
97,123,366422,1,8,0:0:0:0:
249,84,366461,1,8,0:0:0:0:
267,95,366499,1,0,0:0:0:0:
97,123,366557,1,0,0:0:0:0:
159,59,366614,1,8,0:0:0:0:
159,59,366672,1,0,0:0:0:0:
97,123,366730,1,0,0:0:0:0:
255,116,366845,1,8,0:0:0:0:
271,235,366999,1,0,0:0:0:0:
271,235,367076,1,8,0:0:0:0:
271,235,367153,1,0,0:0:0:0:
271,235,367230,1,0,0:0:0:0:
271,235,367307,1,8,0:0:0:0:
271,235,367461,1,0,0:0:0:0:
263,237,367538,1,8,0:0:0:0:
271,235,367614,1,0,0:0:0:0:
271,235,367691,1,8,0:0:0:0:
271,235,367768,1,8,0:0:0:0:
141,164,367922,1,0,0:0:0:0:
141,164,367999,1,8,0:0:0:0:
192,25,368038,1,8,0:0:0:0:
141,164,368076,1,8,0:0:0:0:
141,164,368153,1,0,0:0:0:0:
141,164,368230,1,8,0:0:0:0:
141,164,368384,1,0,0:0:0:0:
141,164,368461,1,8,0:0:0:0:
151,47,368499,1,8,0:0:0:0:
141,164,368538,1,0,0:0:0:0:
141,164,368614,1,0,0:0:0:0:
141,164,368691,1,8,0:0:0:0:
171,209,368845,1,0,0:0:0:0:
189,109,368922,1,8,0:0:0:0:
189,109,368980,1,0,0:0:0:0:
189,109,369038,1,0,0:0:0:0:
189,109,369095,1,0,0:0:0:0:
171,209,369153,1,8,0:0:0:0:
189,109,369230,1,8,0:0:0:0:
171,209,369307,1,0,0:0:0:0:
225,77,369384,1,8,0:0:0:0:
171,209,369441,1,8,0:0:0:0:
154,52,369499,1,0,0:0:0:0:
171,209,369557,1,0,0:0:0:0:
327,147,369614,1,8,0:0:0:0:
428,153,369691,1,0,0:0:0:0:
428,153,369730,1,0,0:0:0:0:
428,153,369768,1,8,0:0:0:0:
327,147,369845,1,8,0:0:0:0:
122,59,369922,1,0,0:0:0:0:
122,59,369961,1,8,0:0:0:0:
127,45,369999,1,0,0:0:0:0:
327,147,370076,1,8,0:0:0:0:
256,39,370114,1,8,0:0:0:0:
256,39,370153,1,0,0:0:0:0:
61,168,370191,1,0,0:0:0:0:
130,227,370230,1,0,0:0:0:0:
130,227,370307,1,8,0:0:0:0:
201,68,370384,1,0,0:0:0:0:
211,125,370422,1,8,0:0:0:0:
211,125,370461,1,8,0:0:0:0:
211,125,370538,1,4,0:0:0:0:
202,239,370653,1,0,0:0:0:0:
202,239,370711,1,0,0:0:0:0:
202,239,370768,1,8,0:0:0:0:
131,194,370884,1,0,0:0:0:0:
131,194,370941,1,0,0:0:0:0:
131,194,370999,1,8,0:0:0:0:
131,194,371057,1,0,0:0:0:0:
131,194,371114,1,0,0:0:0:0:
131,194,371153,1,0,0:0:0:0:
22,165,371191,1,0,0:0:0:0:
131,194,371230,1,8,0:0:0:0:
301,205,371345,1,8,0:0:0:0:
301,205,371403,1,0,0:0:0:0:
110,114,371461,1,8,0:0:0:0:
72,163,371576,1,0,0:0:0:0:
72,163,371634,1,8,0:0:0:0:
72,163,371691,1,8,0:0:0:0:
66,169,371806,1,0,0:0:0:0:
80,150,371864,1,0,0:0:0:0:
66,169,371922,1,8,0:0:0:0:
80,150,371980,1,8,0:0:0:0:
80,150,372038,1,8,0:0:0:0:
80,150,372095,1,0,0:0:0:0:
80,150,372153,1,8,0:0:0:0:
80,150,372191,1,8,0:0:0:0:
65,252,372230,1,8,0:0:0:0:
201,66,372268,1,0,0:0:0:0:
243,168,372384,1,12,0:0:0:0:
243,168,372499,1,12,0:0:0:0:
243,168,372614,1,12,0:0:0:0:
187,124,372730,1,0,0:0:0:0:
187,124,372788,1,0,0:0:0:0:
187,124,372845,1,8,0:0:0:0:
187,124,372961,1,0,0:0:0:0:
278,101,372999,1,0,0:0:0:0:
66,184,373038,1,0,0:0:0:0:
278,101,373076,1,8,0:0:0:0:
128,62,373134,1,8,0:0:0:0:
267,107,373191,1,0,0:0:0:0:
194,263,373307,1,12,0:0:0:0:
286,232,373422,1,8,0:0:0:0:
301,116,373461,1,8,0:0:0:0:
301,116,373499,1,8,0:0:0:0:
286,232,373538,1,0,0:0:0:0:
281,208,373653,1,8,0:0:0:0:
266,86,373768,1,0,0:0:0:0:
266,86,373807,1,8,0:0:0:0:
266,86,373845,1,8,0:0:0:0:
266,86,373884,1,0,0:0:0:0:
176,133,373941,1,0,0:0:0:0:
281,208,373999,1,8,0:0:0:0:
381,97,374038,1,8,0:0:0:0:
381,97,374076,1,8,0:0:0:0:
381,97,374114,1,0,0:0:0:0:
370,217,374230,1,12,0:0:0:0:
232,234,374345,1,8,0:0:0:0:
232,234,374403,1,0,0:0:0:0:
232,234,374461,1,8,0:0:0:0:
306,134,374576,1,8,0:0:0:0:
306,134,374634,1,8,0:0:0:0:
306,134,374691,1,0,0:0:0:0:
306,134,374749,1,0,0:0:0:0:
181,107,374864,1,0,0:0:0:0:
181,107,374922,1,8,0:0:0:0:
181,107,374980,1,0,0:0:0:0:
181,107,375038,1,0,0:0:0:0:
202,56,375095,1,8,0:0:0:0:
202,56,375153,1,8,0:0:0:0:
47,82,375268,1,8,0:0:0:0:
66,84,375326,1,0,0:0:0:0:
47,82,375384,1,8,0:0:0:0:
73,86,375441,1,0,0:0:0:0:
130,181,375557,1,0,0:0:0:0:
232,160,375614,1,8,0:0:0:0:
232,160,375653,1,0,0:0:0:0:
232,160,375691,1,0,0:0:0:0:
232,160,375730,1,0,0:0:0:0:
369,106,375788,1,0,0:0:0:0:
283,47,375845,1,8,0:0:0:0:
283,47,375884,1,8,0:0:0:0:
283,47,375922,1,0,0:0:0:0:
283,47,375961,1,0,0:0:0:0:
425,152,376018,1,0,0:0:0:0:
425,152,376076,1,8,0:0:0:0:
148,252,376191,1,0,0:0:0:0:
148,252,376249,1,0,0:0:0:0:
148,252,376307,1,8,0:0:0:0:
148,252,376364,1,0,0:0:0:0:
148,252,376480,1,0,0:0:0:0:
58,146,376538,1,8,0:0:0:0:
106,190,376653,1,8,0:0:0:0:
116,103,376711,1,0,0:0:0:0:
116,103,376768,1,8,0:0:0:0:
116,103,376826,1,8,0:0:0:0:
116,103,376884,1,0,0:0:0:0:
116,103,376941,1,0,0:0:0:0:
116,103,376999,1,8,0:0:0:0:
171,158,377114,1,0,0:0:0:0:
257,193,377152,1,8,0:0:0:0:
171,158,377288,1,8,0:0:0:0:
257,193,377326,1,0,0:0:0:0:
171,158,377461,1,0,0:0:0:0:
257,193,377499,1,0,0:0:0:0:
171,158,377633,1,8,0:0:0:0:
257,193,377672,1,8,0:0:0:0:
239,120,377710,1,8,0:0:0:0:
246,74,377748,1,8,0:0:0:0:
171,158,377787,1,0,0:0:0:0:
257,193,377825,1,0,0:0:0:0:
72,146,377922,1,12,0:0:0:0:
72,146,378076,1,4,0:0:0:0:
72,146,378230,1,4,0:0:0:0:
72,146,378384,1,12,0:0:0:0:
72,146,378538,1,4,0:0:0:0:
72,146,378691,1,4,0:0:0:0:
72,146,378845,1,12,0:0:0:0:
72,146,378999,1,4,0:0:0:0:
72,146,379153,1,4,0:0:0:0:
72,146,379307,1,12,0:0:0:0:
361,136,379461,1,0,0:0:0:0:
226,68,379499,1,0,0:0:0:0:
226,68,379538,1,8,0:0:0:0:
226,68,379576,1,8,0:0:0:0:
361,136,379614,1,0,0:0:0:0:
361,136,379768,1,12,0:0:0:0:
361,136,379922,1,4,0:0:0:0:
361,136,380076,1,12,0:0:0:0:
361,136,380230,1,12,0:0:0:0:
192,146,380384,1,4,0:0:0:0:
192,146,380538,1,12,0:0:0:0:
192,146,380691,1,12,0:0:0:0:
192,146,380845,1,12,0:0:0:0:
192,146,380999,1,4,0:0:0:0:
81,141,381153,1,8,0:0:0:0:
81,141,381230,1,0,0:0:0:0:
81,141,381307,1,8,0:0:0:0:
81,141,381384,1,8,0:0:0:0:
81,141,381538,1,8,0:0:0:0:
81,141,381615,1,0,0:0:0:0:
251,238,381730,1,8,0:0:0:0:
251,238,381788,1,8,0:0:0:0:
251,238,381845,1,0,0:0:0:0:
261,135,381961,1,8,0:0:0:0:
261,135,382018,1,0,0:0:0:0:
261,135,382076,1,0,0:0:0:0:
261,135,382134,1,0,0:0:0:0:
261,135,382191,1,8,0:0:0:0:
261,135,382249,1,0,0:0:0:0:
261,135,382307,1,0,0:0:0:0:
212,186,382422,1,8,0:0:0:0:
212,186,382480,1,0,0:0:0:0:
212,186,382538,1,8,0:0:0:0:
212,186,382653,1,0,0:0:0:0:
212,186,382711,1,0,0:0:0:0:
212,186,382768,1,8,0:0:0:0:
191,143,382884,1,0,0:0:0:0:
191,143,382941,1,0,0:0:0:0:
191,143,382999,1,8,0:0:0:0:
191,143,383057,1,8,0:0:0:0:
191,143,383114,1,0,0:0:0:0:
191,143,383172,1,8,0:0:0:0:
191,143,383230,1,8,0:0:0:0:
251,200,383345,1,8,0:0:0:0:
251,200,383403,1,0,0:0:0:0:
116,42,383461,1,8,0:0:0:0:
116,42,383499,1,0,0:0:0:0:
116,42,383538,1,0,0:0:0:0:
116,42,383576,1,0,0:0:0:0:
116,42,383691,1,8,0:0:0:0:
116,42,383729,1,8,0:0:0:0:
116,42,383768,1,0,0:0:0:0:
116,42,383806,1,0,0:0:0:0:
116,42,383922,1,8,0:0:0:0:
116,42,383960,1,0,0:0:0:0:
116,42,383999,1,0,0:0:0:0:
116,42,384037,1,0,0:0:0:0:
116,42,384153,1,8,0:0:0:0:
116,42,384191,1,8,0:0:0:0:
116,42,384230,1,8,0:0:0:0:
116,42,384268,1,0,0:0:0:0:
403,98,384384,1,0,0:0:0:0:
403,98,384422,1,8,0:0:0:0:
165,92,384461,1,8,0:0:0:0:
403,98,384499,1,0,0:0:0:0:
403,98,384557,1,0,0:0:0:0:
403,98,384614,1,8,0:0:0:0:
128,130,384653,1,8,0:0:0:0:
300,101,384691,1,0,0:0:0:0:
300,101,384730,1,0,0:0:0:0:
300,101,384788,1,0,0:0:0:0:
251,108,384845,1,8,0:0:0:0:
272,156,384884,1,8,0:0:0:0:
272,156,384922,1,8,0:0:0:0:
272,156,384961,1,0,0:0:0:0:
187,48,384999,1,0,0:0:0:0:
272,156,385038,1,0,0:0:0:0:
272,156,385076,1,8,0:0:0:0:
272,156,385114,1,8,0:0:0:0:
272,156,385153,1,8,0:0:0:0:
272,156,385191,1,8,0:0:0:0:
272,156,385230,1,8,0:0:0:0:
272,156,385268,1,8,0:0:0:0:
251,108,385307,1,0,0:0:0:0:
256,192,385393,12,0,391653,0:0:0:0:
331,124,392230,5,8,0:0:0:0:
158,122,392576,1,0,0:0:0:0:
331,124,392691,1,8,0:0:0:0:
186,102,393037,1,0,0:0:0:0:
331,124,393153,1,8,0:0:0:0:
336,122,393499,1,0,0:0:0:0:
331,124,393614,1,8,0:0:0:0:
336,122,393960,1,0,0:0:0:0:
331,124,394076,1,8,0:0:0:0:
331,124,394422,1,0,0:0:0:0:
336,122,394537,1,8,0:0:0:0:
210,159,394768,1,0,0:0:0:0:
113,82,394999,1,8,0:0:0:0:
201,110,395345,1,0,0:0:0:0:
113,82,395460,1,8,0:0:0:0:
194,110,395691,1,8,0:0:0:0:
201,110,395807,1,0,0:0:0:0:
113,82,395922,1,8,0:0:0:0:
201,110,396268,1,0,0:0:0:0:
113,82,396383,1,8,0:0:0:0:
194,110,396614,1,0,0:0:0:0:
194,110,396730,1,0,0:0:0:0:
113,82,396845,1,8,0:0:0:0:
194,110,397191,1,0,0:0:0:0:
113,82,397307,1,8,0:0:0:0:
97,137,397537,5,8,0:0:0:0:
194,110,397653,1,0,0:0:0:0:
113,82,397768,1,8,0:0:0:0:
85,79,397999,1,8,0:0:0:0:
109,116,398230,1,0,0:0:0:0:
196,128,398460,1,0,0:0:0:0:
196,128,398576,1,0,0:0:0:0:
196,128,398691,1,8,0:0:0:0:
196,128,398922,1,0,0:0:0:0:
196,128,399037,1,0,0:0:0:0:
196,128,399153,1,8,0:0:0:0:
196,128,399383,1,0,0:0:0:0:
196,128,399499,1,0,0:0:0:0:
196,128,399614,1,8,0:0:0:0:
196,128,399845,1,0,0:0:0:0:
196,128,399960,1,0,0:0:0:0:
196,128,400076,1,8,0:0:0:0:
196,128,400307,1,0,0:0:0:0:
196,128,400423,1,0,0:0:0:0:
196,128,400538,1,8,0:0:0:0:
196,128,400769,1,0,0:0:0:0:
196,128,400884,1,8,0:0:0:0:
196,128,401000,1,0,0:0:0:0:
143,66,401230,1,0,0:0:0:0:
143,66,401460,1,8,0:0:0:0:
196,128,401691,1,0,0:0:0:0:
196,128,401807,1,0,0:0:0:0:
196,128,401922,1,8,0:0:0:0:
196,128,402153,1,0,0:0:0:0:
196,128,402268,1,0,0:0:0:0:
196,128,402384,1,8,0:0:0:0:
196,128,402614,1,0,0:0:0:0:
196,128,402730,1,0,0:0:0:0:
196,128,402845,1,8,0:0:0:0:
76,158,402960,1,0,0:0:0:0:
196,128,403191,1,0,0:0:0:0:
196,128,403307,1,8,0:0:0:0:
195,72,403422,1,0,0:0:0:0:
195,72,403537,1,0,0:0:0:0:
195,72,403768,1,8,0:0:0:0:
195,72,403883,1,0,0:0:0:0:
195,72,404114,1,0,0:0:0:0:
195,72,404230,1,8,0:0:0:0:
301,168,404345,1,8,0:0:0:0:
402,74,404403,1,8,0:0:0:0:
195,72,404460,1,0,0:0:0:0:
402,74,404576,1,8,0:0:0:0:
131,112,404691,1,0,0:0:0:0:
54,124,404807,1,0,0:0:0:0:
259,238,404864,1,0,0:0:0:0:
259,238,404922,1,0,0:0:0:0:
138,232,405037,1,0,0:0:0:0:
138,232,405153,1,8,0:0:0:0:
138,232,405268,1,0,0:0:0:0:
193,111,405499,1,0,0:0:0:0:
246,57,405614,1,8,0:0:0:0:
246,57,405730,1,0,0:0:0:0:
146,134,405961,1,0,0:0:0:0:
146,134,406076,1,8,0:0:0:0:
124,181,406191,1,0,0:0:0:0:
76,109,406422,1,0,0:0:0:0:
76,109,406537,1,8,0:0:0:0:
76,109,406768,1,0,0:0:0:0:
23,173,406883,1,0,0:0:0:0:
176,184,406999,1,8,0:0:0:0:
176,184,407114,1,0,0:0:0:0:
176,184,407345,1,0,0:0:0:0:
176,184,407460,1,8,0:0:0:0:
82,142,407576,1,0,0:0:0:0:
176,184,407691,1,8,0:0:0:0:
267,150,407807,1,8,0:0:0:0:
176,103,407922,1,0,0:0:0:0:
176,184,408038,1,0,0:0:0:0:
176,103,408095,1,0,0:0:0:0:
176,184,408153,1,0,0:0:0:0:
176,103,408268,1,0,0:0:0:0:
176,103,408383,1,8,0:0:0:0:
176,103,408499,1,0,0:0:0:0:
23,155,408614,1,0,0:0:0:0:
50,120,408845,1,8,0:0:0:0:
50,120,408960,1,0,0:0:0:0:
50,120,409076,1,0,0:0:0:0:
50,120,409191,1,0,0:0:0:0:
50,120,409307,1,8,0:0:0:0:
164,152,409537,1,0,0:0:0:0:
164,152,409653,1,8,0:0:0:0:
164,152,409768,1,0,0:0:0:0:
164,152,409883,1,8,0:0:0:0:
164,152,409941,1,8,0:0:0:0:
164,152,409999,1,8,0:0:0:0:
186,169,410114,1,8,0:0:0:0:
244,127,410230,1,0,0:0:0:0:
244,127,410287,1,0,0:0:0:0:
244,127,410345,1,8,0:0:0:0:
244,127,410403,1,8,0:0:0:0:
244,127,410460,1,8,0:0:0:0:
244,127,410576,1,8,0:0:0:0:
256,192,410691,12,0,411037,0:0:0:0:
256,192,411153,12,0,411499,0:0:0:0:
171,88,411614,5,4,0:0:0:0:
318,271,411730,1,8,0:0:0:0:
318,271,411787,1,8,0:0:0:0:
137,242,411845,1,8,0:0:0:0:
145,236,411960,1,8,0:0:0:0:
143,240,412191,1,8,0:0:0:0:
156,96,412307,1,0,0:0:0:0:
176,102,412537,1,8,0:0:0:0:
176,102,412653,1,0,0:0:0:0:
176,102,412768,1,8,0:0:0:0:
176,102,412883,1,8,0:0:0:0:
99,85,412999,1,0,0:0:0:0:
99,85,413073,1,0,0:0:0:0:
99,85,413150,1,0,0:0:0:0:
99,85,413227,1,8,0:0:0:0:
281,125,413344,1,0,0:0:0:0:
271,101,413575,1,8,0:0:0:0:
271,101,413632,1,8,0:0:0:0:
271,101,413690,1,0,0:0:0:0:
478,58,413921,1,8,0:0:0:0:
137,152,413978,1,0,0:0:0:0:
137,152,414036,1,8,0:0:0:0:
137,152,414151,1,0,0:0:0:0:
137,152,414267,1,0,0:0:0:0:
137,152,414382,1,8,0:0:0:0:
153,203,414613,1,8,0:0:0:0:
252,176,414642,1,8,0:0:0:0:
153,203,414729,1,8,0:0:0:0:
252,176,414757,1,8,0:0:0:0:
153,203,414844,1,0,0:0:0:0:
331,142,414959,1,8,0:0:0:0:
331,142,415017,1,0,0:0:0:0:
331,142,415075,1,0,0:0:0:0:
331,142,415190,1,8,0:0:0:0:
242,139,415420,1,8,0:0:0:0:
170,138,415478,1,0,0:0:0:0:
242,139,415536,1,8,0:0:0:0:
151,172,415767,1,8,0:0:0:0:
186,152,415825,1,8,0:0:0:0:
186,152,415882,1,0,0:0:0:0:
151,172,415940,1,0,0:0:0:0:
151,172,415998,1,8,0:0:0:0:
186,152,416113,1,8,0:0:0:0:
151,146,416229,1,0,0:0:0:0:
151,146,416286,1,0,0:0:0:0:
151,146,416344,1,0,0:0:0:0:
151,146,416459,1,0,0:0:0:0:
151,146,416575,1,8,0:0:0:0:
207,213,416804,1,8,0:0:0:0:
207,213,416919,1,0,0:0:0:0:
275,136,417150,1,0,0:0:0:0:
275,136,417207,1,8,0:0:0:0:
275,136,417265,1,0,0:0:0:0:
275,136,417380,1,0,0:0:0:0:
275,136,417438,1,8,0:0:0:0:
171,36,417496,1,0,0:0:0:0:
215,117,417611,1,8,0:0:0:0:
286,171,417842,1,8,0:0:0:0:
286,171,417880,1,8,0:0:0:0:
104,132,417919,1,8,0:0:0:0:
286,171,417957,1,8,0:0:0:0:
180,128,418073,1,4,0:0:0:0:
168,200,418188,1,0,0:0:0:0:
168,200,418246,1,0,0:0:0:0:
168,200,418304,1,8,0:0:0:0:
168,200,418419,1,0,0:0:0:0:
168,200,418650,1,8,0:0:0:0:
64,72,418688,1,8,0:0:0:0:
168,200,418765,1,0,0:0:0:0:
304,212,418996,1,8,0:0:0:0:
316,72,419034,1,0,0:0:0:0:
316,72,419073,1,0,0:0:0:0:
304,212,419111,1,0,0:0:0:0:
160,152,419227,1,8,0:0:0:0:
160,152,419342,1,8,0:0:0:0:
412,188,419457,1,0,0:0:0:0:
264,208,419534,1,0,0:0:0:0:
264,208,419611,1,8,0:0:0:0:
264,208,419688,1,8,0:0:0:0:
264,208,419804,1,0,0:0:0:0:
124,248,420034,1,8,0:0:0:0:
124,248,420092,1,8,0:0:0:0:
124,248,420150,1,0,0:0:0:0:
156,240,420380,1,8,0:0:0:0:
156,240,420438,1,0,0:0:0:0:
156,240,420496,1,8,0:0:0:0:
156,240,420611,1,0,0:0:0:0:
156,240,420727,1,0,0:0:0:0:
156,72,420842,1,8,0:0:0:0:
132,148,421073,1,8,0:0:0:0:
36,236,421102,1,8,0:0:0:0:
132,148,421188,1,8,0:0:0:0:
128,256,421217,1,8,0:0:0:0:
152,168,421304,1,0,0:0:0:0:
296,216,421419,1,8,0:0:0:0:
200,124,421477,1,8,0:0:0:0:
296,216,421534,1,8,0:0:0:0:
200,124,421592,1,0,0:0:0:0:
296,216,421650,1,0,0:0:0:0:
264,144,421880,1,0,0:0:0:0:
264,144,421938,1,8,0:0:0:0:
264,144,421996,1,0,0:0:0:0:
100,264,422227,1,8,0:0:0:0:
100,264,422284,1,0,0:0:0:0:
100,264,422342,1,0,0:0:0:0:
128,124,422457,1,8,0:0:0:0:
128,124,422573,1,8,0:0:0:0:
128,124,422630,1,0,0:0:0:0:
128,124,422688,1,0,0:0:0:0:
200,288,422804,1,0,0:0:0:0:
200,288,422861,1,0,0:0:0:0:
72,116,422919,1,0,0:0:0:0:
200,288,423034,1,8,0:0:0:0:
160,180,423149,1,8,0:0:0:0:
160,180,423207,1,8,0:0:0:0:
160,180,423265,1,8,0:0:0:0:
176,160,423380,1,8,0:0:0:0:
216,40,423495,1,0,0:0:0:0:
224,88,423534,1,8,0:0:0:0:
168,37,423573,1,8,0:0:0:0:
224,88,423611,1,8,0:0:0:0:
224,88,423669,1,8,0:0:0:0:
224,88,423726,1,8,0:0:0:0:
156,108,423842,1,8,0:0:0:0:
44,84,423957,1,0,0:0:0:0:
72,228,424073,1,8,0:0:0:0:
328,120,424150,1,0,0:0:0:0:
328,120,424227,1,0,0:0:0:0:
176,216,424304,1,8,0:0:0:0:
200,88,424419,1,8,0:0:0:0:
176,216,424535,1,8,0:0:0:0:
284,228,424591,1,8,0:0:0:0:
284,228,424650,1,8,0:0:0:0:
284,228,424765,1,8,0:0:0:0:
328,296,424883,1,4,0:0:0:0:
180,104,425806,1,8,0:0:0:0:
180,104,425863,1,0,0:0:0:0:
180,104,425921,1,8,0:0:0:0:
180,104,425979,1,8,0:0:0:0:
252,164,426037,1,8,0:0:0:0:
252,164,426152,1,8,0:0:0:0:
272,132,426267,1,0,0:0:0:0:
216,72,426382,1,8,0:0:0:0:
216,72,426439,1,0,0:0:0:0:
252,164,426497,1,8,0:0:0:0:
212,216,426729,1,0,0:0:0:0:
212,216,426786,1,0,0:0:0:0:
212,216,426844,1,0,0:0:0:0:
212,216,426902,1,8,0:0:0:0:
212,216,426959,1,8,0:0:0:0:
204,192,427075,1,0,0:0:0:0:
272,132,427190,1,8,0:0:0:0:
204,192,427306,1,0,0:0:0:0:
204,192,427363,1,0,0:0:0:0:
204,192,427421,1,0,0:0:0:0:
284,88,427652,1,8,0:0:0:0:
284,88,427709,1,8,0:0:0:0:
284,88,427767,1,0,0:0:0:0:
284,88,427825,1,0,0:0:0:0:
284,88,427882,1,0,0:0:0:0:
136,128,427998,1,0,0:0:0:0:
160,104,428113,1,8,0:0:0:0:
160,104,428229,1,0,0:0:0:0:
160,104,428286,1,8,0:0:0:0:
160,104,428344,1,0,0:0:0:0:
160,104,428459,1,0,0:0:0:0:
112,96,428575,1,0,0:0:0:0:
112,96,428632,1,8,0:0:0:0:
112,96,428690,1,8,0:0:0:0:
112,96,428748,1,0,0:0:0:0:
112,96,428806,1,0,0:0:0:0:
240,268,428921,1,0,0:0:0:0:
240,268,428979,1,0,0:0:0:0:
240,268,429036,1,8,0:0:0:0:
268,176,429152,1,8,0:0:0:0:
268,176,429267,1,8,0:0:0:0:
292,164,429498,1,8,0:0:0:0:
292,164,429556,1,0,0:0:0:0:
292,164,429614,1,0,0:0:0:0:
292,164,429671,1,0,0:0:0:0:
292,164,429729,1,0,0:0:0:0:
180,216,429844,1,0,0:0:0:0:
156,252,429902,1,8,0:0:0:0:
200,116,429959,1,0,0:0:0:0:
200,116,430075,1,8,0:0:0:0:
200,116,430190,1,8,0:0:0:0:
228,168,430421,1,0,0:0:0:0:
228,168,430479,1,0,0:0:0:0:
228,168,430536,1,8,0:0:0:0:
228,168,430594,1,8,0:0:0:0:
228,168,430652,1,8,0:0:0:0:
188,80,430767,1,8,0:0:0:0:
100,152,430825,1,0,0:0:0:0:
100,152,430882,1,0,0:0:0:0:
144,80,430998,1,8,0:0:0:0:
144,80,431113,1,8,0:0:0:0:
204,232,431344,1,8,0:0:0:0:
204,232,431402,1,0,0:0:0:0:
268,148,431459,1,8,0:0:0:0:
268,148,431517,1,8,0:0:0:0:
268,148,431575,1,0,0:0:0:0:
144,128,431690,1,0,0:0:0:0:
48,192,431806,1,0,0:0:0:0:
144,128,431863,1,0,0:0:0:0:
72,148,431921,1,8,0:0:0:0:
84,92,432036,1,0,0:0:0:0:
84,92,432152,1,0,0:0:0:0:
284,268,432267,1,0,0:0:0:0:
284,268,432325,1,8,0:0:0:0:
284,268,432382,1,8,0:0:0:0:
284,268,432440,1,0,0:0:0:0:
284,268,432498,1,8,0:0:0:0:
284,268,432613,1,8,0:0:0:0:
224,260,432729,1,8,0:0:0:0:
224,260,432786,1,0,0:0:0:0:
224,260,432844,1,8,0:0:0:0:
224,260,432902,1,8,0:0:0:0:
224,260,432959,1,8,0:0:0:0:
224,260,433075,1,0,0:0:0:0:
224,260,433190,1,8,0:0:0:0:
224,260,433248,1,0,0:0:0:0:
224,260,433306,1,0,0:0:0:0:
224,260,433363,1,8,0:0:0:0:
224,260,433421,1,8,0:0:0:0:
224,260,433536,1,8,0:0:0:0:
184,148,433652,1,0,0:0:0:0:
184,148,433767,1,0,0:0:0:0:
184,148,433825,1,0,0:0:0:0:
184,148,433882,1,8,0:0:0:0:
240,148,433940,1,0,0:0:0:0:
240,148,433998,1,8,0:0:0:0:
256,116,434113,1,0,0:0:0:0:
256,116,434171,1,0,0:0:0:0:
256,116,434229,1,0,0:0:0:0:
256,116,434286,1,8,0:0:0:0:
256,116,434344,1,8,0:0:0:0:
328,76,434459,1,8,0:0:0:0:
328,76,434517,1,0,0:0:0:0:
328,76,434575,1,0,0:0:0:0:
328,76,434632,1,0,0:0:0:0:
328,76,434690,1,8,0:0:0:0:
328,76,434748,1,0,0:0:0:0:
328,76,434806,1,8,0:0:0:0:
328,76,434921,1,8,0:0:0:0:
216,64,435036,1,0,0:0:0:0:
196,80,435094,1,8,0:0:0:0:
196,80,435152,1,0,0:0:0:0:
196,80,435209,1,8,0:0:0:0:
196,80,435267,1,8,0:0:0:0:
196,80,435382,1,8,0:0:0:0:
304,128,435498,1,0,0:0:0:0:
304,128,435536,1,0,0:0:0:0:
304,128,435575,1,0,0:0:0:0:
304,128,435613,1,8,0:0:0:0:
200,184,435729,1,8,0:0:0:0:
200,184,435767,1,8,0:0:0:0:
200,184,435806,1,8,0:0:0:0:
200,184,435844,1,8,0:0:0:0:
224,292,435902,1,8,0:0:0:0:
224,292,435959,1,0,0:0:0:0:
296,192,436075,1,8,0:0:0:0:
296,192,436132,1,0,0:0:0:0:
296,192,436190,1,8,0:0:0:0:
296,192,436248,1,8,0:0:0:0:
296,192,436306,1,8,0:0:0:0:
296,192,436363,1,0,0:0:0:0:
296,192,436421,1,8,0:0:0:0:
172,116,436536,1,8,0:0:0:0:
172,116,436594,1,0,0:0:0:0:
172,116,436652,1,8,0:0:0:0:
172,116,436767,1,8,0:0:0:0:
172,116,436825,1,8,0:0:0:0:
172,116,436882,1,0,0:0:0:0:
228,112,436998,1,0,0:0:0:0:
228,112,437056,1,0,0:0:0:0:
212,32,437113,1,8,0:0:0:0:
212,32,437229,1,0,0:0:0:0:
224,64,437344,1,0,0:0:0:0:
224,64,437402,1,8,0:0:0:0:
224,64,437459,1,0,0:0:0:0:
224,64,437517,1,0,0:0:0:0:
224,64,437575,1,0,0:0:0:0:
224,64,437690,1,0,0:0:0:0:
236,136,437806,1,8,0:0:0:0:
236,136,437921,1,8,0:0:0:0:
236,136,437979,1,8,0:0:0:0:
236,136,438036,1,8,0:0:0:0:
172,120,438094,1,8,0:0:0:0:
236,136,438152,1,8,0:0:0:0:
172,120,438267,1,0,0:0:0:0:
96,128,438382,1,8,0:0:0:0:
80,140,438440,1,8,0:0:0:0:
80,140,438498,1,0,0:0:0:0:
112,240,438613,1,8,0:0:0:0:
140,256,438729,1,0,0:0:0:0:
140,256,438959,1,8,0:0:0:0:
340,152,438988,1,8,0:0:0:0:
260,180,439075,1,0,0:0:0:0:
140,256,439190,1,8,0:0:0:0:
340,152,439219,1,8,0:0:0:0:
144,136,439306,1,0,0:0:0:0:
140,256,439421,1,8,0:0:0:0:
171,88,439652,1,4,0:0:0:0:
318,271,439768,1,8,0:0:0:0:
318,271,439825,1,8,0:0:0:0:
137,242,439883,1,8,0:0:0:0:
145,236,439998,1,8,0:0:0:0:
143,240,440229,1,8,0:0:0:0:
156,96,440345,1,0,0:0:0:0:
176,102,440575,1,8,0:0:0:0:
176,102,440691,1,0,0:0:0:0:
176,102,440806,1,8,0:0:0:0:
176,102,440921,1,8,0:0:0:0:
99,85,441037,1,0,0:0:0:0:
99,85,441112,1,0,0:0:0:0:
99,85,441189,1,0,0:0:0:0:
99,85,441266,1,8,0:0:0:0:
281,125,441381,1,0,0:0:0:0:
271,101,441612,1,8,0:0:0:0:
271,101,441669,1,8,0:0:0:0:
271,101,441727,1,0,0:0:0:0:
478,58,441958,1,8,0:0:0:0:
137,152,442016,1,0,0:0:0:0:
137,152,442073,1,8,0:0:0:0:
137,152,442189,1,0,0:0:0:0:
184,304,442246,1,0,0:0:0:0:
137,152,442304,1,0,0:0:0:0:
137,152,442420,1,8,0:0:0:0:
160,312,442478,1,0,0:0:0:0:
160,312,442536,1,0,0:0:0:0:
160,312,442592,1,0,0:0:0:0:
153,203,442650,1,8,0:0:0:0:
252,176,442679,1,8,0:0:0:0:
153,203,442766,1,8,0:0:0:0:
252,176,442794,1,8,0:0:0:0:
153,203,442881,1,0,0:0:0:0:
331,142,442996,1,8,0:0:0:0:
331,142,443054,1,0,0:0:0:0:
331,142,443112,1,0,0:0:0:0:
331,142,443227,1,8,0:0:0:0:
242,139,443457,1,8,0:0:0:0:
170,138,443515,1,0,0:0:0:0:
242,139,443573,1,8,0:0:0:0:
151,172,443804,1,8,0:0:0:0:
186,152,443862,1,8,0:0:0:0:
186,152,443919,1,0,0:0:0:0:
151,172,443977,1,0,0:0:0:0:
151,172,444035,1,8,0:0:0:0:
186,152,444150,1,8,0:0:0:0:
151,146,444266,1,0,0:0:0:0:
151,146,444323,1,0,0:0:0:0:
151,146,444381,1,0,0:0:0:0:
151,146,444496,1,0,0:0:0:0:
151,146,444612,1,8,0:0:0:0:
212,128,444669,1,0,0:0:0:0:
212,128,444727,1,0,0:0:0:0:
207,213,444843,1,8,0:0:0:0:
207,213,444958,1,0,0:0:0:0:
275,136,445189,1,0,0:0:0:0:
275,136,445246,1,8,0:0:0:0:
275,136,445304,1,0,0:0:0:0:
116,312,445361,1,0,0:0:0:0:
275,136,445419,1,8,0:0:0:0:
275,136,445477,1,8,0:0:0:0:
171,36,445535,1,0,0:0:0:0:
228,48,445592,1,0,0:0:0:0:
215,117,445650,1,8,0:0:0:0:
286,171,445881,1,8,0:0:0:0:
286,171,445919,1,8,0:0:0:0:
104,132,445958,1,8,0:0:0:0:
286,171,445996,1,8,0:0:0:0:
276,144,446034,1,8,0:0:0:0:
232,120,446073,1,8,0:0:0:0:
180,128,446111,1,0,0:0:0:0:
244,224,446227,1,0,0:0:0:0:
236,212,446284,1,0,0:0:0:0:
244,224,446342,1,8,0:0:0:0:
108,192,446457,1,8,0:0:0:0:
120,136,446688,1,0,0:0:0:0:
108,192,446804,1,8,0:0:0:0:
292,144,446861,1,0,0:0:0:0:
292,144,446919,1,0,0:0:0:0:
304,164,447034,1,8,0:0:0:0:
212,156,447150,1,0,0:0:0:0:
212,156,447207,1,8,0:0:0:0:
212,156,447265,1,0,0:0:0:0:
212,156,447380,1,8,0:0:0:0:
208,88,447496,1,0,0:0:0:0:
208,88,447611,1,0,0:0:0:0:
208,88,447669,1,0,0:0:0:0:
208,88,447727,1,8,0:0:0:0:
132,64,447784,1,8,0:0:0:0:
252,80,447842,1,0,0:0:0:0:
144,80,448073,1,0,0:0:0:0:
144,80,448188,1,0,0:0:0:0:
144,80,448246,1,0,0:0:0:0:
144,80,448304,1,0,0:0:0:0:
160,200,448419,1,8,0:0:0:0:
276,236,448477,1,0,0:0:0:0:
160,200,448534,1,8,0:0:0:0:
276,236,448592,1,0,0:0:0:0:
160,200,448650,1,8,0:0:0:0:
276,236,448707,1,0,0:0:0:0:
160,200,448765,1,8,0:0:0:0:
320,164,448880,1,8,0:0:0:0:
320,212,448938,1,8,0:0:0:0:
320,212,448996,1,8,0:0:0:0:
320,212,449054,1,8,0:0:0:0:
320,212,449111,1,8,0:0:0:0:
320,212,449227,1,8,0:0:0:0:
256,136,449342,1,0,0:0:0:0:
256,136,449400,1,0,0:0:0:0:
256,136,449457,1,0,0:0:0:0:
256,136,449515,1,8,0:0:0:0:
256,136,449573,1,8,0:0:0:0:
256,136,449688,1,8,0:0:0:0:
272,60,449804,1,0,0:0:0:0:
136,136,449919,1,8,0:0:0:0:
136,136,450034,1,8,0:0:0:0:
136,136,450092,1,8,0:0:0:0:
136,136,450150,1,8,0:0:0:0:
156,232,450265,1,8,0:0:0:0:
156,232,450323,1,0,0:0:0:0:
156,232,450380,1,0,0:0:0:0:
156,232,450438,1,0,0:0:0:0:
156,232,450496,1,8,0:0:0:0:
240,256,450611,1,8,0:0:0:0:
208,236,450727,1,0,0:0:0:0:
208,236,450842,1,0,0:0:0:0:
208,236,450900,1,8,0:0:0:0:
208,236,450957,1,8,0:0:0:0:
208,236,451073,1,8,0:0:0:0:
180,236,451188,1,0,0:0:0:0:
224,148,451302,1,8,0:0:0:0:
224,148,451360,1,8,0:0:0:0:
224,148,451418,1,0,0:0:0:0:
224,148,451476,1,8,0:0:0:0:
224,148,451533,1,8,0:0:0:0:
180,236,451649,1,0,0:0:0:0:
224,148,451764,1,8,0:0:0:0:
224,148,451822,1,8,0:0:0:0:
224,148,451879,1,0,0:0:0:0:
224,148,451937,1,8,0:0:0:0:
224,148,451995,1,8,0:0:0:0:
156,92,452111,1,8,0:0:0:0:
156,92,452169,1,0,0:0:0:0:
156,92,452227,1,0,0:0:0:0:
156,92,452284,1,0,0:0:0:0:
156,92,452342,1,0,0:0:0:0:
156,92,452457,1,8,0:0:0:0:
156,92,452573,1,12,0:0:0:0:
256,192,452688,12,0,454187,0:0:0:0:
