osu file format v14

[General]
AudioFilename: audio.ogg
AudioLeadIn: 0
PreviewTime: 86758
Countdown: 0
SampleSet: Soft
StackLeniency: 0.7
Mode: 2
LetterboxInBreaks: 0
WidescreenStoryboard: 1

[Editor]
Bookmarks: 17322,40093,86720,109672
DistanceSpacing: 1.1
BeatDivisor: 2
GridSize: 32
TimelineZoom: 1.8

[Metadata]
Title:Light up my love!!
TitleUnicode:Light up my love!!
Artist:onoken feat. moco
ArtistUnicode:音源 feat. moco
Creator:Ascendance
Version:gudance's Cup
Source:Muse Dash
Tags:osu!catch world cup 2022 cwc2022 ro32 Round of 32 hr1 HardRock ani cytus 2 II zirox juansy- mniam osu_gangster ster -plus- chara bunnrei guden japanese pop j-pop electronic
BeatmapID:3648859
BeatmapSetID:1769587

[Difficulty]
HPDrainRate:2
CircleSize:2.5
OverallDifficulty:6
ApproachRate:6
SliderMultiplier:1.3
SliderTickRate:1

[Events]
//Background and Video events
0,0,"96716868_p0_master1200.jpg",0,0
//Break Periods
//Storyboard Layer 0 (Background)
//Storyboard Layer 1 (Fail)
//Storyboard Layer 2 (Pass)
//Storyboard Layer 3 (Foreground)
//Storyboard Layer 4 (Overlay)
//Storyboard Sound Samples

[TimingPoints]
2865,361.44578313253,4,2,0,45,1,0
2973,-100,4,2,0,45,0,0
13889,-100,4,2,0,25,0,0
15696,-100,4,2,0,5,0,0
15877,-100,4,2,1,35,0,0
16238,-100,4,2,1,45,0,0
16599,-100,4,2,1,55,0,0
16961,-100,4,2,1,60,0,0
17322,-100,4,2,1,70,0,1
40274,-100,4,2,1,65,0,0
51840,-100,4,2,1,60,0,0
63587,-100,4,2,1,55,0,0
65214,-100,4,2,2,55,0,0
65756,-100,4,2,1,55,0,0
68105,-100,4,2,2,55,0,0
68286,-100,4,2,1,55,0,0
76780,-100,4,2,2,55,0,0
77322,-100,4,2,1,55,0,0
79672,-100,4,2,2,55,0,0
79852,-100,4,2,1,55,0,0
80937,-100,4,2,1,60,0,0
85636,-100,4,2,3,60,0,0
85816,-100,4,2,1,60,0,0
86720,-100,4,2,1,70,0,1
109672,-100,4,2,1,65,0,0
121419,-100,4,2,1,45,0,0
122142,-100,4,2,1,35,0,0
122864,-100,4,2,1,25,0,0
123587,-100,4,2,1,15,0,0
123949,-100,4,2,1,5,0,0

[Colours]
Combo1 : 135,15,255
Combo2 : 10,177,207
Combo3 : 169,45,200
Combo4 : 244,104,139

[HitObjects]
104,203,2865,5,2,0:0:0:0:
232,265,3226,2,0,L|384:252,2,130,0|2|0,0:0|0:0|0:0,0:0:0:0:
100,208,4310,5,2,0:0:0:0:
350,230,5033,2,0,L|201:213,1,130,2|0,0:0|0:0,0:0:0:0:
246,75,5756,5,2,0:0:0:0:
385,41,6118,2,0,L|523:68,2,130,0|2|0,0:0|0:0|0:0,0:0:0:0:
257,105,7202,1,2,0:0:0:0:
65,56,7925,2,0,L|209:56,1,130,2|0,0:0|0:0,0:0:0:0:
338,57,8648,5,2,0:0:0:0:
198,87,9009,2,0,L|50:86,2,130,0|2|0,0:0|0:0|0:0,0:0:0:0:
341,93,10093,5,2,0:0:0:0:
126,109,10636,1,0,0:0:0:0:
56,126,10816,2,0,L|207:129,1,130,2|0,0:0|0:0,0:0:0:0:
329,133,11539,5,2,0:0:0:0:
187,152,11901,2,0,L|338:152,1,130,0|2,0:0|0:0,0:0:0:0:
388,152,12443,1,0,0:0:0:0:
245,157,12804,5,2,0:0:0:0:
101,154,13166,2,0,L|181:153,1,65
309,153,13708,5,2,0:0:0:0:
256,192,14069,12,4,16961,1:2:0:0:
64,64,17322,5,4,1:0:0:0:
192,64,17684,2,0,L|384:64,1,130,10|2,1:0|0:1,0:0:0:0:
448,64,18407,2,0,L|256:64,1,130,10|2,1:0|1:0,0:0:0:0:
386,62,19130,5,8,1:0:0:0:
256,64,19491,1,2,0:0:0:0:
196,90,19672,1,2,1:2:0:0:
199,154,19852,1,10,1:2:0:0:
322,195,20214,5,2,1:2:0:0:
192,195,20575,2,0,P|118:194|34:194,1,130,10|2,1:0|0:1,0:0:0:0:
192,195,21298,1,10,1:0:0:0:
322,196,21660,5,2,1:0:0:0:
451,198,22021,1,8,1:0:0:0:
320,199,22383,1,2,0:0:0:0:
255,199,22563,1,2,1:2:0:0:
255,199,22744,1,10,1:2:0:0:
397,199,23105,5,2,1:2:0:0:
267,198,23467,1,10,1:0:0:0:
124,201,23828,2,0,L|68:66,1,130,2|10,0:1|1:0,0:0:0:0:
204,64,24551,5,2,1:0:0:0:
296,167,24913,1,8,1:0:0:0:
166,167,25274,1,2,0:0:0:0:
231,167,25455,1,2,1:2:0:0:
296,167,25636,1,10,1:2:0:0:
425,173,25997,5,2,1:2:0:0:
296,167,26358,2,0,L|121:168,1,130,10|10,1:2|1:2,0:0:0:0:
231,169,26901,1,2,1:2:0:0:
360,169,27262,5,6,1:2:0:0:
290,107,27624,1,10,1:2:0:0:
160,78,27985,1,2,1:2:0:0:
94,77,28166,1,2,1:2:0:0:
185,187,28346,1,8,1:0:0:0:
263,189,28527,1,8,1:0:0:0:
419,56,28889,5,4,1:0:0:0:
291,56,29250,2,0,L|99:56,1,130,10|2,1:0|0:1,0:0:0:0:
35,56,29973,2,0,L|227:56,1,130,10|2,1:0|1:0,0:0:0:0:
97,53,30696,5,8,1:0:0:0:
203,56,31057,1,2,0:0:0:0:
268,57,31238,1,2,1:2:0:0:
332,59,31419,1,10,1:2:0:0:
202,142,31780,5,2,1:2:0:0:
328,144,32142,2,0,P|402:143|486:143,2,130,10|2|10,1:0|0:1|1:0,0:0:0:0:
198,178,33226,5,2,1:0:0:0:
69,180,33587,1,8,1:0:0:0:
198,92,33949,1,2,0:0:0:0:
261,125,34130,1,2,1:2:0:0:
258,189,34310,1,10,1:2:0:0:
398,196,34672,5,2,1:2:0:0:
240,197,35033,1,10,1:0:0:0:
77,198,35395,2,0,L|147:84,1,130,2|10,0:1|1:0,0:0:0:0:
275,67,36118,5,2,1:0:0:0:
431,170,36479,1,8,1:0:0:0:
302,170,36840,1,2,0:0:0:0:
237,170,37021,1,2,1:2:0:0:
172,170,37202,1,10,1:2:0:0:
302,130,37563,5,10,1:2:0:0:
173,130,37925,2,0,L|348:131,1,130,10|2,1:2|1:2,0:0:0:0:
238,132,38467,1,10,1:2:0:0:
109,132,38828,5,6,1:2:0:0:
240,133,39190,1,2,1:2:0:0:
370,43,39551,1,10,1:2:0:0:
436,42,39732,1,2,1:2:0:0:
345,152,39913,1,8,1:0:0:0:
267,154,40093,1,8,1:0:0:0:
202,154,40274,5,4,1:0:0:0:
71,148,40636,2,0,L|3:147,1,65,0|10,1:0|1:3,0:0:0:0:
127,192,41178,2,0,L|204:192,1,65,0|0,1:0|1:0,0:0:0:0:
321,204,41720,6,0,P|374:132|338:97,1,130,0|0,1:0|1:0,0:0:0:0:
295,102,42262,1,10,1:3:0:0:
165,88,42624,2,0,L|246:78,1,65,0|0,1:0|1:0,0:0:0:0:
359,78,43166,6,0,L|213:52,1,130,0|0,1:0|1:0,0:0:0:0:
167,40,43708,1,10,1:3:0:0:
296,51,44069,2,0,L|377:32,1,65,0|0,1:0|1:0,0:0:0:0:
263,124,44611,6,0,L|133:103,1,130,0|0,1:0|1:0,0:0:0:0:
69,95,45154,1,10,1:3:0:0:
204,139,45515,1,10,1:2:0:0:
274,128,45696,1,10,1:2:0:0:
344,118,45877,1,10,1:2:0:0:
414,107,46057,6,0,P|462:142|422:209,1,130,14|0,1:2|1:0,0:0:0:0:
373,221,46599,1,10,1:3:0:0:
231,240,46961,2,0,L|156:227,1,65,0|0,1:0|1:0,0:0:0:0:
294,294,47503,6,0,L|450:276,1,130,0|0,1:0|1:0,0:0:0:0:
354,259,48045,1,10,1:3:0:0:
211,269,48407,2,0,L|125:279,1,65,0|0,1:0|1:0,0:0:0:0:
6,306,48949,6,0,L|155:335,1,130,0|0,1:0|1:0,0:0:0:0:
203,346,49491,1,10,1:3:0:0:
345,344,49852,2,0,L|280:326,1,65,0|0,1:0|1:0,0:0:0:0:
142,293,50395,6,0,L|289:266,1,130,0|0,1:0|1:0,0:0:0:0:
340,255,50937,1,10,1:3:0:0:
197,247,51298,1,10,1:2:0:0:
142,200,51479,1,10,1:2:0:0:
149,128,51660,1,10,1:2:0:0:
217,107,51840,6,0,L|354:95,1,130,12|2,1:0|1:2,0:0:0:0:
418,91,52383,1,10,1:2:0:0:
290,155,52744,2,0,L|204:132,1,65,2|2,1:2|1:2,0:0:0:0:
82,138,53286,6,0,L|234:107,1,130,2|2,1:2|1:2,0:0:0:0:
279,97,53828,1,10,1:2:0:0:
135,102,54190,2,0,L|51:75,1,65,2|2,1:2|1:2,0:0:0:0:
176,186,54732,6,0,L|322:157,1,130,2|2,1:2|1:2,0:0:0:0:
343,219,55274,1,10,1:2:0:0:
208,268,55636,2,0,L|197:351,1,65,2|2,1:2|1:2,0:0:0:0:
332,279,56178,6,0,L|501:301,1,130,2|2,1:2|1:2,0:0:0:0:
328,242,56901,2,0,L|186:261,1,130,2|2,1:2|1:2,0:0:0:0:
62,217,57624,6,0,L|222:230,1,130,2|2,1:2|1:2,0:0:0:0:
262,235,58166,1,10,1:2:0:0:
404,246,58527,2,0,L|338:200,1,65,2|2,1:2|1:2,0:0:0:0:
196,226,59069,6,0,L|43:212,1,130,2|2,1:2|1:2,0:0:0:0:
137,206,59611,1,10,1:2:0:0:
278,225,59973,2,0,L|298:153,1,65,2|2,1:2|1:2,0:0:0:0:
154,135,60515,6,0,L|9:105,1,130,2|2,1:2|1:2,0:0:0:0:
96,90,61057,1,10,1:2:0:0:
238,108,61419,2,0,L|320:134,2,65,2|0|10,1:2|1:2|1:2,0:0:0:0:
168,90,61961,5,6,1:2:0:0:
310,83,62322,1,2,1:2:0:0:
381,74,62503,1,0,1:2:0:0:
451,62,62684,1,10,1:2:0:0:
315,106,63045,2,0,L|177:89,1,130,10|0,1:2|1:2,0:0:0:0:
115,80,63587,5,4,1:0:0:0:
328,103,64130,2,0,L|345:205,1,65,0|2,1:0|1:2,0:0:0:0:
196,182,64672,1,10,1:2:0:0:
53,173,65033,2,0,L|52:348,1,130,2|2,0:0|0:2,0:0:0:0:
123,311,65575,1,0,0:0:0:0:
194,170,65756,5,2,1:2:0:0:
337,172,66118,1,10,1:2:0:0:
203,222,66479,6,0,L|409:205,1,195,2|2,1:2|1:2,0:0:0:0:
326,198,67202,1,2,1:0:0:0:
183,183,67563,1,10,1:0:0:0:
322,151,67925,6,0,L|181:117,1,130,2|0,0:1|0:0,0:0:0:0:
126,103,68467,1,2,1:0:0:0:
55,90,68648,1,2,1:0:0:0:
194,57,69009,1,10,1:2:0:0:
337,57,69371,5,2,1:2:0:0:
128,105,69913,2,0,L|54:88,1,65,2|2,1:2|1:2,0:0:0:0:
195,148,70455,1,8,1:0:0:0:
260,177,70636,6,0,L|421:154,2,130,0|0|2,0:0|1:0|1:2,0:0:0:0:
194,147,71539,1,2,1:2:0:0:
330,188,71901,1,10,1:2:0:0:
468,154,72262,6,0,L|271:152,1,195,2|2,1:2|1:2,0:0:0:0:
201,152,72985,1,2,1:2:0:0:
58,150,73346,1,8,1:0:0:0:
56,221,73527,1,2,0:0:0:0:
54,292,73708,5,2,0:0:0:0:
196,297,74069,1,0,0:0:0:0:
52,298,74431,1,2,1:2:0:0:
194,308,74792,2,0,L|271:308,1,65,8|0,1:0|0:0,0:0:0:0:
330,309,75154,5,0,1:0:0:0:
126,241,75696,2,0,L|118:156,1,65,0|2,1:0|1:2,0:0:0:0:
247,112,76238,1,10,1:2:0:0:
388,128,76599,6,0,L|392:283,1,130,2|2,0:0|0:0,0:0:0:0:
323,283,77142,1,0,0:0:0:0:
240,76,77322,1,2,1:2:0:0:
97,63,77684,1,10,1:2:0:0:
239,73,78045,6,0,P|315:120|253:208,1,195,2|2,1:2|1:2,0:0:0:0:
207,207,78768,1,2,1:2:0:0:
63,208,79130,1,10,1:0:0:0:
202,237,79491,6,0,L|278:237,1,65,2|0,0:1|0:0,0:0:0:0:
149,318,80033,2,0,L|79:316,1,65,2|2,1:0|1:0,0:0:0:0:
208,245,80575,1,10,1:2:0:0:
351,250,80937,6,0,L|424:249,2,65,2|2|10,1:2|1:2|1:2,0:0:0:0:
207,253,81660,2,0,L|308:253,1,65,2|10,1:2|1:2,0:0:0:0:
413,232,82202,6,0,L|256:234,1,130,2|2,1:2|1:2,0:0:0:0:
211,235,82744,1,10,1:2:0:0:
68,234,83105,2,0,L|56:159,1,65,2|10,1:2|1:2,0:0:0:0:
200,157,83648,6,0,L|349:140,1,130,2|2,1:2|1:2,0:0:0:0:
357,76,84190,1,10,1:2:0:0:
216,99,84551,2,0,L|188:28,2,65,2|10|2,1:2|1:2|0:0,0:0:0:0:
286,113,85093,5,2,1:2:0:0:
429,115,85455,1,0,1:2:0:0:
287,130,85816,2,0,L|206:129,1,65,0|0,1:2|1:2,0:0:0:0:
286,256,86358,1,4,1:3:0:0:
450,67,86720,5,4,1:0:0:0:
320,64,87081,2,0,L|128:64,2,130,10|2|10,1:0|0:1|1:0,0:0:0:0:
459,59,88166,5,2,1:0:0:0:
347,61,88527,1,8,1:0:0:0:
235,62,88889,1,2,0:0:0:0:
175,87,89069,1,2,1:2:0:0:
178,151,89250,1,10,1:2:0:0:
322,195,89611,5,2,1:2:0:0:
192,195,89973,2,0,P|118:194|34:194,2,130,10|2|10,1:0|0:1|1:0,0:0:0:0:
322,196,91057,5,2,1:0:0:0:
451,198,91419,1,8,1:0:0:0:
320,199,91780,1,2,0:0:0:0:
255,199,91961,1,2,1:2:0:0:
216,147,92142,1,10,1:2:0:0:
86,198,92503,5,2,1:2:0:0:
216,197,92864,1,10,1:0:0:0:
345,194,93226,2,0,L|485:193,1,130,2|10,0:1|1:0,0:0:0:0:
345,70,93949,5,2,1:0:0:0:
449,73,94310,1,8,1:0:0:0:
317,164,94672,1,2,0:0:0:0:
252,166,94852,1,2,1:2:0:0:
187,168,95033,1,10,1:2:0:0:
59,194,95395,5,2,1:2:0:0:
188,194,95756,2,0,L|363:195,1,130,10|10,1:2|1:2,0:0:0:0:
252,192,96298,1,2,1:2:0:0:
388,196,96660,5,6,1:2:0:0:
268,157,97021,1,10,1:2:0:0:
169,93,97383,1,2,1:2:0:0:
103,92,97563,1,2,1:2:0:0:
194,202,97744,1,8,1:0:0:0:
271,204,97925,1,8,1:0:0:0:
419,56,98286,5,4,1:0:0:0:
291,56,98648,2,0,L|99:56,1,130,10|2,1:0|1:0,0:0:0:0:
35,56,99371,2,0,L|227:56,1,130,10|2,1:0|1:0,0:0:0:0:
294,56,100093,5,8,1:0:0:0:
424,59,100455,1,2,1:2:0:0:
457,114,100636,1,2,0:2:0:0:
424,169,100816,1,10,1:2:0:0:
293,171,101178,5,2,1:2:0:0:
163,171,101539,2,0,L|17:172,1,130,10|2,1:0|1:0,0:0:0:0:
163,170,102262,2,0,L|298:170,1,130,10|2,1:0|1:0,0:0:0:0:
423,171,102985,5,8,1:0:0:0:
293,170,103346,1,2,1:2:0:0:
233,189,103527,1,2,0:0:0:0:
203,245,103708,1,10,1:2:0:0:
219,307,103889,1,2,1:2:0:0:
273,340,104069,5,2,1:2:0:0:
404,342,104431,2,0,L|244:341,1,130,10|2,1:0|1:0,0:0:0:0:
143,341,105154,2,0,L|3:341,1,130,10|2,1:0|1:0,0:0:0:0:
143,339,105877,5,8,1:0:0:0:
273,256,106238,1,2,1:2:0:0:
207,257,106419,1,2,0:2:0:0:
142,257,106599,1,10,1:2:0:0:
11,258,106961,5,10,1:2:0:0:
193,258,107322,1,10,1:2:0:0:
323,256,107684,1,2,0:2:0:0:
258,256,107864,1,10,1:2:0:0:
126,257,108226,6,0,L|291:255,1,130,6|2,1:2|1:2,0:0:0:0:
321,255,108768,1,10,1:2:0:0:
451,258,109130,1,2,1:2:0:0:
386,258,109310,1,8,1:0:0:0:
321,255,109491,1,8,1:0:0:0:
249,258,109672,5,4,1:0:0:0:
106,253,110033,2,0,L|31:251,1,65,0|10,1:0|1:3,0:0:0:0:
177,208,110575,2,0,L|246:210,1,65,0|0,1:0|1:0,0:0:0:0:
385,206,111118,6,0,P|452:156|416:81,1,130,0|0,1:0|1:0,0:0:0:0:
384,86,111660,1,10,1:3:0:0:
243,62,112021,2,0,L|147:47,1,65,0|0,1:0|1:0,0:0:0:0:
282,150,112563,6,0,L|133:122,1,130,0|0,1:0|1:0,0:0:0:0:
84,111,113105,1,10,1:3:0:0:
207,183,113467,2,0,L|298:163,1,65,0|0,1:0|1:0,0:0:0:0:
407,211,114009,6,0,L|273:187,1,130,0|0,1:0|1:0,0:0:0:0:
209,172,114551,1,10,1:3:0:0:
352,172,114913,1,10,1:2:0:0:
404,123,115093,1,10,1:2:0:0:
394,52,115274,1,10,1:2:0:0:
328,22,115455,6,0,L|156:3,1,130,14|0,1:2|1:0,0:0:0:0:
134,39,115997,1,10,1:3:0:0:
273,70,116358,2,0,L|292:166,1,65,0|0,1:0|1:0,0:0:0:0:
149,178,116901,6,0,L|116:354,1,130,0|0,1:0|1:0,0:0:0:0:
190,335,117443,1,10,1:3:0:0:
332,341,117804,2,0,L|425:317,1,65,0|0,1:0|1:0,0:0:0:0:
263,268,118346,6,0,L|106:242,1,130,0|0,1:0|1:0,0:0:0:0:
203,226,118889,1,10,1:3:0:0:
345,239,119250,2,0,L|439:249,1,65,0|0,1:0|1:0,0:0:0:0:
274,199,119792,6,0,L|141:175,1,130,0|0,1:0|1:0,0:0:0:0:
216,162,120334,1,10,1:3:0:0:
358,174,120696,2,0,L|463:162,2,65,10|10|10,1:2|1:2|1:2,0:0:0:0:
286,177,121238,5,12,1:0:0:0:
256,192,121599,12,0,123949,0:0:0:0:
