osu file format v14

[General]
AudioFilename: audio.ogg
AudioLeadIn: 0
PreviewTime:86758
Countdown: 0
SampleSet: Soft
StackLeniency: 0.7
Mode: 2
LetterboxInBreaks: 0
WidescreenStoryboard: 1

[Editor]
DistanceSpacing: 1.1
BeatDivisor: 4
GridSize: 8
TimelineZoom: 1.8

[Metadata]
Title:Light up my love!!
TitleUnicode:Light up my love!!
Artist:onoken feat. moco
ArtistUnicode:音源 feat. moco
Creator:Ascendance
Version:ZiRoX's Rain
Source:Muse Dash
Tags:osu!catch world cup 2022 cwc2022 ro32 Round of 32 hr1 HardRock ani cytus 2 II zirox juansy- mniam osu_gangster ster -plus- chara bunnrei guden japanese pop j-pop electronic
BeatmapID:3648861
BeatmapSetID:1769587

[Difficulty]
HPDrainRate:5
CircleSize:3.5
OverallDifficulty:8.7
ApproachRate:8.7
SliderMultiplier:1.7
SliderTickRate:2

[Events]
//Background and Video events
0,0,"96716868_p0_master1200.jpg",0,0
//Break Periods
//Storyboard Layer 0 (Background)
//Storyboard Layer 1 (Fail)
//Storyboard Layer 2 (Pass)
//Storyboard Layer 3 (Foreground)
//Storyboard Layer 4 (Overlay)
//Storyboard Sound Samples

[TimingPoints]
2865,361.44578313253,4,2,0,45,1,0
2973,-100,4,2,0,45,0,0
13889,-100,4,2,0,25,0,0
15696,-100,4,2,0,5,0,0
15877,-100,4,2,1,35,0,0
16238,-100,4,2,1,45,0,0
16599,-100,4,2,1,55,0,0
16961,-100,4,2,1,60,0,0
17322,-100,4,2,1,70,0,1
40274,-100,4,2,1,65,0,0
51840,-100,4,2,1,60,0,0
63587,-100,4,2,1,55,0,0
65214,-100,4,2,2,55,0,0
65756,-100,4,2,1,55,0,0
68105,-100,4,2,2,55,0,0
68286,-100,4,2,1,55,0,0
76780,-100,4,2,2,55,0,0
77322,-100,4,2,1,55,0,0
79672,-100,4,2,2,55,0,0
79852,-100,4,2,1,55,0,0
80937,-100,4,2,1,60,0,0
85636,-100,4,2,3,60,0,0
85816,-100,4,2,1,60,0,0
86720,-100,4,2,1,70,0,1
109672,-100,4,2,1,65,0,0
121419,-100,4,2,1,45,0,0
122142,-100,4,2,1,35,0,0
122864,-100,4,2,1,25,0,0
123587,-100,4,2,1,15,0,0
123949,-100,4,2,1,5,0,0

[Colours]
Combo1 : 135,15,255
Combo2 : 10,177,207
Combo3 : 169,45,200
Combo4 : 244,104,139

[HitObjects]
146,275,2865,6,0,L|136:184,1,85,2|0,0:0|0:0,0:0:0:0:
304,192,3226,2,0,L|112:192,2,170,0|2|0,0:0|0:0|0:0,0:0:0:0:
56,200,4310,5,2,0:0:0:0:
280,72,4852,1,0,0:0:0:0:
368,104,5033,2,0,L|379:210,1,85,2|0,0:0|0:0,0:0:0:0:
280,200,5395,2,0,L|267:300,1,85
104,280,5756,5,2,0:0:0:0:
360,368,6118,2,0,L|176:368,2,170,0|2|0,0:0|0:0|0:0,0:0:0:0:
56,368,7202,1,2,0:0:0:0:
352,96,7925,1,2,0:0:0:0:
420,143,8105,1,0,0:0:0:0:
438,224,8286,1,0,0:0:0:0:
395,295,8467,1,0,0:0:0:0:
208,280,8648,6,0,L|202:385,1,85,2|0,0:0|0:0,0:0:0:0:
376,352,9009,2,0,L|200:352,2,170,0|2|0,0:0|0:0|0:0,0:0:0:0:
120,368,10093,1,2,0:0:0:0:
328,72,10636,1,0,0:0:0:0:
416,104,10816,2,0,L|427:210,1,85,2|0,0:0|0:0,0:0:0:0:
328,200,11178,2,0,L|315:300,1,85
144,256,11539,6,0,L|118:71,1,170,2|0,0:0|0:0,0:0:0:0:
288,96,12262,2,0,L|397:78,1,85,2|0,0:0|0:0,0:0:0:0:
96,104,12804,2,0,L|73:313,1,170,2|0,0:0|0:0,0:0:0:0:
168,280,13346,2,0,L|294:290,1,85
448,304,13708,5,2,0:0:0:0:
256,192,13889,12,0,15696,0:0:0:0:
208,256,15877,5,0,1:0:0:0:
208,256,16057,1,0,1:0:0:0:
56,256,16238,1,0,1:0:0:0:
56,256,16419,1,0,1:0:0:0:
200,176,16599,1,0,1:0:0:0:
200,176,16780,1,0,1:0:0:0:
40,176,16961,1,4,1:2:0:0:
488,200,17322,6,0,L|488:90,1,85,4|2,1:0|0:0,0:0:0:0:
224,120,17684,2,0,L|216:32,1,85,10|0,1:0|0:0,0:0:0:0:
384,128,18045,2,0,L|392:216,1,85,2|0,0:1|1:0,0:0:0:0:
200,208,18407,2,0,L|187:308,1,85,10|0,1:0|0:0,0:0:0:0:
432,304,18768,6,0,P|481:238|433:162,1,170,2|8,1:0|1:0,0:0:0:0:
360,152,19310,1,2,0:0:0:0:
192,160,19491,2,0,L|176:56,1,85,2|2,0:0|1:2,0:0:0:0:
344,64,19852,2,0,L|448:48,1,85,10|2,1:2|0:0,0:0:0:0:
176,312,20214,6,0,L|165:217,1,85,2|0,1:2|0:0,0:0:0:0:
432,232,20575,2,0,L|445:136,1,85,10|0,1:0|0:0,0:0:0:0:
280,176,20937,2,0,L|269:81,1,85,2|0,0:1|1:0,0:0:0:0:
104,96,21298,2,0,L|91:0,1,85,10|0,1:0|0:0,0:0:0:0:
440,120,21660,6,0,P|475:202|420:261,1,170,2|8,1:0|1:0,0:0:0:0:
344,256,22202,1,0,0:0:0:0:
176,256,22383,2,0,L|168:152,1,85,2|2,0:0|1:2,0:0:0:0:
336,72,22744,2,0,L|352:160,1,85,10|2,1:2|0:0,0:0:0:0:
72,104,23105,6,0,L|64:192,1,85,2|0,1:2|0:0,0:0:0:0:
336,184,23467,2,0,L|344:272,1,85,10|0,1:0|0:0,0:0:0:0:
184,256,23828,2,0,L|192:344,1,85,2|0,0:1|1:0,0:0:0:0:
352,336,24190,2,0,L|360:248,1,85,10|0,1:0|0:0,0:0:0:0:
48,208,24551,6,0,P|24:128|80:56,1,170,2|8,1:0|1:0,0:0:0:0:
152,56,25093,1,2,0:0:0:0:
320,64,25274,2,0,L|328:160,1,85,2|2,0:0|1:2,0:0:0:0:
168,256,25636,2,0,L|72:264,1,85,10|2,1:2|0:0,0:0:0:0:
408,296,25997,6,0,L|408:120,1,170,2|10,1:2|1:2,0:0:0:0:
136,128,26720,1,10,1:2:0:0:
328,128,26901,1,2,1:2:0:0:
32,128,27262,6,0,L|32:304,1,170,6|10,1:2|1:2,0:0:0:0:
200,304,27804,2,0,L|304:304,1,85,2|2,0:0|1:2,0:0:0:0:
456,128,28166,2,0,P|496:208|456:280,1,170,2|8,1:2|1:0,0:0:0:0:
24,200,28889,6,0,L|24:90,1,85,4|2,1:0|0:0,0:0:0:0:
288,120,29250,2,0,L|296:32,1,85,10|0,1:0|0:0,0:0:0:0:
128,128,29611,2,0,L|120:216,1,85,2|0,0:1|1:0,0:0:0:0:
312,208,29973,2,0,L|325:308,1,85,10|0,1:0|0:0,0:0:0:0:
80,304,30334,6,0,P|31:238|79:162,1,170,2|8,1:0|1:0,0:0:0:0:
152,152,30877,1,2,0:0:0:0:
320,160,31057,2,0,L|336:56,1,85,2|2,0:0|1:2,0:0:0:0:
168,64,31419,2,0,L|64:48,1,85,10|2,1:2|0:0,0:0:0:0:
336,312,31780,6,0,L|347:217,1,85,2|2,1:2|0:0,0:0:0:0:
80,232,32142,2,0,L|67:136,1,85,10|0,1:0|0:0,0:0:0:0:
232,176,32503,2,0,L|243:81,1,85,2|0,0:1|1:0,0:0:0:0:
408,96,32864,2,0,L|421:0,1,85,10|0,1:0|0:0,0:0:0:0:
72,120,33226,6,0,P|37:202|92:261,1,170,2|8,1:0|1:0,0:0:0:0:
168,256,33768,5,2,0:0:0:0:
336,256,33949,2,0,L|344:152,1,85,2|2,0:0|1:2,0:0:0:0:
176,72,34310,2,0,L|160:160,1,85,10|2,1:2|0:0,0:0:0:0:
440,104,34672,6,0,L|448:192,1,85,2|0,1:2|0:0,0:0:0:0:
176,184,35033,2,0,L|168:272,1,85,10|0,1:0|0:0,0:0:0:0:
328,256,35395,2,0,L|320:344,1,85,2|0,0:1|1:0,0:0:0:0:
160,336,35756,2,0,L|152:248,1,85,10|0,1:0|0:0,0:0:0:0:
464,208,36118,6,0,P|488:128|432:56,1,170,2|8,1:0|1:0,0:0:0:0:
360,56,36660,1,2,0:0:0:0:
192,64,36840,2,0,L|184:160,1,85,2|2,0:0|1:2,0:0:0:0:
344,256,37202,2,0,L|440:264,1,85,10|2,1:2|0:0,0:0:0:0:
104,296,37563,6,0,L|104:120,1,170,10|10,1:2|1:2,0:0:0:0:
376,128,38286,1,2,1:2:0:0:
184,128,38467,1,10,1:2:0:0:
480,128,38828,6,0,L|480:304,1,170,6|2,1:2|1:2,0:0:0:0:
312,304,39371,2,0,L|208:304,1,85,10|10,1:2|1:2,0:0:0:0:
480,128,39732,2,0,P|464:216|384:248,1,170,2|8,1:2|1:0,0:0:0:0:
112,256,40274,5,4,1:0:0:0:
256,256,40636,1,0,1:0:0:0:
344,248,40816,2,0,L|351:145,1,85,10|0,1:3|0:0,0:0:0:0:
176,152,41178,2,0,L|168:48,1,85,0|0,1:0|1:0,0:0:0:0:
448,72,41720,5,0,1:0:0:0:
280,72,42081,1,0,1:0:0:0:
186,117,42262,2,0,L|179:220,1,85,10|0,1:3|0:0,0:0:0:0:
354,213,42624,2,0,L|362:317,1,85,0|0,1:0|1:0,0:0:0:0:
104,304,43166,1,0,1:0:0:0:
272,304,43527,5,0,1:0:0:0:
360,224,43708,2,0,L|369:112,1,85,10|0,1:3|0:0,0:0:0:0:
184,136,44069,2,0,L|175:24,1,85,0|0,1:0|1:0,0:0:0:0:
488,72,44611,1,0,1:0:0:0:
320,72,44973,5,0,1:0:0:0:
224,72,45154,2,0,L|206:179,1,85,10|0,1:3|1:0,0:0:0:0:
376,152,45515,2,0,L|288:152,2,85,10|10|10,1:2|1:2|1:2,0:0:0:0:
120,160,46057,5,14,1:2:0:0:
270,157,46419,1,0,1:0:0:0:
184,152,46599,2,0,L|180:257,1,85,10|0,1:3|0:0,0:0:0:0:
360,256,46961,2,0,L|356:361,1,85,0|0,1:0|1:0,0:0:0:0:
96,336,47503,5,0,1:0:0:0:
272,336,47864,1,0,1:0:0:0:
357,340,48045,2,0,L|368:232,1,85,10|0,1:3|0:0,0:0:0:0:
200,224,48407,2,0,L|184:119,1,85,0|0,1:0|1:0,0:0:0:0:
448,128,48949,5,0,1:0:0:0:
304,128,49310,1,0,1:0:0:0:
216,128,49491,2,0,L|206:244,1,85,10|0,1:3|0:0,0:0:0:0:
376,216,49852,2,0,L|388:314,1,85,0|0,1:0|1:0,0:0:0:0:
112,296,50395,5,0,1:0:0:0:
248,296,50756,1,0,1:0:0:0:
344,296,50937,2,0,L|349:198,1,85,10|0,1:3|1:0,0:0:0:0:
176,200,51298,2,0,L|161:98,1,85,10|10,1:2|1:2,0:0:0:0:
320,120,51660,1,10,1:2:0:0:
41,179,51840,6,0,P|40:256|112:320,1,170,12|2,1:0|1:2,0:0:0:0:
200,320,52383,2,0,L|208:210,1,85,10|2,1:2|0:0,0:0:0:0:
41,152,52744,1,2,1:2:0:0:
208,152,52925,1,2,1:2:0:0:
471,205,53286,6,0,P|472:128|400:64,1,170,2|2,1:2|1:2,0:0:0:0:
312,64,53828,2,0,L|304:174,1,85,10|2,1:2|0:0,0:0:0:0:
471,232,54190,1,2,1:2:0:0:
304,232,54371,1,2,1:2:0:0:
48,80,54732,6,0,L|228:80,1,170,2|2,1:2|1:2,0:0:0:0:
312,80,55274,2,0,L|320:190,1,85,10|2,1:2|0:0,0:0:0:0:
153,248,55636,1,2,1:2:0:0:
320,248,55816,1,2,1:2:0:0:
32,184,56178,6,0,L|216:184,1,170,2|2,1:2|1:2,0:0:0:0:
480,184,56901,2,0,L|296:184,1,170,2|2,1:2|1:2,0:0:0:0:
48,80,57624,6,0,L|228:80,1,170,2|2,1:2|1:2,0:0:0:0:
136,80,58166,2,0,L|128:190,1,85,10|2,1:2|0:0,0:0:0:0:
295,248,58527,1,2,1:2:0:0:
128,248,58708,1,2,1:2:0:0:
416,80,59069,6,0,L|236:80,1,170,2|2,1:2|1:2,0:0:0:0:
328,80,59611,2,0,L|336:190,1,85,10|2,1:2|0:0,0:0:0:0:
169,248,59973,1,2,1:2:0:0:
336,248,60154,1,2,1:2:0:0:
64,216,60515,6,0,P|128:328|168:336,1,170,2|2,1:2|1:2,0:0:0:0:
256,352,61057,2,0,L|361:340,1,85,10|2,1:2|0:0,0:0:0:0:
176,352,61419,2,0,P|168:296|240:208,1,170,2|10,1:2|1:2,0:0:0:0:
408,232,61961,6,0,L|408:40,1,170,6|2,1:2|1:2,0:0:0:0:
128,232,62684,2,0,L|128:40,1,170,10|10,1:2|1:2,0:0:0:0:
304,64,63407,1,0,1:2:0:0:
56,64,63587,6,0,P|20:116|44:240,1,170,4|0,1:0|0:0,0:0:0:0:
208,216,64310,2,0,L|28:216,1,170,2|10,1:2|1:2,0:0:0:0:
208,216,65033,6,0,L|400:216,1,170,2|2,0:0|0:2,0:0:0:0:
208,216,65756,2,0,L|208:392,1,170,2|10,1:2|1:2,0:0:0:0:
480,256,66479,6,0,P|488:168|353:50,1,255,2|2,1:2|1:2,0:0:0:0:
288,56,67202,2,0,L|464:57,1,170,2|10,1:0|1:0,0:0:0:0:
167,66,67925,6,0,P|112:133|158:203,1,170,2|0,0:1|0:0,0:0:0:0:
224,208,68467,1,2,1:0:0:0:
376,208,68648,2,0,L|376:333,1,85,2|2,1:0|0:0,0:0:0:0:
224,280,69009,2,0,L|224:395,1,85,10|2,1:2|0:0,0:0:0:0:
408,216,69371,6,0,P|456:152|360:24,1,255,2|2,1:2|1:2,0:0:0:0:
272,40,70093,2,0,L|272:226,1,170,2|8,1:2|1:0,0:0:0:0:
104,208,70636,6,0,L|280:208,2,170,0|0|2,0:0|1:0|1:2,0:0:0:0:
272,208,71539,2,0,L|272:333,1,85,2|2,1:2|0:2,0:0:0:0:
120,280,71901,2,0,L|120:395,1,85,10|2,1:2|0:2,0:0:0:0:
288,336,72262,6,0,L|96:336,1,170,2|0,1:2|0:0,0:0:0:0:
120,272,72804,1,2,1:2:0:0:
288,272,72985,2,0,L|96:272,1,170,2|8,1:2|1:0,0:0:0:0:
208,272,73527,1,2,0:0:0:0:
48,208,73708,6,0,L|240:208,1,170,2|0,0:0|0:0,0:0:0:0:
128,208,74250,1,2,1:2:0:0:
288,144,74431,2,0,L|96:144,1,170,2|8,1:2|1:0,0:0:0:0:
120,80,74973,1,0,0:0:0:0:
368,80,75154,6,0,P|412:156|368:216,1,170,0|0,1:0|0:0,0:0:0:0:
198,80,75877,2,0,L|374:80,1,170,2|10,1:2|1:2,0:0:0:0:
198,80,76599,6,0,L|22:80,1,170,2|2,0:0|0:0,0:0:0:0:
200,80,77322,2,0,L|376:80,1,170,2|10,1:2|1:2,0:0:0:0:
96,296,78045,6,0,P|64:216|128:152,1,170,2|0,1:2|0:0,0:0:0:0:
192,152,78587,1,2,1:2:0:0:
272,152,78768,2,0,L|447:152,1,170,2|10,1:2|1:0,0:0:0:0:
144,152,79491,6,0,P|128:264|248:336,1,255,2|2,0:1|1:0,0:0:0:0:
392,240,80214,2,0,L|296:240,1,85,2|0,1:0|0:0,0:0:0:0:
216,240,80575,2,0,L|128:240,1,85,10|0,1:2|0:0,0:0:0:0:
384,40,80937,6,0,L|392:128,1,85,2|2,1:2|1:2,0:0:0:0:
224,128,81298,2,0,L|216:232,1,85,10|2,1:2|0:2,0:0:0:0:
384,216,81660,1,2,1:2:0:0:
136,216,81840,1,10,1:2:0:0:
384,216,82202,6,0,L|383:36,1,170,2|2,1:2|1:2,0:0:0:0:
216,112,82744,2,0,L|203:-7,1,85,10|2,1:2|1:2,0:0:0:0:
368,40,83105,1,2,1:2:0:0:
120,40,83286,1,10,1:2:0:0:
368,40,83648,6,0,L|192:40,1,170,2|2,1:2|1:2,0:0:0:0:
368,200,84190,2,0,L|368:296,1,85,10|2,1:2|1:2,0:0:0:0:
200,280,84551,2,0,L|104:280,2,85,2|10|2,1:2|1:2|0:0,0:0:0:0:
448,152,85093,6,0,L|266:113,2,170,2|0|0,1:2|1:2|1:2,0:0:0:0:
304,200,85997,2,0,L|303:322,1,85,0|0,1:2|0:0,0:0:0:0:
472,280,86358,1,4,1:3:0:0:
43,248,86720,6,0,L|41:360,1,85,4|2,1:0|0:0,0:0:0:0:
288,328,87081,2,0,L|391:328,1,85,10|0,1:0|0:0,0:0:0:0:
208,240,87443,2,0,L|207:134,1,85,2|0,0:1|1:0,0:0:0:0:
376,168,87804,2,0,L|376:55,1,85,10|0,1:0|0:0,0:0:0:0:
104,200,88166,6,0,P|72:136|144:48,1,170,2|8,1:0|1:0,0:0:0:0:
216,48,88708,1,2,0:0:0:0:
392,48,88889,1,2,0:0:0:0:
480,48,89069,1,2,1:2:0:0:
232,144,89250,1,10,1:2:0:0:
328,144,89431,1,2,0:0:0:0:
56,248,89611,6,0,L|56:122,1,85,2|2,1:2|0:0,0:0:0:0:
304,144,89973,2,0,L|420:147,1,85,10|0,1:0|0:0,0:0:0:0:
224,144,90334,2,0,L|214:231,1,85,2|0,0:1|1:0,0:0:0:0:
376,216,90696,2,0,L|408:320,1,85,10|0,1:0|0:0,0:0:0:0:
152,344,91057,6,0,P|120:280|176:168,1,170,2|8,1:0|1:0,0:0:0:0:
240,176,91599,1,2,0:0:0:0:
416,168,91780,1,2,0:0:0:0:
320,168,91961,1,2,1:2:0:0:
64,168,92142,1,10,1:2:0:0:
152,168,92322,1,2,0:0:0:0:
416,200,92503,6,0,L|431:304,1,85,2|0,1:2|0:0,0:0:0:0:
176,232,92864,2,0,L|190:148,1,85,10|0,1:0|0:0,0:0:0:0:
352,152,93226,2,0,L|336:61,1,85,2|0,0:1|1:0,0:0:0:0:
176,112,93587,2,0,L|184:24,1,85,10|0,1:0|0:0,0:0:0:0:
440,88,93949,6,0,P|432:206|371:254,1,170,2|8,1:0|1:0,0:0:0:0:
307,262,94491,1,2,0:0:0:0:
144,264,94672,2,0,L|56:248,1,85,2|2,0:0|1:2,0:0:0:0:
312,112,95033,2,0,L|208:104,1,85,10|2,1:2|0:0,0:0:0:0:
480,120,95395,6,0,L|479:324,1,170,2|10,1:2|1:2,0:0:0:0:
176,264,96118,1,10,1:2:0:0:
432,264,96298,1,2,1:2:0:0:
176,264,96660,6,0,L|172:94,1,170,6|10,1:2|1:2,0:0:0:0:
336,104,97202,2,0,L|354:20,1,85,2|2,0:0|1:2,0:0:0:0:
88,128,97563,2,0,L|69:297,1,170,2|8,1:2|1:0,0:0:0:0:
160,296,98105,1,0,0:0:0:0:
469,248,98286,6,0,L|471:360,1,85,4|2,1:0|0:0,0:0:0:0:
224,328,98648,2,0,L|121:328,1,85,10|0,1:0|0:0,0:0:0:0:
304,240,99009,2,0,L|305:134,1,85,2|0,1:0|0:0,0:0:0:0:
136,168,99371,2,0,L|136:55,1,85,10|0,1:0|0:0,0:0:0:0:
408,200,99732,6,0,P|440:136|368:48,1,170,2|8,1:0|1:0,0:0:0:0:
296,48,100274,1,2,0:2:0:0:
120,48,100455,1,2,1:2:0:0:
32,48,100636,1,2,0:2:0:0:
280,144,100816,1,10,1:2:0:0:
184,144,100997,1,2,0:2:0:0:
456,248,101178,6,0,L|456:122,1,85,2|2,1:2|0:0,0:0:0:0:
208,144,101539,2,0,L|92:147,1,85,10|0,1:0|0:0,0:0:0:0:
288,144,101901,2,0,L|298:231,1,85,2|0,1:0|0:0,0:0:0:0:
136,216,102262,2,0,L|104:320,1,85,10|0,1:0|0:0,0:0:0:0:
360,344,102624,6,0,P|392:280|336:168,1,170,2|8,1:0|1:0,0:0:0:0:
272,176,103166,1,2,0:0:0:0:
96,168,103346,1,2,1:2:0:0:
192,168,103527,1,2,0:0:0:0:
448,168,103708,1,10,1:2:0:0:
360,168,103889,1,2,1:2:0:0:
96,200,104069,6,0,L|81:304,1,85,2|2,1:2|0:0,0:0:0:0:
336,232,104431,2,0,L|322:148,1,85,10|0,1:0|0:0,0:0:0:0:
160,152,104792,2,0,L|176:61,1,85,2|0,1:0|0:0,0:0:0:0:
336,112,105154,2,0,L|328:24,1,85,10|0,1:0|0:0,0:0:0:0:
72,88,105515,6,0,P|80:206|141:254,1,170,2|8,1:0|1:0,0:0:0:0:
205,262,106057,1,2,0:2:0:0:
368,264,106238,2,0,L|456:248,1,85,2|2,1:2|0:2,0:0:0:0:
200,112,106599,2,0,L|304:104,1,85,10|2,1:2|1:2,0:0:0:0:
32,120,106961,6,0,L|33:324,1,170,10|10,1:2|1:2,0:0:0:0:
336,264,107684,1,2,0:2:0:0:
80,264,107864,1,10,1:2:0:0:
336,264,108226,6,0,L|340:94,1,170,6|2,1:2|1:2,0:0:0:0:
176,104,108768,2,0,L|158:20,1,85,10|10,1:2|1:2,0:0:0:0:
424,128,109130,2,0,L|443:297,1,170,2|8,1:2|1:0,0:0:0:0:
72,248,109672,6,0,L|72:64,1,170,4|0,1:0|1:0,0:0:0:0:
232,96,110214,2,0,L|344:96,1,85,10|0,1:3|0:0,0:0:0:0:
424,96,110575,1,0,1:0:0:0:
168,96,110756,1,0,1:0:0:0:
440,248,111118,6,0,L|440:64,1,170,0|0,1:0|1:0,0:0:0:0:
280,96,111660,2,0,L|168:96,1,85,10|0,1:3|0:0,0:0:0:0:
88,96,112021,1,0,1:0:0:0:
344,96,112202,1,0,1:0:0:0:
72,248,112563,6,0,L|72:64,1,170,0|0,1:0|1:0,0:0:0:0:
232,96,113105,2,0,L|344:96,1,85,10|0,1:3|0:0,0:0:0:0:
424,96,113467,1,0,1:0:0:0:
168,96,113648,1,0,1:0:0:0:
456,248,114009,6,0,L|456:64,1,170,0|0,1:0|1:0,0:0:0:0:
296,96,114551,2,0,L|272:192,1,85,10|0,1:3|1:0,0:0:0:0:
440,184,114913,1,10,1:2:0:0:
280,176,115093,1,10,1:2:0:0:
440,184,115274,1,10,1:2:0:0:
160,240,115455,6,0,L|329:223,1,170,14|0,1:2|1:0,0:0:0:0:
160,240,115997,2,0,L|160:130,1,85,10|0,1:3|0:0,0:0:0:0:
304,160,116358,1,0,1:0:0:0:
56,160,116539,1,0,1:0:0:0:
336,240,116901,6,0,L|167:223,1,170,0|0,1:0|1:0,0:0:0:0:
336,240,117443,2,0,L|336:130,1,85,10|0,1:3|0:0,0:0:0:0:
192,160,117804,1,0,1:0:0:0:
440,160,117985,1,0,1:0:0:0:
160,240,118346,6,0,L|329:223,1,170,0|0,1:0|1:0,0:0:0:0:
160,240,118889,2,0,L|160:130,1,85,10|0,1:3|0:0,0:0:0:0:
304,160,119250,1,0,1:0:0:0:
56,160,119431,1,0,1:0:0:0:
336,240,119792,6,0,L|167:223,1,170,0|0,1:0|1:0,0:0:0:0:
336,240,120334,2,0,L|336:130,1,85,10|0,1:3|1:0,0:0:0:0:
80,160,120696,1,10,1:2:0:0:
240,160,120877,1,10,1:2:0:0:
80,160,121057,1,10,1:2:0:0:
352,160,121238,5,12,1:0:0:0:
256,192,121419,12,0,123949,0:0:0:0:
