osu file format v14

[General]
AudioFilename: audio.ogg
AudioLeadIn: 0
PreviewTime:86758
Countdown: 0
SampleSet: Soft
StackLeniency: 0.7
Mode: 2
LetterboxInBreaks: 0
WidescreenStoryboard: 1

[Editor]
Bookmarks:46057,51840,115455,121238
DistanceSpacing: 1.1
BeatDivisor: 4
GridSize: 16
TimelineZoom: 1.8

[Metadata]
Title:Light up my love!!
TitleUnicode:Light up my love!!
Artist:onoken feat. moco
ArtistUnicode:音源 feat. moco
Creator:Ascendance
Version:Mniam's Platter
Source:Muse Dash
Tags:osu!catch world cup 2022 cwc2022 ro32 Round of 32 hr1 HardRock ani cytus 2 II zirox juansy- mniam osu_gangster ster -plus- chara bunnrei guden japanese pop j-pop electronic
BeatmapID:3638060
BeatmapSetID:1769587

[Difficulty]
HPDrainRate:4
CircleSize:3.6
OverallDifficulty:7.8
ApproachRate:7.8
SliderMultiplier:1.8
SliderTickRate:2

[Events]
//Background and Video events
0,0,"96716868_p0_master1200.jpg",0,0
//Break Periods
//Storyboard Layer 0 (Background)
//Storyboard Layer 1 (Fail)
//Storyboard Layer 2 (Pass)
//Storyboard Layer 3 (Foreground)
//Storyboard Layer 4 (Overlay)
//Storyboard Sound Samples

[TimingPoints]
2865,361.44578313253,4,2,0,45,1,0
2973,-100,4,2,0,45,0,0
13889,-100,4,2,0,25,0,0
15515,-100,4,2,0,5,0,0
15696,-100,4,2,0,5,0,0
15877,-100,4,2,1,35,0,0
16238,-100,4,2,1,45,0,0
16599,-100,4,2,1,55,0,0
16961,-100,4,2,1,60,0,0
17322,-100,4,2,1,70,0,1
40274,-100,4,2,1,65,0,0
51840,-100,4,2,1,60,0,0
63587,-100,4,2,1,55,0,0
65214,-100,4,2,2,55,0,0
65756,-100,4,2,1,55,0,0
68105,-100,4,2,2,55,0,0
68286,-100,4,2,1,55,0,0
76780,-100,4,2,2,55,0,0
77322,-100,4,2,1,55,0,0
79672,-100,4,2,2,55,0,0
79852,-100,4,2,1,55,0,0
80937,-100,4,2,1,60,0,0
85636,-100,4,2,3,60,0,0
85816,-100,4,2,1,60,0,0
86720,-100,4,2,1,70,0,1
109672,-100,4,2,1,65,0,0
121419,-100,4,2,1,45,0,0
122142,-100,4,2,1,35,0,0
122864,-100,4,2,1,25,0,0
123587,-100,4,2,1,15,0,0
123949,-100,4,2,1,5,0,0

[Colours]
Combo1 : 135,15,255
Combo2 : 10,177,207
Combo3 : 169,45,200
Combo4 : 244,104,139

[HitObjects]
336,304,3045,5,0,0:0:0:0:
432,224,3226,1,0,0:0:0:0:
336,64,3587,1,2,0:0:0:0:
192,64,3949,1,0,0:0:0:0:
368,80,4310,1,2,0:0:0:0:
384,128,4852,5,0,0:0:0:0:
368,176,5033,1,2,0:0:0:0:
336,208,5214,1,0,0:0:0:0:
272,224,5395,1,0,0:0:0:0:
176,224,5575,1,0,0:0:0:0:
272,208,5756,1,2,0:0:0:0:
416,64,6118,5,0,0:0:0:0:
256,64,6479,1,2,0:0:0:0:
80,64,6840,1,0,0:0:0:0:
256,80,7202,1,2,0:0:0:0:
272,144,7925,5,2,0:0:0:0:
256,224,8105,1,0,0:0:0:0:
176,240,8286,1,0,0:0:0:0:
208,304,8467,1,0,0:0:0:0:
304,304,8648,1,2,0:0:0:0:
448,192,9009,5,0,0:0:0:0:
256,192,9371,1,2,0:0:0:0:
352,192,9732,1,0,0:0:0:0:
160,192,10093,1,2,0:0:0:0:
260,192,10636,5,0,0:0:0:0:
300,225,10816,1,2,0:0:0:0:
314,278,10997,1,0,0:0:0:0:
293,322,11178,1,0,0:0:0:0:
234,344,11358,1,0,0:0:0:0:
144,342,11539,1,2,0:0:0:0:
288,191,11901,5,0,0:0:0:0:
117,193,12262,1,2,0:0:0:0:
198,145,12443,1,0,0:0:0:0:
360,193,12804,6,0,P|402:96|346:57,1,180,2|0,0:0|0:0,0:0:0:0:
285,56,13346,1,0,0:0:0:0:
195,58,13527,1,0,0:0:0:0:
294,155,13708,1,2,0:0:0:0:
256,192,13889,12,0,15515,0:0:0:0:
453,86,15877,5,0,1:0:0:0:
453,86,16057,1,0,1:0:0:0:
385,86,16238,1,0,1:0:0:0:
385,86,16419,1,0,1:0:0:0:
273,86,16599,1,0,1:0:0:0:
273,86,16780,1,0,1:0:0:0:
453,86,16961,1,4,1:2:0:0:
32,192,17322,6,0,L|32:288,1,90,4|2,1:0|0:0,0:0:0:0:
128,320,17684,1,10,1:0:0:0:
464,192,18045,2,0,L|352:192,1,90,2|0,0:1|1:0,0:0:0:0:
464,192,18407,2,0,L|464:96,1,90,10|0,1:0|0:0,0:0:0:0:
192,192,18768,6,0,P|128:160|192:112,1,180,2|8,1:0|1:0,0:0:0:0:
288,192,19310,1,2,0:0:0:0:
384,192,19491,2,0,L|384:96,1,90,2|2,0:0|1:2,0:0:0:0:
288,80,19852,2,0,L|384:80,1,90,10|2,1:2|0:0,0:0:0:0:
182,192,20214,6,0,L|182:96,1,90,2|0,1:2|0:0,0:0:0:0:
374,192,20575,2,0,L|464:192,1,90,10|0,1:0|0:0,0:0:0:0:
272,192,20937,2,0,L|182:192,1,90,2|0,0:1|1:0,0:0:0:0:
272,192,21298,2,0,L|368:192,1,90,10|0,1:0|0:0,0:0:0:0:
80,192,21660,6,0,P|16:160|80:112,1,180,2|8,1:0|1:0,0:0:0:0:
272,192,22383,2,0,L|272:96,1,90,2|2,0:0|1:2,0:0:0:0:
176,192,22744,2,0,L|64:192,1,90,10|2,1:2|0:0,0:0:0:0:
272,192,23105,6,0,L|272:80,1,90,2|0,1:2|0:0,0:0:0:0:
176,96,23467,2,0,L|176:0,1,90,10|0,1:0|0:0,0:0:0:0:
368,112,23828,2,0,L|368:16,1,90,2|0,0:1|1:0,0:0:0:0:
272,112,24190,2,0,L|362:112,1,90,10|0,1:0|0:0,0:0:0:0:
80,192,24551,6,0,P|16:160|80:112,1,180,2|8,1:0|1:0,0:0:0:0:
176,192,25093,1,2,0:0:0:0:
272,192,25274,2,0,L|160:192,1,90,2|2,0:0|1:2,0:0:0:0:
80,192,25636,2,0,L|80:80,1,90,10|2,1:2|0:0,0:0:0:0:
256,96,25997,6,0,L|368:96,1,90,2|0,1:2|0:0,0:0:0:0:
160,192,26358,1,10,1:2:0:0:
496,192,26720,2,0,L|496:288,1,90,10|2,1:2|1:2,0:0:0:0:
64,192,27262,6,0,L|256:192,1,180,6|10,1:2|1:2,0:0:0:0:
256,112,27804,1,2,0:0:0:0:
208,64,27985,1,2,1:2:0:0:
112,64,28166,1,2,1:2:0:0:
208,64,28346,1,8,1:0:0:0:
48,64,28527,1,8,1:0:0:0:
480,192,28889,6,0,L|480:288,1,90,4|2,1:0|0:0,0:0:0:0:
384,320,29250,1,10,1:0:0:0:
48,192,29611,2,0,L|160:192,1,90,2|0,0:1|1:0,0:0:0:0:
48,192,29973,2,0,L|48:96,1,90,10|0,1:0|0:0,0:0:0:0:
320,192,30334,6,0,P|384:160|320:112,1,180,2|8,1:0|1:0,0:0:0:0:
224,192,30877,1,2,0:0:0:0:
128,192,31057,2,0,L|128:96,1,90,2|2,0:0|1:2,0:0:0:0:
224,80,31419,2,0,L|128:80,1,90,10|2,1:2|0:0,0:0:0:0:
320,192,31780,5,2,1:2:0:0:
224,192,31961,2,0,L|224:96,1,90,2|10,0:0|1:0,0:0:0:0:
320,96,32322,1,0,0:0:0:0:
128,192,32503,2,0,L|224:192,1,90,2|0,0:1|1:0,0:0:0:0:
400,192,32864,2,0,L|400:96,1,90,10|0,1:0|0:0,0:0:0:0:
128,192,33226,6,0,P|64:160|128:112,1,180,2|8,1:0|1:0,0:0:0:0:
224,192,33768,1,2,0:0:0:0:
128,192,33949,2,0,L|128:96,1,90,2|2,0:0|1:2,0:0:0:0:
224,80,34310,2,0,L|128:80,1,90,10|2,1:2|0:0,0:0:0:0:
320,192,34672,5,2,1:2:0:0:
416,192,34852,2,0,L|416:96,1,90,0|10,0:0|1:0,0:0:0:0:
80,192,35395,2,0,L|176:192,1,90,2|0,0:1|1:0,0:0:0:0:
352,192,35756,2,0,L|352:96,1,90,10|0,1:0|0:0,0:0:0:0:
80,192,36118,6,0,P|16:160|80:112,1,180,2|8,1:0|1:0,0:0:0:0:
160,192,36660,1,2,0:0:0:0:
256,192,36840,2,0,L|256:96,1,90,2|2,0:0|1:2,0:0:0:0:
160,96,37202,2,0,L|64:96,1,90,10|2,1:2|0:0,0:0:0:0:
256,96,37563,6,0,L|368:96,1,90,10|0,1:2|0:0,0:0:0:0:
160,192,37925,1,10,1:2:0:0:
496,192,38286,2,0,L|496:288,1,90,2|10,1:2|1:2,0:0:0:0:
64,192,38828,6,0,L|256:192,1,180,6|2,1:2|1:2,0:0:0:0:
416,160,39371,1,10,1:2:0:0:
240,160,39551,1,10,1:2:0:0:
192,80,39732,1,2,1:2:0:0:
240,16,39913,1,8,1:0:0:0:
336,16,40093,1,8,1:0:0:0:
64,192,40274,6,0,P|32:144|112:80,1,180,4|0,1:0|1:0,0:0:0:0:
288,192,40816,2,0,L|400:192,2,90,10|0|0,1:3|0:0|1:0,0:0:0:0:
192,192,41358,2,0,L|192:96,1,90,0|10,1:0|1:3,0:0:0:0:
384,192,41720,6,0,P|458:156|430:79,1,180,0|0,1:0|1:0,0:0:0:0:
240,192,42262,2,0,L|128:192,2,90,10|0|0,1:3|0:0|1:0,0:0:0:0:
336,192,42804,2,0,L|336:96,1,90,0|10,1:0|1:3,0:0:0:0:
64,192,43166,6,0,P|32:144|112:80,1,180,0|0,1:0|1:0,0:0:0:0:
288,192,43708,2,0,L|385:191,1,90,10|0,1:3|0:0,0:0:0:0:
288,192,44069,2,0,L|288:96,1,90,0|0,1:0|1:0,0:0:0:0:
384,96,44431,1,10,1:3:0:0:
192,192,44611,6,0,P|118:156|146:79,1,180,0|0,1:0|1:0,0:0:0:0:
336,192,45154,2,0,L|426:192,1,90,10|0,1:3|1:0,0:0:0:0:
256,192,45515,1,10,1:2:0:0:
432,192,45696,2,0,L|432:96,1,90,10|10,1:2|1:2,0:0:0:0:
148,79,46057,6,0,P|73:114|101:191,1,180,14|0,1:2|1:0,0:0:0:0:
288,192,46599,2,0,L|288:96,1,90,10|0,1:3|0:0,0:0:0:0:
192,192,46961,2,0,L|80:192,2,90,0|0|10,1:0|1:0|1:3,0:0:0:0:
384,192,47503,6,0,P|458:156|430:79,1,180,0|0,1:0|1:0,0:0:0:0:
240,192,48045,2,0,L|240:96,1,90,10|0,1:3|0:0,0:0:0:0:
336,192,48407,2,0,L|448:192,2,90,0|0|10,1:0|1:0|1:3,0:0:0:0:
64,192,48949,6,0,P|32:144|112:80,1,180,0|0,1:0|1:0,0:0:0:0:
288,192,49491,2,0,L|288:96,1,90,10|0,1:3|0:0,0:0:0:0:
192,64,49852,2,0,L|282:64,2,90,0|0|10,1:0|1:0|1:3,0:0:0:0:
384,192,50395,6,0,P|458:156|430:79,1,180,0|0,1:0|1:0,0:0:0:0:
240,192,50937,2,0,L|240:96,1,90,10|0,1:3|1:0,0:0:0:0:
416,80,51298,1,10,1:2:0:0:
240,192,51479,2,0,L|144:192,1,90,10|10,1:2|1:2,0:0:0:0:
416,192,51840,6,0,P|480:160|416:112,1,180,12|2,1:0|1:2,0:0:0:0:
320,192,52383,2,0,L|416:192,1,90,10|2,1:2|0:0,0:0:0:0:
224,192,52744,2,0,L|128:192,1,90,2|2,1:2|1:2,0:0:0:0:
128,112,53105,1,8,1:2:0:0:
320,192,53286,6,0,P|384:160|320:112,1,180,2|2,1:2|1:2,0:0:0:0:
224,192,53828,2,0,L|134:192,1,90,10|2,1:2|0:0,0:0:0:0:
320,192,54190,2,0,L|416:192,1,90,2|2,1:2|1:2,0:0:0:0:
416,112,54551,1,8,1:2:0:0:
224,192,54732,6,0,P|160:160|224:112,1,180,2|2,1:2|1:2,0:0:0:0:
320,192,55274,2,0,L|224:192,1,90,10|2,1:2|0:0,0:0:0:0:
48,192,55636,2,0,L|48:96,1,90,2|2,1:2|1:2,0:0:0:0:
144,96,55997,1,8,1:2:0:0:
336,192,56178,6,0,L|144:192,1,180,2|2,1:2|1:2,0:0:0:0:
256,160,56720,1,8,1:2:0:0:
448,192,56901,2,0,P|464:128|336:128,1,180,2|2,1:2|1:2,0:0:0:0:
464,192,57443,1,8,1:2:0:0:
192,192,57624,6,0,P|128:160|192:112,1,180,2|2,1:2|1:2,0:0:0:0:
288,192,58166,2,0,L|192:192,1,90,10|2,1:2|0:0,0:0:0:0:
384,192,58527,2,0,L|480:192,1,90,2|2,1:2|1:2,0:0:0:0:
480,112,58889,1,8,1:2:0:0:
288,192,59069,6,0,P|224:160|288:112,1,180,2|2,1:2|1:2,0:0:0:0:
384,192,59611,2,0,L|474:192,1,90,10|2,1:2|0:0,0:0:0:0:
288,192,59973,2,0,L|192:192,1,90,2|2,1:2|1:2,0:0:0:0:
192,112,60334,1,8,1:2:0:0:
384,192,60515,6,0,P|448:160|384:112,1,180,2|2,1:2|1:2,0:0:0:0:
288,192,61057,2,0,L|384:192,1,90,10|2,1:2|0:0,0:0:0:0:
192,192,61419,2,0,L|192:96,1,90,2|0,1:2|1:2,0:0:0:0:
288,96,61780,1,10,1:2:0:0:
16,192,61961,6,0,P|16:128|144:128,1,180,6|2,1:2|1:2,0:0:0:0:
208,192,62503,1,0,1:2:0:0:
16,192,62684,1,10,1:2:0:0:
336,192,63045,1,10,1:2:0:0:
160,192,63407,1,0,1:2:0:0:
432,192,63587,6,0,P|480:160|368:64,1,270,4|0,1:0|1:0,0:0:0:0:
272,192,64310,2,0,L|464:192,1,180,2|10,1:2|1:2,0:0:0:0:
128,192,65033,2,0,L|320:192,1,180,2|2,0:0|0:2,0:0:0:0:
128,192,65756,2,0,P|64:160|128:112,1,180,2|10,1:2|1:2,0:0:0:0:
464,192,66479,6,0,P|448:112|240:96,1,270,2|2,1:2|1:2,0:0:0:0:
96,288,67202,2,0,L|96:80,1,180,2|10,1:0|1:0,0:0:0:0:
288,288,67925,2,0,L|18:288,1,270,2|2,0:1|1:0,0:0:0:0:
208,208,68648,2,0,L|320:208,1,90,2|2,1:0|0:0,0:0:0:0:
400,160,69009,2,0,L|304:160,1,90,10|2,1:2|0:0,0:0:0:0:
128,192,69371,6,0,P|48:160|128:32,1,270,2|2,1:2|1:2,0:0:0:0:
208,96,70093,2,0,L|28:96,1,180,2|8,1:2|1:0,0:0:0:0:
224,176,70636,2,0,P|288:128|224:96,2,180,0|0|2,0:0|1:0|1:2,0:0:0:0:
32,192,71539,2,0,L|32:96,1,90,2|2,1:2|0:2,0:0:0:0:
128,192,71901,2,0,L|32:192,1,90,10|2,1:2|0:2,0:0:0:0:
224,192,72262,6,0,P|352:192|368:64,1,270,2|2,1:2|1:2,0:0:0:0:
192,192,72985,2,0,P|128:144|192:96,1,180,2|8,1:2|1:0,0:0:0:0:
272,96,73527,1,2,0:0:0:0:
464,192,73708,2,0,P|438:70|314:73,1,270,2|2,0:0|1:2,0:0:0:0:
128,192,74431,2,0,L|128:0,1,180,2|8,1:2|1:0,0:0:0:0:
448,192,75154,6,0,P|480:160|352:32,1,270,0|0,1:0|1:0,0:0:0:0:
272,192,75877,2,0,L|80:192,1,180,2|10,1:2|1:2,0:0:0:0:
416,192,76599,2,0,L|224:192,1,180,2|2,0:0|0:0,0:0:0:0:
416,192,77322,2,0,P|480:160|416:112,1,180,2|10,1:2|1:2,0:0:0:0:
96,192,78045,6,0,P|112:112|320:96,1,270,2|2,1:2|1:2,0:0:0:0:
96,192,78768,2,0,P|32:160|96:112,1,180,2|10,1:2|1:0,0:0:0:0:
288,288,79491,2,0,L|18:288,1,270,2|2,0:1|1:0,0:0:0:0:
208,208,80214,2,0,L|400:208,1,180,2|10,1:0|1:2,0:0:0:0:
64,208,80937,6,0,L|64:112,1,90,2|2,1:2|1:2,0:0:0:0:
160,208,81298,2,0,L|64:208,1,90,10|2,1:2|0:2,0:0:0:0:
256,208,81660,2,0,L|352:208,1,90,2|10,1:2|1:2,0:0:0:0:
160,208,82202,6,0,P|96:176|160:128,1,180,2|2,1:2|1:2,0:0:0:0:
256,128,82744,2,0,L|160:128,1,90,10|2,1:2|1:2,0:0:0:0:
352,128,83105,2,0,L|448:128,1,90,2|10,1:2|1:2,0:0:0:0:
256,208,83648,6,0,L|448:208,1,180,2|2,1:2|1:2,0:0:0:0:
352,128,84190,2,0,L|352:32,1,90,10|2,1:2|1:2,0:0:0:0:
448,128,84551,1,2,1:2:0:0:
256,128,84732,2,0,L|256:224,1,90,10|2,1:2|0:0,0:0:0:0:
352,192,85093,1,2,1:2:0:0:
32,192,85455,1,0,1:2:0:0:
352,192,85816,5,0,1:2:0:0:
352,192,85997,1,0,1:2:0:0:
32,192,86358,1,4,1:3:0:0:
480,192,86720,6,0,L|480:288,1,90,4|2,1:0|0:0,0:0:0:0:
384,320,87081,1,10,1:0:0:0:
48,192,87443,2,0,L|160:192,1,90,2|0,0:1|1:0,0:0:0:0:
48,192,87804,2,0,L|48:96,1,90,10|0,1:0|0:0,0:0:0:0:
320,192,88166,6,0,P|384:160|320:112,1,180,2|8,1:0|1:0,0:0:0:0:
224,192,88708,1,2,0:0:0:0:
128,192,88889,2,0,L|128:96,1,90,2|2,0:0|1:2,0:0:0:0:
224,80,89250,2,0,L|128:80,1,90,10|2,1:2|0:0,0:0:0:0:
330,192,89611,6,0,L|330:96,1,90,2|2,1:2|0:0,0:0:0:0:
138,192,89973,2,0,L|48:192,1,90,10|0,1:0|0:0,0:0:0:0:
240,192,90334,2,0,L|330:192,1,90,2|0,0:1|1:0,0:0:0:0:
240,192,90696,2,0,L|144:192,1,90,10|0,1:0|0:0,0:0:0:0:
432,192,91057,6,0,P|496:160|432:112,1,180,2|8,1:0|1:0,0:0:0:0:
336,192,91599,1,2,0:0:0:0:
240,192,91780,2,0,L|240:96,1,90,2|2,0:0|1:2,0:0:0:0:
336,192,92142,2,0,L|448:192,1,90,10|2,1:2|0:0,0:0:0:0:
240,192,92503,6,0,L|240:80,1,90,2|0,1:2|0:0,0:0:0:0:
336,192,92864,2,0,L|336:96,1,90,10|0,1:0|0:0,0:0:0:0:
144,192,93226,2,0,L|144:80,1,90,2|0,0:1|1:0,0:0:0:0:
240,64,93587,2,0,L|150:64,1,90,10|0,1:0|0:0,0:0:0:0:
432,192,93949,6,0,P|496:160|432:112,1,180,2|8,1:0|1:0,0:0:0:0:
336,192,94491,1,2,0:0:0:0:
240,192,94672,2,0,L|352:192,1,90,2|2,0:0|1:2,0:0:0:0:
432,192,95033,2,0,L|432:80,1,90,10|2,1:2|0:0,0:0:0:0:
256,96,95395,6,0,L|144:96,1,90,2|0,1:2|0:0,0:0:0:0:
352,192,95756,1,10,1:2:0:0:
16,192,96118,2,0,L|16:288,1,90,10|2,1:2|1:2,0:0:0:0:
448,192,96660,6,0,L|256:192,1,180,6|10,1:2|1:2,0:0:0:0:
256,128,97202,1,2,0:0:0:0:
304,64,97383,1,2,1:2:0:0:
400,64,97563,1,2,1:2:0:0:
304,64,97744,1,8,1:0:0:0:
464,64,97925,1,8,1:0:0:0:
32,192,98286,6,0,L|32:288,1,90,4|2,1:0|0:0,0:0:0:0:
128,320,98648,1,10,1:0:0:0:
464,192,99009,2,0,L|352:192,1,90,2|0,1:0|0:0,0:0:0:0:
464,192,99371,2,0,L|464:96,1,90,10|0,1:0|0:0,0:0:0:0:
192,192,99732,6,0,P|128:160|192:112,1,180,2|8,1:0|1:0,0:0:0:0:
288,192,100274,1,2,0:2:0:0:
384,192,100455,2,0,L|384:96,1,90,2|2,1:2|0:2,0:0:0:0:
288,80,100816,2,0,L|384:80,1,90,10|2,1:2|0:2,0:0:0:0:
192,192,101178,5,2,1:2:0:0:
288,192,101358,2,0,L|288:96,1,90,2|10,0:0|1:0,0:0:0:0:
192,96,101720,1,0,0:0:0:0:
384,192,101901,2,0,L|288:192,1,90,2|0,1:0|0:0,0:0:0:0:
112,192,102262,2,0,L|112:96,1,90,10|0,1:0|0:0,0:0:0:0:
384,192,102624,6,0,P|448:160|384:112,1,180,2|8,1:0|1:0,0:0:0:0:
288,192,103166,1,2,0:0:0:0:
384,192,103346,2,0,L|384:96,1,90,2|2,1:2|0:0,0:0:0:0:
288,80,103708,2,0,L|384:80,1,90,10|2,1:2|1:2,0:0:0:0:
192,192,104069,5,2,1:2:0:0:
96,192,104250,2,0,L|96:96,1,90,2|10,0:0|1:0,0:0:0:0:
432,192,104792,2,0,L|336:192,1,90,2|0,1:0|0:0,0:0:0:0:
160,192,105154,2,0,L|160:96,1,90,10|0,1:0|0:0,0:0:0:0:
432,192,105515,6,0,P|496:160|432:112,1,180,2|8,1:0|1:0,0:0:0:0:
352,192,106057,1,2,0:2:0:0:
256,192,106238,2,0,L|256:96,1,90,2|2,1:2|0:2,0:0:0:0:
352,96,106599,2,0,L|448:96,1,90,10|2,1:2|1:2,0:0:0:0:
256,96,106961,6,0,L|144:96,1,90,10|0,1:2|0:0,0:0:0:0:
352,192,107322,1,10,1:2:0:0:
16,192,107684,2,0,L|16:288,1,90,2|10,0:2|1:2,0:0:0:0:
448,192,108226,6,0,L|256:192,1,180,6|2,1:2|1:2,0:0:0:0:
96,160,108768,1,10,1:2:0:0:
272,160,108949,1,10,1:2:0:0:
320,96,109130,1,2,1:2:0:0:
272,32,109310,1,8,1:0:0:0:
176,32,109491,1,8,1:0:0:0:
448,192,109672,6,0,P|480:144|400:80,1,180,4|0,1:0|1:0,0:0:0:0:
224,192,110214,2,0,L|112:192,2,90,10|0|0,1:3|0:0|1:0,0:0:0:0:
320,192,110756,2,0,L|320:96,1,90,0|10,1:0|1:3,0:0:0:0:
128,192,111118,6,0,P|54:156|82:79,1,180,0|0,1:0|1:0,0:0:0:0:
272,192,111660,2,0,L|384:192,2,90,10|0|0,1:3|0:0|1:0,0:0:0:0:
176,192,112202,2,0,L|176:96,1,90,0|10,1:0|1:3,0:0:0:0:
448,192,112563,6,0,P|480:144|400:80,1,180,0|0,1:0|1:0,0:0:0:0:
224,192,113105,2,0,L|128:192,1,90,10|0,1:3|0:0,0:0:0:0:
224,192,113467,2,0,L|224:96,1,90,0|0,1:0|1:0,0:0:0:0:
128,96,113828,1,10,1:3:0:0:
320,192,114009,6,0,P|394:156|366:79,1,180,0|0,1:0|1:0,0:0:0:0:
176,192,114551,2,0,L|64:192,1,90,10|0,1:3|1:0,0:0:0:0:
256,192,114913,1,10,1:2:0:0:
80,192,115093,2,0,L|80:96,1,90,10|10,1:2|1:2,0:0:0:0:
363,79,115455,6,0,P|437:114|409:191,1,180,14|0,1:2|1:0,0:0:0:0:
224,192,115997,2,0,L|224:96,1,90,10|0,1:3|0:0,0:0:0:0:
320,192,116358,2,0,L|432:192,2,90,0|0|10,1:0|1:0|1:3,0:0:0:0:
128,192,116901,6,0,P|54:156|82:79,1,180,0|0,1:0|1:0,0:0:0:0:
272,192,117443,2,0,L|272:96,1,90,10|0,1:3|0:0,0:0:0:0:
176,192,117804,2,0,L|64:192,2,90,0|0|10,1:0|1:0|1:3,0:0:0:0:
448,192,118346,6,0,P|480:144|400:80,1,180,0|0,1:0|1:0,0:0:0:0:
224,192,118889,2,0,L|224:96,1,90,10|0,1:3|0:0,0:0:0:0:
320,64,119250,2,0,L|230:64,2,90,0|0|10,1:0|1:0|1:3,0:0:0:0:
128,192,119792,6,0,P|54:156|82:79,1,180,0|0,1:0|1:0,0:0:0:0:
272,192,120334,2,0,L|272:96,1,90,10|0,1:3|1:0,0:0:0:0:
96,80,120696,1,10,1:2:0:0:
272,192,120877,2,0,L|368:192,1,90,10|10,1:2|1:2,0:0:0:0:
96,192,121238,5,12,1:0:0:0:
256,192,121419,12,0,123949,0:0:0:0:
