osu file format v14

[General]
AudioFilename: audio.mp3
AudioLeadIn: 0
PreviewTime: 61757
Countdown: 0
SampleSet: Soft
StackLeniency: 0.2
Mode: 0
LetterboxInBreaks: 0
WidescreenStoryboard: 1

[Editor]
Bookmarks: 25774,40060,51489,57292,62917,74346,85774,100060,111489,122917,134346,145774,157203,165596,171489,188632,197203,208632,220060,225774,228632,234346
DistanceSpacing: 2.2
BeatDivisor: 4
GridSize: 4
TimelineZoom: 1.3

[Metadata]
Title:anqad (Long ver)
TitleUnicode:anqad (Long ver)
Artist:onoken feat. b
ArtistUnicode:onoken feat. b
Creator:Seikatu
Version:Special
Source:REFLEC BEAT groovin'!! Upper
Tags:plus MUSIC PACK 79 Kennosuke Ono おのけんのすけ Video Game Electronic Artcore Japanese axsword q and a q&a
BeatmapID:2022874
BeatmapSetID:966420

[Difficulty]
HPDrainRate:6
CircleSize:4.7
OverallDifficulty:8
ApproachRate:9.1
SliderMultiplier:1.54
SliderTickRate:1

[Events]
//Background and Video events
0,0,"bg2.jpg",0,0
//Break Periods
2,208832,216603
//Storyboard Layer 0 (Background)
//Storyboard Layer 1 (Fail)
//Storyboard Layer 2 (Pass)
//Storyboard Layer 3 (Foreground)
//Storyboard Layer 4 (Overlay)
//Storyboard Sound Samples

[TimingPoints]
25775,357.142857142857,4,2,1,60,1,0
29882,-133.333333333333,4,2,1,60,0,0
30417,-100,4,2,1,60,0,0
31132,-100,4,2,1,40,0,0
31489,-100,4,2,1,60,0,0
32739,-133.333333333333,4,2,1,60,0,0
33453,-100,4,2,1,40,0,0
33810,-100,4,2,1,60,0,0
37203,-133.333333333333,4,2,1,60,0,0
40060,-114.285714285714,4,2,1,50,0,0
51489,-100,4,2,1,60,0,1
51578,-100,4,2,1,60,0,0
52560,-133.333333333333,4,2,1,60,0,0
53632,-114.285714285714,4,2,1,60,0,0
54346,-100,4,2,1,60,0,0
55417,-133.333333333333,4,2,1,60,0,0
56489,-114.285714285714,4,2,1,60,0,0
62917,-100,4,2,1,70,0,1
71489,-88.8888888888889,4,2,1,70,0,1
72024,-133.333333333333,4,2,1,70,0,1
72560,-88.8888888888889,4,2,1,70,0,1
73096,-133.333333333333,4,2,1,70,0,1
73989,-100,4,2,1,70,0,1
74257,-100,4,2,1,70,0,0
74346,-100,4,2,1,70,0,1
82917,-88.8888888888889,4,2,1,70,0,1
83453,-133.333333333333,4,2,1,70,0,1
83989,-88.8888888888889,4,2,1,70,0,1
84524,-133.333333333333,4,2,1,70,0,1
85239,-100,4,2,1,70,0,1
85715,-100,4,2,1,70,0,0
85774,-100,4,2,1,70,0,1
85834,-100,4,2,1,60,0,0
91489,-100,4,2,1,70,0,1
91578,-100,4,2,1,70,0,0
94346,-100,4,2,1,70,0,1
94435,-100,4,2,1,70,0,0
96489,-88.8888888888889,4,2,1,70,0,0
96846,-100,4,2,1,70,0,0
97203,-133.333333333333,4,2,1,70,0,1
97263,-133.333333333333,4,2,1,70,0,0
100060,-133.333333333333,4,2,1,50,0,0
111489,-100,4,2,1,60,0,0
112560,-133.333333333333,4,2,1,60,0,0
113632,-113.636363636364,4,2,1,60,0,0
114346,-100,4,2,1,60,0,0
115417,-133.333333333333,4,2,1,60,0,0
116489,-113.636363636364,4,2,1,60,0,0
122917,-100,4,2,1,70,0,1
131489,-88.4955752212389,4,2,1,70,0,1
132024,-133.333333333333,4,2,1,70,0,1
132560,-88.4955752212389,4,2,1,70,0,1
133096,-133.333333333333,4,2,1,70,0,1
133989,-100,4,2,1,70,0,1
134227,-100,4,2,1,70,0,0
134346,-100,4,2,1,70,0,1
142917,-88.8888888888889,4,2,1,70,0,1
143453,-133.333333333333,4,2,1,70,0,1
143989,-88.8888888888889,4,2,1,70,0,1
144524,-133.333333333333,4,2,1,70,0,1
145417,-100,4,2,1,70,0,1
145715,-100,4,2,1,60,0,0
145774,-100,4,2,1,60,0,1
145834,-100,4,2,1,60,0,0
154346,-88.8888888888889,4,2,1,70,0,0
154882,-133.333333333333,4,2,1,70,0,0
155417,-88.8888888888889,4,2,1,70,0,0
155953,-100,4,2,1,70,0,0
156846,-114.285714285714,4,2,1,70,0,0
157203,-100,4,2,1,60,0,0
161310,-88.8888888888889,4,2,1,60,0,0
161786,-100,4,2,1,60,0,0
162917,-100,4,2,1,70,0,0
170774,-133.333333333333,4,2,1,60,0,0
171132,-114.285714285714,4,2,1,60,0,0
171489,-100,4,2,1,60,0,1
171578,-100,4,2,1,60,0,0
180060,-114.285714285714,4,2,1,60,0,0
180596,-100,4,2,1,60,0,0
181132,-88.8888888888889,4,2,1,60,0,0
181667,-133.333333333333,4,2,1,60,0,0
182203,-100,4,2,1,60,0,0
196846,-88.8888888888889,4,2,1,60,0,0
197203,-100,4,2,1,60,0,0
198274,-133.333333333333,4,2,1,60,0,0
199346,-114.285714285714,4,2,1,60,0,0
200060,-100,4,2,1,60,0,0
201132,-133.333333333333,4,2,1,60,0,0
202203,-114.285714285714,4,2,1,60,0,0
207560,-114.285714285714,4,2,1,25,0,0
207917,-114.285714285714,4,2,1,30,0,0
208274,-114.285714285714,4,2,1,42,0,0
208453,-114.285714285714,4,2,1,50,0,0
208632,-114.285714285714,4,2,1,60,0,0
217203,-88.8888888888889,4,2,1,70,0,1
217739,-133.333333333333,4,2,1,70,0,1
218274,-88.4955752212389,4,2,1,70,0,1
218810,-133.333333333333,4,2,1,70,0,1
219703,-100,4,2,1,70,0,1
219971,-100,4,2,1,70,0,0
220060,-100,4,2,1,70,0,1
228632,-88.8888888888889,4,2,1,70,0,1
229167,-133.333333333333,4,2,1,70,0,1
229703,-88.8888888888889,4,2,1,70,0,1
230239,-133.333333333333,4,2,1,70,0,1
231132,-114.285714285714,4,2,1,70,0,1
231489,-114.285714285714,4,2,1,50,0,0
235774,-114.285714285714,4,2,1,40,0,0
236489,-114.285714285714,4,2,1,28,0,0
237203,-114.285714285714,4,2,1,30,0,0
237560,-114.285714285714,4,2,1,28,0,0
237917,-114.285714285714,4,2,1,25,0,0
238274,-114.285714285714,4,2,1,22,0,0
238632,-114.285714285714,4,2,1,20,0,0

[Colours]
Combo1 : 140,202,242
Combo2 : 4,101,198
Combo3 : 18,124,255
Combo4 : 88,120,173

[HitObjects]
462,62,25774,5,4,1:0:0:0:
323,205,25953,1,0,0:0:0:0:
234,126,26132,2,0,P|311:119|388:120,1,154,8|0,0:0|1:0,0:0:0:0:
180,62,26667,1,8,0:0:0:0:
180,62,27024,6,0,P|126:59|123:146,1,154,0|8,1:0|0:0,0:0:0:0:
184,193,27560,1,0,0:0:0:0:
311,89,27739,1,0,1:0:0:0:
291,244,27917,2,0,P|278:199|274:163,1,77,2|0,0:0|1:0,0:0:0:0:
375,315,28274,2,0,P|382:268|393:234,1,77,10|0,0:0|0:0,0:0:0:0:
464,81,28632,5,0,1:0:0:0:
481,194,28810,1,2,0:0:0:0:
373,150,28989,1,8,0:0:0:0:
241,229,29167,5,0,0:0:0:0:
108,207,29346,1,2,1:2:0:0:
193,102,29524,1,8,0:0:0:0:
193,102,29882,6,0,P|136:93|79:89,1,115.500004405976,0|8,1:0|0:0,0:0:0:0:
248,39,30417,2,0,P|285:27|323:20,1,77,0|2,0:0|0:3,0:0:0:0:
334,173,30774,2,0,P|305:147|281:118,1,77,8|0,0:0|1:0,0:0:0:0:
408,33,31132,2,0,P|399:70|386:106,1,77,12|0,0:0|0:0,0:0:0:0:
332,296,31489,5,0,1:0:0:0:
332,296,31578,1,0,0:0:0:0:
332,296,31667,1,0,0:0:0:0:
400,237,31846,2,0,P|328:263|260:226,1,154,12|0,0:0|1:0,0:0:0:0:
161,345,32382,1,8,0:0:0:0:
161,345,32739,2,0,P|99:328|37:319,1,115.500004405976,4|8,1:2|0:0,0:0:0:0:
48,320,33274,1,2,0:0:0:0:
21,201,33453,2,0,P|87:184|124:260,1,154,4|0,1:2|0:0,0:0:0:0:
182,104,33989,2,0,P|188:141|191:180,1,77,8|0,0:0|0:0,0:0:0:0:
262,229,34346,5,0,1:0:0:0:
376,246,34524,1,2,0:0:0:0:
336,137,34703,1,0,0:0:0:0:
251,245,34882,5,8,0:0:0:0:
120,275,35060,1,2,0:0:0:0:
159,146,35239,1,0,0:0:0:0:
240,261,35417,5,0,1:0:0:0:
391,293,35596,1,10,0:0:0:0:
344,147,35774,1,0,0:0:0:0:
344,62,35953,2,0,P|261:51|177:74,1,154,12|0,0:0|1:0,0:0:0:0:
40,32,36489,2,0,P|72:55|106:72,1,77,8|0,0:0|1:0,0:0:0:0:
151,219,36846,2,0,P|154:179|152:141,1,77,8|0,0:0|0:0,0:0:0:0:
84,272,37203,6,0,P|131:303|186:293,1,115.500004405976,4|0,1:0|0:0,0:0:0:0:
337,240,37739,2,0,P|288:211|233:224,1,115.500004405976,2|0,1:2|0:0,0:0:0:0:
388,175,38274,2,0,P|414:178|444:188,1,57.7500022029878,2|8,0:0|0:0,0:0:0:0:
426,101,38632,5,2,0:0:0:0:
426,101,38721,1,0,0:0:0:0:
426,101,38810,1,8,0:0:0:0:
341,76,38989,2,0,P|308:80|276:81,1,57.7500022029878,0|0,1:0|0:0,0:0:0:0:
271,72,39257,1,0,0:0:0:0:
259,63,39346,1,10,0:0:0:0:
116,92,39524,1,0,0:0:0:0:
131,90,39614,1,0,0:0:0:0:
146,88,39703,1,2,0:0:0:0:
161,87,39792,1,0,0:0:0:0:
176,86,39882,1,0,1:0:0:0:
35,50,40060,6,0,P|34:84|19:134,1,67.3750006425381,0|0,1:0|0:0,0:0:0:0:
12,265,40417,1,10,0:0:0:0:
65,199,40596,2,0,P|133:189|221:193,1,134.750001285076,0|8,1:0|0:0,0:0:0:0:
200,349,41132,1,0,0:0:0:0:
114,372,41310,2,0,P|94:326|148:273,1,134.750001285076,2|0,1:2|1:0,0:0:0:0:
289,272,41846,2,0,P|252:269|211:270,1,67.3750006425381,8|0,0:0|0:0,0:0:0:0:
296,364,42203,5,0,0:0:0:0:
368,296,42382,1,2,1:2:0:0:
353,194,42560,1,8,0:0:0:0:
421,144,42739,2,0,P|431:83|432:5,1,134.750001285076,2|0,1:2|0:0,0:0:0:0:
432,10,43274,1,8,0:0:0:0:
474,212,43453,2,0,P|464:273|463:351,1,134.750001285076,0|8,1:0|0:0,0:0:0:0:
384,225,43989,1,2,0:0:0:0:
367,221,44078,1,0,0:0:0:0:
350,220,44167,1,0,0:0:0:0:
333,221,44257,1,0,0:0:0:0:
316,224,44346,6,0,L|308:265,3,33.687500321269,2|0|0|0,1:2|0:0|0:0|0:0,0:0:0:0:
295,332,44703,1,8,0:0:0:0:
236,193,44882,2,0,L|234:138,3,33.687500321269,2|0|0|0,1:2|0:0|0:0|0:0,0:0:0:0:
232,83,45239,1,8,0:0:0:0:
155,217,45417,1,0,0:0:0:0:
150,242,45507,1,0,0:0:0:0:
144,266,45596,6,0,P|83:250|-6:253,1,134.750001285076,0|0,1:0|1:0,0:0:0:0:
105,335,46132,1,10,0:0:0:0:
90,170,46310,2,0,P|67:119|112:44,1,134.750001285076,0|8,1:0|0:0,0:0:0:0:
98,51,46846,1,0,0:0:0:0:
280,149,47024,2,0,P|217:126|151:116,1,134.750001285076,2|0,1:2|1:0,0:0:0:0:
239,48,47560,2,0,P|282:34|317:29,1,67.3750006425381,8|0,0:0|0:0,0:0:0:0:
450,115,47917,1,0,0:0:0:0:
350,101,48096,1,2,1:2:0:0:
412,21,48274,1,8,0:0:0:0:
388,195,48453,6,0,P|385:261|372:341,1,134.750001285076,0|0,1:0|0:0,0:0:0:0:
374,328,48989,1,10,0:0:0:0:
195,256,49167,2,0,P|234:225|301:266,1,134.750001285076,0|8,1:0|0:0,0:0:0:0:
241,351,49703,1,2,0:0:0:0:
224,348,49792,1,0,0:0:0:0:
207,345,49882,1,0,0:0:0:0:
190,342,49971,1,0,0:0:0:0:
173,339,50060,6,0,L|165:374,3,33.687500321269,2|0|0|0,1:2|0:0|0:0|0:0,0:0:0:0:
98,336,50417,1,8,0:0:0:0:
43,210,50596,2,0,L|36:243,3,33.687500321269,2|0|0|0,1:2|0:0|0:0|0:0,0:0:0:0:
111,246,50953,1,8,0:0:0:0:
68,127,51132,1,2,0:0:0:0:
56,104,51221,1,0,0:0:0:0:
53,78,51310,1,2,0:0:0:0:
58,53,51399,1,0,0:0:0:0:
75,34,51489,6,0,L|229:42,1,154,4|8,1:0|0:0,0:0:0:0:
300,168,52024,2,0,L|146:160,1,154,0|8,1:0|0:0,0:0:0:0:
66,26,52560,2,0,L|243:36,1,173.250006608963,4|0,1:2|1:0,0:0:0:0:
238,35,53453,1,8,0:0:0:0:
304,88,53632,2,0,P|332:79|373:72,1,67.3750006425381,2|0,0:0|1:0,0:0:0:0:
456,169,53989,2,0,P|428:160|387:153,1,67.3750006425381,8|0,0:0|0:0,0:0:0:0:
384,364,54346,6,0,P|428:315|403:236,1,154,4|8,1:2|0:0,0:0:0:0:
314,113,54882,2,0,P|270:162|295:241,1,154,0|8,1:0|0:0,0:0:0:0:
394,376,55417,2,0,P|437:319|410:224,1,173.250006608963,4|0,1:2|1:0,0:0:0:0:
412,226,56132,1,0,1:0:0:0:
339,311,56310,1,8,0:0:0:0:
255,318,56489,2,0,P|225:311|181:307,1,67.3750006425381,2|0,0:0|1:0,0:0:0:0:
71,324,56846,2,0,P|92:301|117:265,1,67.3750006425381,8|0,0:0|0:0,0:0:0:0:
148,95,57203,6,0,P|156:161|180:224,1,134.750001285076,0|8,1:0|0:0,0:0:0:0:
180,224,57739,1,2,1:2:0:0:
256,74,58096,1,8,0:0:0:0:
331,224,58453,6,0,P|355:161|363:95,1,134.750001285076,2|0,1:2|1:0,0:0:0:0:
256,187,58989,1,0,1:0:0:0:
436,172,59167,2,0,P|474:119|452:49,1,134.750001285076,8|0,0:0|1:0,0:0:0:0:
278,103,59703,2,0,P|238:89|199:78,1,67.3750006425381,8|0,0:0|0:0,0:0:0:0:
170,204,60060,5,0,1:0:0:0:
342,170,60239,1,0,1:0:0:0:
338,186,60596,5,8,0:0:0:0:
129,125,60775,1,0,0:0:0:0:
135,140,61132,5,0,1:0:0:0:
396,63,61310,1,0,1:0:0:0:
396,63,62917,5,4,1:0:0:0:
372,176,63096,1,0,1:0:0:0:
305,32,63274,1,8,0:0:0:0:
414,58,63632,5,0,1:0:0:0:
386,189,63810,1,0,1:0:0:0:
277,163,63989,1,8,0:0:0:0:
176,252,64167,6,0,L|22:238,2,154,0|4|8,1:0|1:2|0:0,0:0:0:0:
72,156,65060,1,2,0:0:0:0:
190,264,65239,1,0,1:0:0:0:
250,189,65417,2,0,L|339:197,1,77,10|0,0:2|0:0,0:0:0:0:
481,209,65774,5,0,1:0:0:0:
383,272,65953,1,0,1:0:0:0:
409,115,66132,1,12,0:0:0:0:
494,222,66489,5,0,1:0:0:0:
380,291,66667,1,0,1:0:0:0:
313,210,66846,1,8,0:0:0:0:
190,264,67024,6,0,L|35:243,2,154,0|4|8,1:0|1:2|0:0,0:0:0:0:
261,199,67917,2,0,L|345:192,1,77,2|0,0:0|1:0,0:0:0:0:
500,241,68274,2,0,L|424:235,1,77,12|0,0:0|0:0,0:0:0:0:
343,317,68632,5,0,1:0:0:0:
435,219,68810,1,0,1:0:0:0:
399,109,68989,1,8,0:0:0:0:
417,15,69167,1,0,0:0:0:0:
411,124,69346,5,0,1:0:0:0:
295,192,69524,1,0,1:0:0:0:
191,141,69703,1,8,0:0:0:0:
98,167,69882,1,0,0:0:0:0:
175,47,70060,5,2,1:2:0:0:
212,248,70298,5,0,1:0:0:0:
368,116,70536,5,0,1:0:0:0:
98,167,70774,5,10,0:0:0:0:
338,260,71013,5,0,1:0:0:0:
299,8,71251,5,0,1:0:0:0:
243,187,71489,6,0,P|297:178|424:166,1,173.250006608963,4|0,1:0|0:0,0:0:0:0:
283,289,72024,6,0,P|228:278|163:271,1,115.500004405976,8|0,0:0|0:0,0:0:0:0:
20,159,72560,6,0,P|91:134|167:191,1,173.250006608963,4|0,1:2|0:0,0:0:0:0:
70,342,73096,6,0,P|73:290|86:224,1,115.500004405976,12|0,0:0|1:0,0:0:0:0:
84,227,73542,1,0,1:0:0:0:
84,227,73632,1,12,0:0:0:0:
256,188,73810,1,0,1:0:0:0:
218,98,73989,2,0,P|221:59|229:22,1,77,12|0,0:0|0:0,0:0:0:0:
115,41,74346,5,4,1:0:0:0:
205,112,74524,1,0,1:0:0:0:
328,56,74703,1,8,0:0:0:0:
100,53,75060,5,0,1:0:0:0:
191,125,75239,1,0,1:0:0:0:
116,236,75417,1,8,0:0:0:0:
175,379,75596,6,0,P|99:365|22:355,2,154,0|4|8,1:0|1:2|0:0,0:0:0:0:
283,338,76489,1,2,0:0:0:0:
170,360,76667,1,0,1:0:0:0:
228,189,76846,2,0,P|221:227|217:266,1,77,10|0,0:0|0:0,0:0:0:0:
371,309,77203,5,0,1:0:0:0:
318,185,77382,1,0,1:0:0:0:
377,109,77560,1,12,0:0:0:0:
389,312,77917,5,0,1:0:0:0:
335,190,78096,1,0,1:0:0:0:
283,338,78274,1,8,0:0:0:0:
170,360,78453,6,0,P|94:346|17:336,2,154,0|4|8,1:0|1:2|0:0,0:0:0:0:
244,246,79346,2,0,P|209:253|170:263,1,77,2|0,0:0|1:0,0:0:0:0:
269,344,79703,2,0,P|304:350|343:360,1,77,10|0,0:0|0:0,0:0:0:0:
474,276,80060,6,0,P|426:231|348:256,1,154,4|8,1:0|0:0,0:0:0:0:
256,103,80596,2,0,P|304:148|382:123,1,154,0|0,1:0|1:0,0:0:0:0:
249,227,81132,2,0,P|211:234|174:244,1,77,8|0,0:0|0:0,0:0:0:0:
41,165,81489,5,2,1:2:0:0:
150,307,81727,5,0,1:0:0:0:
178,103,81965,5,0,1:0:0:0:
240,325,82203,5,10,0:0:0:0:
333,85,82441,5,0,1:0:0:0:
317,366,82679,5,0,1:0:0:0:
485,131,82917,6,0,P|444:205|418:294,1,173.250006608963,4|8,1:0|0:0,0:0:0:0:
399,114,83453,6,0,P|369:64|353:9,1,115.500004405976,4|8,1:2|0:2,0:0:0:0:
152,90,83989,6,0,P|181:37|279:61,1,173.250006608963,0|8,1:2|0:0,0:0:0:0:
276,231,84524,6,0,P|249:185|229:120,1,115.500004405976,4|0,1:2|1:0,0:0:0:0:
230,127,84971,1,0,1:0:0:0:
230,127,85060,1,8,0:0:0:0:
330,159,85239,1,0,1:0:0:0:
164,193,85417,2,0,P|152:232|146:271,1,77,8|0,0:0|0:0,0:0:0:0:
44,384,85774,5,4,1:0:0:0:
61,289,85953,1,0,0:0:0:0:
1,147,86132,1,10,0:0:0:0:
52,272,86310,1,0,0:0:0:0:
90,183,86489,1,0,1:0:0:0:
227,288,86667,5,10,0:0:0:0:
325,227,86846,1,0,0:0:0:0:
254,91,87024,5,2,1:2:0:0:
240,186,87203,1,0,0:0:0:0:
343,134,87382,1,8,0:0:0:0:
327,58,87560,1,0,0:0:0:0:
196,25,87739,5,2,1:2:0:0:
161,114,87917,1,0,0:0:0:0:
177,228,88096,1,0,1:0:0:0:
291,297,88274,1,8,0:0:0:0:
331,149,88453,1,0,0:0:0:0:
257,188,88632,5,0,1:0:0:0:
358,241,88810,1,0,0:0:0:0:
403,178,88989,1,10,0:0:0:0:
357,260,89167,1,0,0:0:0:0:
369,356,89346,1,0,1:0:0:0:
481,383,89524,5,10,0:0:0:0:
505,310,89703,1,0,0:0:0:0:
480,177,89882,5,0,1:0:0:0:
384,172,90060,1,0,0:0:0:0:
262,76,90239,5,10,0:0:0:0:
209,132,90417,1,0,1:0:0:0:
215,228,90596,1,2,0:3:0:0:
316,282,90774,1,0,0:0:0:0:
446,246,90953,1,0,1:0:0:0:
489,97,91132,1,8,0:0:0:0:
345,0,91310,1,0,0:0:0:0:
154,32,91489,5,2,1:2:0:0:
269,133,91667,1,0,0:0:0:0:
199,248,91846,1,12,0:0:0:0:
301,300,92024,1,0,0:0:0:0:
253,384,92203,1,0,1:0:0:0:
398,289,92382,5,10,0:0:0:0:
307,319,92560,1,0,0:0:0:0:
348,150,92739,5,6,1:2:0:0:
240,230,92917,1,0,0:0:0:0:
190,334,93096,1,8,0:0:0:0:
155,184,93274,5,0,0:0:0:0:
247,211,93453,1,4,1:2:0:0:
320,121,93632,1,0,0:0:0:0:
245,9,93810,1,0,1:0:0:0:
72,26,93989,1,10,0:0:0:0:
29,213,94167,1,0,0:0:0:0:
196,308,94346,5,0,1:0:0:0:
170,64,94525,1,0,0:0:0:0:
114,261,94703,1,2,0:0:0:0:
309,192,94882,5,8,0:0:0:0:
145,161,95060,1,0,0:0:0:0:
145,161,95239,1,2,0:0:0:0:
300,298,95417,5,0,1:0:0:0:
245,104,95596,1,0,0:0:0:0:
245,104,95774,1,2,0:0:0:0:
187,286,95953,1,8,0:0:0:0:
277,197,96132,1,0,0:0:0:0:
106,218,96310,5,0,1:0:0:0:
106,218,96399,1,0,0:0:0:0:
105,217,96489,2,0,P|94:175|80:132,1,86.6250033044816,14|0,0:0|1:0,0:0:0:0:
245,104,96846,1,8,0:0:0:0:
275,204,97024,1,0,0:0:0:0:
249,347,97203,6,0,L|381:355,1,115.500004405976,4|0,1:0|0:0,0:0:0:0:
512,259,97739,2,0,L|393:268,1,115.500004405976,0|0,1:0|0:0,0:0:0:0:
296,184,98274,2,0,L|363:188,1,57.7500022029878,0|8,0:0|0:0,0:0:0:0:
409,119,98632,5,0,0:0:0:0:
409,119,98721,1,0,0:0:0:0:
409,119,98810,1,8,0:0:0:0:
330,71,98989,2,0,P|319:36|314:4,1,57.7500022029878,0|0,1:0|0:0,0:0:0:0:
315,15,99257,1,0,0:0:0:0:
315,15,99346,1,8,0:0:0:0:
252,113,99524,1,0,0:0:0:0:
237,112,99614,1,0,0:0:0:0:
222,111,99703,1,0,0:0:0:0:
207,110,99792,1,0,0:0:0:0:
192,109,99882,1,0,1:0:0:0:
177,108,99971,1,0,0:0:0:0:
162,107,100060,5,2,0:0:0:0:
162,107,100953,5,2,0:0:0:0:
124,169,101132,1,2,0:0:0:0:
42,139,101310,1,2,0:0:0:0:
42,139,102203,5,2,0:0:0:0:
104,175,102382,2,0,P|96:229|90:301,1,115.500004405976
90,289,104346,6,0,L|133:281,4,28.8750011014939
36,338,104882,2,0,L|-2:348,4,28.8750011014939
102,364,105417,2,0,L|139:356,2,28.8750011014939
25,322,105774,5,2,0:0:0:0:
25,322,106489,5,0,0:0:0:0:
54,256,106667,1,2,0:0:0:0:
16,177,106846,1,2,0:0:0:0:
59,86,107024,2,0,L|243:94,1,173.250006608963,2|0,0:0|0:0,0:0:0:0:
340,105,107917,6,0,L|429:94,1,77.000002937317,2|0,0:0|0:0,0:0:0:0:
429,110,108274,1,2,0:0:0:0:
440,126,108394,2,0,L|461:107,2,19.2500007343293
451,142,108632,2,0,P|453:171|449:213,1,57.7500022029878,2|0,0:0|0:0,0:0:0:0:
364,175,108989,5,0,0:0:0:0:
423,274,109167,1,0,0:0:0:0:
320,255,109524,5,0,0:0:0:0:
436,279,109703,1,0,0:0:0:0:
359,320,110060,5,2,0:0:0:0:
449,284,110239,2,0,L|456:318,2,28.8750011014939
500,228,110596,1,0,0:0:0:0:
500,228,110685,1,0,0:0:0:0:
500,228,110774,2,0,L|507:190,3,28.8750011014939
461,137,111132,5,0,0:0:0:0:
458,122,111221,1,0,0:0:0:0:
455,107,111310,1,0,0:0:0:0:
452,92,111399,1,0,0:0:0:0:
448,77,111489,6,0,P|373:60|297:51,1,154,4|0,1:0|0:0,0:0:0:0:
192,148,112024,2,0,P|287:168|370:174,1,154,0|0,1:0|0:0,0:0:0:0:
460,68,112560,2,0,P|375:46|280:38,1,173.250006608963,12|0,0:0|1:0,0:0:0:0:
290,38,113453,1,0,0:0:0:0:
197,64,113632,2,0,P|157:53|127:48,1,67.7600020678712,2|0,1:2|0:0,0:0:0:0:
213,182,113989,2,0,P|242:152|264:129,1,67.7600020678712,8|0,0:0|0:0,0:0:0:0:
102,136,114346,6,0,P|124:209|162:275,1,154,0|0,1:0|0:0,0:0:0:0:
64,384,114882,2,0,P|42:311|3:244,1,154,0|0,1:0|0:0,0:0:0:0:
115,122,115417,2,0,P|137:195|184:288,1,173.250006608963,12|0,0:0|1:0,0:0:0:0:
180,281,116132,1,0,1:0:0:0:
279,228,116310,1,0,0:0:0:0:
325,299,116489,2,0,P|366:305|405:317,1,67.7600020678712,2|0,1:2|0:0,0:0:0:0:
512,219,116846,2,0,P|474:225|443:235,1,67.7600020678712,8|0,0:0|0:0,0:0:0:0:
397,59,117203,6,0,P|374:130|360:203,1,135.520004135742,0|0,1:0|0:0,0:0:0:0:
362,190,117739,1,2,1:2:0:0:
256,29,118096,1,0,0:0:0:0:
150,189,118453,6,0,P|136:123|115:59,1,135.520004135742,2|0,1:2|1:0,0:0:0:0:
114,58,118989,1,0,1:0:0:0:
24,242,119167,2,0,P|60:190|44:110,1,135.520004135742,2|0,0:0|1:0,0:0:0:0:
114,268,119703,2,0,P|120:301|138:346,1,67.7600020678712,8|0,0:0|0:0,0:0:0:0:
224,228,120060,5,0,1:0:0:0:
257,54,120239,1,0,1:0:0:0:
246,65,120596,5,8,0:0:0:0:
287,282,120775,1,0,0:0:0:0:
302,287,121132,5,0,1:0:0:0:
353,16,121311,1,0,1:0:0:0:
353,16,122917,5,4,1:0:0:0:
391,104,123096,1,0,1:0:0:0:
498,145,123274,1,8,0:0:0:0:
335,25,123632,5,0,1:0:0:0:
402,119,123810,1,0,1:0:0:0:
318,212,123989,1,8,0:0:0:0:
199,148,124167,6,0,P|191:224|187:301,2,154,0|4|8,1:0|1:2|0:0,0:0:0:0:
94,275,125060,1,2,0:0:0:0:
23,183,125239,1,0,1:0:0:0:
105,132,125417,2,0,P|109:94|111:56,1,77,10|0,0:0|0:0,0:0:0:0:
256,9,125774,5,0,1:0:0:0:
215,137,125953,1,0,1:0:0:0:
96,43,126132,1,12,0:0:0:0:
240,20,126489,5,0,1:0:0:0:
127,124,126667,1,0,1:0:0:0:
248,220,126846,1,8,0:0:0:0:
215,136,127024,6,0,P|206:213|203:290,2,154,0|4|8,1:0|1:2|0:0,0:0:0:0:
133,244,127917,2,0,P|93:234|55:230,1,77,2|0,0:0|1:0,0:0:0:0:
193,307,128274,2,0,P|233:297|271:293,1,77,10|0,0:2|0:0,0:0:0:0:
417,317,128632,5,0,1:0:0:0:
360,239,128810,1,0,1:0:0:0:
431,124,128989,1,8,0:0:0:0:
488,202,129167,1,0,0:0:0:0:
361,258,129346,5,0,1:0:0:0:
282,148,129524,1,0,1:0:0:0:
173,188,129703,1,8,0:0:0:0:
118,108,129882,1,0,0:0:0:0:
150,280,130060,5,2,1:2:0:0:
217,86,130298,5,0,1:0:0:0:
351,241,130536,5,0,1:0:0:0:
97,147,130774,5,10,0:0:0:0:
347,90,131013,5,0,1:0:0:0:
268,336,131251,5,0,1:0:0:0:
236,159,131489,6,0,P|317:175|404:208,1,174.020000531067,4|0,1:0|0:0,0:0:0:0:
341,362,132024,6,0,P|304:327|297:265,1,115.500004405976,8|0,0:0|0:0,0:0:0:0:
477,146,132560,6,0,P|449:193|410:309,1,174.020000531067,4|0,1:2|0:0,0:0:0:0:
335,144,133096,6,0,P|320:106|303:25,1,115.500004405976,12|0,0:0|1:0,0:0:0:0:
303,33,133542,1,0,1:0:0:0:
303,33,133632,1,12,0:0:0:0:
410,111,133810,1,0,1:0:0:0:
268,203,133989,2,0,P|221:191|188:185,1,77,12|0,0:0|0:0,0:0:0:0:
50,293,134346,5,4,1:0:0:0:
148,269,134524,1,0,1:0:0:0:
116,138,134703,1,8,0:0:0:0:
43,311,135060,5,0,1:0:0:0:
164,279,135239,1,0,1:0:0:0:
249,356,135417,1,8,0:0:0:0:
334,251,135596,6,0,L|505:268,2,154,0|4|8,1:0|1:2|0:0,0:0:0:0:
249,174,136489,1,2,0:0:0:0:
347,237,136667,1,0,1:0:0:0:
433,133,136846,2,0,P|422:94|414:50,1,77,10|0,0:0|0:0,0:0:0:0:
263,25,137203,5,0,1:0:0:0:
325,99,137382,1,0,1:0:0:0:
434,62,137560,1,12,0:0:0:0:
250,39,137917,5,0,1:0:0:0:
330,118,138096,1,0,1:0:0:0:
228,172,138274,1,8,0:0:0:0:
347,237,138453,6,0,L|518:254,2,154,0|4|8,1:0|1:2|0:0,0:0:0:0:
207,266,139346,2,0,P|242:280|275:302,1,77,2|0,0:0|1:0,0:0:0:0:
406,329,139703,2,0,P|370:343|338:364,1,77,10|0,0:0|0:0,0:0:0:0:
268,193,140060,6,0,P|292:116|250:56,1,154,4|8,1:2|0:0,0:0:0:0:
138,203,140596,2,0,P|114:280|156:340,1,154,0|0,1:0|1:0,0:0:0:0:
204,134,141132,2,0,P|170:117|128:111,1,77,8|0,0:0|0:0,0:0:0:0:
31,228,141489,5,2,1:2:0:0:
228,283,141727,5,0,1:0:0:0:
51,134,141965,5,0,1:0:0:0:
252,292,142203,5,10,0:2:0:0:
102,52,142441,5,0,1:0:0:0:
234,301,142679,5,0,1:0:0:0:
188,20,142917,6,0,L|373:32,1,173.250006608963,4|8,1:0|0:0,0:0:0:0:
512,128,143453,6,0,L|397:121,1,115.500004405976,4|8,1:2|0:0,0:0:0:0:
278,269,143989,6,0,P|303:227|416:227,1,173.250006608963,0|8,1:0|0:0,0:0:0:0:
323,368,144524,6,0,P|275:357|192:353,1,115.500004405976,4|0,1:2|1:0,0:0:0:0:
209,352,144971,1,0,1:0:0:0:
209,352,145060,1,8,0:0:0:0:
175,242,145239,1,0,1:0:0:0:
112,382,145417,2,0,P|72:372|20:369,1,77,8|0,0:0|0:0,0:0:0:0:
105,209,145774,5,4,1:0:0:0:
175,242,145953,1,0,0:0:0:0:
259,246,146132,1,10,0:0:0:0:
345,213,146310,1,0,0:0:0:0:
388,122,146489,5,0,1:0:0:0:
339,26,146667,1,2,1:2:0:0:
223,34,146846,1,8,0:0:0:0:
186,151,147024,1,4,1:2:0:0:
259,259,147203,5,0,0:0:0:0:
396,279,147382,1,0,1:0:0:0:
498,174,147560,1,8,0:0:0:0:
465,23,147739,1,0,0:0:0:0:
293,3,147917,2,0,P|298:82|310:138,1,115.5,2|0,0:0|0:0,0:0:0:0:
317,132,148274,2,0,P|376:124|406:112,1,77,8|0,0:0|0:0,0:0:0:0:
374,253,148632,5,0,1:0:0:0:
282,223,148810,1,0,1:0:0:0:
194,299,148989,2,0,L|75:295,1,115.5,10|0,0:0|0:0,0:0:0:0:
62,306,149346,2,0,P|63:255|57:217,1,77,0|2,1:0|1:2,0:0:0:0:
59,229,149703,1,8,0:0:0:0:
122,18,149882,6,0,P|122:94|135:170,1,154,2|0,1:2|1:0,0:0:0:0:
41,70,150417,1,10,0:0:0:0:
150,158,150596,1,0,0:0:0:0:
236,115,150774,2,0,L|353:124,1,115.5,2|0,0:0|0:0,0:0:0:0:
365,137,151132,2,0,P|366:102|373:57,1,77,8|0,0:0|0:0,0:0:0:0:
468,210,151489,6,0,P|459:175|455:130,2,77,0|0|10,1:0|1:0|0:0,0:0:0:0:
404,281,152024,1,0,0:0:0:0:
324,227,152203,2,0,L|243:220,1,77,0|0,1:0|1:0,0:0:0:0:
80,349,152560,2,0,P|84:294|95:234,1,115.5,10|0,0:0|0:0,0:0:0:0:
107,205,152917,5,4,1:2:0:0:
259,67,153155,5,0,1:0:0:0:
302,267,153394,5,0,1:0:0:0:
121,74,153632,5,12,0:0:0:0:
367,151,153870,5,0,1:0:0:0:
178,325,154108,5,0,1:0:0:0:
259,67,154346,6,0,L|445:58,1,173.250006608963,4|0,1:0|0:0,0:0:0:0:
353,165,154882,6,0,P|409:174|465:205,1,115.500004405976,8|0,0:0|0:0,0:0:0:0:
305,313,155417,6,0,P|347:283|391:265,1,86.6250033044816,0|0,1:0|0:0,0:0:0:0:
378,268,155685,1,0,0:0:0:0:
378,268,155774,1,2,0:0:0:0:
273,384,155953,5,8,0:0:0:0:
214,328,156132,2,0,P|205:290|205:252,1,77,0|0,0:0|1:0,0:0:0:0:
206,253,156399,1,0,1:0:0:0:
206,253,156489,1,12,0:0:0:0:
68,297,156667,1,0,1:0:0:0:
121,215,156846,2,0,P|120:179|112:141,1,67.3750006425381,12|0,0:0|0:0,0:0:0:0:
62,67,157203,1,4,1:0:0:0:
201,1,157382,5,0,1:0:0:0:
222,114,157560,1,10,0:0:0:0:
275,194,157739,1,0,0:0:0:0:
342,230,157917,1,0,1:0:0:0:
348,76,158096,5,2,1:2:0:0:
235,100,158274,1,8,0:0:0:0:
168,169,158453,1,2,1:2:0:0:
160,245,158632,5,0,0:0:0:0:
187,166,158810,1,0,1:0:0:0:
124,68,158989,1,10,0:0:0:0:
95,139,159167,1,0,0:0:0:0:
14,89,159346,2,0,L|19:127,1,38.5
19,209,159524,2,0,L|3:285,1,77,0|8,1:0|0:0,0:0:0:0:
65,359,159882,1,0,0:0:0:0:
136,268,160060,5,0,1:0:0:0:
228,295,160239,1,0,1:0:0:0:
326,234,160417,2,0,P|327:155|321:77,1,154,12|0,0:0|1:0,0:0:0:0:
321,80,160953,1,2,1:2:0:0:
419,200,161132,1,8,0:0:0:0:
233,143,161310,6,0,P|170:102|100:161,1,173.250006608963,4|0,1:2|0:0,0:0:0:0:
118,174,161786,2,0,P|110:201|104:233,1,51.3333333333333
165,364,162024,2,0,P|179:297|192:212,1,154,0|0,1:0|1:0,0:0:0:0:
92,303,162560,1,8,0:0:0:0:
273,251,162739,1,0,0:0:0:0:
259,365,162917,6,0,P|299:368|339:377,1,77,4|0,1:0|0:0,0:0:0:0:
454,250,163274,5,10,0:0:0:0:
365,288,163453,1,0,1:0:0:0:
409,181,163632,5,0,0:0:0:0:
348,279,163810,1,2,1:2:0:0:
330,145,163989,5,8,0:0:0:0:
329,279,164167,1,2,1:2:0:0:
245,148,164346,5,0,0:0:0:0:
311,286,164524,1,0,1:0:0:0:
169,185,164703,5,10,0:0:0:0:
298,301,164882,1,0,0:0:0:0:
111,254,165060,5,0,0:0:0:0:
292,319,165239,1,0,1:0:0:0:
260,110,165417,5,8,0:0:0:0:
75,54,165596,1,0,0:0:0:0:
75,54,165685,1,0,0:0:0:0:
75,54,165774,2,0,L|85:131,1,77,4|0,1:2|0:0,0:0:0:0:
2,262,166132,2,0,L|12:185,1,77,10|0,0:0|1:0,0:0:0:0:
166,181,166489,5,0,0:0:0:0:
183,189,166578,1,0,0:0:0:0:
202,193,166667,1,8,0:0:0:0:
221,195,166756,1,0,0:0:0:0:
240,195,166846,1,0,1:0:0:0:
259,191,166935,1,0,0:0:0:0:
277,185,167024,2,0,L|282:147,1,38.5,4|0,1:2|0:0,0:0:0:0:
314,76,167203,6,0,L|309:38,3,38.5,0|0|0|0,0:0|0:0|1:0|0:0,0:0:0:0:
375,155,167560,6,0,L|380:117,3,38.5,2|0|0|0,0:0|0:0|1:0|1:0,0:0:0:0:
413,247,167917,5,8,0:0:0:0:
406,275,168007,1,0,0:0:0:0:
393,300,168096,1,2,0:0:0:0:
374,321,168185,1,0,0:0:0:0:
347,331,168274,1,8,0:0:0:0:
317,330,168364,1,0,0:0:0:0:
289,320,168453,1,2,0:0:0:0:
266,302,168542,1,0,0:0:0:0:
250,277,168632,5,4,1:2:0:0:
264,147,168810,1,0,0:0:0:0:
326,217,168989,1,0,0:0:0:0:
176,183,169167,1,4,1:2:0:0:
287,54,169346,5,0,0:0:0:0:
244,247,169524,1,0,0:0:0:0:
244,247,169703,1,4,1:2:0:0:
108,121,169882,1,0,0:0:0:0:
345,165,170060,5,0,0:0:0:0:
183,33,170239,1,4,1:2:0:0:
183,33,170417,1,0,0:0:0:0:
181,294,170596,1,0,1:0:0:0:
181,294,170685,1,0,1:0:0:0:
181,294,170774,6,0,P|143:286|107:281,1,57.7500022029878,8|0,0:0|1:0,0:0:0:0:
239,214,171132,2,0,P|220:186|199:159,1,67.3750006425381,8|0,0:0|0:0,0:0:0:0:
360,192,171489,6,0,P|367:154|371:115,1,77,4|0,1:0|1:0,0:0:0:0:
233,0,171846,2,0,P|219:76|213:153,1,154,8|0,0:0|1:0,0:0:0:0:
213,153,172382,1,2,1:2:0:0:
310,60,172560,1,8,0:0:0:0:
138,90,172739,6,0,P|77:50|-1:72,2,154,2|0|8,1:2|1:0|0:0,0:0:0:0:
80,224,173632,2,0,P|68:187|62:150,1,77,2|0,0:0|1:0,0:0:0:0:
161,277,173989,2,0,P|149:313|142:351,1,77,10|0,0:0|0:0,0:0:0:0:
166,180,174346,6,0,L|246:175,1,77,0|0,1:0|1:0,0:0:0:0:
401,271,174703,2,0,L|246:260,1,154,8|0,0:0|1:0,0:0:0:0:
247,260,175239,1,2,1:2:0:0:
340,169,175417,1,8,0:0:0:0:
193,94,175596,6,0,L|354:85,1,154,2|0,1:2|1:0,0:0:0:0:
466,29,176132,1,8,0:0:0:0:
419,134,176310,1,8,0:0:0:0:
500,186,176489,2,0,P|492:225|488:272,1,77,2|0,0:0|1:0,0:0:0:0:
381,353,176846,2,0,P|389:316|393:278,1,77,10|0,0:0|0:0,0:0:0:0:
322,152,177203,6,0,P|314:189|311:228,1,77,0|0,1:0|1:0,0:0:0:0:
177,332,177560,2,0,P|213:305|297:358,1,154,8|0,0:0|1:0,0:0:0:0:
296,353,178096,1,2,1:2:0:0:
221,219,178274,1,8,0:0:0:0:
336,166,178453,6,0,P|346:88|364:15,1,154,2|0,1:2|1:0,0:0:0:0:
364,14,178989,1,0,1:0:0:0:
429,149,179167,1,8,0:0:0:0:
245,122,179346,2,0,P|204:109|167:102,1,77,0|0,0:0|1:0,0:0:0:0:
109,219,179703,2,0,P|150:206|187:199,1,77,8|0,0:0|0:0,0:0:0:0:
107,13,180060,6,0,P|73:61|86:134,1,134.750001285076,4|0,1:2|0:0,0:0:0:0:
172,291,180596,6,0,P|248:266|333:253,1,154,8|0,0:0|0:0,0:0:0:0:
338,127,181132,6,0,P|262:102|170:87,1,173.250006608963,4|0,1:2|0:0,0:0:0:0:
324,235,181667,6,0,P|376:217|453:206,1,115.500004405976,8|0,0:0|1:0,0:0:0:0:
435,206,182114,1,0,1:0:0:0:
435,206,182203,5,12,0:0:0:0:
359,119,182382,1,0,1:0:0:0:
484,49,182560,2,0,P|473:85|454:119,1,77,12|0,0:0|0:0,0:0:0:0:
277,159,182917,6,0,P|235:135|203:102,1,77,4|0,1:0|1:0,0:0:0:0:
25,45,183274,2,0,P|101:31|183:29,1,154,8|0,0:0|1:0,0:0:0:0:
273,42,183810,1,10,0:0:0:0:
116,123,183989,2,0,P|110:160|106:211,1,77
106,199,184257,1,0,0:0:0:0:
113,207,184346,6,0,P|190:208|270:222,1,154,4|0,1:0|0:0,0:0:0:0:
358,195,184882,1,10,0:0:0:0:
352,362,185060,2,0,P|345:324|335:288,1,77,0|2,0:0|1:2,0:0:0:0:
326,136,185417,2,0,P|332:173|343:210,1,77,8|0,0:0|0:0,0:0:0:0:
479,40,185774,6,0,P|432:94|366:66,1,154,4|8,1:0|0:0,0:0:0:0:
274,34,186310,1,0,0:0:0:0:
442,125,186489,2,0,P|433:164|428:205,1,77,0|10,1:0|0:0,0:0:0:0:
347,352,186846,2,0,P|342:313|333:276,1,77
185,134,187203,6,0,P|251:116|318:161,1,154,4|0,1:0|0:0,0:0:0:0:
258,331,187739,2,0,P|192:349|125:304,1,154,8|2,0:0|1:2,0:0:0:0:
87,148,188274,2,0,P|77:185|63:223,1,77,12|0,0:0|0:0,0:0:0:0:
28,58,188632,6,0,P|77:44|193:32,1,154,0|8,1:0|0:0,0:0:0:0:
186,127,189167,1,2,1:2:0:0:
342,94,189346,2,0,P|305:83|268:77,1,77,0|0,0:0|1:0,0:0:0:0:
268,77,189614,1,0,0:0:0:0:
268,77,189703,1,8,0:0:0:0:
372,183,189882,6,0,P|437:166|497:228,1,154,2|0,1:2|1:0,0:0:0:0:
402,350,190417,2,0,L|416:275,1,77,8|0,0:0|0:0,0:0:0:0:
497,328,190774,1,0,0:0:0:0:
385,357,190953,1,0,1:0:0:0:
296,255,191132,1,12,0:0:0:0:
146,289,191310,1,0,0:0:0:0:
51,166,191489,6,0,P|61:78|78:11,1,154,4|8,1:2|0:0,0:0:0:0:
240,71,192024,2,0,P|230:159|213:226,1,154,2|0,1:2|1:0,0:0:0:0:
214,222,192560,1,8,0:0:0:0:
44,274,192739,6,0,P|121:265|169:322,1,154,4|0,1:2|1:0,0:0:0:0:
167,317,193274,1,8,0:0:0:0:
347,282,193453,2,0,P|274:293|224:239,1,154,0|0,1:0|1:0,0:0:0:0:
398,215,193989,2,0,L|480:226,1,77,8|0,0:0|0:0,0:0:0:0:
447,132,194346,5,4,1:0:0:0:
425,308,194524,1,2,0:0:0:0:
425,308,194703,1,8,0:0:0:0:
307,208,194882,5,0,1:0:0:0:
329,32,195060,1,2,0:0:0:0:
329,32,195239,1,8,0:0:0:0:
188,93,195417,5,0,1:0:0:0:
166,269,195595,1,2,0:0:0:0:
166,269,195774,1,8,0:0:0:0:
36,185,195953,5,0,1:0:0:0:
60,9,196131,1,2,0:0:0:0:
195,100,196310,1,0,1:0:0:0:
195,100,196399,1,0,1:0:0:0:
195,100,196489,1,8,0:0:0:0:
181,195,196667,1,0,1:0:0:0:
62,106,196846,2,0,P|70:64|74:21,1,86.6250033044816,12|0,0:0|0:0,0:0:0:0:
165,184,197203,6,0,P|151:259|145:353,1,154,4|8,1:0|0:0,0:0:0:0:
300,257,197739,2,0,P|314:182|320:88,1,154,0|8,1:0|0:0,0:0:0:0:
146,168,198274,2,0,P|130:253|126:340,1,173.250006608963,4|0,1:2|1:0,0:0:0:0:
126,340,199167,1,8,0:0:0:0:
210,335,199346,2,0,P|255:345|287:358,1,67.3750006425381,2|0,1:2|1:0,0:0:0:0:
293,197,199703,2,0,P|248:207|216:220,1,67.3750006425381,8|0,0:0|0:0,0:0:0:0:
365,356,200060,6,0,L|380:194,1,154,0|8,1:0|0:0,0:0:0:0:
511,108,200596,2,0,L|496:261,1,154,0|8,1:0|0:0,0:0:0:0:
380,366,201132,2,0,L|396:193,1,173.250006608963,4|0,1:2|1:0,0:0:0:0:
396,193,201846,1,0,1:0:0:0:
316,115,202024,1,8,0:0:0:0:
251,169,202203,2,0,P|217:161|172:160,1,67.3750006425381,2|0,0:0|1:0,0:0:0:0:
52,234,202560,2,0,P|86:232|130:222,1,67.3750006425381,8|0,0:0|0:0,0:0:0:0:
133,26,202917,6,0,P|100:52|99:142,1,134.750001285076,4|8,1:2|0:0,0:0:0:0:
97,139,203453,1,2,1:2:0:0:
256,196,203810,1,12,0:0:0:0:
414,139,204167,6,0,P|422:74|379:26,1,134.750001285076,4|0,1:2|1:0,0:0:0:0:
378,25,204703,1,0,1:0:0:0:
209,111,204882,2,0,P|257:115|350:99,1,134.750001285076,10|0,0:0|1:0,0:0:0:0:
358,212,205417,2,0,P|391:217|423:231,1,67.3750006425381,8|0,0:0|0:0,0:0:0:0:
256,307,205774,5,4,1:2:0:0:
425,255,205953,1,0,1:0:0:0:
426,279,206310,5,8,0:0:0:0:
214,214,206489,1,0,0:0:0:0:
224,235,206846,5,0,1:0:0:0:
489,153,207025,1,0,1:0:0:0:
256,192,207560,12,0,208632,0:0:0:0:
489,153,217203,6,0,P|415:138|303:131,1,173.250006608963,4|0,1:0|0:0,0:0:0:0:
285,270,217739,6,0,P|333:255|402:244,1,115.500004405976,8|0,0:0|0:0,0:0:0:0:
217,179,218274,6,0,P|143:164|36:158,1,174.020000531067,4|0,1:2|0:0,0:0:0:0:
13,296,218810,6,0,P|61:281|130:270,1,115.500004405976,12|0,0:0|1:0,0:0:0:0:
125,270,219257,1,0,1:0:0:0:
125,270,219346,1,12,0:0:0:0:
217,179,219524,1,0,1:0:0:0:
191,340,219703,2,0,P|232:341|278:348,1,77,12|0,0:0|0:0,0:0:0:0:
390,289,220060,5,0,1:0:0:0:
283,334,220239,1,0,1:0:0:0:
321,205,220417,1,12,0:0:0:0:
402,304,220774,5,0,1:0:0:0:
298,322,220953,1,0,1:0:0:0:
214,241,221132,1,8,0:0:0:0:
80,255,221310,6,0,L|66:102,2,154,0|4|8,1:0|1:2|0:0,0:0:0:0:
166,151,222203,1,2,0:0:0:0:
97,244,222382,1,0,1:0:0:0:
182,305,222560,2,0,L|175:382,1,77,12|0,0:0|0:0,0:0:0:0:
307,354,222917,5,0,1:0:0:0:
200,308,223096,1,0,1:0:0:0:
286,205,223274,1,12,0:0:0:0:
310,373,223632,5,0,1:0:0:0:
218,310,223810,1,0,1:0:0:0:
99,382,223989,1,8,0:0:0:0:
97,244,224167,6,0,L|83:91,2,154,0|4|8,1:0|1:2|0:0,0:0:0:0:
262,224,225060,2,0,P|223:222|177:213,1,77,2|0,0:0|1:0,0:0:0:0:
332,167,225417,2,0,P|370:158|416:155,1,77,10|0,0:0|0:0,0:0:0:0:
252,131,225774,6,0,P|237:59|295:13,1,154,4|8,1:2|0:0,0:0:0:0:
295,13,226310,1,0,0:0:0:0:
457,67,226489,2,0,P|419:60|381:59,1,77,0|0,1:2|0:0,0:0:0:0:
237,143,226846,2,0,P|199:136|160:134,1,77,10|0,0:0|0:0,0:0:0:0:
337,135,227203,5,4,1:2:0:0:
421,322,227441,5,0,1:0:0:0:
226,324,227679,5,0,1:0:0:0:
330,117,227917,5,8,0:0:0:0:
155,259,228155,5,0,1:0:0:0:
381,240,228394,5,0,1:0:0:0:
240,341,228632,6,0,P|150:339|65:346,1,173.250006608963,4|8,1:0|0:0,0:0:0:0:
146,145,229167,6,0,P|157:205|155:261,1,115.500004405976,4|8,1:2|0:0,0:0:0:0:
65,107,229703,6,0,P|115:59|217:98,1,173.250006608963,0|8,1:0|0:0,0:0:0:0:
350,170,230239,6,0,L|223:164,1,115.500004405976,4|0,1:2|1:0,0:0:0:0:
234,164,230685,1,0,1:0:0:0:
234,164,230774,1,12,0:0:0:0:
302,73,230953,1,0,1:0:0:0:
435,145,231132,2,0,P|430:181|431:229,1,67.3750006425381,12|0,0:0|0:0,0:0:0:0:
348,384,231489,6,0,P|368:338|352:255,1,134.750001285076,0|2,1:0|0:0,0:0:0:0:
254,366,232024,2,0,P|194:348|108:335,1,134.750001285076,0|2,1:0|0:0,0:0:0:0:
4,250,232560,2,0,P|37:259|70:264,1,67.3750006425381,0|8,0:0|0:0,0:0:0:0:
208,223,232917,2,0,P|175:214|142:209,1,67.3750006425381,2|8,0:0|0:0,0:0:0:0:
137,24,233274,2,0,P|95:62|102:141,1,134.750001285076,0|8,1:0|0:0,0:0:0:0:
221,236,233810,5,0,0:0:0:0:
238,226,233899,1,0,0:0:0:0:
253,212,233988,1,0,0:0:0:0:
264,195,234077,1,0,0:0:0:0:
269,176,234167,1,0,0:0:0:0:
270,156,234256,1,0,0:0:0:0:
265,136,234345,5,2,0:0:0:0:
256,192,234435,12,0,238632,0:0:0:0:
