osu file format v14

[General]
AudioFilename: audio.mp3
AudioLeadIn: 0
PreviewTime: 39196
Countdown: 0
SampleSet: Soft
StackLeniency: 0.7
Mode: 0
LetterboxInBreaks: 0
WidescreenStoryboard: 1

[Editor]
Bookmarks: 3214
DistanceSpacing: 0.9
BeatDivisor: 4
GridSize: 32
TimelineZoom: 1.9

[Metadata]
Title:anqad
TitleUnicode:anqad
Artist:onoken feat. b
ArtistUnicode:onoken feat. b
Creator:Ermi
Version:Normal
Source:REFLEC BEAT groovin'!! Upper
Tags:japanese video game axsword q and a q&a reflec beat plus modding queue kujinn reform
BeatmapID:3497227
BeatmapSetID:1555389

[Difficulty]
HPDrainRate:3.5
CircleSize:3.4
OverallDifficulty:4
ApproachRate:5.5
SliderMultiplier:1
SliderTickRate:1

[Events]
//Background and Video events
0,0,"nge.jpg",0,0
//Break Periods
2,14842,16374
2,74842,76017
2,89128,96374
//Storyboard Layer 0 (Background)
//Storyboard Layer 1 (Fail)
//Storyboard Layer 2 (Pass)
//Storyboard Layer 3 (Foreground)
//Storyboard Layer 4 (Overlay)
//Storyboard Sound Samples

[TimingPoints]
357,357.142857142857,4,2,1,5,1,0
2142,-100,4,2,1,15,0,0
2321,-100,4,2,1,25,0,0
2499,-100,4,2,1,35,0,0
2678,-100,4,2,1,45,0,0
2856,-100,4,2,1,55,0,0
3035,-100,4,2,1,65,0,0
3124,-100,4,2,1,5,0,0
3214,-100,4,2,1,80,0,0
3481,-100,4,2,1,5,0,0
3571,-100,4,2,1,80,0,0
3839,-100,4,2,1,5,0,0
3928,-100,4,2,1,80,0,0
4374,-100,4,2,1,5,0,0
4464,-100,4,2,1,80,0,0
5446,-100,4,2,1,5,0,0
5535,-100,4,2,1,80,0,0
8124,-100,4,2,1,5,0,0
8214,-100,4,2,1,80,0,0
8839,-100,4,2,1,5,0,0
8928,-100,4,2,1,80,0,0
9553,-100,4,2,1,5,0,0
9642,-100,4,2,1,80,0,0
10089,-100,4,2,1,5,0,0
10178,-100,4,2,1,80,0,0
11160,-100,4,2,1,5,0,0
11249,-100,4,2,1,80,0,0
14642,-100,4,2,1,75,0,0
15356,-100,4,2,1,65,0,0
16071,-100,4,2,1,55,0,0
17499,-111.111111111111,4,2,1,50,0,0
18124,-111.111111111111,4,2,1,5,0,0
18214,-111.111111111111,4,2,1,50,0,0
20624,-111.111111111111,4,2,1,5,0,0
20714,-111.111111111111,4,2,1,50,0,0
21160,-111.111111111111,4,2,1,5,0,0
21249,-111.111111111111,4,2,1,50,0,0
21428,-111.111111111111,4,2,1,30,0,0
21785,-111.111111111111,4,2,1,65,0,0
23035,-111.111111111111,4,2,1,50,0,0
23839,-111.111111111111,4,2,1,5,0,0
23928,-111.111111111111,4,2,1,50,0,0
26339,-111.111111111111,4,2,1,5,0,0
26428,-111.111111111111,4,2,1,50,0,0
26874,-111.111111111111,4,2,1,5,0,0
26964,-111.111111111111,4,2,1,50,0,0
27142,-111.111111111111,4,2,1,30,0,0
27499,-111.111111111111,4,2,1,65,0,0
28928,-99.9999999999999,4,2,1,60,0,0
35089,-99.9999999999999,4,2,1,5,0,0
35178,-99.9999999999999,4,2,1,60,0,0
36160,-99.9999999999999,4,2,1,5,0,0
36249,-99.9999999999999,4,2,1,60,0,0
37410,-99.9999999999999,4,2,1,5,0,0
37499,-99.9999999999999,4,2,1,70,0,0
37946,-99.9999999999999,4,2,1,5,0,0
38035,-99.9999999999999,4,2,1,70,0,0
38571,-99.9999999999999,4,2,1,80,0,0
39285,-99.9999999999999,4,2,1,35,0,0
39642,-99.9999999999999,4,2,1,45,0,0
39999,-99.9999999999999,4,2,1,55,0,0
40356,-90.9090909090909,4,2,1,90,0,1
40981,-90.9090909090909,4,2,1,5,0,1
41071,-90.9090909090909,4,2,1,90,0,1
41606,-90.9090909090909,4,2,1,90,0,0
41874,-90.9090909090909,4,2,1,5,0,0
41964,-90.9090909090909,4,2,1,90,0,1
42231,-90.9090909090909,4,2,1,5,0,1
42321,-90.9090909090909,4,2,1,90,0,1
43839,-90.9090909090909,4,2,1,5,0,1
43928,-90.9090909090909,4,2,1,90,0,1
44464,-90.9090909090909,4,2,1,90,0,0
44731,-90.9090909090909,4,2,1,5,0,0
44821,-90.9090909090909,4,2,1,90,0,1
45089,-90.9090909090909,4,2,1,5,0,1
45178,-90.9090909090909,4,2,1,90,0,1
46071,-90.9090909090909,4,2,1,90,0,0
47410,-90.9090909090909,4,2,1,5,0,0
47499,-90.9090909090909,4,2,1,90,0,0
48928,-90.9090909090909,4,2,1,90,0,1
49464,-90.9090909090909,4,2,1,90,0,0
49999,-90.9090909090909,4,2,1,90,0,1
50535,-90.9090909090909,4,2,1,90,0,0
51071,-90.9090909090909,4,2,3,90,0,1
51249,-90.9090909090909,4,2,1,90,0,1
51696,-90.9090909090909,4,2,1,5,0,0
51785,-90.9090909090909,4,2,1,90,0,1
52410,-90.9090909090909,4,2,1,5,0,1
52499,-90.9090909090909,4,2,1,90,0,1
53035,-90.9090909090909,4,2,1,90,0,0
53303,-90.9090909090909,4,2,1,5,0,0
53392,-90.9090909090909,4,2,1,90,0,1
53660,-90.9090909090909,4,2,1,5,0,1
53749,-90.9090909090909,4,2,1,90,0,1
55267,-90.9090909090909,4,2,1,5,0,1
55356,-90.9090909090909,4,2,1,90,0,1
55892,-90.9090909090909,4,2,1,90,0,0
56160,-90.9090909090909,4,2,1,5,0,0
56249,-90.9090909090909,4,2,1,90,0,1
56517,-90.9090909090909,4,2,1,5,0,1
56606,-90.9090909090909,4,2,1,90,0,1
57499,-90.9090909090909,4,2,1,90,0,0
57767,-90.9090909090909,4,2,1,5,0,0
57856,-90.9090909090909,4,2,1,90,0,0
57946,-90.9090909090909,4,2,1,5,0,0
58035,-90.9090909090909,4,2,1,90,0,0
60356,-90.9090909090909,4,2,1,90,0,1
60892,-90.9090909090909,4,2,1,90,0,0
61428,-90.9090909090909,4,2,1,90,0,1
61964,-90.9090909090909,4,2,1,90,0,0
62499,-90.9090909090909,4,2,3,90,0,1
62589,-90.9090909090909,4,2,1,90,0,1
63214,-100,4,2,1,90,0,0
63481,-100,4,2,1,5,0,0
63571,-100,4,2,1,90,0,0
63839,-100,4,2,1,5,0,0
63928,-100,4,2,1,90,0,0
64374,-100,4,2,1,5,0,0
64464,-100,4,2,1,90,0,0
68124,-100,4,2,1,5,0,0
68214,-100,4,2,1,90,0,0
70446,-100,4,2,1,5,0,0
70535,-100,4,2,1,90,0,0
71785,-100,4,2,1,90,0,1
72053,-100,4,2,1,5,0,1
72142,-100,4,2,1,90,0,1
74642,-100,4,2,1,90,0,0
74731,-100,4,2,1,5,0,0
76785,-100,4,2,1,70,0,0
77142,-100,4,2,1,40,0,0
77499,-100,4,2,1,60,0,0
83481,-100,4,2,1,5,0,0
83571,-100,4,2,1,60,0,0
84106,-100,4,2,3,60,0,0
84285,-100,4,2,1,60,0,0
84731,-100,4,2,1,5,0,0
84821,-100,4,2,1,60,0,0
86071,-100,4,2,1,70,0,0
86517,-100,4,2,1,5,0,0
86606,-100,4,2,1,70,0,0
87142,-100,4,2,1,80,0,0
87856,-100,4,2,1,25,0,0
88571,-100,4,2,1,35,0,0
88749,-100,4,2,1,25,0,0
88928,-100,4,2,1,45,0,0
96071,-100,4,2,1,40,0,0
96785,-100,4,2,1,55,0,0
97499,-90.9090909090909,4,2,1,90,0,1
98035,-90.9090909090909,4,2,1,90,0,0
98571,-90.9090909090909,4,2,1,90,0,1
99106,-90.9090909090909,4,2,1,90,0,0
99642,-90.9090909090909,4,2,3,90,0,1
99821,-90.9090909090909,4,2,1,90,0,1
100267,-90.9090909090909,4,2,1,5,0,0
100356,-90.9090909090909,4,2,1,90,0,1
100981,-90.9090909090909,4,2,1,5,0,1
101071,-90.9090909090909,4,2,1,90,0,1
101606,-90.9090909090909,4,2,1,90,0,0
101874,-90.9090909090909,4,2,1,5,0,0
101964,-90.9090909090909,4,2,1,90,0,1
102231,-90.9090909090909,4,2,1,5,0,1
102321,-90.9090909090909,4,2,1,90,0,1
103839,-90.9090909090909,4,2,1,5,0,1
103928,-90.9090909090909,4,2,1,90,0,1
104464,-90.9090909090909,4,2,1,90,0,0
104731,-90.9090909090909,4,2,1,5,0,0
104821,-90.9090909090909,4,2,1,90,0,1
105089,-90.9090909090909,4,2,1,5,0,1
105178,-90.9090909090909,4,2,1,90,0,1
106071,-90.9090909090909,4,2,1,90,0,0
108928,-90.9090909090909,4,2,1,90,0,1
109464,-90.9090909090909,4,2,1,90,0,0
109999,-90.9090909090909,4,2,1,90,0,1
110535,-90.9090909090909,4,2,1,90,0,0
111071,-90.9090909090909,4,2,3,90,0,1
111160,-90.9090909090909,4,2,1,90,0,1
111785,-111.111111111111,4,2,1,75,0,0
111963,-111.111111111111,4,2,1,40,0,0
114285,-111.111111111111,4,2,1,30,0,0
114642,-111.111111111111,4,2,1,25,0,0
114731,-111.111111111111,4,2,1,5,0,0

[Colours]
Combo1 : 102,159,255
Combo2 : 24,70,226
Combo3 : 83,100,255

[HitObjects]
309,95,3214,5,0,1:2:0:0:
377,22,3571,2,0,P|422:2|470:11,1,100,6|0,1:2|1:2,0:2:0:0:
511,39,4106,1,10,0:2:0:0:
487,136,4464,2,0,P|441:155|393:146,1,100,2|10,1:2|0:2,0:2:0:0:
309,95,5178,2,0,L|209:82,1,100,2|0,1:2|1:2,0:2:0:0:
173,117,5714,1,8,0:2:0:0:
121,202,6071,6,0,L|71:208,1,50,2|2,1:2|3:2,0:0:0:0:
24,190,6428,2,0,P|1:146|15:100,1,100,10|2,0:2|1:2,0:2:0:0:
53,67,6964,1,10,0:2:0:0:
128,0,7321,2,0,L|227:12,1,100,2|10,1:2|0:2,0:0:0:0:
301,86,8035,1,0,3:2:0:0:
301,86,8214,2,0,L|400:74,1,100,10|6,0:2|1:2,0:2:0:0:
476,139,8928,5,2,1:2:0:0:
400,203,9285,2,0,P|398:251|430:288,1,100,6|0,1:2|1:2,0:2:0:0:
474,312,9821,1,10,0:2:0:0:
391,370,10178,2,0,P|343:358|293:353,1,100,6|10,1:2|0:2,0:2:0:0:
195,371,10892,2,0,P|257:337|251:266,1,150,6|10,1:2|0:2,0:2:0:0:
190,187,11785,6,0,P|140:191|91:203,1,100,2|0,1:2|3:2,0:0:0:0:
48,228,12321,1,10,0:2:0:0:
4,143,12678,1,0,3:2:0:0:
4,143,12856,2,0,P|2:105|46:63,1,100,2|2,1:2|1:2,0:0:0:0:
93,56,13392,1,6,1:2:0:0:
182,7,13749,5,2,1:2:0:0:
182,7,13928,2,0,L|231:13,1,50,12|2,0:2|1:2,0:0:0:0:
269,45,14285,2,0,L|368:32,1,100,12|6,0:2|1:2,0:0:0:0:
8,377,17499,6,0,P|-2:334|17:295,1,89.9999972534181,2|10,1:2|0:2,0:0:0:0:
57,273,18035,1,2,1:2:0:0:
122,335,18392,1,8,0:2:0:0:
188,274,18749,2,0,P|214:214|182:157,1,134.999995880127,2|8,1:2|0:2,0:0:0:0:
101,116,19642,2,0,L|56:121,1,44.999998626709,0|2,3:2|1:2,0:0:0:0:
27,155,19999,5,10,0:2:0:0:
27,155,20178,2,0,L|43:21,1,134.999995880127,2|8,1:2|0:2,0:2:0:0:
83,0,20892,1,2,1:2:0:0:
155,53,21249,1,8,0:2:0:0:
282,8,21785,6,0,L|370:19,1,89.9999972534181,2|8,1:2|3:2,0:2:0:0:
381,63,22321,1,2,1:2:0:0:
314,123,22678,2,0,L|269:116,1,44.999998626709,10|2,3:2|3:2,0:2:0:0:
224,115,23035,6,0,P|277:152|281:217,1,134.999995880127,2|8,1:2|0:2,0:2:0:0:
259,256,23749,1,2,1:2:0:0:
312,328,24106,1,8,0:2:0:0:
397,299,24464,2,0,P|409:232|430:168,1,134.999995880127,2|8,1:2|0:2,0:2:0:0:
494,106,25356,2,0,P|489:83|482:62,1,44.999998626709,0|2,3:2|1:2,0:0:0:0:
468,24,25714,5,10,0:2:0:0:
468,24,25892,2,0,P|423:71|357:71,1,134.999995880127,2|8,1:2|0:2,0:2:0:0:
315,89,26606,1,2,1:2:0:0:
270,10,26964,1,8,0:2:0:0:
149,71,27499,6,0,L|138:160,1,89.9999972534181,2|8,1:2|3:2,0:2:0:0:
159,199,28035,1,2,1:2:0:0:
84,244,28392,1,10,3:2:0:0:
84,244,28571,2,0,L|40:238,1,44.999998626709,0|0,3:2|1:2,0:2:0:0:
4,209,28928,6,0,L|21:357,1,150,6|2,1:2|3:2,0:2:0:0:
114,372,29821,1,8,0:2:0:0:
114,372,29999,2,0,P|173:329|245:343,1,150,6|0,1:2|1:2,0:2:0:0:
325,383,30892,2,0,P|337:335|316:290,1,100,10|2,0:2|1:2,0:0:0:0:
278,266,31428,1,10,0:2:0:0:
348,209,31785,6,0,P|364:136|397:68,1,150,6|2,1:2|3:2,0:2:0:0:
487,97,32678,1,8,0:2:0:0:
487,97,32856,2,0,P|453:164|437:237,1,150,6|2,1:2|1:2,0:2:0:0:
509,290,33749,2,0,P|470:320|421:323,1,100,8|0,0:2|1:2,0:0:0:0:
378,307,34285,1,10,0:2:0:0:
313,370,34642,6,0,P|267:351|240:310,1,100,0|8,1:2|0:2,0:0:0:0:
232,265,35178,1,2,1:2:0:0:
158,213,35535,1,10,0:2:0:0:
93,276,35892,2,0,P|67:233|71:184,1,100,2|0,1:2|1:2,0:2:0:0:
99,151,36428,1,2,1:2:0:0:
99,151,36606,2,0,P|124:108|120:59,1,100,8|2,0:2|1:2,0:0:0:0:
87,27,37142,1,10,0:2:0:0:
176,4,37499,5,2,1:2:0:0:
176,4,37678,1,0,1:2:0:0:
237,69,38035,2,0,L|229:126,2,50,10|2|2,0:2|3:2|1:2,0:0:0:0:
278,47,38571,1,2,1:2:0:0:
278,47,38750,1,2,1:2:0:0:
379,254,40356,6,0,L|324:248,1,55.0000016784668,6|2,1:2|1:2,0:0:0:0:
277,218,40714,1,10,0:2:0:0:
284,327,41071,2,0,L|393:340,1,110.000003356934,2|10,1:2|1:2,0:0:0:0:
425,384,41606,1,2,1:2:0:0:
505,308,41964,2,0,P|519:256|490:211,1,110.000003356934,6|10,1:2|0:2,0:2:0:0:
512,160,42499,2,0,L|402:146,1,110.000003356934,0|10,3:2|0:2,0:2:0:0:
293,136,43214,6,0,P|279:112|279:85,1,55.0000016784668,2|2,1:2|1:2,0:0:0:0:
292,31,43571,1,12,0:2:0:0:
195,82,43928,2,0,P|195:136|222:183,1,110.000003356934,2|10,1:2|1:2,0:0:0:0:
264,219,44464,1,2,1:2:0:0:
305,320,44821,2,0,P|251:308|196:303,1,110.000003356934,6|10,1:2|0:2,0:2:0:0:
156,340,45356,2,0,P|128:342|101:348,1,55.0000016784668,0|0,3:2|1:2,0:2:0:0:
57,381,45714,1,10,0:2:0:0:
1,285,46071,6,0,L|14:175,1,110.000003356934,6|8,1:2|0:2,0:0:0:0:
61,148,46606,1,0,3:2:0:0:
163,102,46964,1,2,3:2:0:0:
163,102,47142,1,10,0:2:0:0:
72,40,47499,6,0,L|-1:30,2,73.3333355712891,2|2|2,1:2|1:2|1:2,0:2:0:0:
150,20,48214,2,0,L|223:10,2,73.3333355712891,10|2|2,0:2|1:2|1:2,0:0:0:0:
163,102,48928,6,0,L|272:88,1,110.000003356934,6|0,1:2|3:2,0:0:0:0:
325,117,49464,1,10,3:2:0:0:
325,117,49642,2,0,P|344:136|351:162,1,55.0000016784668,0|0,3:2|3:2,0:0:0:0:
315,204,49999,2,0,L|424:217,1,110.000003356934,6|0,1:2|3:2,0:0:0:0:
478,226,50535,1,10,3:2:0:0:
414,316,50892,1,0,1:2:0:0:
414,316,51071,2,0,L|304:302,1,110.000003356934,6|6,1:2|1:2,0:0:0:0:
202,260,51785,6,0,P|188:236|187:209,1,55.0000016784668,2|2,1:2|1:2,0:0:0:0:
205,156,52142,1,12,0:2:0:0:
97,180,52499,2,0,P|43:175|10:132,1,110.000003356934,2|10,1:2|1:2,0:0:0:0:
2,78,53035,1,2,1:2:0:0:
111,71,53392,2,0,L|97:180,1,110.000003356934,6|10,1:2|0:2,0:2:0:0:
62,223,53928,2,0,L|76:332,1,110.000003356934,0|10,3:2|0:2,0:2:0:0:
179,370,54642,6,0,L|185:315,1,55.0000016784668,2|2,1:2|1:2,0:0:0:0:
158,266,54999,1,12,0:2:0:0:
266,249,55356,2,0,L|279:358,1,110.000003356934,2|10,1:2|1:2,0:0:0:0:
329,382,55892,1,2,1:2:0:0:
426,332,56249,2,0,P|462:292|453:240,1,110.000003356934,6|10,1:2|0:2,0:2:0:0:
421,194,56785,2,0,P|368:203|329:167,1,110.000003356934,0|10,3:2|0:2,0:2:0:0:
310,121,57321,1,2,1:2:0:0:
310,121,57499,6,0,P|319:66|340:16,1,110.000003356934,6|10,1:2|0:2,0:2:0:0:
392,0,58035,1,2,1:2:0:0:
502,31,58392,1,0,1:2:0:0:
502,31,58571,1,8,0:2:0:0:
432,116,58928,6,0,L|423:188,2,73.3333355712891,2|2|2,1:2|1:2|1:2,0:2:0:0:
356,86,59642,2,0,L|347:13,2,73.3333355712891,10|2|2,0:2|1:2|1:2,0:0:0:0:
306,148,60356,6,0,P|260:178|207:172,1,110.000003356934,6|8,1:2|3:2,0:0:0:0:
164,146,60892,1,2,1:2:0:0:
164,146,61071,2,0,L|170:91,1,55.0000016784668,0|8,3:2|3:2,0:0:0:0:
142,43,61428,2,0,P|88:36|43:66,1,110.000003356934,6|8,1:2|3:2,0:0:0:0:
14,111,61964,1,2,1:2:0:0:
63,214,62321,1,0,1:2:0:0:
63,214,62499,2,0,P|51:267|45:322,1,110.000003356934,6|10,1:2|0:2,0:0:0:0:
125,382,63214,5,0,1:2:0:0:
203,319,63571,2,0,B|251:324|251:324|251:327|251:327|299:333,1,100,6|2,1:2|1:2,0:2:0:0:
348,341,64106,1,10,0:2:0:0:
446,357,64464,2,0,P|468:314|451:269,1,100,2|8,1:2|0:2,0:0:0:0:
354,245,65178,2,0,P|331:202|348:157,1,100,2|2,1:2|1:2,0:0:0:0:
391,131,65714,1,10,0:2:0:0:
486,101,66071,6,0,L|492:51,1,50,2|2,1:2|0:2,0:2:0:0:
499,1,66428,2,0,L|399:13,1,100,10|2,0:2|1:2,0:0:0:0:
364,48,66964,1,10,0:2:0:0:
268,17,67321,2,0,P|260:65|284:108,1,100,2|10,1:2|0:2,0:2:0:0:
368,173,68035,1,0,3:2:0:0:
368,173,68214,2,0,L|361:222,1,50,2|2,1:2|1:2,0:0:0:0:
359,272,68571,1,12,1:2:0:0:
301,354,68928,6,0,B|251:361|251:361|217:324,1,100,2|4,1:2|1:2,0:2:0:0:
121,335,69642,1,2,1:2:0:0:
121,335,69821,2,0,B|89:295|89:295|104:247,1,100,4|6,1:2|1:2,0:2:0:0:
201,228,70535,1,8,0:2:0:0:
172,132,70892,2,0,P|119:81|49:95,1,150,6|10,1:2|0:2,0:2:0:0:
18,135,71606,1,2,1:2:0:0:
18,135,71785,6,0,L|30:234,1,100,6|8,1:2|0:2,0:2:0:0:
37,283,72321,1,2,1:2:0:0:
116,343,72678,2,0,L|122:293,1,50,2|10,1:2|0:2,0:0:0:0:
132,244,73035,2,0,P|179:233|220:259,1,100,2|10,3:2|0:2,0:0:0:0:
324,269,73749,1,2,1:2:0:0:
324,269,73928,2,0,P|325:220|292:184,1,100,10|10,3:2|3:2,0:0:0:0:
203,138,74642,5,4,1:2:0:0:
483,27,77142,5,2,3:2:0:0:
419,91,77499,2,0,P|436:164|447:238,1,150,4|2,1:2|3:2,0:2:0:0:
362,254,78392,1,8,0:2:0:0:
362,254,78571,2,0,P|350:179|334:106,1,150,2|0,1:2|1:2,0:2:0:0:
319,17,79464,2,0,P|273:34|246:76,1,100,10|2,0:2|1:2,0:0:0:0:
237,120,79999,1,10,0:2:0:0:
216,207,80356,6,0,P|147:231|87:190,1,150,2|2,1:2|3:2,0:2:0:0:
9,156,81249,1,8,0:2:0:0:
9,156,81428,2,0,P|22:84|87:53,1,150,2|2,1:2|1:2,0:2:0:0:
168,15,82321,2,0,L|180:114,1,100,8|0,0:2|1:2,0:0:0:0:
188,158,82856,1,10,0:2:0:0:
116,212,83214,6,0,L|103:311,1,100,6|8,1:2|0:2,0:2:0:0:
98,355,83749,1,2,1:2:0:0:
185,335,84106,1,4,1:2:0:0:
223,253,84464,2,0,P|269:238|315:257,1,100,6|0,1:2|1:2,0:2:0:0:
363,265,84999,1,0,3:2:0:0:
363,265,85178,2,0,P|327:297|321:347,1,100,10|2,0:2|1:2,0:2:0:0:
349,382,85714,1,10,0:2:0:0:
434,347,86071,5,6,1:2:0:0:
434,347,86249,1,0,1:2:0:0:
463,261,86606,2,0,L|512:267,2,50,10|2|2,0:2|3:2|1:2,0:0:0:0:
435,232,87142,1,2,1:2:0:0:
435,232,87321,1,2,1:2:0:0:
15,369,88928,5,4,3:2:0:0:
15,369,97499,6,0,P|22:314|38:261,1,110.000003356934,6|0,1:2|3:2,0:0:0:0:
91,240,98035,1,10,0:2:0:0:
91,240,98214,2,0,P|101:214|116:191,1,55.0000016784668,0|0,3:2|3:2,0:0:0:0:
168,174,98571,2,0,P|118:154|104:103,1,110.000003356934,6|0,1:2|3:2,0:0:0:0:
115,49,99106,1,10,0:2:0:0:
222,15,99464,1,0,1:2:0:0:
222,15,99642,2,0,P|271:34|285:85,1,110.000003356934,6|6,1:2|1:2,0:0:0:0:
230,200,100356,6,0,L|223:254,1,55.0000016784668,2|2,1:2|1:2,0:0:0:0:
193,301,100714,1,12,0:2:0:0:
302,297,101071,2,0,L|315:187,1,110.000003356934,2|10,1:2|1:2,0:0:0:0:
360,157,101606,1,2,1:2:0:0:
466,129,101964,2,0,P|498:86|485:35,1,110.000003356934,6|10,1:2|0:2,0:2:0:0:
435,11,102499,2,0,L|325:24,1,110.000003356934,0|10,3:2|0:2,0:2:0:0:
240,93,103214,6,0,P|228:117|228:145,1,55.0000016784668,2|2,1:2|1:2,0:0:0:0:
247,196,103571,1,12,0:2:0:0:
144,154,103928,2,0,P|144:99|166:49,1,110.000003356934,2|10,1:2|1:2,0:0:0:0:
209,15,104464,1,2,1:2:0:0:
318,26,104821,2,0,L|427:39,1,110.000003356934,6|10,1:2|0:2,0:2:0:0:
480,53,105356,2,0,P|431:74|417:125,1,110.000003356934,0|10,3:2|0:2,0:2:0:0:
414,184,105892,1,2,1:2:0:0:
414,184,106071,6,0,P|463:207|507:240,2,110.000003356934,6|2|0,1:2|1:2|1:2,0:0:0:0:
308,214,107142,1,8,0:2:0:0:
242,303,107499,6,0,L|250:375,2,73.3333355712891,6|2|2,1:2|1:2|1:2,0:2:0:0:
182,248,108214,2,0,L|190:175,2,73.3333355712891,2|2|2,1:2|1:2|1:2,0:0:0:0:
118,298,108928,6,0,P|66:289|40:243,1,110.000003356934,6|8,1:2|3:2,0:0:0:0:
7,205,109464,1,2,1:2:0:0:
7,205,109642,2,0,L|13:150,1,55.0000016784668,0|8,3:2|3:2,0:0:0:0:
58,117,109999,2,0,P|110:108|136:62,1,110.000003356934,6|8,1:2|3:2,0:0:0:0:
135,7,110535,1,2,1:2:0:0:
247,26,110892,1,0,1:2:0:0:
247,26,111071,2,0,L|356:39,1,110.000003356934,6|10,1:2|0:2,0:0:0:0:
439,92,111785,6,0,P|463:128|459:172,1,89.9999972534181,6|2,1:2|0:2,0:0:0:0:
434,209,112321,2,0,L|300:192,1,134.999995880127,2|2,1:2|0:2,0:0:0:0:
255,188,113035,1,10,0:2:0:0:
176,227,113392,1,10,0:2:0:0:
176,227,113571,2,0,P|149:250|146:307,1,89.9999972534181,2|10,1:2|0:2,0:0:0:0:
156,345,114106,1,0,0:2:0:0:
28,301,114642,5,2,0:2:0:0:
256,192,114731,12,0,118214,0:2:0:0:
