osu file format v14

[General]
AudioFilename: audio.mp3
AudioLeadIn: 0
PreviewTime: 39196
Countdown: 0
SampleSet: Soft
StackLeniency: 0.4
Mode: 0
LetterboxInBreaks: 0
WidescreenStoryboard: 1

[Editor]
Bookmarks: 55892,64464
DistanceSpacing: 0.5
BeatDivisor: 4
GridSize: 32
TimelineZoom: 1.9

[Metadata]
Title:anqad
TitleUnicode:anqad
Artist:onoken feat. b
ArtistUnicode:onoken feat. b
Creator:Ermi
Version:Kujinn's Extra
Source:REFLEC BEAT groovin'!! Upper
Tags:japanese video game axsword q and a q&a reflec beat plus modding queue kujinn reform
BeatmapID:3500529
BeatmapSetID:1555389

[Difficulty]
HPDrainRate:5.5
CircleSize:3.8
OverallDifficulty:8.2
ApproachRate:9.3
SliderMultiplier:2.22
SliderTickRate:1

[Events]
//Background and Video events
0,0,"nge.jpg",0,0
//Break Periods
2,89128,95517
//Storyboard Layer 0 (Background)
//Storyboard Layer 1 (Fail)
//Storyboard Layer 2 (Pass)
//Storyboard Layer 3 (Foreground)
//Storyboard Layer 4 (Overlay)
//Storyboard Sound Samples

[TimingPoints]
357,357.142857142857,4,2,1,5,1,0
2142,-100,4,2,1,15,0,0
2321,-100,4,2,1,25,0,0
2499,-100,4,2,1,35,0,0
2678,-100,4,2,1,45,0,0
2856,-100,4,2,1,55,0,0
3035,-100,4,2,1,65,0,0
3124,-100,4,2,1,5,0,0
3214,-222.222222222221,4,2,1,80,0,0
3481,-222.222222222221,4,2,1,5,0,0
3571,-80,4,2,1,80,0,0
3839,-80,4,2,1,5,0,0
3928,-80,4,2,1,80,0,0
4374,-80,4,2,1,5,0,0
4464,-117.647058823529,4,2,1,80,0,0
5178,-68.9655172413793,4,2,1,80,0,0
5446,-68.9655172413793,4,2,1,5,0,0
5535,-68.9655172413793,4,2,1,80,0,0
6249,-95.2380952380952,4,2,1,80,0,0
6428,-80,4,2,1,80,0,0
6964,-117.647058823529,4,2,1,80,0,0
7321,-95.238095238095,4,2,1,80,0,0
7678,-80,4,2,1,80,0,0
8124,-80,4,2,1,5,0,0
8214,-68.9655172413793,4,2,1,80,0,0
8839,-68.9655172413793,4,2,1,5,0,0
8928,-68.9655172413793,4,2,1,80,0,0
9285,-60.6060606060606,4,2,1,80,0,0
9553,-60.6060606060606,4,2,1,5,0,0
9642,-95.2380952380952,4,2,1,80,0,0
9821,-80,4,2,1,80,0,0
10089,-80,4,2,1,5,0,0
10178,-105.263157894737,4,2,1,80,0,0
10892,-80.0000000000001,4,2,1,80,0,0
11160,-80.0000000000001,4,2,1,5,0,0
11249,-80.0000000000001,4,2,1,80,0,0
11428,-105.263157894737,4,2,1,80,0,0
11785,-80.0000000000001,4,2,1,80,0,0
12321,-68.9655172413793,4,2,1,80,0,0
13392,-60.6060606060606,4,2,1,80,0,0
14642,-60.6060606060606,4,2,1,75,0,0
15356,-60.6060606060606,4,2,1,65,0,0
16071,-60.6060606060606,4,2,1,55,0,0
16785,-133.333333333333,4,2,1,55,0,0
17499,-95.2380952380951,4,2,1,50,0,0
18035,-117.647058823529,4,2,1,50,0,0
18124,-117.647058823529,4,2,1,5,0,0
18214,-117.647058823529,4,2,1,50,0,0
20624,-117.647058823529,4,2,1,5,0,0
20714,-117.647058823529,4,2,1,50,0,0
21160,-117.647058823529,4,2,1,5,0,0
21249,-117.647058823529,4,2,1,50,0,0
21428,-117.647058823529,4,2,1,30,0,0
21785,-68.9655172413793,4,2,1,65,0,0
22678,-80,4,2,1,65,0,0
23035,-105.263157894737,4,2,1,50,0,0
23571,-117.64705882353,4,2,1,50,0,0
23839,-117.64705882353,4,2,1,5,0,0
23928,-117.64705882353,4,2,1,50,0,0
25892,-95.2380952380952,4,2,1,50,0,0
26428,-95.2380952380952,4,2,1,50,0,0
26874,-95.2380952380952,4,2,1,5,0,0
26964,-95.2380952380952,4,2,1,50,0,0
27142,-95.2380952380952,4,2,1,30,0,0
27499,-68.9655172413793,4,2,1,65,0,0
28928,-68.9655172413793,4,2,1,60,0,0
30356,-86.9565217391304,4,2,1,60,0,0
30892,-74.0740740740741,4,2,1,60,0,0
31785,-86.9565217391304,4,2,1,60,0,0
33392,-64.5161290322581,4,2,1,60,0,0
33928,-86.9565217391304,4,2,1,60,0,0
34642,-105.263157894737,4,2,1,60,0,0
35089,-105.263157894737,4,2,1,5,0,0
35178,-105.263157894737,4,2,1,60,0,0
36160,-105.263157894737,4,2,1,5,0,0
36249,-105.263157894737,4,2,1,60,0,0
37410,-105.263157894737,4,2,1,5,0,0
37499,-105.263157894737,4,2,1,70,0,0
37946,-105.263157894737,4,2,1,5,0,0
38035,-105.263157894737,4,2,1,70,0,0
38571,-105.263157894737,4,2,1,80,0,0
39285,-285.714285714287,4,2,1,35,0,0
39642,-285.714285714287,4,2,1,45,0,0
39999,-285.714285714287,4,2,1,55,0,0
40356,-68.9655172413793,4,2,1,90,0,0
40714,-60.6060606060606,4,2,1,90,0,0
40981,-60.6060606060606,4,2,1,5,0,0
41071,-60.6060606060606,4,2,1,90,0,0
41249,-80,4,2,1,90,0,0
41428,-60.6060606060606,4,2,1,90,0,0
41606,-222.222222222223,4,2,1,90,0,0
41874,-222.222222222223,4,2,1,5,0,0
41964,-64.5161290322581,4,2,1,90,0,0
42231,-64.5161290322581,4,2,1,5,0,0
42321,-95.2380952380952,4,2,1,90,0,0
42856,-68.9655172413793,4,2,1,90,0,0
43214,-68.9655172413793,4,2,1,90,0,0
43839,-68.9655172413793,4,2,1,5,0,0
43928,-54.054054054054,4,2,1,90,0,0
44106,-68.9655172413793,4,2,1,90,0,0
44285,-86.9565217391304,4,2,1,90,0,0
44464,-222.222222222222,4,2,1,90,0,0
44731,-222.222222222222,4,2,1,5,0,0
44821,-60.6060606060606,4,2,1,90,0,0
45089,-60.6060606060606,4,2,1,5,0,0
45178,-105.263157894737,4,2,1,90,0,0
46071,-68.9655172413794,4,2,1,90,0,0
47410,-68.9655172413794,4,2,1,5,0,0
47499,-79.9999999999998,4,2,1,90,0,0
48214,-68.9655172413793,4,2,1,90,0,0
51071,-86.9565217391304,4,2,3,90,0,0
51249,-86.9565217391304,4,2,1,90,0,0
51428,-181.818181818182,4,2,1,90,0,0
51696,-181.818181818182,4,2,1,5,0,0
51785,-68.9655172413794,4,2,1,90,0,0
52142,-60.6060606060606,4,2,1,90,0,0
52410,-60.6060606060606,4,2,1,5,0,0
52499,-64.5161290322581,4,2,1,90,0,0
52678,-86.9565217391304,4,2,1,90,0,0
52856,-64.5161290322581,4,2,1,90,0,0
53035,-222.222222222222,4,2,1,90,0,0
53303,-222.222222222222,4,2,1,5,0,0
53392,-60.6060606060606,4,2,1,90,0,0
53660,-60.6060606060606,4,2,1,5,0,0
53749,-60.6060606060606,4,2,1,90,0,0
53928,-95.2380952380952,4,2,1,90,0,0
54464,-80,4,2,1,90,0,0
54642,-68.9655172413793,4,2,1,90,0,0
54999,-80,4,2,1,90,0,0
55267,-80,4,2,1,5,0,0
55356,-95.2380952380952,4,2,1,90,0,0
55535,-74.0740740740741,4,2,1,90,0,0
55714,-60.6060606060606,4,2,1,90,0,0
55892,-222.222222222222,4,2,1,90,0,0
56160,-222.222222222222,4,2,1,5,0,0
56249,-74.0740740740741,4,2,1,90,0,0
56517,-74.0740740740741,4,2,1,5,0,0
56606,-74.0740740740741,4,2,1,90,0,0
56785,-95.2380952380952,4,2,1,90,0,0
57142,-68.9655172413793,4,2,1,90,0,0
57499,-60.6060606060606,4,2,1,90,0,0
57767,-60.6060606060606,4,2,1,5,0,0
57856,-86.9565217391304,4,2,1,90,0,0
57946,-86.9565217391304,4,2,1,5,0,0
58035,-86.9565217391304,4,2,1,90,0,0
58928,-79.9999999999998,4,2,1,90,0,0
60356,-86.9565217391304,4,2,1,90,0,0
62499,-86.9565217391304,4,2,3,90,0,0
62589,-86.9565217391304,4,2,1,90,0,0
63214,-222.222222222223,4,2,1,90,0,0
63481,-222.222222222223,4,2,1,5,0,0
63571,-80.0000000000001,4,2,1,90,0,0
63839,-80.0000000000001,4,2,1,5,0,0
63928,-105.263157894737,4,2,1,90,0,0
64106,-80.0000000000001,4,2,1,90,0,0
64374,-80.0000000000001,4,2,1,5,0,0
64464,-105.263157894737,4,2,1,90,0,0
64821,-74.0740740740742,4,2,1,90,0,0
65356,-64.5161290322581,4,2,1,90,0,0
66428,-80,4,2,1,90,0,0
68124,-80,4,2,1,5,0,0
68214,-80,4,2,1,90,0,0
68571,-68.9655172413793,4,2,1,90,0,0
68928,-60.6060606060606,4,2,1,90,0,0
69285,-86.9565217391304,4,2,1,90,0,0
69821,-60.6060606060606,4,2,1,90,0,0
70446,-60.6060606060606,4,2,1,5,0,0
70535,-60.6060606060606,4,2,1,90,0,0
70714,-74.0740740740741,4,2,1,90,0,0
71785,-64.5161290322581,4,2,1,90,0,0
72053,-64.5161290322581,4,2,1,5,0,0
72142,-64.5161290322581,4,2,1,90,0,0
74731,-64.5161290322581,4,2,1,5,0,0
76785,-64.5161290322581,4,2,1,70,0,0
77142,-181.818181818182,4,2,1,40,0,0
77499,-86.9565217391304,4,2,1,60,0,0
78927,-86.9565217391304,4,2,1,60,0,0
79463,-74.0740740740741,4,2,1,60,0,0
80356,-86.9565217391304,4,2,1,60,0,0
81963,-64.5161290322581,4,2,1,60,0,0
82499,-86.9565217391304,4,2,1,60,0,0
83213,-105.263157894737,4,2,1,60,0,0
83481,-105.263157894737,4,2,1,5,0,0
83571,-105.263157894737,4,2,1,60,0,0
84106,-105.263157894737,4,2,3,60,0,0
84285,-105.263157894737,4,2,1,60,0,0
84464,-80.0000000000001,4,2,1,60,0,0
84731,-80.0000000000001,4,2,1,5,0,0
84821,-80.0000000000001,4,2,1,60,0,0
86071,-80.0000000000001,4,2,1,70,0,0
86517,-80.0000000000001,4,2,1,5,0,0
86606,-80.0000000000001,4,2,1,70,0,0
87142,-80.0000000000001,4,2,1,80,0,0
87856,-400.000000000003,4,2,1,25,0,0
88571,-400.000000000003,4,2,1,35,0,0
88749,-400.000000000003,4,2,1,25,0,0
88928,-400.000000000003,4,2,1,45,0,0
96071,-204.081632653061,4,2,1,40,0,0
96785,-181.818181818182,4,2,1,55,0,0
97499,-86.9565217391304,4,2,1,90,0,0
99642,-86.9565217391304,4,2,3,90,0,0
99821,-86.9565217391304,4,2,1,90,0,0
99999,-181.818181818182,4,2,1,90,0,0
100267,-181.818181818182,4,2,1,5,0,0
100356,-68.9655172413794,4,2,1,90,0,0
100714,-60.6060606060606,4,2,1,90,0,0
100981,-60.6060606060606,4,2,1,5,0,0
101071,-64.5161290322581,4,2,1,90,0,0
101249,-64.5161290322581,4,2,1,90,0,0
101428,-86.9565217391304,4,2,1,90,0,0
101606,-222.222222222222,4,2,1,90,0,0
101874,-222.222222222222,4,2,1,5,0,0
101964,-60.6060606060606,4,2,1,90,0,0
102231,-60.6060606060606,4,2,1,5,0,0
102321,-60.6060606060606,4,2,1,90,0,0
102499,-95.2380952380952,4,2,1,90,0,0
103035,-80,4,2,1,90,0,0
103214,-68.9655172413793,4,2,1,90,0,0
103571,-80,4,2,1,90,0,0
103839,-80,4,2,1,5,0,0
103928,-95.2380952380952,4,2,1,90,0,0
104106,-74.0740740740741,4,2,1,90,0,0
104285,-60.6060606060606,4,2,1,90,0,0
104464,-222.222222222222,4,2,1,90,0,0
104731,-222.222222222222,4,2,1,5,0,0
104821,-74.0740740740741,4,2,1,90,0,0
105089,-74.0740740740741,4,2,1,5,0,0
105178,-74.0740740740741,4,2,1,90,0,0
105356,-95.2380952380952,4,2,1,90,0,0
105714,-68.9655172413793,4,2,1,90,0,0
106071,-60.6060606060606,4,2,1,90,0,0
106428,-86.9565217391304,4,2,1,90,0,0
107499,-79.9999999999998,4,2,1,90,0,0
108928,-86.9565217391304,4,2,1,90,0,0
111071,-86.9565217391304,4,2,3,90,0,0
111160,-86.9565217391304,4,2,1,90,0,0
111785,-117.647058823529,4,2,1,75,0,0
111963,-117.647058823529,4,2,1,40,0,0
112499,-153.846153846153,4,2,1,40,0,0
113214,-222.22222222222,4,2,1,40,0,0
114285,-222.22222222222,4,2,1,30,0,0
114642,-222.22222222222,4,2,1,25,0,0
114910,-222.22222222222,4,2,1,5,0,0

[Colours]
Combo1 : 102,159,255
Combo2 : 24,70,226
Combo3 : 83,100,255

[HitObjects]
256,192,357,12,0,3124,0:2:0:0:
51,17,3214,6,0,P|81:18|119:56,1,74.9249977134706,0|0,1:2|0:2,0:2:0:0:
232,63,3571,6,0,P|156:40|136:151,1,208.125,6|0,1:2|0:2,0:2:0:0:
152,152,3928,1,0,1:2:0:0:
11,265,4106,6,0,P|81:234|111:339,1,208.125,10|0,0:2|0:2,0:2:0:0:
23,355,4464,6,0,P|94:338|158:327,1,94.3500017995835,2|0,1:2|3:2,0:2:0:0:
277,241,4821,2,0,P|322:230|368:219,1,94.3500017995835,10|0,0:2|3:2,0:2:0:0:
413,284,5089,5,0,3:2:0:0:
421,289,5178,2,0,P|317:268|162:238,1,241.425007367707,2|0,1:2|0:2,0:2:0:0:
176,259,5535,1,0,1:2:0:0:
175,372,5714,6,0,P|218:369|246:321,1,80.4750024559022,8|0,0:2|0:2,0:2:0:0:
284,164,5892,1,0,3:2:0:0:
281,156,5982,1,0,3:2:0:0:
278,147,6071,1,2,1:2:0:0:
353,95,6249,6,0,P|380:103|431:112,1,58.2749982215882,2|0,3:2|0:2,0:2:0:0:
212,205,6428,2,0,P|132:187|48:177,1,138.75,10|0,0:2|3:2,0:2:0:0:
0,264,6696,5,0,3:2:0:0:
5,270,6785,2,0,P|48:270|77:231,1,69.375,2|0,1:2|0:2,0:2:0:0:
76,180,6964,2,0,P|67:120|54:62,1,94.3500017995835,10|0,0:2|3:2,0:2:0:0:
422,11,7321,5,2,1:2:0:0:
422,11,7499,2,0,P|414:52|402:92,1,58.2749982215882,2|0,3:2|3:2,0:2:0:0:
502,172,7678,6,0,P|477:147|474:113,1,69.375,10|0,0:2|0:2,0:2:0:0:
273,96,7856,2,0,P|306:92|331:68,1,69.375,0|0,1:2|0:0,0:0:0:0:
370,217,8035,1,0,3:2:0:0:
370,217,8214,6,0,P|357:268|347:315,1,80.4750024559022,10|0,0:2|0:2,0:2:0:0:
416,348,8392,2,0,P|425:308|436:269,1,80.4750024559022,2|0,1:2|0:2,0:2:0:0:
147,212,8571,6,0,P|160:263|170:310,1,80.4750024559022,6|0,1:2|0:0,0:2:0:0:
103,346,8749,2,0,P|94:306|84:267,1,80.4750024559022,2|0,3:2|0:2,0:0:0:0:
270,182,8928,5,2,1:2:0:0:
277,181,9017,1,2,3:2:0:0:
284,182,9106,2,0,P|308:155|297:110,1,80.4750024559022,2|0,3:2|3:2,0:2:0:0:
219,78,9285,6,0,B|181:128|210:184|255:194|261:188|268:181|319:198|332:258|297:299,1,274.725002619982,6|0,1:2|0:2,0:2:0:0:
285,296,9642,1,0,1:2:0:0:
189,323,9821,6,0,P|255:305|362:411,1,208.125,10|0,0:2|0:2,0:2:0:0:
369,379,10178,2,0,P|405:351|376:275,1,105.449997184181,6|0,1:2|3:2,0:2:0:0:
276,119,10535,2,0,P|240:147|269:223,1,105.449997184181,10|0,0:2|3:2,0:2:0:0:
285,344,10803,5,0,3:2:0:0:
277,342,10892,2,0,P|312:253|420:136,1,208.125,6|0,1:2|0:2,0:2:0:0:
394,171,11249,1,0,1:2:0:0:
506,89,11428,6,0,P|460:103|412:7,1,158.174995776272,10|0,0:2|3:2,0:2:0:0:
405,25,11785,6,0,P|372:24|337:73,1,69.375,2|0,1:2|0:0,0:0:0:0:
276,0,11964,2,0,P|257:28|282:83,1,69.375,2|0,3:2|0:2,0:2:0:0:
170,89,12142,2,0,P|185:119|245:124,1,69.375,0|0,3:2|0:2,0:2:0:0:
500,269,12321,6,0,P|460:253|402:248,1,80.4750024559022,10|0,0:2|0:0,0:0:0:0:
381,356,12499,2,0,P|373:319|325:299,1,80.4750024559022,2|0,3:2|0:2,0:2:0:0:
407,139,12678,2,0,P|394:167|340:178,1,80.4750024559022,0|0,3:2|0:2,0:2:0:0:
107,247,12856,6,0,P|130:281|141:346,1,80.4750024559022,2|0,1:2|0:0,0:0:0:0:
106,215,13035,2,0,P|65:217|3:194,1,80.4750024559022,10|0,0:2|3:2,0:2:0:0:
128,221,13214,2,0,P|145:184|196:142,1,80.4750024559022,2|0,1:2|3:2,0:2:0:0:
46,56,13392,6,0,P|73:72|63:146,1,91.5750008733273,6|0,1:2|0:0,0:0:0:0:
2,365,13571,6,0,P|2:333|71:305,1,91.5750008733273,2|0,1:2|3:2,0:2:0:0:
288,255,13749,6,0,P|260:270|201:224,1,91.5750008733273,2|0,1:2|3:2,0:2:0:0:
371,23,13928,5,12,0:2:0:0:
509,137,14106,5,2,1:2:0:0:
373,235,14285,5,12,0:2:0:0:
506,360,14464,5,2,3:2:0:0:
498,355,14553,1,2,3:2:0:0:
489,349,14642,5,6,1:2:0:0:
386,155,14821,1,2,0:2:0:0:
284,260,14999,5,2,0:2:0:0:
257,330,15178,1,2,1:2:0:0:
52,279,15356,5,2,0:2:0:0:
155,85,15535,1,2,0:2:0:0:
257,190,15713,5,2,0:2:0:0:
284,260,15892,1,10,0:2:0:0:
489,209,16071,5,2,0:2:0:0:
386,15,16250,1,10,0:2:0:0:
284,120,16428,5,2,1:2:0:0:
257,190,16607,1,2,0:2:0:0:
112,12,16785,5,8,0:2:0:0:
31,129,16964,1,0,3:2:0:0:
31,129,17053,1,0,3:2:0:0:
31,129,17142,2,0,P|23:93|16:63,2,41.6250015878678,0|0|0,3:2|3:2|1:2,0:2:0:0:
151,164,17499,5,2,1:2:0:0:
90,228,17678,1,2,0:2:0:0:
178,273,17856,1,10,0:2:0:0:
105,355,18035,5,2,1:2:0:0:
105,355,18214,2,0,P|57:367|-1:393,1,94.3500017995835,0|8,3:2|0:2,0:0:0:0:
203,273,18571,5,0,3:2:0:0:
203,273,18660,1,0,3:2:0:0:
203,273,18749,2,0,P|252:265|279:386,1,188.700003599167,2|0,1:2|1:2,0:0:0:0:
103,265,19285,2,0,P|88:209|72:162,1,94.3500017995835,8|0,0:2|3:2,0:2:0:0:
76,174,19553,1,0,3:2:0:0:
76,174,19642,1,0,3:2:0:0:
162,24,19821,5,2,1:2:0:0:
169,28,19999,1,10,0:2:0:0:
36,72,20178,6,0,B|91:49|118:99|116:102|113:105|141:163|205:132,1,188.700003599167,2|0,1:2|3:2,0:2:0:0:
195,136,20714,1,8,0:2:0:0:
431,31,20892,6,0,P|379:20|357:136,1,188.700003599167,2|8,1:2|0:2,0:2:0:0:
424,205,21428,1,0,3:2:0:0:
430,210,21517,1,0,3:2:0:0:
436,214,21606,2,0,P|458:205|486:197,1,47.1750008997917,0|0,3:2|3:2,0:0:0:0:
363,347,21785,6,0,P|338:348|302:296,1,80.4750024559022,2|0,1:2|3:2,0:2:0:0:
210,288,21964,2,0,P|216:238|256:216,1,80.4750024559022,0|0,3:2|3:2,0:2:0:0:
234,43,22142,6,0,P|259:42|295:94,1,80.4750024559022,8|0,3:2|3:2,0:2:0:0:
380,103,22321,2,0,P|373:153|334:175,1,80.4750024559022,2|0,1:2|3:2,0:0:0:0:
153,175,22499,5,0,3:2:0:0:
153,175,22589,1,0,3:2:0:0:
153,175,22678,2,0,P|119:168|71:168,1,69.375,10|0,3:2|3:2,0:2:0:0:
62,76,22856,2,0,P|96:83|144:83,1,69.375,2|0,3:2|3:2,0:2:0:0:
237,220,23035,6,0,P|169:194|139:313,1,210.899994368363,2|0,1:2|1:2,0:2:0:0:
210,359,23571,1,8,0:2:0:0:
220,355,23749,1,2,1:2:0:0:
415,379,23928,5,0,3:2:0:0:
407,373,24017,1,0,3:2:0:0:
398,370,24106,2,0,P|407:322|427:265,1,94.3500017995835,8|0,0:2|0:2,0:2:0:0:
244,273,24464,6,0,P|231:194|201:81,1,188.700003599167,2|0,1:2|1:2,0:2:0:0:
235,1,24999,2,0,P|274:10|283:77,1,94.3500017995835,8|0,0:2|3:2,0:2:0:0:
129,111,25267,1,0,3:2:0:0:
121,110,25356,2,0,P|100:75|143:23,1,94.3500017995835,0|2,3:2|1:2,0:0:0:0:
230,124,25714,1,10,0:2:0:0:
64,192,25892,6,0,B|110:169|149:193|160:234|156:238|150:243|158:287|207:314|256:278,1,233.099992886353,2|0,1:2|3:2,0:2:0:0:
242,286,26339,1,0,3:2:0:0:
242,286,26428,1,8,0:2:0:0:
499,84,26606,6,0,B|453:61|414:85|403:126|407:130|413:135|405:179|356:206|307:170,1,233.099992886353,2|8,1:2|0:2,0:2:0:0:
233,114,27142,1,0,3:2:0:0:
240,116,27231,1,0,3:2:0:0:
247,118,27321,2,0,P|251:85|255:46,1,58.2749982215882,0|0,3:2|3:2,0:0:0:0:
207,351,27499,6,0,P|227:317|268:293,1,80.4750024559022,2|0,1:2|3:2,0:2:0:0:
343,228,27678,2,0,P|303:227|262:204,1,80.4750024559022,0|0,3:2|3:2,0:2:0:0:
170,172,27856,2,0,P|189:206|189:253,1,80.4750024559022,8|0,3:2|3:2,0:2:0:0:
241,254,28035,5,2,1:2:0:0:
241,254,28124,1,0,3:2:0:0:
241,254,28214,1,0,3:2:0:0:
207,351,28392,6,0,P|178:357|129:389,1,80.4750024559022,10|0,3:2|3:2,0:2:0:0:
343,228,28571,6,0,P|363:248|416:271,1,80.4750024559022,0|0,3:2|3:2,0:2:0:0:
170,172,28749,6,0,P|177:143|171:86,1,80.4750024559022,0|0,1:2|0:0,0:0:0:0:
21,9,28928,6,0,P|158:38|350:82,1,321.900009823609,6|8,1:2|0:2,0:2:0:0:
335,78,29464,2,0,L|229:103,1,80.4750024559022,2|0,3:2|0:0,0:0:0:0:
256,96,29821,1,8,0:2:0:0:
484,241,29999,6,0,P|347:212|155:168,1,321.900009823609,6|0,1:2|0:2,0:2:0:0:
27,232,30446,1,0,3:2:0:0:
34,236,30535,2,0,P|56:215|92:180,1,63.8250012173653,0|0,1:2|3:2,0:2:0:0:
108,105,30714,1,0,3:2:0:0:
210,363,30892,5,10,0:2:0:0:
210,363,30981,1,0,3:0:0:0:
210,363,31071,2,0,P|261:343|267:305,1,74.9250002858162,2|0,3:2|0:2,0:2:0:0:
347,312,31249,2,0,P|341:276|299:252,1,74.9250002858162,2|0,1:2|0:2,0:2:0:0:
230,250,31428,1,10,0:2:0:0:
409,134,31606,5,0,3:2:0:0:
409,134,31696,1,0,3:2:0:0:
409,134,31785,2,0,P|384:257|356:396,1,255.300004869461,6|8,1:2|0:2,0:2:0:0:
358,384,32321,2,0,P|349:334|341:290,1,63.8250012173653,2|0,3:2|0:0,0:0:0:0:
346,321,32678,1,8,0:2:0:0:
113,79,32856,6,0,P|138:202|166:341,1,255.300004869461,6|0,1:2|3:2,0:2:0:0:
62,346,33392,6,0,P|70:309|124:289,1,86.0250006563187,2|0,1:2|0:2,0:2:0:0:
167,220,33571,2,0,P|202:218|236:261,1,86.0250006563187,2|0,1:2|0:2,0:2:0:0:
299,331,33749,1,8,0:2:0:0:
430,299,33928,6,0,P|345:316|286:357,1,127.650002434731,0|0,3:2|1:2,0:2:0:0:
472,381,34285,1,10,0:2:0:0:
270,220,34464,5,2,1:2:0:0:
275,227,34553,1,0,3:2:0:0:
280,234,34642,2,0,P|355:208|427:316,1,210.899994368363,0|8,1:2|0:2,0:0:0:0:
429,298,35178,6,0,P|387:294|362:225,1,105.449997184181,2|0,1:2|3:2,0:2:0:0:
142,190,35535,2,0,P|184:186|209:117,1,105.449997184181,10|0,0:2|3:2,0:2:0:0:
296,39,35803,5,0,3:2:0:0:
304,35,35892,2,0,P|295:116|280:251,1,210.899994368363,2|0,1:2|1:2,0:2:0:0:
280,244,36428,1,2,1:2:0:0:
77,275,36606,6,0,P|137:264|164:374,1,158.174995776272,8|0,0:2|0:0,0:0:0:0:
172,344,36964,1,2,1:2:0:0:
69,279,37142,2,0,P|44:246|78:176,1,105.449997184181,10|0,0:2|0:0,0:2:0:0:
309,103,37499,5,2,1:2:0:0:
248,310,37678,2,0,P|265:260|294:216,1,105.449997184181,0|0,1:2|0:0,0:2:0:0:
406,147,38035,5,10,0:2:0:0:
250,16,38214,2,0,P|284:56|309:103,1,105.449997184181,2|2,3:2|1:2,0:2:0:0:
182,239,38571,5,2,1:2:0:0:
406,147,38749,1,2,1:2:0:0:
406,147,39285,6,0,P|440:149|472:190,2,77.6999976287843,2|2|2,0:2|0:2|0:2,0:2:0:0:
130,354,40356,6,0,P|168:342|207:331,1,80.4750024559022,6|0,1:2|0:2,0:2:0:0:
186,255,40535,2,0,P|147:266|108:277,1,80.4750024559022,2|0,1:2|3:2,0:2:0:0:
28,268,40714,6,0,P|66:278|296:356,1,274.725002619982,10|0,0:2|0:2,0:2:0:0:
502,364,41071,6,0,P|468:337|471:277,1,91.5750008733273,2|0,1:2|0:2,0:2:0:0:
396,238,41249,2,0,P|414:182|426:142,1,69.375,2|0,1:2|0:2,0:2:0:0:
325,38,41428,2,0,P|359:65|356:125,1,91.5750008733273,10|0,1:2|3:2,0:2:0:0:
186,255,41606,6,0,P|147:266|111:277,1,74.9249977134705,2|0,1:2|0:2,0:2:0:0:
53,215,41964,6,0,B|103:189|146:216|158:260|153:265|147:270|155:319|209:348|263:309,1,258.075001968956,6|0,1:2|0:2,0:2:0:0:
341,362,42321,6,0,P|334:323|331:293,1,58.2749982215882,10|0,0:2|0:2,0:2:0:0:
495,182,42499,6,0,P|443:199|380:260,1,116.549996443176,0|0,3:2|1:2,0:2:0:0:
297,127,42856,6,0,P|340:127|368:165,1,80.4750024559022,10|0,0:2|3:2,0:2:0:0:
395,237,43035,1,0,3:2:0:0:
74,77,43214,6,0,P|73:37|111:7,1,80.4750024559022,2|0,1:2|0:2,0:2:0:0:
149,108,43392,2,0,P|176:80|175:40,1,80.4750024559022,2|0,1:2|3:2,0:2:0:0:
0,119,43571,6,0,P|51:103|184:216,1,241.425007367707,12|0,0:2|0:2,0:2:0:0:
510,384,43928,6,0,P|511:343|455:313,1,102.674999608326,2|0,1:2|0:2,0:2:0:0:
428,235,44106,2,0,P|400:234|360:279,1,80.4750024559022,2|0,1:2|0:2,0:2:0:0:
298,358,44285,2,0,P|291:327|283:297,1,63.8250012173653,10|0,1:2|3:2,0:2:0:0:
481,82,44464,6,0,P|493:39|505:-3,1,74.9249977134705,2|0,1:2|0:2,0:2:0:0:
399,13,44821,6,0,B|366:66|401:119|446:124|452:118|458:110|510:121|530:180|501:228,1,274.725002619982,6|0,1:2|0:2,0:2:0:0:
512,336,45178,6,0,P|495:310|473:286,1,52.7249985920907,10|0,0:2|0:2,0:2:0:0:
349,193,45356,2,0,P|375:234|439:227,1,105.449997184181,0|0,3:2|1:2,0:2:0:0:
165,45,45714,5,10,0:2:0:0:
157,41,45804,1,0,3:2:0:0:
150,38,45893,2,0,P|158:66|171:120,1,52.7249985920907,2|0,3:2|0:2,0:2:0:0:
111,189,46071,6,0,P|93:210|35:210,1,80.4750024559022,6|0,1:2|0:0,0:0:0:0:
177,277,46249,2,0,P|202:284|252:314,1,80.4750024559022,0|0,1:2|0:0,0:0:0:0:
107,382,46428,1,8,0:2:0:0:
361,377,46606,6,0,P|347:293|325:213,1,160.950004911804,0|0,3:2|1:2,0:0:0:0:
371,28,46964,1,2,3:2:0:0:
375,22,47053,1,0,3:2:0:0:
379,16,47142,2,0,P|407:15|440:62,1,80.4750024559022,10|0,0:2|0:0,0:2:0:0:
511,76,47321,2,0,P|513:110|469:143,1,80.4750024559022,0|0,3:0|0:2,0:0:0:0:
216,179,47499,6,0,P|207:134|181:84,1,92.5,2|0,1:2|0:0,0:2:0:0:
233,177,47737,2,0,P|276:191|326:194,1,92.5,2|0,1:2|0:0,0:2:0:0:
224,187,47976,2,0,P|189:217|160:265,1,92.5,2|0,1:2|0:0,0:2:0:0:
29,136,48214,6,0,P|81:126|133:184,1,107.300003274536,10|0,0:2|0:0,0:2:0:0:
298,359,48452,6,0,P|251:311|268:256,1,107.300003274536,2|0,1:2|0:0,0:2:0:0:
353,32,48690,6,0,P|332:91|271:107,1,107.300003274536,2|0,1:2|0:0,0:2:0:0:
34,27,48928,5,6,1:2:0:0:
19,78,49017,1,0,3:2:0:0:
37,123,49106,1,0,3:2:0:0:
77,150,49196,1,0,3:2:0:0:
123,155,49285,1,0,3:2:0:0:
165,140,49374,1,0,3:2:0:0:
182,110,49464,5,10,3:2:0:0:
179,101,49553,1,0,3:2:0:0:
177,93,49642,1,0,3:2:0:0:
176,85,49731,1,0,1:2:0:0:
174,77,49821,1,0,3:2:0:0:
173,68,49910,1,0,3:2:0:0:
159,23,49999,5,6,1:2:0:0:
211,8,50089,1,0,3:2:0:0:
258,33,50178,1,0,3:2:0:0:
283,82,50267,1,0,3:2:0:0:
323,119,50356,1,0,3:2:0:0:
376,134,50446,1,0,3:2:0:0:
421,112,50535,5,10,3:2:0:0:
419,118,50624,1,0,3:2:0:0:
419,125,50714,1,0,3:2:0:0:
418,132,50803,1,0,3:2:0:0:
417,138,50892,1,0,1:2:0:0:
415,145,50981,1,0,1:2:0:0:
438,185,51071,5,6,1:2:0:0:
292,283,51249,1,2,1:2:0:0:
512,365,51428,6,0,P|502:325|446:308,1,91.5750027946473,6|0,1:2|0:2,0:2:0:0:
302,289,51785,6,0,P|351:274|396:269,1,80.4750024559022,2|0,1:2|0:2,0:2:0:0:
506,176,51964,2,0,P|457:191|412:196,1,80.4750024559022,2|0,1:2|3:2,0:2:0:0:
437,376,52142,6,0,P|416:249|378:96,1,274.725002619982,12|0,0:2|0:2,0:2:0:0:
0,0,52499,6,0,P|16:32|80:32,1,86.0250006563187,2|0,1:2|0:2,0:2:0:0:
182,83,52678,2,0,P|144:92|116:105,1,63.8250012173653,2|0,1:2|0:2,0:2:0:0:
70,248,52856,2,0,P|70:212|127:184,1,86.0250006563187,10|0,1:2|3:2,0:2:0:0:
447,332,53035,6,0,P|490:345|515:370,1,74.9249977134705,2|0,1:2|0:2,0:2:0:0:
511,261,53392,6,0,B|480:322|418:313|390:277|393:269|396:260|358:222|297:233|274:284,1,274.725002619982,6|0,1:2|0:2,0:2:0:0:
282,292,53749,1,10,0:2:0:0:
136,340,53928,6,0,P|196:358|265:403,1,116.549996443176,0|0,3:2|1:2,0:2:0:0:
84,258,54285,5,10,0:2:0:0:
84,258,54374,1,0,3:2:0:0:
84,258,54464,2,0,P|52:277|9:269,1,69.375,0|0,3:2|0:0,0:0:0:0:
239,48,54642,6,0,P|276:60|337:62,1,80.4750024559022,2|0,1:2|0:2,0:2:0:0:
374,211,54821,2,0,P|414:214|452:226,1,80.4750024559022,2|0,1:2|3:2,0:2:0:0:
466,29,54999,6,0,P|404:9|361:130,1,208.125,12|0,0:2|0:2,0:2:0:0:
217,361,55356,6,0,P|210:332|207:304,1,58.2749982215882,2|0,1:2|0:2,0:2:0:0:
44,256,55535,2,0,P|80:267|115:282,1,74.9250002858162,2|0,1:2|0:2,0:2:0:0:
253,157,55714,2,0,P|222:190|186:218,1,91.5750008733273,10|0,1:2|3:2,0:2:0:0:
77,94,55892,6,0,P|71:45|61:10,1,74.9249977134705,2|0,1:2|0:2,0:2:0:0:
34,153,56249,6,0,P|110:120|166:260,1,224.775000857449,6|0,1:2|0:2,0:2:0:0:
175,219,56606,1,10,0:2:0:0:
394,318,56785,6,0,P|334:337|268:388,1,116.549996443176,0|0,3:2|1:2,0:2:0:0:
487,321,57142,6,0,P|449:314|429:251,1,80.4750024559022,10|0,0:2|3:2,0:2:0:0:
360,212,57321,2,0,P|373:159|386:112,1,80.4750024559022,2|0,1:2|3:2,0:2:0:0:
459,38,57499,6,0,B|408:11|364:39|352:83|357:88|363:93|355:143|300:173|245:133,1,274.725002619982,6|0,1:2|0:2,0:2:0:0:
185,92,57856,6,0,P|194:54|211:0,1,63.8250012173653,10|0,0:2|0:2,0:2:0:0:
171,190,58035,2,0,P|187:262|202:347,1,127.650002434731,2|0,1:2|3:2,0:2:0:0:
77,370,58392,5,0,1:2:0:0:
52,368,58481,1,0,3:2:0:0:
37,352,58571,2,0,P|37:326|69:289,1,63.8250012173653,8|0,0:2|0:0,0:0:0:0:
27,222,58749,2,0,P|67:211|101:226,1,63.8250012173653,0|0,3:2|3:2,0:0:0:0:
306,248,58928,6,0,P|343:210|318:154,1,92.5,2|0,1:2|0:2,0:2:0:0:
267,100,59166,2,0,P|280:149|341:156,1,92.5,2|0,1:2|0:2,0:2:0:0:
419,137,59404,2,0,P|368:122|332:171,1,92.5,2|0,1:2|0:2,0:2:0:0:
306,248,59642,6,0,P|298:284|282:346,1,92.5,10|0,0:2|0:2,0:2:0:0:
267,100,59880,6,0,P|238:74|192:30,1,92.5,2|0,1:2|0:2,0:2:0:0:
419,137,60118,6,0,P|454:124|515:107,1,92.5,2|0,1:2|0:2,0:2:0:0:
306,250,60356,5,6,1:2:0:0:
258,277,60446,1,0,3:2:0:0:
208,264,60535,1,0,3:2:0:0:
175,221,60624,1,0,3:2:0:0:
135,187,60714,1,8,3:2:0:0:
81,193,60803,1,0,3:2:0:0:
48,230,60892,5,2,1:2:0:0:
58,237,60981,1,0,3:2:0:0:
70,240,61071,1,0,3:2:0:0:
82,238,61160,1,0,1:2:0:0:
92,230,61249,1,8,3:2:0:0:
100,220,61339,1,0,3:2:0:0:
131,180,61428,5,6,1:2:0:0:
184,182,61517,1,0,3:2:0:0:
228,216,61606,1,0,3:2:0:0:
252,265,61696,1,0,3:2:0:0:
244,320,61785,1,8,3:2:0:0:
208,361,61874,1,0,3:2:0:0:
156,367,61964,5,2,1:2:0:0:
147,357,62053,1,0,3:2:0:0:
141,345,62142,1,0,3:2:0:0:
139,332,62231,1,0,3:2:0:0:
139,319,62321,1,0,1:2:0:0:
146,308,62410,1,0,1:2:0:0:
169,276,62499,5,6,1:2:0:0:
70,83,62678,1,2,1:2:0:0:
47,328,62856,5,10,0:2:0:0:
175,127,63035,1,2,3:2:0:0:
309,357,63214,6,0,P|344:364|386:383,1,74.9249977134705,0|0,1:2|0:2,0:2:0:0:
477,343,63571,6,0,P|415:366|380:247,1,208.125,6|0,1:2|0:2,0:2:0:0:
423,205,63928,2,0,L|412:148,1,52.7249985920907,2|0,1:2|0:2,0:2:0:0:
154,250,64106,6,0,P|216:273|251:154,1,208.125,10|0,0:2|0:2,0:2:0:0:
203,110,64464,2,0,L|214:53,1,52.7249985920907,2|0,1:2|0:2,0:2:0:0:
287,0,64642,6,0,L|327:7,3,35.1499990613938,0|0|0|8,3:2|3:2|3:2|0:2,0:0:0:0:
67,26,64999,6,0,P|110:29|133:75,1,74.9250002858162,0|0,3:2|0:0,0:0:0:0:
261,165,65178,2,0,P|304:162|327:116,1,74.9250002858162,2|0,1:2|0:0,0:0:0:0:
400,58,65356,6,0,P|410:103|417:150,1,86.0250006563187,2|0,3:2|0:2,0:2:0:0:
443,209,65535,2,0,P|433:164|426:117,1,86.0250006563187,2|0,1:2|0:2,0:2:0:0:
512,7,65714,6,0,P|502:52|495:99,1,86.0250006563187,10|0,0:2|3:2,0:2:0:0:
348,300,65893,2,0,P|358:255|365:208,1,86.0250006563187,2|0,3:2|3:2,0:0:0:0:
224,63,66071,5,2,1:2:0:0:
212,58,66249,1,2,0:2:0:0:
61,204,66428,6,0,P|84:154|185:164,1,138.75,10|0,0:2|3:2,0:2:0:0:
237,132,66696,1,0,3:2:0:0:
243,137,66785,2,0,P|251:177|259:225,1,69.375,2|0,1:2|0:2,0:2:0:0:
358,356,66964,2,0,P|374:282|397:198,1,138.75,10|0,0:2|3:2,0:2:0:0:
397,90,67321,5,2,1:2:0:0:
397,90,67410,1,0,3:2:0:0:
397,90,67499,2,0,P|413:112|465:117,1,69.375,2|0,1:2|0:2,0:2:0:0:
502,36,67678,2,0,P|480:10|446:4,1,69.375,10|0,0:2|3:2,0:2:0:0:
258,17,67856,6,0,P|275:84|290:151,1,138.75,0|0,3:2|3:2,0:0:0:0:
66,271,68214,6,0,P|37:280|-11:318,1,69.375,2|0,1:2|0:2,0:2:0:0:
231,220,68392,2,0,P|259:239|292:250,1,69.375,2|0,1:2|0:2,0:2:0:0:
126,154,68571,6,0,P|113:109|95:51,1,80.4750024559022,12|0,1:2|0:2,0:2:0:0:
160,307,68749,2,0,P|148:345|137:384,1,80.4750024559022,2|0,1:2|0:2,0:2:0:0:
511,369,68928,6,0,P|467:362|449:303,1,91.5750008733273,2|0,1:2|0:2,0:2:0:0:
365,292,69106,2,0,P|374:242|431:222,1,91.5750008733273,2|0,3:2|0:2,0:2:0:0:
496,201,69285,6,0,P|487:158|474:118,1,63.8250012173653,4|0,1:2|0:2,0:2:0:0:
336,83,69464,2,0,P|377:96|418:105,1,63.8250012173653,2|0,3:2|3:2,0:2:0:0:
512,10,69642,2,0,P|479:39|451:70,1,63.8250012173653,2|0,1:2|0:0,0:0:0:0:
279,236,69821,6,0,P|235:234|209:198,1,91.5750008733273,4|0,1:2|0:2,0:2:0:0:
2,283,69999,2,0,P|44:269|60:228,1,91.5750008733273,0|0,1:2|0:2,0:2:0:0:
106,74,70178,6,0,P|133:207|165:385,1,274.725002619982,6|0,1:2|0:2,0:2:0:0:
154,351,70535,1,8,0:2:0:0:
376,3,70714,6,0,P|349:11|333:65,1,74.9250002858162,2|0,1:2|0:2,0:2:0:0:
290,66,70892,2,0,P|292:94|334:124,1,74.9250002858162,6|0,1:2|0:2,0:2:0:0:
278,230,71071,6,0,P|334:211|377:200,1,74.9250002858162,2|0,3:2|0:2,0:2:0:0:
397,153,71249,2,0,P|453:134|496:123,1,74.9250002858162,2|0,1:2|0:2,0:2:0:0:
512,381,71428,6,0,P|485:373|469:319,1,74.9250002858162,10|0,0:2|0:2,0:2:0:0:
401,289,71606,2,0,P|403:261|445:231,1,74.9250002858162,2|0,1:2|3:2,0:2:0:0:
316,367,71785,6,0,B|266:393|223:366|211:322|216:317|222:312|214:263|160:234|106:273,1,258.075001968956,6|0,1:2|0:2,0:2:0:0:
111,279,72142,1,8,0:2:0:0:
20,29,72321,6,0,P|12:70|41:101,1,86.0250006563187,2|0,1:2|0:0,0:2:0:0:
98,12,72499,2,0,P|125:39|104:96,1,86.0250006563187,2|0,1:2|0:0,0:2:0:0:
21,182,72678,5,2,1:2:0:0:
21,182,72767,1,2,3:2:0:0:
21,182,72856,2,0,P|88:121|165:147,1,172.050001312637,10|2,0:2|3:2,0:2:0:0:
276,298,73124,5,2,3:2:0:0:
270,303,73214,2,0,P|301:335|354:328,1,86.0250006563187,2|0,1:2|3:2,0:2:0:0:
476,173,73392,2,0,P|440:185|391:235,1,86.0250006563187,10|0,0:2|0:2,0:2:0:0:
471,363,73571,2,0,P|504:320|489:270,1,86.0250006563187,2|2,1:2|3:2,0:2:0:0:
309,114,73749,5,2,1:2:0:0:
300,111,73839,1,2,3:2:0:0:
289,110,73928,2,0,P|324:225|359:367,1,258.075001968956,10|0,3:2|3:2,0:0:0:0:
172,291,74285,6,0,P|201:239|245:241,1,86.0250006563187,10|0,3:2|3:0,0:0:0:0:
464,114,74464,2,0,P|436:121|391:76,1,86.0250006563187,2|0,1:2|3:2,0:2:0:0:
326,11,74642,5,4,1:2:0:0:
256,192,74731,12,8,76785,0:0:0:0:
396,151,77142,6,0,P|435:161|461:175,1,61.0500018630982,2|0,3:2|1:2,0:0:0:0:
471,67,77499,6,0,B|420:41|377:68|365:113|369:117|376:123|367:171|313:201|259:161,1,255.300004869461,4|8,1:2|0:2,0:2:0:0:
275,170,78035,2,0,P|263:129|254:96,1,63.8250012173653,2|0,3:2|0:0,0:0:0:0:
258,108,78392,1,8,0:2:0:0:
14,241,78571,6,0,B|64:215|107:242|119:287|115:291|108:297|117:345|171:375|225:335,1,255.300004869461,2|0,1:2|0:2,0:2:0:0:
280,307,79017,1,0,3:2:0:0:
285,303,79106,2,0,P|277:260|262:220,1,63.8250012173653,0|0,1:2|3:2,0:2:0:0:
218,180,79285,1,0,3:2:0:0:
288,70,79464,5,10,0:2:0:0:
295,64,79553,1,0,3:0:0:0:
303,60,79642,2,0,P|342:63|371:108,1,74.9250002858162,2|0,3:2|0:2,0:2:0:0:
445,80,79821,2,0,P|448:118|409:155,1,74.9250002858162,2|0,1:2|0:2,0:2:0:0:
356,184,79999,1,10,0:2:0:0:
177,262,80178,5,0,3:2:0:0:
168,266,80267,1,0,3:2:0:0:
160,270,80356,2,0,P|250:290|406:366,1,255.300004869461,2|8,1:2|0:2,0:2:0:0:
396,359,80892,2,0,P|359:373|323:353,1,63.8250012173653,2|0,3:2|0:0,0:0:0:0:
337,365,81249,1,8,0:2:0:0:
38,276,81428,6,0,P|128:256|284:180,1,255.300004869461,2|0,1:2|3:2,0:2:0:0:
443,6,81964,6,0,P|411:32|419:88,1,86.0250006563187,2|0,1:2|0:2,0:2:0:0:
512,42,82142,2,0,P|511:83|478:110,1,86.0250006563187,2|0,1:2|0:2,0:2:0:0:
351,114,82321,1,8,0:2:0:0:
463,185,82499,6,0,P|422:130|342:132,1,127.650002434731,0|0,3:2|1:2,0:2:0:0:
171,231,82856,1,10,0:2:0:0:
296,325,83035,5,2,1:2:0:0:
302,319,83124,1,0,3:2:0:0:
306,311,83214,2,0,P|294:247|248:95,1,210.899994368363,6|8,1:2|0:2,0:2:0:0:
95,81,83749,2,0,P|142:80|177:128,1,105.449997184181,2|0,1:2|3:2,0:2:0:0:
382,0,84106,2,0,P|342:24|338:84,1,105.449997184181,4|0,1:2|3:2,0:2:0:0:
451,187,84374,1,0,3:2:0:0:
459,193,84464,6,0,B|425:241|373:237|340:202|342:196|345:188|314:148|251:147|221:209,1,277.5,6|0,1:2|1:2,0:2:0:0:
223,205,84999,1,0,3:2:0:0:
99,225,85178,6,0,P|178:245|335:286,1,208.125,10|0,0:2|0:0,0:2:0:0:
301,287,85535,1,2,1:2:0:0:
29,384,85714,2,0,P|44:326|125:318,1,138.75,10|0,0:2|3:2,0:2:0:0:
320,375,86071,5,6,1:2:0:0:
212,222,86249,2,0,P|230:153|260:77,1,138.75,0|0,1:2|0:0,0:2:0:0:
444,29,86606,5,10,0:2:0:0:
365,199,86784,2,0,P|296:217|215:229,1,138.75,2|2,3:2|1:2,0:2:0:0:
140,84,87142,5,2,1:2:0:0:
48,361,87321,1,2,1:2:0:0:
48,361,87856,6,0,P|26:378|-5:378,2,55.5,2|2|2,0:2|0:2|0:2,0:0:0:0:
59,367,88928,1,4,3:2:0:0:
376,273,96071,6,0,P|349:301|352:341,2,81.584999253067,2|2|2,0:2|0:0|0:0,0:0:0:0:
451,305,96785,2,0,P|454:344|427:373,2,81.400002484131,2|2|2,0:2|0:2|0:2,0:0:0:0:
497,201,97499,5,6,1:2:0:0:
451,231,97589,1,0,3:2:0:0:
397,216,97678,1,0,3:2:0:0:
366,172,97767,1,0,3:2:0:0:
362,120,97856,1,0,3:2:0:0:
397,82,97946,1,0,3:2:0:0:
448,72,98035,5,10,0:2:0:0:
447,84,98124,1,0,3:2:0:0:
446,96,98214,1,0,3:2:0:0:
445,108,98303,1,0,1:2:0:0:
445,120,98392,1,0,3:2:0:0:
444,132,98481,1,0,3:2:0:0:
453,162,98571,5,6,1:2:0:0:
413,199,98660,1,0,3:2:0:0:
358,205,98749,1,0,3:2:0:0:
312,174,98839,1,0,3:2:0:0:
271,136,98928,1,0,3:2:0:0:
216,135,99017,1,0,3:2:0:0:
180,168,99106,5,10,0:2:0:0:
181,180,99195,1,0,3:2:0:0:
182,192,99285,1,0,3:2:0:0:
183,204,99374,1,0,3:2:0:0:
183,216,99463,1,0,1:2:0:0:
184,228,99552,1,0,1:2:0:0:
168,256,99642,5,6,1:2:0:0:
362,71,99821,1,2,1:2:0:0:
362,71,99910,1,0,3:2:0:0:
362,71,99999,2,0,P|333:99|268:80,1,91.5750027946473,6|0,1:2|0:2,0:2:0:0:
159,0,100356,6,0,P|197:5|223:35,1,80.4750024559022,2|0,1:2|0:2,0:2:0:0:
188,186,100535,2,0,P|182:146|202:113,1,80.4750024559022,2|0,1:2|3:2,0:2:0:0:
350,204,100714,6,0,P|218:221|98:305,1,274.725002619982,12|0,0:2|0:2,0:2:0:0:
30,182,101071,6,0,P|68:174|109:214,1,86.0250006563187,2|0,1:2|0:2,0:2:0:0:
217,317,101249,2,0,P|252:348|303:331,1,86.0250006563187,2|0,1:2|0:2,0:2:0:0:
357,302,101428,1,10,1:2:0:0:
507,85,101606,6,0,P|497:41|487:-2,1,74.9249977134705,2|0,1:2|0:2,0:2:0:0:
512,90,101964,6,0,B|490:148|427:153|395:121|396:112|399:103|358:69|299:89|279:141,1,274.725002619982,6|0,1:2|0:2,0:2:0:0:
127,196,102321,2,0,P|167:172|222:192,1,91.5750008733273,10|0,0:2|0:2,0:2:0:0:
357,285,102499,6,0,P|302:272|282:220,1,116.549996443176,0|0,3:2|1:2,0:2:0:0:
39,16,102856,5,10,0:2:0:0:
44,22,102946,1,0,3:2:0:0:
49,27,103035,2,0,L|31:122,1,69.375,2|0,3:2|0:2,0:2:0:0:
105,374,103214,6,0,P|151:376|179:339,1,80.4750024559022,2|0,1:2|0:2,0:2:0:0:
282,221,103392,2,0,P|328:219|356:256,1,80.4750024559022,2|0,1:2|3:2,0:2:0:0:
273,384,103571,6,0,P|250:285|204:143,1,208.125,12|0,0:2|0:2,0:2:0:0:
512,0,103928,6,0,P|488:10|451:36,1,58.2749982215882,2|0,1:2|0:2,0:2:0:0:
491,221,104106,2,0,P|485:176|470:137,1,74.9250002858162,2|0,1:2|0:2,0:2:0:0:
293,50,104285,2,0,P|330:81|381:100,1,91.5750008733273,10|0,1:2|3:2,0:2:0:0:
485,228,104464,6,0,P|453:238|409:276,1,74.9249977134705,2|0,1:2|0:2,0:2:0:0:
308,283,104821,6,0,P|373:263|432:400,1,224.775000857449,6|0,1:2|0:2,0:2:0:0:
429,378,105178,1,10,0:2:0:0:
205,312,105356,6,0,P|223:218|235:179,1,116.549996443176,0|0,3:2|1:2,0:2:0:0:
0,28,105714,6,0,P|12:69|63:83,1,80.4750024559022,10|0,0:2|3:2,0:2:0:0:
99,141,105892,2,0,P|141:131|161:92,1,80.4750024559022,2|0,1:2|3:2,0:2:0:0:
225,13,106071,5,6,1:2:0:0:
377,211,106249,1,0,3:2:0:0:
508,71,106428,5,2,1:2:0:0:
291,174,106606,1,2,3:2:0:0:
452,379,106785,5,0,1:2:0:0:
370,133,106964,1,0,3:2:0:0:
370,133,107053,1,0,3:2:0:0:
370,133,107142,2,0,P|380:95|392:46,3,63.8250012173653,8|0|0|0,0:2|3:2|3:2|3:2,0:0:0:0:
224,159,107499,6,0,P|255:175|260:237,1,92.5,6|0,1:2|0:2,0:2:0:0:
106,237,107737,2,0,P|104:202|155:166,1,92.5,2|0,1:2|0:2,0:2:0:0:
234,299,107976,2,0,P|204:317|148:291,1,92.5,2|0,1:2|0:2,0:2:0:0:
94,90,108214,6,0,P|126:133|151:181,1,92.5,2|0,1:2|0:2,0:2:0:0:
112,381,108452,6,0,P|133:331|162:285,1,92.5,2|0,1:2|0:2,0:2:0:0:
358,214,108690,6,0,P|304:220|249:218,1,92.5,2|0,1:2|0:2,0:2:0:0:
212,50,108928,5,6,1:2:0:0:
262,28,109017,1,0,3:2:0:0:
316,47,109106,1,0,3:2:0:0:
350,92,109196,1,0,3:2:0:0:
385,140,109285,1,8,3:2:0:0:
440,154,109374,1,0,3:2:0:0:
483,120,109464,5,2,1:2:0:0:
473,111,109553,1,0,3:2:0:0:
460,107,109642,1,0,3:2:0:0:
447,106,109731,1,0,1:2:0:0:
434,108,109821,1,8,3:2:0:0:
422,113,109910,1,0,3:2:0:0:
386,151,109999,5,6,1:2:0:0:
336,129,110088,1,0,3:2:0:0:
282,148,110177,1,0,3:2:0:0:
248,193,110267,1,0,3:2:0:0:
213,241,110356,1,8,3:2:0:0:
158,255,110445,1,0,3:2:0:0:
123,217,110535,5,2,1:2:0:0:
133,208,110624,1,0,3:2:0:0:
146,204,110713,1,0,3:2:0:0:
159,203,110802,1,0,3:2:0:0:
172,205,110892,1,0,1:2:0:0:
184,210,110981,1,0,1:2:0:0:
209,250,111071,5,6,1:2:0:0:
339,9,111249,1,2,1:2:0:0:
408,326,111428,5,10,0:2:0:0:
246,64,111606,1,2,3:2:0:0:
48,261,111785,6,0,P|40:209|27:168,1,94.3500017995835,6|2,1:2|0:2,0:0:0:0:
123,244,112142,2,0,P|115:192|102:151,1,94.3500017995835,2|2,0:2|1:2,0:0:0:0:
301,340,112499,6,0,P|309:288|318:251,1,72.1499966972353,2|2,0:2|0:2,0:0:0:0:
227,322,112856,2,0,P|235:270|246:233,1,72.1499966972353,2|10,0:2|0:2,0:0:0:0:
426,384,113214,6,0,P|421:344|414:313,1,49.949998475647,2|10,0:2|0:2,0:0:0:0:
500,369,113571,2,0,P|493:327|486:302,1,49.949998475647,2|2,1:2|0:2,0:0:0:0:
443,182,113928,5,10,0:2:0:0:
439,174,114106,2,0,P|420:143|351:151,1,99.8999969512941,0|0,1:2|0:2,0:0:0:0:
300,191,114642,5,2,0:2:0:0:
256,192,114731,12,0,118214,0:2:0:0:
