osu file format v14

[General]
AudioFilename: audio.mp3
AudioLeadIn: 0
PreviewTime: 35684
Countdown: 0
SampleSet: Soft
StackLeniency: 0.3
Mode: 0
LetterboxInBreaks: 0
WidescreenStoryboard: 0

[Editor]
Bookmarks: 74382
DistanceSpacing: 0.3
BeatDivisor: 6
GridSize: 4
TimelineZoom: 1.900006

[Metadata]
Title:Kodomo Live
TitleUnicode:コドモライブ
Artist:onoken feat. asami
ArtistUnicode:onoken feat. asami
Creator:milr_
Version:Insane
Source:pop'n music Sunny Park
Tags:Atipir [_White_Music_] White Music 子供 warabe step わらべうた dubstep original soundtrack vol.1 Electronic Japanese Asami Mori ラピストリア Lapistoria éclale うさぎと猫と少年の夢 colette -Summer- クプロ・ミミニャミ・パステルくんのみんなで宇宙戦争!! Q-pro, Mimi, Nyami & Pastel-kun no minna de uchuu sensou!! REFLEC BEAT groovin'!! Upper 発見!よみがえったBEMANI遺跡 Hakken! Yomigaetta iseki VOLZZA 2 jubeat prop Qubell clan festo
BeatmapID:3691453
BeatmapSetID:1800578

[Difficulty]
HPDrainRate:6.5
CircleSize:5
OverallDifficulty:8
ApproachRate:9
SliderMultiplier:1.4
SliderTickRate:1

[Events]
//Background and Video events
0,0,"kodomo live.jpg",0,0
//Break Periods
2,74582,79536
//Storyboard Layer 0 (Background)
//Storyboard Layer 1 (Fail)
//Storyboard Layer 2 (Pass)
//Storyboard Layer 3 (Foreground)
//Storyboard Layer 4 (Overlay)
//Storyboard Sound Samples

[TimingPoints]
411,410.958904109589,4,2,1,50,1,0
411,-200,4,2,1,50,0,0
5342,-100,4,2,1,60,0,0
6164,410.958904109589,4,2,1,70,1,0
6164,-80,4,2,1,70,0,0
6369,-80,4,2,1,70,0,0
6420,-80,4,2,1,70,0,0
19314,-133.333333333333,4,2,1,60,0,0
20958,-117.647058823529,4,2,1,60,0,0
21780,-80,4,2,1,60,0,0
22602,-100,4,2,1,60,0,0
48903,-200,4,2,1,60,0,0
51369,-100,4,2,1,60,0,0
52191,-80,4,2,1,70,0,0
60410,-133.333333333333,4,2,1,70,0,0
61232,410.958904109589,4,2,1,70,1,0
61232,-80,4,2,1,70,0,0
80958,-74.0740740740741,4,2,1,75,0,1
84245,-100,4,2,1,75,0,0
84656,-74.0740740740741,4,2,1,75,0,1
91642,-74.0740740740741,4,2,1,75,0,0
94588,-74.0740740740741,4,2,1,5,0,0
95219,428.571428571429,4,2,1,30,1,0
96504,444.444444444444,4,2,1,30,1,0
96948,444.444444444444,4,2,1,30,1,0
97836,451.127819548872,4,2,1,30,1,0
98287,458.015267175573,4,2,1,30,1,0
98745,468.75,4,2,1,30,1,0
99213,454.545454545455,4,2,1,30,1,0
99667,468.75,4,2,1,30,1,0
100291,508.474576271186,4,2,1,30,1,0
100460,535.714285714286,4,2,1,30,1,0
100638,606.060606060606,4,2,1,30,1,0
100840,545.454545454546,4,2,1,30,1,0
101010,666.666666666667,4,2,1,30,1,0
101227,810.810810810811,4,2,1,30,1,0
101767,869.565217391304,4,2,1,30,1,0
102056,789.473684210526,4,2,1,30,1,0

[Colours]
Combo1 : 255,81,159
Combo2 : 168,89,255
Combo3 : 255,117,77
Combo4 : 74,106,255

[HitObjects]
356,177,411,6,0,B|328:149|328:149|283:161,1,70,2|0,0:0|0:0,0:0:0:0:
160,191,1232,2,0,B|188:219|188:219|233:207,1,70,2|0,0:0|0:0,0:0:0:0:
217,211,2054,6,0,L|225:154,1,46.6666666666667,2|0,0:0|0:0,0:0:0:0:
313,128,2465,2,0,L|303:70,1,46.6666666666667,2|0,0:0|0:0,0:0:0:0:
171,14,2876,1,2,0:0:0:0:
171,14,3287,2,0,P|203:19|229:23,1,46.6666666666667,0|0,0:0|0:0,0:0:0:0:
305,82,3698,6,0,P|349:73|388:66,1,70,2|0,0:0|0:0,0:0:0:0:
247,154,4520,1,2,0:0:0:0:
247,154,4931,2,0,P|213:147|186:141,1,46.6666666666667,0|0,0:0|0:0,0:0:0:0:
75,243,5342,5,4,3:2:0:0:
69,252,5479,1,0,0:0:0:0:
64,262,5616,1,0,0:0:0:0:
106,313,5753,2,0,L|113:363,2,46.6666666666667,0|8|0,3:0|0:0|3:0,0:0:0:0:
176,183,6164,6,0,B|162:192|162:192|172:269,1,87.5,0|0,3:2|0:0,0:0:0:0:
165,274,6420,2,0,L|204:280,2,21.875,0|0|0,3:0|3:0|3:0,0:0:0:0:
222,333,6574,5,0,3:0:0:0:
287,317,6711,1,0,3:0:0:0:
351,303,6848,1,0,3:0:0:0:
265,384,6985,5,8,0:0:0:0:
321,205,7396,2,0,P|337:162|273:142,1,116.666666666667,0|2,3:0|0:0,0:0:0:0:
270,144,7807,6,0,L|291:19,1,116.666666666667,0|2,3:0|0:0,0:0:0:0:
440,1,8218,1,2,3:2:0:0:
498,33,8355,1,2,3:2:0:0:
461,88,8492,1,2,3:2:0:0:
497,145,8629,2,0,B|487:149|487:149|468:279,1,116.666666666667,8|0,0:0|3:0,0:0:0:0:
393,303,9040,5,8,0:0:0:0:
469,361,9177,1,8,0:0:0:0:
484,269,9314,1,8,0:0:0:0:
384,307,9451,6,0,B|372:282|372:282|336:270|336:270|324:245,1,87.5,0|0,3:0|0:0,0:0:0:0:
321,242,9708,2,0,L|292:249,2,21.875,0|0|0,3:0|3:0|3:0,0:0:0:0:
280,384,9862,1,0,3:0:0:0:
221,354,9999,1,0,3:0:0:0:
248,296,10136,1,0,3:0:0:0:
96,380,10273,5,8,0:0:0:0:
61,206,10684,2,0,P|75:155|16:152,1,116.666666666667,0|2,3:2|3:2,0:0:0:0:
12,152,11095,5,0,3:2:0:0:
26,88,11232,1,0,3:2:0:0:
42,24,11369,1,2,3:2:0:0:
107,48,11506,2,0,B|115:40|115:40|227:22,1,116.666666666667,0|2,3:2|3:2,0:0:0:0:
154,231,11917,6,0,B|132:201|132:201|99:211|99:211|72:201,1,87.5,8|0,0:0|0:0,0:0:0:0:
74,200,12174,2,0,L|38:205,2,21.875,0|0|0,3:2|3:2|3:2,0:0:0:0:
13,253,12328,1,8,0:2:0:0:
191,95,12739,6,0,B|204:83|204:83|250:105|250:105|277:99,1,87.5,0|0,3:2|0:0,0:0:0:0:
276,95,12996,2,0,L|269:130,2,21.875,0|0|0,3:2|3:2|3:2,0:0:0:0:
254,34,13150,5,0,3:2:0:0:
318,16,13287,1,0,3:2:0:0:
384,0,13424,1,0,3:2:0:0:
323,163,13561,6,0,P|323:217|383:203,1,116.666666666667,8|0,0:0|0:0,0:0:0:0:
382,209,13972,2,0,B|400:191|400:191|496:208,1,116.666666666667,0|2,3:2|3:2,0:0:0:0:
489,206,14383,6,0,B|497:176|497:176|477:157,1,58.3333333333333,0|0,3:0|0:0,0:0:0:0:
407,272,14657,1,2,3:2:0:0:
482,360,14794,2,0,L|467:286,1,58.3333333333333,0|0,3:2|0:0,0:0:0:0:
478,293,15068,1,2,3:2:0:0:
278,365,15205,5,8,0:0:0:0:
303,269,15342,1,8,0:0:0:0:
373,335,15479,1,8,0:0:0:0:
268,358,15616,2,0,B|254:347|254:347|122:368,1,116.666666666667,4|2,3:2|0:2,0:0:0:0:
25,311,16027,6,0,P|34:267|102:267,1,116.666666666667,4|0,3:2|0:0,0:0:0:0:
89,384,16437,2,0,L|109:257,1,116.666666666667,8|0,0:0|0:0,0:0:0:0:
22,165,16848,6,0,B|31:147|31:147|12:37,1,116.666666666667,0|0,3:0|3:0,0:0:0:0:
91,11,17259,1,8,0:0:0:0:
87,23,17396,1,2,0:0:0:0:
83,36,17533,1,2,0:0:0:0:
177,131,17670,5,0,3:0:0:0:
112,114,17807,1,0,3:0:0:0:
48,95,17944,1,0,3:0:0:0:
196,222,18081,5,8,0:0:0:0:
276,203,18218,1,0,3:0:0:0:
196,222,18355,1,0,3:0:0:0:
280,20,18492,6,0,B|286:32|286:32|374:56|374:56|382:71,1,116.666666666667,8|0,0:0|3:0,0:0:0:0:
459,0,18903,2,0,B|446:5|446:5|408:75|408:75|381:81,1,116.666666666667,12|0,0:0|0:0,0:0:0:0:
480,186,19314,6,0,L|488:147,2,35.0000013351441,2|2|2,0:0|0:0|0:0,0:0:0:0:
418,217,19725,2,0,L|426:262,2,35.0000013351441,2|2|2,0:0|0:0|0:0,0:0:0:0:
321,160,20136,6,0,L|329:121,2,35.0000013351441,2|2|2,0:0|0:0|0:0,0:0:0:0:
252,232,20547,1,10,0:0:0:0:
51,167,20958,6,0,L|-3:159,2,39.6666674232483,8|2|2,0:0|0:0|0:0,0:0:0:0:
136,208,21369,2,0,L|79:217,2,39.6666674232483,2|2|2,0:0|0:0|0:0,0:0:0:0:
336,142,21780,6,0,B|299:127|299:127|258:156|258:156|224:141,1,116.666666666667,6|2,0:0|0:0,0:0:0:0:
226,141,22122,1,0,0:0:0:0:
218,137,22191,1,0,3:0:0:0:
188,252,22328,1,8,0:0:0:0:
297,223,22465,1,0,3:0:0:0:
512,187,22602,6,0,B|475:153|475:153|409:171|409:171|400:193,2,140,0|2|8,3:2|0:0|0:0,0:0:0:0:
512,187,23835,1,2,0:0:0:0:
306,384,24246,6,0,P|295:357|348:315,1,93.3333333333333,0|0,3:2|0:0,0:0:0:0:
478,321,24657,2,0,B|472:334|472:334|384:348,1,93.3333333333333,2|0,3:2|3:2,0:0:0:0:
415,200,25068,6,0,B|421:178|421:178|405:140|405:140|419:111,1,93.3333333333333,8|0,0:0|3:2,0:0:0:0:
449,12,25479,2,0,B|492:30|492:30|478:67|478:67|491:97,1,93.3333333333333,10|0,0:0|0:0,0:0:0:0:
486,83,25890,6,0,B|464:70|464:70|320:98,1,140,0|2,3:2|0:0,0:0:0:0:
351,91,26574,1,0,3:2:0:0:
195,20,26711,6,0,B|217:7|217:7|361:35,1,140,8|2,0:0|0:0,0:0:0:0:
329,28,27396,1,0,3:2:0:0:
187,173,27533,6,0,P|200:144|264:149,1,93.3333333333333,0|0,3:2|0:0,0:0:0:0:
253,239,27944,2,0,L|265:147,1,93.3333333333333,2|0,3:2|3:2,0:0:0:0:
180,350,28355,6,0,B|151:339|151:339|118:366|118:366|77:361,1,93.3333333333333,8|0,0:0|3:2,0:0:0:0:
2,335,28766,1,10,0:0:0:0:
63,269,28903,1,8,0:0:0:0:
92,357,29040,1,8,0:0:0:0:
91,202,29177,6,0,B|104:188|104:188|85:74,1,93.3333333333333,0|0,3:0|0:0,0:0:0:0:
9,31,29588,2,0,B|26:17|26:17|123:34,1,93.3333333333333,10|0,0:0|0:0,0:0:0:0:
183,100,29999,6,0,L|69:118,1,93.3333333333333,0|0,3:0|0:0,0:0:0:0:
221,9,30410,2,0,B|228:21|228:21|320:32,1,93.3333333333333,10|0,0:0|0:0,0:0:0:0:
352,165,30821,5,0,3:0:0:0:
352,165,31232,2,0,L|364:62,1,93.3333333333333,10|2,0:0|0:0,0:0:0:0:
152,228,31643,6,0,B|164:208|164:208|197:217,1,46.6666666666667,0|0,3:0|0:0,0:0:0:0:
202,13,31917,2,0,B|213:33|213:33|189:57,1,46.6666666666667,8|0,0:0|0:0,0:0:0:0:
352,165,32191,2,0,B|328:164|328:164|319:131,1,46.6666666666667,0|0,3:0|0:0,0:0:0:0:
141,230,32465,6,0,B|117:208|117:208|79:221|79:221|64:242|64:242|21:225|21:225|30:239|30:239|43:285|43:285|29:328,1,233.333333333333,0|0,3:0|3:0,0:0:0:0:
186,384,33287,5,8,0:0:0:0:
155,320,33424,1,0,3:0:0:0:
91,344,33561,1,0,3:0:0:0:
195,383,33698,2,0,L|258:368,1,46.6666666666667,8|0,0:0|0:0,0:0:0:0:
328,351,33972,5,2,0:0:0:0:
391,336,34109,2,0,B|436:325|436:325|483:372,1,93.3333333333333,8|0,0:0|3:0,0:0:0:0:
485,266,34520,2,0,L|464:386,1,93.3333333333333,8|0,0:0|3:0,0:0:0:0:
414,195,34931,5,0,3:0:0:0:
400,130,35068,1,0,3:0:0:0:
385,66,35205,1,0,3:0:0:0:
437,21,35342,6,0,P|470:20|479:81,1,93.3333333333333,8|0,0:2|0:0,0:0:0:0:
477,79,35753,6,0,L|350:61,1,93.3333333333333,6|0,3:2|0:0,0:0:0:0:
385,66,36164,1,2,3:2:0:0:
267,21,36574,6,0,B|247:40|247:40|258:111,1,93.3333333333333,2|0,3:2|0:0,0:0:0:0:
316,139,36985,2,0,B|332:153|332:153|316:250,1,93.3333333333333,2|0,3:2|0:0,0:0:0:0:
242,328,37396,6,0,P|227:282|137:276,1,140,2|2,3:2|3:2,0:0:0:0:
145,270,38081,1,2,0:0:0:0:
33,371,38218,6,0,P|77:365|94:324,1,93.3333333333333,2|0,3:2|0:0,0:0:0:0:
90,315,38629,2,0,P|77:300|42:305,2,46.6666666666667,10|0|0,0:2|0:0|0:0,0:0:0:0:
189,366,39040,6,0,L|316:384,1,93.3333333333333,2|0,3:2|0:0,0:0:0:0:
281,379,39451,1,2,3:2:0:0:
219,235,39862,6,0,B|199:216|199:216|210:145,1,93.3333333333333,2|0,3:2|0:0,0:0:0:0:
268,117,40273,2,0,B|284:103|284:103|268:5,1,93.3333333333333,2|0,3:2|0:0,0:0:0:0:
138,3,40684,6,0,B|70:11|70:11|63:7|63:7|-13:17,2,140,2|2|2,3:2|3:2|3:2,0:0:0:0:
146,9,41643,2,0,L|208:18,1,46.6666666666667,2|2,0:0|0:0,0:0:0:0:
312,40,41917,5,8,0:0:0:0:
317,30,42054,1,2,0:0:0:0:
322,21,42191,1,2,0:0:0:0:
274,95,42328,5,0,3:2:0:0:
213,62,42465,1,2,3:2:0:0:
172,116,42602,1,2,3:2:0:0:
234,172,42739,6,0,B|223:184|223:184|241:284,1,93.3333333333333,12|0,0:0|0:0,0:0:0:0:
320,373,43150,5,0,3:2:0:0:
323,363,43287,1,2,3:2:0:0:
326,353,43424,1,2,3:2:0:0:
494,363,43561,6,0,B|466:326|466:326|411:344,1,93.3333333333333,12|0,0:0|0:0,0:0:0:0:
370,294,43972,6,0,L|363:241,1,46.6666666666667,0|2,3:2|3:2,0:0:0:0:
420,160,44246,1,2,3:2:0:0:
418,150,44383,2,0,L|406:54,1,93.3333333333333,12|0,0:0|0:0,0:0:0:0:
452,10,44794,5,0,3:2:0:0:
512,40,44931,1,2,3:2:0:0:
485,101,45068,1,2,3:2:0:0:
472,205,45205,6,0,L|462:260,1,46.6666666666667,12|0,0:0|0:0,0:0:0:0:
469,260,45479,1,0,3:2:0:0:
405,366,45616,6,0,P|386:366|370:339,1,46.6666666666667,10|0,0:0|0:0,0:0:0:0:
262,327,45890,2,0,P|271:310|302:310,1,46.6666666666667,8|0,0:0|0:0,0:0:0:0:
367,222,46164,2,0,P|376:238|361:265,1,46.6666666666667,10|0,0:0|0:0,0:0:0:0:
405,366,46437,6,0,P|380:355|374:311,1,46.6666666666667,10|0,0:0|0:0,0:0:0:0:
239,233,46711,2,0,P|260:215|300:232,1,46.6666666666667,8|0,0:0|0:0,0:0:0:0:
434,155,46985,1,10,0:0:0:0:
409,214,47122,1,2,3:2:0:0:
346,193,47259,6,0,L|317:45,1,140,0|10,3:2|0:0,0:0:0:0:
319,55,47944,1,0,3:2:0:0:
494,11,48081,6,0,P|476:57|461:59,1,46.6666666666667,6|0,3:2|0:0,0:0:0:0:
426,93,48355,1,0,3:2:0:0:
426,93,48492,2,0,P|386:86|378:73,1,46.6666666666667,10|0,0:0|3:2,0:0:0:0:
319,55,48766,1,0,3:2:0:0:
313,47,48903,6,0,B|271:19|271:19|214:49|214:49|208:87|208:87|141:77|141:77|119:48|119:48|63:38|63:38|41:59,1,326.666666666667,0|0,3:2|0:0,0:0:0:0:
10,130,50958,5,2,0:0:0:0:
15,119,51095,1,2,0:0:0:0:
21,108,51232,1,2,0:0:0:0:
32,233,51369,6,0,L|54:346,1,93.3333333333333,4|0,3:2|3:0,0:0:0:0:
71,171,51780,5,0,3:0:0:0:
122,249,51917,1,8,0:0:0:0:
204,207,52054,1,0,3:0:0:0:
260,175,52191,6,0,B|304:204|304:204|273:266,1,116.666666666667,4|0,3:2|0:0,0:0:0:0:
232,384,52602,2,0,L|210:265,1,116.666666666667,8|0,0:0|0:0,0:0:0:0:
261,164,53013,6,0,L|271:95,1,58.3333333333333,0|0,3:2|0:0,0:0:0:0:
189,58,53287,1,0,3:2:0:0:
266,5,53424,2,0,B|280:-5|280:-5|395:11,1,116.666666666667,8|2,0:0|3:2,0:0:0:0:
502,67,53835,5,0,3:2:0:0:
437,83,53972,1,0,3:2:0:0:
374,98,54109,1,2,3:2:0:0:
257,9,54246,6,0,L|193:23,1,58.3333333333333,8|0,0:0|0:0,0:0:0:0:
81,81,54520,1,2,3:2:0:0:
23,44,54657,6,0,B|38:34|38:34|124:47,1,87.5,8|0,0:0|0:0,0:0:0:0:
115,38,54914,2,0,L|147:13,2,21.875,0|0|0,3:2|3:2|3:2,0:0:0:0:
164,99,55068,6,0,B|176:113|176:113|142:197|142:197|160:219,1,116.666666666667,8|0,0:0|0:0,0:0:0:0:
34,342,55479,6,0,B|44:329|44:329|35:254,1,87.5,0|0,3:2|0:0,0:0:0:0:
46,253,55735,2,0,L|56:212,2,21.875,0|0|0,3:2|3:2|3:2,0:0:0:0:
147,297,55890,5,0,3:2:0:0:
113,358,56027,1,0,3:2:0:0:
177,384,56164,1,0,3:2:0:0:
248,296,56300,6,0,B|258:281|258:281|243:171,1,116.666666666667,8|0,0:0|0:0,0:0:0:0:
181,123,56711,2,0,P|203:179|262:163,1,116.666666666667,0|2,3:2|3:2,0:0:0:0:
271,49,57122,6,0,B|260:33|260:33|158:17,1,116.666666666667,8|2,3:2|3:2,0:0:0:0:
304,117,57533,2,0,L|439:96,1,116.666666666667,8|2,3:2|3:2,0:0:0:0:
512,63,57944,5,8,3:2:0:0:
431,11,58081,1,8,0:0:0:0:
420,106,58218,1,0,0:0:0:0:
471,150,58355,6,0,B|499:168|499:168|473:223|473:223|482:262,1,116.666666666667,0|2,3:2|0:0,0:0:0:0:
388,381,58766,6,0,L|404:261,1,116.666666666667,0|0,3:0|0:0,0:0:0:0:
326,290,59177,2,0,P|349:248|415:261,1,116.666666666667,8|0,0:0|0:0,0:0:0:0:
205,366,59588,6,0,P|132:356|131:307,1,116.666666666667,0|0,3:0|3:0,0:0:0:0:
238,306,59999,1,8,0:0:0:0:
235,296,60136,1,2,0:0:0:0:
233,286,60273,1,2,0:0:0:0:
159,186,60410,6,0,L|170:112,1,70.0000026702882,0|0,3:0|0:0,0:0:0:0:
231,94,60821,2,0,B|224:106|224:106|156:119,1,70.0000026702882,12|0,0:0|3:2,0:0:0:0:
14,19,61232,5,12,0:0:0:0:
23,22,61368,1,8,0:0:0:0:
32,24,61505,1,8,0:0:0:0:
73,79,61642,2,0,L|201:101,1,116.666666666667,0|0,3:2|0:0,0:0:0:0:
260,203,62053,5,8,0:0:0:0:
362,169,62190,1,8,0:0:0:0:
283,97,62327,1,8,0:0:0:0:
253,209,62464,2,0,B|267:222|267:222|395:245,1,116.666666666667,0|0,3:2|0:0,0:0:0:0:
329,334,62875,5,8,0:0:0:0:
482,384,63012,1,8,0:0:0:0:
441,228,63149,1,8,0:0:0:0:
322,328,63286,1,0,3:2:0:0:
407,160,63697,6,0,B|415:138|415:138|477:114|477:114|486:81,1,116.666666666667,2|0,3:2|3:2,0:0:0:0:
447,32,64108,2,0,B|438:18|438:18|327:2,1,116.666666666667,8|0,0:0|0:0,0:0:0:0:
505,89,64519,5,8,0:0:0:0:
494,91,64656,1,8,0:0:0:0:
483,93,64793,1,8,0:0:0:0:
431,136,64930,2,0,L|291:158,1,116.666666666667,0|0,3:2|0:0,0:0:0:0:
182,211,65341,5,8,0:0:0:0:
287,238,65478,1,8,0:0:0:0:
252,131,65615,1,8,0:0:0:0:
177,222,65752,2,0,B|165:211|165:211|57:228,1,116.666666666667,0|0,3:2|0:0,0:0:0:0:
33,380,66163,5,8,0:0:0:0:
181,316,66300,1,8,0:0:0:0:
51,222,66437,1,8,0:0:0:0:
35,369,66574,1,0,3:2:0:0:
90,167,66985,6,0,B|76:130|76:130|33:132|33:132|0:96,1,116.666666666667,6|0,3:2|0:0,0:0:0:0:
191,10,67396,1,8,0:0:0:0:
165,72,67533,1,8,0:0:0:0:
225,102,67670,1,8,0:0:0:0:
196,164,67807,6,0,B|181:171|181:171|156:316,1,116.666666666667,0|0,3:2|3:2,0:0:0:0:
271,259,68218,2,0,L|157:280,1,116.666666666667,12|0,0:0|0:0,0:0:0:0:
261,368,68629,6,0,L|385:386,1,116.666666666667,0|0,3:2|3:2,0:0:0:0:
500,284,69040,2,0,B|493:301|493:301|385:318,1,116.666666666667,12|0,0:0|0:0,0:0:0:0:
261,368,69451,5,0,3:2:0:0:
249,366,69588,1,0,3:2:0:0:
238,364,69725,1,0,3:2:0:0:
175,338,69862,2,0,L|37:358,1,116.666666666667,12|0,0:0|0:0,0:0:0:0:
14,236,70273,5,0,3:2:0:0:
82,251,70410,1,0,3:2:0:0:
149,265,70547,1,0,3:2:0:0:
68,347,70684,2,0,L|4:333,2,58.3333333333333,12|0|0,0:0|0:0|3:2,0:0:0:0:
247,263,71095,6,0,P|242:245|200:233,1,58.3333333333333,10|0,0:0|0:0,0:0:0:0:
74,225,71368,2,0,P|91:230|122:199,1,58.3333333333333,8|0,0:0|0:0,0:0:0:0:
192,93,71642,2,0,P|178:105|189:147,1,58.3333333333333,10|0,0:0|0:0,0:0:0:0:
247,263,71916,6,0,P|251:237|204:198,1,58.3333333333333,10|0,0:0|0:0,0:0:0:0:
46,114,72190,2,0,P|65:130|122:109,1,58.3333333333333,8|0,0:0|0:0,0:0:0:0:
279,9,72464,1,10,0:0:0:0:
252,70,72601,1,2,3:2:0:0:
186,49,72738,5,0,3:2:0:0:
181,38,72875,1,8,0:0:0:0:
176,28,73012,1,8,0:0:0:0:
113,1,73149,2,0,B|91:19|91:19|102:61,2,58.3333333333333,0|8|8,3:2|0:0|0:0,0:0:0:0:
104,134,73560,5,4,3:2:0:0:
43,106,73697,1,8,0:0:0:0:
6,161,73834,1,0,3:2:0:0:
75,255,73971,5,8,0:0:0:0:
58,320,74108,1,0,3:2:0:0:
39,383,74245,1,0,3:2:0:0:
20,305,74382,5,4,3:2:0:0:
326,51,80136,5,4,3:2:0:0:
260,33,80273,1,0,3:2:0:0:
196,16,80410,1,0,3:2:0:0:
208,142,80547,5,8,0:0:0:0:
302,117,80684,1,8,0:0:0:0:
208,142,80821,1,8,0:0:0:0:
277,213,80958,6,0,B|290:226|290:226|267:370,1,126.000000480652,0|2,3:2|0:0,0:0:0:0:
155,378,81368,2,0,B|165:353|165:353|275:333,1,126.000000480652,8|2,0:0|0:0,0:0:0:0:
344,361,81779,6,0,L|426:374,1,63.0000002403259,0|2,3:2|0:0,0:0:0:0:
473,384,82053,1,0,3:2:0:0:
496,255,82190,5,8,0:0:0:0:
486,258,82327,1,8,0:0:0:0:
477,261,82464,1,8,0:0:0:0:
415,300,82601,6,0,B|405:282|405:282|281:263,1,126.000000480652,0|2,3:2|0:0,0:0:0:0:
174,307,83012,2,0,L|24:282,1,126.000000480652,8|2,0:0|0:0,0:0:0:0:
262,374,83423,6,0,B|270:342|270:342|236:318,1,63.0000002403259,8|0,0:2|0:0,0:0:0:0:
209,197,83697,2,0,B|184:171|184:171|196:137,1,63.0000002403259,8|4,3:2|3:2,0:0:0:0:
158,14,83971,1,8,0:0:0:0:
158,14,84108,1,8,0:0:0:0:
158,14,84245,6,0,L|149:80,2,46.6666666666667,0|0|0,3:2|3:2|3:2,0:0:0:0:
291,29,84656,2,0,B|271:187,1,126.000000480652,12|2,0:0|0:0,0:0:0:0:
262,284,85067,5,0,3:2:0:0:
301,228,85204,1,0,3:2:0:0:
361,260,85341,1,0,3:2:0:0:
326,346,85478,2,0,B|346:367|346:367|459:349,1,126.000000480652,12|2,0:0|0:0,0:0:0:0:
453,360,85889,6,0,P|504:324|477:269,1,126.000000480652,12|0,0:0|3:2,0:0:0:0:
412,142,86300,2,0,B|390:160|390:160|420:259,1,126.000000480652,8|0,0:0|3:0,0:0:0:0:
505,70,86711,6,0,L|361:47,1,126.000000480652,8|0,0:0|3:0,0:0:0:0:
418,253,87122,2,0,B|397:230|397:230|286:251,1,126.000000480652,8|0,0:0|3:0,0:0:0:0:
439,35,87533,6,0,L|311:11,1,126.000000480652,12|0,0:0|3:0,0:0:0:0:
292,167,87944,1,0,3:2:0:0:
236,126,88081,1,0,0:0:0:0:
275,68,88218,1,0,3:2:0:0:
379,98,88355,6,0,L|352:180,1,63.0000002403259,4|0,3:2|0:0,0:0:0:0:
226,0,88629,2,0,L|199:82,1,63.0000002403259,8|0,0:0|3:2,0:0:0:0:
69,113,88903,2,0,L|42:195,1,63.0000002403259,8|0,0:0|0:0,0:0:0:0:
0,315,89177,5,12,0:0:0:0:
34,384,89314,1,0,3:0:0:0:
34,384,89451,1,0,3:0:0:0:
128,310,89588,5,8,0:0:0:0:
188,280,89725,1,0,3:0:0:0:
162,220,89862,1,0,3:0:0:0:
43,200,89999,6,0,B|51:190|51:190|42:119,1,63.0000002403259,8|0,0:0|3:0,0:0:0:0:
0,92,90273,1,0,3:0:0:0:
49,46,90410,2,0,L|127:58,1,63.0000002403259,8|0,0:0|3:0,0:0:0:0:
170,23,90684,1,0,3:0:0:0:
177,17,90821,6,0,L|41:37,1,126.000000480652,12|2,0:0|0:0,0:0:0:0:
221,76,91232,1,0,3:0:0:0:
287,90,91368,1,8,0:0:0:0:
353,105,91505,1,0,3:0:0:0:
447,13,91642,5,4,3:2:0:0:
256,192,91711,12,0,94655,0:0:0:0:
336,226,95219,6,0,P|353:199|387:203,2,46.6666666666667,2|0|0,0:0|0:0|0:0,0:0:0:0:
297,324,95647,2,0,P|311:352|291:379,2,46.6666666666667,2|0|0,0:0|0:0|0:0,0:0:0:0:
231,241,96076,2,0,P|199:239|185:208,2,46.6666666666667,2|0|0,0:0|0:0|0:0,0:0:0:0:
301,157,96504,2,0,L|293:101,1,46.6666666666667,2|0,0:0|0:0,0:0:0:0:
293,104,96800,1,2,0:0:0:0:
243,62,96948,6,0,L|181:51,1,46.6666666666667,2|0,0:0|0:0,0:0:0:0:
192,49,97244,1,0,0:0:0:0:
157,104,97392,2,0,L|88:118,2,46.6666666666667,2|0|0,0:0|0:0|0:0,0:0:0:0:
44,57,97836,2,0,P|45:31|70:17,2,46.6666666666667,2|0|0,0:0|0:0|0:0,0:0:0:0:
105,112,98287,2,0,P|122:127|113:160,2,46.6666666666667,2|0|0,0:0|0:0|0:0,0:0:0:0:
0,274,98745,6,0,P|16:273|29:240,2,46.6666666666667,2|0|0,0:0|0:0|0:0,0:0:0:0:
131,240,99213,2,0,P|122:226|87:231,2,46.6666666666667,2|0|0,0:0|0:0|0:0,0:0:0:0:
37,144,99667,2,0,P|29:158|51:186,2,46.6666666666667,2|0|0,0:0|0:0|0:0,0:0:0:0:
78,93,100135,5,2,0:0:0:0:
56,57,100292,1,0,0:0:0:0:
109,22,100460,1,2,0:0:0:0:
161,77,100638,6,0,L|208:85,1,46.6666666666667,2|0,0:0|0:0,0:0:0:0:
213,81,101010,1,0,0:0:0:0:
293,33,101227,5,2,0:0:0:0:
366,2,101497,1,0,0:0:0:0:
404,79,101767,1,2,0:0:0:0:
467,103,102056,6,0,P|471:100|482:101,2,11.6666666666667,2|0|0,0:0|0:0|0:0,0:0:0:0:
