osu file format v14

[General]
AudioFilename: audio.ogg
AudioLeadIn: 0
PreviewTime: 93050
Countdown: 0
SampleSet: Normal
StackLeniency: 0.7
Mode: 1
LetterboxInBreaks: 0
WidescreenStoryboard: 1

[Editor]
DistanceSpacing: 1.3
BeatDivisor: 4
GridSize: 32
TimelineZoom: 2.2

[Metadata]
Title:Sakimori Souka
TitleUnicode:防人想歌
Artist:onoken feat. Yoko Natsukawa
ArtistUnicode:onoken feat. 夏川陽子
Creator:hac
Version:Oni
Source:pop'n music うさぎと猫と少年の夢
Tags:Saira 国忍 Kunioshi usagi to neko shounen no yume UsaNeko うさ猫 MANYOUKA guardian song ナビくんと旅をしよう! NAVI-kun tabi wo shiyou! Japanese VG Video Rhythm Game Folk konami bemani Ax 防人恋歌 Sakimori Renka Original Soundtrack
BeatmapID:3863029
BeatmapSetID:1855509

[Difficulty]
HPDrainRate:6.5
CircleSize:2
OverallDifficulty:5.5
ApproachRate:10
SliderMultiplier:1.4
SliderTickRate:1

[Events]
//Background and Video events
0,0,"bg.jpg",0,-40
//Break Periods
//Storyboard Layer 0 (Background)
//Storyboard Layer 1 (Fail)
//Storyboard Layer 2 (Pass)
//Storyboard Layer 3 (Foreground)
//Storyboard Layer 4 (Overlay)
//Storyboard Sound Samples

[TimingPoints]
631,357.142857142857,7,1,0,60,1,0
10263,357.142857142857,7,1,0,60,1,8
10541,-100,7,1,0,60,0,0
10620,357.142857142857,4,1,0,70,1,0
14905,357.142857142857,3,1,0,70,1,0
15976,357.142857142857,4,1,0,70,1,0
20261,357.142857142857,3,1,0,70,1,0
21332,357.142857142857,3,1,0,70,1,8
21342,357.142857142857,7,1,0,70,1,0
23127,-100,7,1,0,40,0,0
23842,357.142857142857,4,1,0,40,1,0
29020,-100,4,1,0,50,0,0
33574,-100,4,1,0,70,0,0
51699,-102.040816326531,4,1,0,70,0,0
51788,-104.166666666667,4,1,0,70,0,0
51877,-106.382978723404,4,1,0,70,0,0
51966,-108.695652173913,4,1,0,70,0,0
52056,-111.111111111111,4,1,0,70,0,0
52413,-90.9090909090909,7,1,0,70,0,1
74020,-90.9090909090909,7,1,0,70,0,1
74196,-93.3393070489845,7,1,0,70,0,1
74374,-95.8883092973305,7,1,0,70,0,1
74553,-98.5959930588421,7,1,0,70,0,1
74731,-101.444570686577,7,1,0,70,0,1
74910,-104.48010698763,7,1,0,70,0,1
75088,-107.684355616816,7,1,0,70,0,1
75270,-111.111111111111,7,1,0,70,0,0
79556,-111.111111111111,7,1,0,70,0,0
79672,-109.090909090909,7,1,0,70,0,0
79791,-107.142857142857,7,1,0,70,0,0
79910,-105.263157894737,7,1,0,70,0,0
80088,-102.571469616434,7,1,0,70,0,0
80267,-100,7,1,0,70,0,0
80627,-111.111111111111,7,1,0,70,0,0
85270,-111.111111111111,7,1,0,70,0,0
85446,-109.585889570552,7,1,0,70,0,0
85624,-108.11015282191,7,1,0,70,0,0
85803,-106.665671418974,7,1,0,70,0,0
85981,-105.267034990792,7,1,0,70,0,0
86160,-103.897048131453,7,1,0,70,0,0
86338,-102.569623887453,7,1,0,70,0,0
86517,-101.268513925306,7,1,0,70,0,0
86696,-100,7,1,0,70,0,0
92770,-100,7,1,0,70,0,0
92949,-100,7,1,0,50,0,0
93124,-98.4851699410192,7,1,0,50,0,0
93481,-97.0155492392576,7,1,0,50,0,0
93838,-95.5891437749681,7,1,0,50,0,0
94196,-94.200251633589,7,1,0,50,0,0
94374,-93.5246000725309,7,1,0,50,0,0
94553,-92.8548567770843,7,1,0,50,0,0
94731,-92.1982998331612,7,1,0,50,0,0
94821,-91.8698543381887,7,1,0,70,0,0
94910,-91.5473513982566,7,1,0,70,0,0
95088,-90.9090909090909,7,1,0,70,0,0
95270,-83.3333333333333,7,1,0,70,0,0
95627,-76.9230769230769,7,1,0,70,0,0
95984,-71.4285714285714,7,1,0,70,0,0
96341,-100,7,1,0,70,0,0
96520,-95.2380952380952,7,1,0,70,0,0
96699,-90.9090909090909,7,1,0,70,0,1
118306,-92.5925925925926,7,1,0,70,0,1
118484,-95.2380952380952,7,1,0,70,0,1
118663,-97.5609756097561,7,1,0,70,0,1
118841,-100,7,1,0,70,0,0

[HitObjects]
256,192,631,5,8,0:0:0:0:
256,192,988,1,0,0:0:0:0:
256,192,1345,1,0,0:0:0:0:
256,192,1523,1,0,0:0:0:0:
256,192,1702,1,8,0:0:0:0:
256,192,2059,1,0,0:0:0:0:
256,192,2416,1,8,0:0:0:0:
256,192,2595,1,0,0:0:0:0:
256,192,2773,1,0,0:0:0:0:
256,192,2952,1,0,0:0:0:0:
256,192,3130,1,8,0:0:0:0:
256,192,3488,1,0,0:0:0:0:
256,192,3845,1,8,0:0:0:0:
256,192,4202,1,8,0:0:0:0:
256,192,4380,1,0,0:0:0:0:
256,192,4916,1,8,0:0:0:0:
256,192,5095,1,0,0:0:0:0:
256,192,5273,1,0,0:0:0:0:
256,192,5452,1,0,0:0:0:0:
256,192,5630,1,8,0:0:0:0:
256,192,5988,1,0,0:0:0:0:
256,192,6345,1,0,0:0:0:0:
256,192,6523,1,0,0:0:0:0:
256,192,6702,1,8,0:0:0:0:
256,192,7059,1,0,0:0:0:0:
256,192,7416,1,8,0:0:0:0:
256,192,7595,1,0,0:0:0:0:
256,192,7773,1,0,0:0:0:0:
256,192,7952,1,0,0:0:0:0:
256,192,8130,1,8,0:0:0:0:
256,192,8488,1,0,0:0:0:0:
256,192,8845,1,8,0:0:0:0:
256,192,9202,1,8,0:0:0:0:
256,192,9380,1,0,0:0:0:0:
256,192,9738,1,0,0:0:0:0:
256,192,9916,1,0,0:0:0:0:
256,192,10095,1,8,0:0:0:0:
256,192,10263,1,8,0:0:0:0:
256,192,10441,1,0,0:0:0:0:
256,64,10620,1,12,0:0:0:0:
256,192,10977,1,0,0:0:0:0:
256,192,11334,1,8,0:0:0:0:
256,192,11512,1,8,0:0:0:0:
256,192,11691,1,0,0:0:0:0:
256,192,11870,1,0,0:0:0:0:
256,192,12227,1,8,0:0:0:0:
256,192,12584,1,0,0:0:0:0:
256,192,12941,1,8,0:0:0:0:
256,192,13120,1,0,0:0:0:0:
256,192,13298,1,8,0:0:0:0:
256,192,13477,1,0,0:0:0:0:
256,192,13834,1,8,0:0:0:0:
256,192,14012,1,0,0:0:0:0:
256,192,14191,1,8,0:0:0:0:
256,192,14369,1,8,0:0:0:0:
256,192,14548,1,0,0:0:0:0:
256,192,14727,1,0,0:0:0:0:
256,192,15083,1,0,0:0:0:0:
256,192,15262,1,0,0:0:0:0:
256,192,15440,1,8,0:0:0:0:
256,192,15619,1,0,0:0:0:0:
256,192,15797,1,0,0:0:0:0:
256,64,15976,1,12,0:0:0:0:
256,192,16333,1,8,0:0:0:0:
256,192,16511,1,0,0:0:0:0:
256,192,16690,1,8,0:0:0:0:
256,192,16868,1,0,0:0:0:0:
256,192,17047,1,8,0:0:0:0:
256,192,17226,1,0,0:0:0:0:
256,192,17583,1,8,0:0:0:0:
256,192,17940,1,0,0:0:0:0:
256,192,18297,1,8,0:0:0:0:
256,192,18476,1,0,0:0:0:0:
256,192,18654,1,0,0:0:0:0:
256,192,18833,1,8,0:0:0:0:
256,192,19011,1,8,0:0:0:0:
256,192,19190,1,0,0:0:0:0:
256,192,19547,1,8,0:0:0:0:
256,192,19726,1,0,0:0:0:0:
256,192,20083,1,8,0:0:0:0:
256,192,20439,1,0,0:0:0:0:
256,192,20796,1,0,0:0:0:0:
256,192,20975,1,8,0:0:0:0:
256,192,21153,1,0,0:0:0:0:
256,64,21342,1,12,0:0:0:0:
256,192,23484,1,0,0:0:0:0:
256,192,23842,1,8,0:0:0:0:
256,192,24199,1,8,0:0:0:0:
256,192,24377,1,0,0:0:0:0:
256,192,24556,1,8,0:0:0:0:
256,192,24913,1,0,0:0:0:0:
256,192,25092,1,0,0:0:0:0:
256,192,25270,1,8,0:0:0:0:
256,192,25449,1,0,0:0:0:0:
256,192,25627,1,8,0:0:0:0:
256,192,25806,1,8,0:0:0:0:
256,192,25984,1,0,0:0:0:0:
256,192,26342,1,8,0:0:0:0:
256,192,26520,1,0,0:0:0:0:
256,192,26699,1,8,0:0:0:0:
256,192,27234,1,8,0:0:0:0:
256,192,27413,1,0,0:0:0:0:
256,192,27770,1,0,0:0:0:0:
256,192,27949,1,0,0:0:0:0:
256,192,28127,1,8,0:0:0:0:
256,192,29199,1,8,0:0:0:0:
256,192,29556,1,0,0:0:0:0:
256,192,29913,1,8,0:0:0:0:
256,192,30091,1,0,0:0:0:0:
256,192,30270,1,8,0:0:0:0:
256,192,30627,1,8,0:0:0:0:
256,192,30806,1,0,0:0:0:0:
256,192,30984,1,8,0:0:0:0:
256,192,31163,1,0,0:0:0:0:
256,192,31341,1,0,0:0:0:0:
256,192,31520,1,8,0:0:0:0:
256,192,31699,1,0,0:0:0:0:
256,192,32234,1,8,0:0:0:0:
256,192,32413,1,0,0:0:0:0:
256,192,32770,1,0,0:0:0:0:
256,192,32949,1,0,0:0:0:0:
256,192,33127,1,8,0:0:0:0:
256,192,33306,1,0,0:0:0:0:
256,192,33484,1,8,0:0:0:0:
256,192,33663,1,8,0:0:0:0:
256,192,33842,1,0,0:0:0:0:
256,192,34020,1,0,0:0:0:0:
256,192,34377,1,0,0:0:0:0:
256,192,34556,1,8,0:0:0:0:
256,192,34734,1,0,0:0:0:0:
256,192,34913,1,8,0:0:0:0:
256,192,35091,1,0,0:0:0:0:
256,64,35270,1,12,0:0:0:0:
256,192,35627,1,0,0:0:0:0:
256,192,35984,1,8,0:0:0:0:
256,192,36341,1,8,0:0:0:0:
256,192,36520,1,0,0:0:0:0:
256,192,36699,1,8,0:0:0:0:
256,192,37056,1,0,0:0:0:0:
256,192,37413,1,8,0:0:0:0:
256,192,37770,1,0,0:0:0:0:
256,192,37949,1,0,0:0:0:0:
256,192,38127,1,8,0:0:0:0:
256,192,38484,1,0,0:0:0:0:
256,192,38841,1,8,0:0:0:0:
256,192,39199,1,8,0:0:0:0:
256,192,39377,1,0,0:0:0:0:
256,192,39556,1,8,0:0:0:0:
256,192,39913,1,0,0:0:0:0:
256,192,40091,1,0,0:0:0:0:
256,192,40270,1,8,0:0:0:0:
256,192,40449,1,0,0:0:0:0:
256,192,40627,1,8,0:0:0:0:
256,192,40806,1,0,0:0:0:0:
256,192,40984,1,8,0:0:0:0:
256,192,41341,1,0,0:0:0:0:
256,192,41520,1,0,0:0:0:0:
256,192,41699,1,8,0:0:0:0:
256,192,42056,1,0,0:0:0:0:
256,192,42234,1,0,0:0:0:0:
256,192,42413,1,8,0:0:0:0:
256,192,42591,1,0,0:0:0:0:
256,192,42770,1,0,0:0:0:0:
256,192,42949,1,0,0:0:0:0:
256,192,43127,1,8,0:0:0:0:
256,192,43484,1,0,0:0:0:0:
256,192,43663,1,0,0:0:0:0:
256,192,43841,1,8,0:0:0:0:
256,192,44199,1,0,0:0:0:0:
256,192,44377,1,0,0:0:0:0:
256,192,44556,1,8,0:0:0:0:
256,192,44913,1,0,0:0:0:0:
256,192,45091,1,0,0:0:0:0:
256,192,45270,1,8,0:0:0:0:
256,192,45449,1,0,0:0:0:0:
256,192,45627,1,0,0:0:0:0:
256,192,45806,1,0,0:0:0:0:
256,192,45984,1,8,0:0:0:0:
256,192,46163,1,0,0:0:0:0:
256,192,46341,1,8,0:0:0:0:
256,192,46520,1,0,0:0:0:0:
256,64,46699,1,12,0:0:0:0:
256,192,47056,1,8,0:0:0:0:
256,192,47234,1,0,0:0:0:0:
256,192,47413,1,8,0:0:0:0:
256,192,47770,1,8,0:0:0:0:
256,192,47949,1,8,0:0:0:0:
256,192,48127,1,0,0:0:0:0:
256,192,48306,1,0,0:0:0:0:
256,192,48484,1,8,0:0:0:0:
256,192,48663,1,0,0:0:0:0:
256,192,48841,1,0,0:0:0:0:
256,192,49199,1,8,0:0:0:0:
256,192,49288,1,8,0:0:0:0:
256,192,49377,1,8,0:0:0:0:
256,192,49556,1,0,0:0:0:0:
256,192,49913,1,8,0:0:0:0:
256,192,50091,1,0,0:0:0:0:
256,192,50270,1,8,0:0:0:0:
256,192,50359,1,8,0:0:0:0:
256,192,50449,1,0,0:0:0:0:
256,192,50627,1,8,0:0:0:0:
256,192,50806,1,0,0:0:0:0:
256,64,50984,1,12,0:0:0:0:
256,192,51163,1,0,0:0:0:0:
256,64,51341,1,12,0:0:0:0:
256,192,51699,1,0,0:0:0:0:
256,192,51788,1,0,0:0:0:0:
256,192,51877,1,0,0:0:0:0:
256,192,52056,1,8,0:0:0:0:
256,64,52413,1,4,0:0:0:0:
256,192,52770,1,8,0:0:0:0:
256,192,52949,1,0,0:0:0:0:
256,192,53038,1,0,0:0:0:0:
256,192,53127,1,8,0:0:0:0:
256,192,53306,1,0,0:0:0:0:
256,192,53484,1,8,0:0:0:0:
256,192,53663,1,8,0:0:0:0:
256,192,53752,1,8,0:0:0:0:
256,192,53841,1,0,0:0:0:0:
256,192,54020,1,0,0:0:0:0:
256,192,54199,1,8,0:0:0:0:
256,192,54288,1,8,0:0:0:0:
256,192,54377,1,8,0:0:0:0:
256,192,54556,1,0,0:0:0:0:
256,192,54913,1,8,0:0:0:0:
256,192,55002,1,8,0:0:0:0:
256,192,55091,1,0,0:0:0:0:
256,64,55270,1,12,0:0:0:0:
256,192,55627,1,8,0:0:0:0:
256,192,55806,1,0,0:0:0:0:
256,192,55895,1,0,0:0:0:0:
256,192,55984,1,8,0:0:0:0:
256,192,56163,1,0,0:0:0:0:
256,192,56341,1,8,0:0:0:0:
256,192,56520,1,8,0:0:0:0:
256,192,56609,1,8,0:0:0:0:
256,192,56699,1,0,0:0:0:0:
256,192,56877,1,0,0:0:0:0:
256,192,57056,1,8,0:0:0:0:
256,192,57145,1,8,0:0:0:0:
256,192,57234,1,0,0:0:0:0:
256,192,57413,1,0,0:0:0:0:
256,192,57770,1,8,0:0:0:0:
256,192,57859,1,8,0:0:0:0:
256,192,57949,1,8,0:0:0:0:
256,64,58127,1,12,0:0:0:0:
256,192,58484,1,8,0:0:0:0:
256,192,58663,1,0,0:0:0:0:
256,192,59020,1,0,0:0:0:0:
256,192,59199,1,8,0:0:0:0:
256,192,59377,1,0,0:0:0:0:
256,192,59556,1,8,0:0:0:0:
256,192,59913,1,8,0:0:0:0:
256,192,60091,1,0,0:0:0:0:
256,192,60270,1,8,0:0:0:0:
256,192,60627,1,8,0:0:0:0:
256,192,60806,1,0,0:0:0:0:
256,192,60895,1,0,0:0:0:0:
256,192,60984,1,8,0:0:0:0:
256,192,61163,1,0,0:0:0:0:
256,192,61341,1,8,0:0:0:0:
256,192,61520,1,0,0:0:0:0:
256,192,61609,1,0,0:0:0:0:
256,192,61699,1,8,0:0:0:0:
256,192,61877,1,0,0:0:0:0:
256,192,62056,1,8,0:0:0:0:
256,192,62145,1,0,0:0:0:0:
256,192,62234,1,8,0:0:0:0:
256,192,62413,1,0,0:0:0:0:
256,192,62591,1,8,0:0:0:0:
256,192,62770,1,0,0:0:0:0:
256,192,62859,1,8,0:0:0:0:
256,192,62949,1,0,0:0:0:0:
256,192,63127,1,8,0:0:0:0:
256,192,63306,1,0,0:0:0:0:
256,192,63484,1,8,0:0:0:0:
256,192,63574,1,8,0:0:0:0:
256,192,63663,1,0,0:0:0:0:
256,64,63841,1,12,0:0:0:0:
256,192,64199,1,8,0:0:0:0:
256,192,64377,1,0,0:0:0:0:
256,192,64466,1,0,0:0:0:0:
256,192,64556,1,8,0:0:0:0:
256,192,64734,1,0,0:0:0:0:
256,192,64913,1,8,0:0:0:0:
256,192,65091,1,0,0:0:0:0:
256,192,65181,1,0,0:0:0:0:
256,192,65270,1,0,0:0:0:0:
256,192,65449,1,0,0:0:0:0:
256,192,65627,1,8,0:0:0:0:
256,192,65716,1,8,0:0:0:0:
256,192,65806,1,0,0:0:0:0:
256,192,65984,1,8,0:0:0:0:
256,192,66341,1,8,0:0:0:0:
256,192,66431,1,8,0:0:0:0:
256,192,66520,1,0,0:0:0:0:
256,64,66699,1,12,0:0:0:0:
256,192,67056,1,8,0:0:0:0:
256,192,67234,1,0,0:0:0:0:
256,192,67324,1,0,0:0:0:0:
256,192,67413,1,8,0:0:0:0:
256,192,67591,1,0,0:0:0:0:
256,192,67770,1,8,0:0:0:0:
256,192,67949,1,0,0:0:0:0:
256,192,68038,1,0,0:0:0:0:
256,192,68127,1,8,0:0:0:0:
256,192,68306,1,0,0:0:0:0:
256,192,68484,1,8,0:0:0:0:
256,192,68574,1,8,0:0:0:0:
256,192,68663,1,0,0:0:0:0:
256,192,68841,1,8,0:0:0:0:
256,192,69199,1,8,0:0:0:0:
256,192,69288,1,8,0:0:0:0:
256,192,69377,1,8,0:0:0:0:
256,64,69556,1,4,0:0:0:0:
256,192,69913,1,0,0:0:0:0:
256,192,70091,1,8,0:0:0:0:
256,192,70449,1,0,0:0:0:0:
256,192,70627,1,8,0:0:0:0:
256,192,70806,1,0,0:0:0:0:
256,192,70984,1,8,0:0:0:0:
256,192,71341,1,8,0:0:0:0:
256,192,71520,1,0,0:0:0:0:
256,192,71699,1,8,0:0:0:0:
256,192,71877,1,0,0:0:0:0:
256,192,72056,1,8,0:0:0:0:
256,192,72145,1,8,0:0:0:0:
256,192,72234,1,8,0:0:0:0:
256,64,72413,1,4,0:0:0:0:
256,192,72770,1,8,0:0:0:0:
256,192,72949,1,8,0:0:0:0:
256,64,73127,1,4,0:0:0:0:
256,192,73484,1,0,0:0:0:0:
256,64,73663,1,12,0:0:0:0:
256,192,74020,1,8,0:0:0:0:
256,192,74199,1,0,0:0:0:0:
256,192,74377,1,0,0:0:0:0:
256,64,74556,1,12,0:0:0:0:
256,192,74913,1,0,0:0:0:0:
256,192,75091,1,0,0:0:0:0:
256,64,75270,1,12,0:0:0:0:
256,192,75627,1,0,0:0:0:0:
256,192,75984,1,8,0:0:0:0:
256,192,76163,1,8,0:0:0:0:
256,192,76341,1,0,0:0:0:0:
256,192,76699,1,8,0:0:0:0:
256,192,77056,1,0,0:0:0:0:
256,192,77413,1,8,0:0:0:0:
256,192,77591,1,0,0:0:0:0:
256,192,77770,1,0,0:0:0:0:
256,192,78127,1,8,0:0:0:0:
256,192,78484,1,0,0:0:0:0:
256,192,78841,1,8,0:0:0:0:
256,192,79020,1,8,0:0:0:0:
256,192,79199,1,0,0:0:0:0:
256,192,79556,1,8,0:0:0:0:
256,192,79734,1,8,0:0:0:0:
256,192,79913,1,0,0:0:0:0:
256,192,80091,1,0,0:0:0:0:
256,64,80270,1,12,0:0:0:0:
256,64,80984,1,12,0:0:0:0:
256,192,81341,1,0,0:0:0:0:
256,192,81520,1,0,0:0:0:0:
256,192,81699,1,8,0:0:0:0:
256,192,82056,1,0,0:0:0:0:
256,192,82413,1,0,0:0:0:0:
256,192,82591,1,8,0:0:0:0:
256,192,82770,1,0,0:0:0:0:
256,192,83127,1,8,0:0:0:0:
256,192,83306,1,8,0:0:0:0:
256,192,83484,1,0,0:0:0:0:
256,192,83841,1,8,0:0:0:0:
256,192,84199,1,0,0:0:0:0:
256,192,84377,1,0,0:0:0:0:
256,192,84556,1,8,0:0:0:0:
256,192,84913,1,0,0:0:0:0:
256,192,85270,1,8,0:0:0:0:
256,192,85449,1,8,0:0:0:0:
256,192,85627,1,0,0:0:0:0:
256,192,85806,1,0,0:0:0:0:
256,192,85984,1,8,0:0:0:0:
256,192,86163,1,0,0:0:0:0:
256,192,86341,1,8,0:0:0:0:
256,192,86520,1,0,0:0:0:0:
256,64,86699,1,12,0:0:0:0:
256,192,87056,1,8,0:0:0:0:
256,192,87234,1,0,0:0:0:0:
256,192,87413,1,8,0:0:0:0:
256,192,87770,1,8,0:0:0:0:
256,192,87949,1,8,0:0:0:0:
256,192,88127,1,0,0:0:0:0:
256,192,88306,1,0,0:0:0:0:
256,192,88484,1,8,0:0:0:0:
256,192,88663,1,8,0:0:0:0:
256,192,88841,1,0,0:0:0:0:
256,192,89199,1,8,0:0:0:0:
256,192,89377,1,8,0:0:0:0:
288,64,89556,1,4,0:0:0:0:
256,192,89913,1,8,0:0:0:0:
256,192,90091,1,0,0:0:0:0:
256,192,90270,1,8,0:0:0:0:
256,192,90449,1,0,0:0:0:0:
256,192,90627,1,8,0:0:0:0:
256,192,90806,1,0,0:0:0:0:
256,192,90984,1,8,0:0:0:0:
256,192,91341,1,0,0:0:0:0:
256,192,91520,1,8,0:0:0:0:
256,192,91609,1,8,0:0:0:0:
256,192,91699,1,8,0:0:0:0:
256,192,91877,1,0,0:0:0:0:
256,192,92056,1,0,0:0:0:0:
256,192,92234,1,8,0:0:0:0:
256,192,92324,1,8,0:0:0:0:
256,192,92413,1,8,0:0:0:0:
256,192,92591,1,0,0:0:0:0:
256,64,92770,1,12,0:0:0:0:
256,192,93841,1,8,0:0:0:0:
256,192,94199,1,0,0:0:0:0:
256,192,94377,1,0,0:0:0:0:
256,192,94556,1,8,0:0:0:0:
256,192,94734,1,0,0:0:0:0:
256,192,94824,1,0,0:0:0:0:
256,192,94913,1,0,0:0:0:0:
256,192,95091,1,0,0:0:0:0:
256,64,95270,1,12,0:0:0:0:
256,64,95627,1,12,0:0:0:0:
256,64,95984,1,12,0:0:0:0:
256,192,96341,1,8,0:0:0:0:
256,192,96520,1,8,0:0:0:0:
256,64,96699,1,4,0:0:0:0:
256,192,97056,1,8,0:0:0:0:
256,192,97234,1,0,0:0:0:0:
256,192,97324,1,0,0:0:0:0:
256,192,97413,1,0,0:0:0:0:
256,192,97591,1,8,0:0:0:0:
256,192,97770,1,0,0:0:0:0:
256,192,97859,1,0,0:0:0:0:
256,192,97949,1,0,0:0:0:0:
256,192,98127,1,8,0:0:0:0:
256,192,98306,1,0,0:0:0:0:
256,192,98484,1,8,0:0:0:0:
256,192,98574,1,8,0:0:0:0:
256,192,98663,1,8,0:0:0:0:
256,192,98841,1,0,0:0:0:0:
256,192,99020,1,0,0:0:0:0:
256,192,99199,1,8,0:0:0:0:
256,192,99288,1,8,0:0:0:0:
256,192,99377,1,0,0:0:0:0:
256,64,99556,1,12,0:0:0:0:
256,192,99913,1,8,0:0:0:0:
256,192,100091,1,0,0:0:0:0:
256,192,100181,1,0,0:0:0:0:
256,192,100270,1,8,0:0:0:0:
256,192,100449,1,0,0:0:0:0:
256,192,100627,1,8,0:0:0:0:
256,192,100806,1,8,0:0:0:0:
256,192,100895,1,8,0:0:0:0:
256,192,100984,1,0,0:0:0:0:
256,192,101163,1,0,0:0:0:0:
256,192,101341,1,8,0:0:0:0:
256,192,101431,1,8,0:0:0:0:
256,192,101520,1,0,0:0:0:0:
256,192,101699,1,0,0:0:0:0:
256,192,102056,1,8,0:0:0:0:
256,192,102234,1,0,0:0:0:0:
256,192,102324,1,0,0:0:0:0:
256,192,102413,1,8,0:0:0:0:
256,192,102591,1,0,0:0:0:0:
256,192,102770,1,8,0:0:0:0:
256,192,102949,1,0,0:0:0:0:
256,192,103038,1,0,0:0:0:0:
256,192,103127,1,8,0:0:0:0:
256,192,103306,1,8,0:0:0:0:
256,192,103484,1,0,0:0:0:0:
256,192,103574,1,0,0:0:0:0:
256,192,103663,1,0,0:0:0:0:
256,192,103841,1,8,0:0:0:0:
256,192,104020,1,0,0:0:0:0:
256,192,104199,1,8,0:0:0:0:
256,192,104288,1,8,0:0:0:0:
256,192,104377,1,8,0:0:0:0:
256,192,104556,1,0,0:0:0:0:
256,192,104913,1,8,0:0:0:0:
256,192,105091,1,0,0:0:0:0:
256,64,105270,1,8,0:0:0:0:
256,192,105627,1,0,0:0:0:0:
256,192,105716,1,0,0:0:0:0:
256,192,105806,1,8,0:0:0:0:
256,192,105984,1,0,0:0:0:0:
256,192,106341,1,8,0:0:0:0:
256,192,106431,1,8,0:0:0:0:
256,192,106520,1,0,0:0:0:0:
256,192,106699,1,8,0:0:0:0:
256,192,106877,1,0,0:0:0:0:
256,192,107056,1,8,0:0:0:0:
256,192,107145,1,8,0:0:0:0:
256,192,107234,1,8,0:0:0:0:
256,192,107413,1,0,0:0:0:0:
256,192,107770,1,0,0:0:0:0:
256,192,107859,1,0,0:0:0:0:
256,192,107949,1,0,0:0:0:0:
256,192,108127,1,8,0:0:0:0:
256,192,108484,1,8,0:0:0:0:
256,192,108574,1,8,0:0:0:0:
256,192,108663,1,8,0:0:0:0:
256,192,108841,1,0,0:0:0:0:
256,192,109199,1,8,0:0:0:0:
256,192,109377,1,8,0:0:0:0:
256,192,109466,1,8,0:0:0:0:
256,192,109556,1,0,0:0:0:0:
256,192,109734,1,0,0:0:0:0:
256,192,109913,1,8,0:0:0:0:
256,192,110002,1,8,0:0:0:0:
256,192,110091,1,0,0:0:0:0:
256,192,110270,1,8,0:0:0:0:
256,192,110627,1,8,0:0:0:0:
256,192,110806,1,0,0:0:0:0:
256,192,110895,1,0,0:0:0:0:
256,192,110984,1,8,0:0:0:0:
256,192,111163,1,0,0:0:0:0:
256,192,111341,1,8,0:0:0:0:
256,192,111520,1,0,0:0:0:0:
256,192,111609,1,0,0:0:0:0:
256,192,111699,1,8,0:0:0:0:
256,192,111877,1,0,0:0:0:0:
256,192,112056,1,8,0:0:0:0:
256,192,112234,1,0,0:0:0:0:
256,192,112324,1,0,0:0:0:0:
256,192,112413,1,0,0:0:0:0:
256,192,112591,1,8,0:0:0:0:
256,192,112770,1,8,0:0:0:0:
256,192,112949,1,0,0:0:0:0:
256,192,113038,1,0,0:0:0:0:
256,192,113127,1,8,0:0:0:0:
256,192,113306,1,0,0:0:0:0:
256,192,113484,1,8,0:0:0:0:
256,192,113574,1,8,0:0:0:0:
256,192,113663,1,8,0:0:0:0:
256,64,113841,1,4,0:0:0:0:
256,192,114199,1,8,0:0:0:0:
256,192,114377,1,8,0:0:0:0:
256,64,114556,1,4,0:0:0:0:
256,192,114913,1,0,0:0:0:0:
256,64,115091,1,12,0:0:0:0:
256,192,115449,1,0,0:0:0:0:
256,192,115627,1,8,0:0:0:0:
256,192,115806,1,0,0:0:0:0:
256,64,115984,1,12,0:0:0:0:
256,192,116341,1,8,0:0:0:0:
256,192,116431,1,8,0:0:0:0:
256,192,116520,1,8,0:0:0:0:
256,64,116699,1,4,0:0:0:0:
256,192,117056,1,8,0:0:0:0:
256,192,117234,1,8,0:0:0:0:
256,64,117413,1,4,0:0:0:0:
256,192,117770,1,0,0:0:0:0:
256,64,117949,1,12,0:0:0:0:
256,192,118306,1,8,0:0:0:0:
256,192,118484,1,0,0:0:0:0:
256,192,118663,1,0,0:0:0:0:
256,64,118841,1,12,0:0:0:0:
