osu file format v14

[General]
AudioFilename: audio.ogg
AudioLeadIn: 0
PreviewTime: 93050
Countdown: 0
SampleSet: Normal
StackLeniency: 0.7
Mode: 1
LetterboxInBreaks: 0
WidescreenStoryboard: 1

[Editor]
Bookmarks: 108139
DistanceSpacing: 1.3
BeatDivisor: 4
GridSize: 32
TimelineZoom: 2.2

[Metadata]
Title:Sakimori Souka
TitleUnicode:防人想歌
Artist:onoken feat. Yoko Natsukawa
ArtistUnicode:onoken feat. 夏川陽子
Creator:hac
Version:Futsuu
Source:pop'n music うさぎと猫と少年の夢
Tags:Saira 国忍 Kunioshi usagi to neko shounen no yume UsaNeko うさ猫 MANYOUKA guardian song ナビくんと旅をしよう! NAVI-kun tabi wo shiyou! Japanese VG Video Rhythm Game Folk konami bemani Ax 防人恋歌 Sakimori Renka Original Soundtrack
BeatmapID:3864796
BeatmapSetID:1855509

[Difficulty]
HPDrainRate:7.5
CircleSize:2
OverallDifficulty:4
ApproachRate:10
SliderMultiplier:1.4
SliderTickRate:1

[Events]
//Background and Video events
0,0,"bg.jpg",0,-40
//Break Periods
//Storyboard Layer 0 (Background)
//Storyboard Layer 1 (Fail)
//Storyboard Layer 2 (Pass)
//Storyboard Layer 3 (Foreground)
//Storyboard Layer 4 (Overlay)
//Storyboard Sound Samples

[TimingPoints]
631,357.142857142857,7,1,0,60,1,0
10263,357.142857142857,7,1,0,60,1,8
10541,-100,7,1,0,60,0,0
10620,357.142857142857,4,1,0,70,1,0
14905,357.142857142857,3,1,0,70,1,0
15976,357.142857142857,4,1,0,70,1,0
20261,357.142857142857,3,1,0,70,1,0
21332,357.142857142857,3,1,0,70,1,8
21342,357.142857142857,7,1,0,70,1,0
23127,-100,7,1,0,40,0,0
23842,357.142857142857,4,1,0,40,1,0
29020,-100,4,1,0,50,0,0
33574,-100,4,1,0,70,0,0
51699,-100,4,1,0,70,0,0
51788,-100,4,1,0,70,0,0
51877,-100,4,1,0,70,0,0
51966,-100,4,1,0,70,0,0
52056,-100,4,1,0,70,0,0
52413,-100,7,1,0,70,0,1
74020,-100,7,1,0,70,0,1
74196,-100,7,1,0,70,0,1
74374,-100,7,1,0,70,0,1
74553,-100,7,1,0,70,0,1
74731,-100,7,1,0,70,0,1
74910,-100,7,1,0,70,0,1
75088,-100,7,1,0,70,0,1
75270,-100,7,1,0,70,0,0
79556,-100,7,1,0,70,0,0
79672,-100,7,1,0,70,0,0
79791,-100,7,1,0,70,0,0
79910,-100,7,1,0,70,0,0
80088,-100,7,1,0,70,0,0
80267,-100,7,1,0,70,0,0
80627,-100,7,1,0,70,0,0
85270,-100,7,1,0,70,0,0
85446,-100,7,1,0,70,0,0
85624,-100,7,1,0,70,0,0
85803,-100,7,1,0,70,0,0
85981,-100,7,1,0,70,0,0
86160,-100,7,1,0,70,0,0
86338,-100,7,1,0,70,0,0
86517,-100,7,1,0,70,0,0
86696,-100,7,1,0,70,0,0
92770,-100,7,1,0,70,0,0
92949,-100,7,1,0,50,0,0
93124,-100,7,1,0,50,0,0
93481,-100,7,1,0,50,0,0
93838,-100,7,1,0,50,0,0
94196,-100,7,1,0,50,0,0
94374,-100,7,1,0,50,0,0
94553,-100,7,1,0,50,0,0
94731,-100,7,1,0,50,0,0
94821,-100,7,1,0,70,0,0
94910,-100,7,1,0,70,0,0
95088,-100,7,1,0,70,0,0
95270,-100,7,1,0,70,0,0
95627,-100,7,1,0,70,0,0
95984,-100,7,1,0,70,0,0
96341,-100,7,1,0,70,0,0
96520,-100,7,1,0,70,0,0
96699,-100,7,1,0,70,0,1
118306,-100,7,1,0,70,0,1
118484,-100,7,1,0,70,0,1
118663,-100,7,1,0,70,0,1
118841,-100,7,1,0,70,0,0

[HitObjects]
256,192,631,5,8,0:0:0:0:
256,192,1345,1,0,0:0:0:0:
256,192,1702,1,8,0:0:0:0:
256,192,2416,1,0,0:0:0:0:
256,192,3130,1,8,0:0:0:0:
256,192,3488,1,0,0:0:0:0:
256,192,3845,1,8,0:0:0:0:
256,192,4380,1,0,0:0:0:0:
256,192,4916,1,8,0:0:0:0:
256,192,5273,1,0,0:0:0:0:
256,192,5630,1,8,0:0:0:0:
256,192,6345,1,0,0:0:0:0:
256,192,6702,1,8,0:0:0:0:
256,192,7416,1,8,0:0:0:0:
256,192,7773,1,0,0:0:0:0:
256,192,8130,1,8,0:0:0:0:
256,192,8845,1,8,0:0:0:0:
256,192,9380,1,0,0:0:0:0:
256,192,9738,1,0,0:0:0:0:
256,192,10095,1,8,0:0:0:0:
256,64,10620,1,12,0:0:0:0:
256,192,11334,1,8,0:0:0:0:
256,192,11691,1,8,0:0:0:0:
256,192,11870,1,0,0:0:0:0:
256,192,12227,1,8,0:0:0:0:
256,192,12584,1,0,0:0:0:0:
256,192,13120,1,8,0:0:0:0:
256,192,13298,1,8,0:0:0:0:
256,192,13477,1,0,0:0:0:0:
256,192,14191,1,8,0:0:0:0:
256,192,14548,1,8,0:0:0:0:
256,192,14727,1,0,0:0:0:0:
256,192,15083,1,0,0:0:0:0:
256,192,15440,1,8,0:0:0:0:
256,192,15619,1,0,0:0:0:0:
256,192,15797,1,0,0:0:0:0:
256,64,15976,1,12,0:0:0:0:
256,192,16690,1,8,0:0:0:0:
256,192,17047,1,8,0:0:0:0:
256,192,17226,1,0,0:0:0:0:
256,192,17583,1,8,0:0:0:0:
256,192,17940,1,0,0:0:0:0:
256,192,18476,1,8,0:0:0:0:
256,192,18654,1,8,0:0:0:0:
256,192,18833,1,0,0:0:0:0:
256,192,19547,1,8,0:0:0:0:
256,192,19726,1,0,0:0:0:0:
256,192,20083,1,8,0:0:0:0:
256,192,20439,1,0,0:0:0:0:
256,192,20796,1,8,0:0:0:0:
256,192,20975,1,0,0:0:0:0:
256,64,21342,1,12,0:0:0:0:
256,192,23842,1,8,0:0:0:0:
256,192,24556,1,8,0:0:0:0:
256,192,25270,1,8,0:0:0:0:
256,192,25627,1,8,0:0:0:0:
256,192,25984,1,0,0:0:0:0:
256,192,26342,1,8,0:0:0:0:
256,192,26699,1,0,0:0:0:0:
256,192,27413,1,0,0:0:0:0:
256,192,27770,1,0,0:0:0:0:
256,192,28127,1,8,0:0:0:0:
256,192,29199,1,8,0:0:0:0:
256,192,29556,1,0,0:0:0:0:
256,192,29913,1,0,0:0:0:0:
256,192,30270,1,8,0:0:0:0:
256,192,30984,1,8,0:0:0:0:
256,192,31341,1,8,0:0:0:0:
256,192,31699,1,0,0:0:0:0:
256,192,32413,1,0,0:0:0:0:
256,192,32770,1,0,0:0:0:0:
256,192,33127,1,8,0:0:0:0:
256,192,33484,1,0,0:0:0:0:
256,192,33842,1,8,0:0:0:0:
256,192,34556,1,0,0:0:0:0:
256,192,34913,1,0,0:0:0:0:
256,192,35091,1,0,0:0:0:0:
256,64,35270,1,12,0:0:0:0:
256,192,35984,1,8,0:0:0:0:
256,192,36341,1,0,0:0:0:0:
256,192,36699,1,8,0:0:0:0:
256,192,37056,1,0,0:0:0:0:
256,192,37234,1,0,0:0:0:0:
256,192,37413,1,8,0:0:0:0:
256,192,37770,1,0,0:0:0:0:
256,192,38127,1,8,0:0:0:0:
256,192,38484,1,0,0:0:0:0:
256,192,38841,1,8,0:0:0:0:
256,192,39556,1,8,0:0:0:0:
256,192,40270,1,8,0:0:0:0:
256,192,40449,1,0,0:0:0:0:
256,192,40627,1,8,0:0:0:0:
256,192,40806,1,0,0:0:0:0:
256,192,40984,1,8,0:0:0:0:
256,192,41699,1,8,0:0:0:0:
256,192,42056,1,0,0:0:0:0:
256,192,42413,1,8,0:0:0:0:
256,192,42591,1,8,0:0:0:0:
256,192,42770,1,0,0:0:0:0:
256,192,43127,1,8,0:0:0:0:
256,192,43484,1,8,0:0:0:0:
256,192,43841,1,0,0:0:0:0:
256,192,44556,1,8,0:0:0:0:
256,192,44913,1,0,0:0:0:0:
256,192,45270,1,8,0:0:0:0:
256,192,45449,1,8,0:0:0:0:
256,192,45627,1,0,0:0:0:0:
256,192,45984,1,8,0:0:0:0:
256,192,46341,1,0,0:0:0:0:
256,64,46699,1,12,0:0:0:0:
256,192,47413,1,8,0:0:0:0:
256,192,47770,1,8,0:0:0:0:
256,192,48127,1,0,0:0:0:0:
256,192,48306,1,0,0:0:0:0:
256,192,48484,1,8,0:0:0:0:
256,192,48841,1,0,0:0:0:0:
256,192,49199,1,8,0:0:0:0:
256,192,49377,1,8,0:0:0:0:
256,192,49556,1,0,0:0:0:0:
256,192,50270,1,8,0:0:0:0:
256,192,50449,1,8,0:0:0:0:
256,192,50627,1,0,0:0:0:0:
256,64,50984,1,12,0:0:0:0:
256,64,51341,1,12,0:0:0:0:
256,64,52413,1,4,0:0:0:0:
256,192,52770,1,8,0:0:0:0:
256,192,52949,1,0,0:0:0:0:
256,192,53127,1,8,0:0:0:0:
256,192,53484,1,8,0:0:0:0:
256,192,53663,1,8,0:0:0:0:
256,192,53841,1,0,0:0:0:0:
256,192,54020,1,0,0:0:0:0:
256,192,54199,1,8,0:0:0:0:
256,192,54556,1,0,0:0:0:0:
256,192,54913,1,8,0:0:0:0:
256,64,55270,1,12,0:0:0:0:
256,192,55627,1,0,0:0:0:0:
256,192,55806,1,0,0:0:0:0:
256,192,55984,1,8,0:0:0:0:
256,192,56341,1,0,0:0:0:0:
256,192,56520,1,8,0:0:0:0:
256,192,56699,1,0,0:0:0:0:
256,192,57056,1,8,0:0:0:0:
256,192,57413,1,0,0:0:0:0:
256,64,58127,1,12,0:0:0:0:
256,192,58663,1,0,0:0:0:0:
256,192,59199,1,8,0:0:0:0:
256,192,59556,1,0,0:0:0:0:
256,192,59913,1,8,0:0:0:0:
256,192,60270,1,8,0:0:0:0:
256,192,60627,1,8,0:0:0:0:
256,192,60806,1,8,0:0:0:0:
256,192,60984,1,0,0:0:0:0:
256,192,61520,1,0,0:0:0:0:
256,192,61699,1,8,0:0:0:0:
256,192,62056,1,8,0:0:0:0:
256,192,62234,1,8,0:0:0:0:
256,192,62413,1,0,0:0:0:0:
256,192,62770,1,0,0:0:0:0:
256,192,62949,1,0,0:0:0:0:
256,192,63127,1,8,0:0:0:0:
256,64,63841,1,12,0:0:0:0:
256,192,64199,1,8,0:0:0:0:
256,192,64377,1,0,0:0:0:0:
256,192,64556,1,8,0:0:0:0:
256,192,64913,1,8,0:0:0:0:
256,192,65270,1,0,0:0:0:0:
256,192,65449,1,0,0:0:0:0:
256,192,65627,1,8,0:0:0:0:
256,192,65806,1,8,0:0:0:0:
256,192,65984,1,0,0:0:0:0:
256,192,66341,1,8,0:0:0:0:
256,64,66699,1,12,0:0:0:0:
256,192,67056,1,0,0:0:0:0:
256,192,67234,1,0,0:0:0:0:
256,192,67413,1,8,0:0:0:0:
256,192,67770,1,8,0:0:0:0:
256,192,67949,1,0,0:0:0:0:
256,192,68127,1,8,0:0:0:0:
256,192,68484,1,0,0:0:0:0:
256,192,68841,1,8,0:0:0:0:
256,64,69556,1,4,0:0:0:0:
256,192,70091,1,8,0:0:0:0:
256,192,70627,1,0,0:0:0:0:
256,192,70984,1,0,0:0:0:0:
256,192,71341,1,8,0:0:0:0:
256,192,71699,1,0,0:0:0:0:
256,192,72056,1,8,0:0:0:0:
256,64,72413,1,4,0:0:0:0:
256,64,73127,1,4,0:0:0:0:
256,64,73663,1,4,0:0:0:0:
256,192,74199,1,0,0:0:0:0:
256,64,74556,1,12,0:0:0:0:
256,64,75270,1,12,0:0:0:0:
256,192,75984,1,8,0:0:0:0:
256,192,76699,1,8,0:0:0:0:
256,192,77056,1,0,0:0:0:0:
256,192,77413,1,8,0:0:0:0:
256,192,78127,1,8,0:0:0:0:
256,192,78841,1,8,0:0:0:0:
256,192,79199,1,0,0:0:0:0:
256,192,79556,1,8,0:0:0:0:
256,192,80091,1,0,0:0:0:0:
256,64,80270,1,12,0:0:0:0:
256,64,80984,1,12,0:0:0:0:
256,192,81699,1,8,0:0:0:0:
256,192,82413,1,0,0:0:0:0:
256,192,82770,1,0,0:0:0:0:
256,192,83127,1,8,0:0:0:0:
256,192,83841,1,8,0:0:0:0:
256,192,84199,1,0,0:0:0:0:
256,192,84556,1,8,0:0:0:0:
256,192,84913,1,0,0:0:0:0:
256,192,85270,1,8,0:0:0:0:
256,192,85627,1,0,0:0:0:0:
256,192,85806,1,0,0:0:0:0:
256,192,85984,1,8,0:0:0:0:
256,192,86341,1,8,0:0:0:0:
256,64,86699,1,12,0:0:0:0:
256,192,87056,1,0,0:0:0:0:
256,192,87413,1,8,0:0:0:0:
256,192,87770,1,8,0:0:0:0:
256,192,88127,1,0,0:0:0:0:
256,192,88841,1,0,0:0:0:0:
256,192,89199,1,8,0:0:0:0:
256,64,89556,1,4,0:0:0:0:
256,192,90270,1,0,0:0:0:0:
256,192,90627,1,8,0:0:0:0:
256,192,90806,1,0,0:0:0:0:
256,192,90984,1,8,0:0:0:0:
256,192,91341,1,0,0:0:0:0:
256,192,91699,1,0,0:0:0:0:
256,192,91877,1,0,0:0:0:0:
256,192,92056,1,8,0:0:0:0:
256,192,92413,1,8,0:0:0:0:
256,192,92591,1,0,0:0:0:0:
256,64,92770,1,12,0:0:0:0:
256,192,93841,1,8,0:0:0:0:
256,192,94556,1,8,0:0:0:0:
256,192,94913,1,0,0:0:0:0:
256,64,95270,1,12,0:0:0:0:
256,64,95627,1,12,0:0:0:0:
256,64,95984,1,12,0:0:0:0:
256,64,96699,1,4,0:0:0:0:
256,192,97056,1,8,0:0:0:0:
256,192,97234,1,8,0:0:0:0:
256,192,97413,1,0,0:0:0:0:
256,192,97770,1,0,0:0:0:0:
256,192,98127,1,8,0:0:0:0:
256,192,98306,1,0,0:0:0:0:
256,192,98484,1,8,0:0:0:0:
256,192,98663,1,8,0:0:0:0:
256,192,98841,1,0,0:0:0:0:
256,64,99556,1,12,0:0:0:0:
256,192,100091,1,0,0:0:0:0:
256,192,100627,1,8,0:0:0:0:
256,192,100984,1,0,0:0:0:0:
256,192,101341,1,8,0:0:0:0:
256,192,101699,1,8,0:0:0:0:
256,192,102056,1,0,0:0:0:0:
256,192,102234,1,0,0:0:0:0:
256,192,102413,1,8,0:0:0:0:
256,192,102949,1,0,0:0:0:0:
256,192,103127,1,8,0:0:0:0:
256,192,103484,1,8,0:0:0:0:
256,192,103663,1,0,0:0:0:0:
256,192,103841,1,8,0:0:0:0:
256,192,104199,1,0,0:0:0:0:
256,192,104377,1,8,0:0:0:0:
256,192,104556,1,0,0:0:0:0:
256,192,104913,1,8,0:0:0:0:
256,192,105270,1,8,0:0:0:0:
256,192,105627,1,0,0:0:0:0:
256,192,105806,1,0,0:0:0:0:
256,192,105984,1,8,0:0:0:0:
256,192,106341,1,8,0:0:0:0:
256,192,106699,1,8,0:0:0:0:
256,192,106877,1,0,0:0:0:0:
256,192,107056,1,8,0:0:0:0:
256,192,107413,1,0,0:0:0:0:
256,192,108127,1,8,0:0:0:0:
256,192,108484,1,8,0:0:0:0:
256,192,108663,1,8,0:0:0:0:
256,192,108841,1,0,0:0:0:0:
256,192,109199,1,8,0:0:0:0:
256,192,109556,1,0,0:0:0:0:
256,192,109734,1,0,0:0:0:0:
256,192,109913,1,8,0:0:0:0:
256,192,110091,1,0,0:0:0:0:
256,192,110270,1,8,0:0:0:0:
256,64,110984,1,4,0:0:0:0:
256,192,111341,1,8,0:0:0:0:
256,192,111520,1,0,0:0:0:0:
256,192,112056,1,8,0:0:0:0:
256,192,112413,1,8,0:0:0:0:
256,192,112770,1,8,0:0:0:0:
256,192,112949,1,0,0:0:0:0:
256,192,113127,1,8,0:0:0:0:
256,192,113484,1,8,0:0:0:0:
256,64,113841,1,4,0:0:0:0:
256,192,114199,1,8,0:0:0:0:
256,64,114556,1,4,0:0:0:0:
256,64,115091,1,12,0:0:0:0:
256,192,115627,1,0,0:0:0:0:
256,64,115984,1,12,0:0:0:0:
256,64,116699,1,4,0:0:0:0:
256,192,117056,1,8,0:0:0:0:
256,64,117413,1,4,0:0:0:0:
256,64,117949,1,12,0:0:0:0:
256,192,118306,1,0,0:0:0:0:
256,192,118484,1,0,0:0:0:0:
256,64,118841,1,12,0:0:0:0:
