osu file format v14

[General]
AudioFilename: audio.mp3
AudioLeadIn: 0
PreviewTime:51626
Countdown: 0
SampleSet: Soft
StackLeniency: 0.3
Mode: 0
LetterboxInBreaks: 0
WidescreenStoryboard: 1

[Editor]
Bookmarks: 23881,33702,35309,75309,95309,116738
DistanceSpacing: 1.1
BeatDivisor: 4
GridSize: 32
TimelineZoom: 1

[Metadata]
Title:Sakimori Souka
TitleUnicode:防人想歌
Artist:onoken feat. Yoko Natsukawa
ArtistUnicode:onoken feat. 夏川陽子
Creator:Sunazuka Akira
Version:Hard
Source:pop'n music うさぎと猫と少年の夢
Tags:Saira 国忍 Kunioshi usagi to neko shounen no yume UsaNeko うさ猫 MANYOUKA guardian song ナビくんと旅をしよう!NAVI-kun tabi wo shiyou! Sengoku Retsuden jubeat Japanese Video Game Folk konami bemani Ax 防人恋歌 Sakimori Renka Original Soundtrack Dailycare Morinaga -Atri- Firis Mistlud KuranteMelodii krt mayle_5 Misure Pyo
BeatmapID:3186793
BeatmapSetID:1559358

[Difficulty]
HPDrainRate:4
CircleSize:4
OverallDifficulty:6
ApproachRate:8
SliderMultiplier:1.5
SliderTickRate:1

[Events]
//Background and Video events
0,0,"oriental.jpg",0,0
//Break Periods
//Storyboard Layer 0 (Background)
//Storyboard Layer 1 (Fail)
//Storyboard Layer 2 (Pass)
//Storyboard Layer 3 (Foreground)
//Storyboard Layer 4 (Overlay)
//Storyboard Sound Samples

[TimingPoints]
488,357.142857142857,3,2,1,50,1,0
667,357.142857142857,7,2,1,50,1,0
3166,-200,7,2,2,50,0,0
3434,-200,7,2,2,50,0,0
3524,-200,7,2,1,50,0,0
4863,-200,7,2,1,50,0,0
4952,-333.333333333333,7,2,1,50,0,0
5666,-333.333333333333,7,2,2,50,0,0
5845,-333.333333333333,7,2,1,50,0,0
8166,-200,7,2,2,50,0,0
8434,-200,7,2,2,50,0,0
8524,-200,7,2,1,50,0,0
9684,-200,7,2,1,50,0,0
9774,-200,7,2,1,50,0,0
10666,357.142857142857,4,2,1,70,1,0
10666,-125,4,2,1,70,0,0
14951,357.142857142857,3,2,1,70,1,0
15488,-125,3,2,1,90,0,0
15666,-125,3,2,1,70,0,0
16023,357.142857142857,4,2,1,70,1,0
16023,-125,4,2,1,70,0,0
17987,-100,4,2,1,70,0,0
18523,-125,4,2,1,70,0,0
20308,357.142857142857,3,2,1,70,1,0
20308,-125,3,2,1,70,0,0
21380,357.142857142857,7,2,1,60,1,0
21380,-200,7,2,1,60,0,0
23522,-200,7,2,1,50,0,0
23701,-200,7,2,1,45,0,0
23880,357.142857142857,4,2,1,40,1,0
23880,-333.333333333333,4,2,1,40,0,0
29594,-333.333333333333,4,2,1,60,0,0
31022,-200,4,2,1,60,0,0
31737,-333.333333333333,4,2,1,60,0,0
33701,-200,4,2,1,60,0,0
35308,-125,4,2,1,70,0,0
46737,-100,4,2,1,70,0,0
47451,-100,4,2,2,70,0,0
47808,-100,4,2,1,70,0,0
50487,-100,4,2,2,70,0,0
50576,-100,4,2,1,70,0,0
51022,-100,4,2,2,70,0,0
51379,-100,4,2,1,70,0,0
51826,-100,4,2,1,50,0,0
52094,-100,4,2,2,80,0,0
52272,-100,4,2,1,80,0,0
52451,-76.9230769230769,4,2,2,85,0,0
52629,-76.9230769230769,4,2,1,85,0,0
53165,-76.9230769230769,4,2,2,85,0,0
53254,-76.9230769230769,4,2,1,85,0,0
53522,-76.9230769230769,4,2,1,65,0,0
53701,-76.9230769230769,4,2,1,85,0,0
53879,-76.9230769230769,4,2,1,85,0,1
54594,-76.9230769230769,4,2,1,85,0,0
54772,-76.9230769230769,4,2,2,85,0,0
54951,-76.9230769230769,4,2,1,85,0,0
56022,-76.9230769230769,4,2,2,85,0,0
56201,-76.9230769230769,4,2,1,85,0,0
56737,-76.9230769230769,4,2,1,85,0,1
57451,-76.9230769230769,4,2,1,85,0,0
57808,-76.9230769230769,4,2,1,65,0,0
58165,-76.9230769230769,4,2,1,85,0,0
60308,-100,4,2,1,85,0,0
60844,-100,4,2,1,65,0,0
61022,-76.9230769230769,4,2,1,85,0,0
62451,-76.9230769230769,4,2,2,85,0,0
62808,-76.9230769230769,4,2,1,85,0,0
63254,-76.9230769230769,4,2,1,50,0,0
63522,-76.9230769230769,4,2,2,80,0,0
63612,-76.9230769230769,4,2,1,50,0,0
63879,-76.9230769230769,4,2,2,85,0,0
64058,-76.9230769230769,4,2,1,85,0,0
64594,-76.9230769230769,4,2,2,85,0,0
64683,-76.9230769230769,4,2,1,85,0,0
64951,-76.9230769230769,4,2,1,65,0,0
65129,-76.9230769230769,4,2,1,85,0,0
65308,-76.9230769230769,4,2,1,85,0,1
66022,-76.9230769230769,4,2,1,85,0,0
66201,-76.9230769230769,4,2,2,85,0,0
66379,-76.9230769230769,4,2,1,85,0,0
67451,-76.9230769230769,4,2,2,85,0,0
67629,-76.9230769230769,4,2,1,85,0,0
68165,-76.9230769230769,4,2,1,85,0,1
68701,-76.9230769230769,4,2,2,85,0,1
68790,-76.9230769230769,4,2,1,85,0,1
68879,-76.9230769230769,4,2,1,85,0,0
72451,-76.9230769230769,4,2,2,85,0,1
72629,-76.9230769230769,4,2,2,85,0,0
72808,-76.9230769230769,4,2,2,85,0,1
72987,-76.9230769230769,4,2,2,85,0,0
73165,-76.9230769230769,4,2,1,85,0,1
73433,-76.9230769230769,4,2,1,85,0,0
73701,-76.9230769230769,4,2,2,85,0,1
74058,-76.9230769230769,4,2,1,85,0,0
74594,-100,4,2,2,85,0,0
74772,-100,4,2,1,85,0,0
75308,-125,4,2,1,70,0,0
86737,-100,4,2,1,70,0,0
87451,-100,4,2,2,70,0,0
87808,-100,4,2,1,70,0,0
90487,-100,4,2,2,70,0,0
90576,-100,4,2,1,70,0,0
91022,-100,4,2,2,70,0,0
91379,-100,4,2,1,35,0,0
91737,-100,4,2,1,45,0,0
92094,-100,4,2,1,55,0,0
92451,-100,4,2,2,85,0,0
92629,-100,4,2,1,85,0,0
92808,-200,4,2,1,50,0,0
93165,-200,4,2,1,40,0,0
93879,-200,4,2,1,50,0,0
94237,-200,4,2,1,30,0,0
94415,-200,4,2,1,40,0,0
94594,-200,4,2,1,50,0,0
94772,-200,4,2,1,60,0,0
94951,-200,4,2,2,70,0,0
95308,-76.9230769230769,4,2,1,80,0,1
95397,-76.9230769230769,4,2,1,80,0,0
95665,-76.9230769230769,4,2,1,80,0,1
95754,-76.9230769230769,4,2,1,80,0,0
96022,-76.9230769230769,4,2,1,80,0,1
96112,-76.9230769230769,4,2,1,80,0,0
96379,-76.9230769230769,4,2,1,85,0,1
97451,-76.9230769230769,4,2,2,85,0,1
97629,-76.9230769230769,4,2,1,85,0,1
98165,-76.9230769230769,4,2,2,85,0,1
98522,-76.9230769230769,4,2,2,85,0,1
98701,-76.9230769230769,4,2,1,85,0,1
98879,-76.9230769230769,4,2,2,85,0,1
99237,-76.9230769230769,4,2,1,65,0,1
99594,-76.9230769230769,4,2,1,85,0,1
101737,-100,4,2,1,85,0,1
102272,-100,4,2,1,65,0,1
102451,-76.9230769230769,4,2,1,85,0,1
103879,-76.9230769230769,4,2,2,85,0,1
104237,-76.9230769230769,4,2,1,85,0,1
104683,-76.9230769230769,4,2,1,50,0,1
104951,-76.9230769230769,4,2,2,80,0,1
105308,-76.9230769230769,4,2,2,85,0,0
105487,-76.9230769230769,4,2,1,85,0,0
105665,-76.9230769230769,4,2,1,85,0,1
106022,-76.9230769230769,4,2,1,85,0,0
106379,-76.9230769230769,4,2,1,85,0,1
106737,-76.9230769230769,4,2,2,85,0,1
106826,-76.9230769230769,4,2,2,85,0,0
107094,-76.9230769230769,4,2,1,85,0,1
107183,-76.9230769230769,4,2,1,85,0,0
107451,-76.9230769230769,4,2,2,85,0,1
107540,-76.9230769230769,4,2,2,85,0,0
107808,-76.9230769230769,4,2,1,45,0,1
108165,-76.9230769230769,4,2,1,85,0,0
108522,-76.9230769230769,4,2,2,85,0,1
108879,-76.9230769230769,4,2,2,85,0,0
109058,-76.9230769230769,4,2,1,85,0,0
109237,-76.9230769230769,4,2,2,85,0,1
109415,-76.9230769230769,4,2,1,85,0,1
113879,-76.9230769230769,4,2,2,85,0,1
114058,-76.9230769230769,4,2,2,85,0,0
114237,-76.9230769230769,4,2,2,85,0,1
114594,-76.9230769230769,4,2,1,85,0,1
114862,-76.9230769230769,4,2,1,85,0,0
115129,-76.9230769230769,4,2,2,85,0,1
115487,-76.9230769230769,4,2,1,85,0,1
116022,-76.9230769230769,4,2,2,85,0,0
116201,-76.9230769230769,4,2,1,85,0,0
116379,-76.9230769230769,4,2,1,85,0,1
116558,-76.9230769230769,4,2,1,85,0,0
116737,-76.9230769230769,4,2,2,85,0,1
116915,-76.9230769230769,4,2,2,85,0,0
117094,-76.9230769230769,4,2,2,85,0,1
117272,-76.9230769230769,4,2,2,85,0,0
117451,-76.9230769230769,4,2,1,85,0,1
117808,-76.9230769230769,4,2,1,85,0,0
117987,-76.9230769230769,4,2,2,85,0,1
118165,-76.9230769230769,4,2,2,85,0,0
118344,-76.9230769230769,4,2,1,85,0,1
118522,-76.9230769230769,4,2,1,85,0,0
118701,-76.9230769230769,4,2,1,85,0,1
118879,-76.9230769230769,4,2,2,85,0,0

[Colours]
Combo1 : 255,138,217
Combo2 : 151,255,151
Combo3 : 233,232,226

[HitObjects]
44,310,667,5,4,0:2:0:0:
44,310,1738,1,2,0:1:0:0:
118,294,3166,2,0,L|122:217,2,75,6|2|2,0:2|0:2|0:2,0:0:0:0:
23,353,4238,1,2,0:2:0:0:
23,353,4416,2,0,P|49:371|91:375,1,75,2|0,0:1|0:0,0:0:0:0:
210,378,4952,6,0,L|215:353,1,22.4999993133545,2|2,0:2|0:2,0:0:0:0:
285,370,5309,2,0,L|290:345,1,22.4999993133545,2|2,0:2|0:2,0:0:0:0:
365,350,5666,1,6,0:2:0:0:
365,350,6738,1,2,0:1:0:0:
52,127,8166,6,0,L|47:50,2,75,2|2|2,0:2|0:2|0:2,0:0:0:0:
58,222,9238,1,2,0:2:0:0:
123,176,9416,2,0,P|154:166|201:162,1,75,4|0,1:2|1:0,0:0:0:0:
287,251,10131,5,8,0:1:0:0:
287,251,10309,2,0,P|306:272|312:294,1,37.5,2|2,3:2|3:2,0:0:0:0:
268,339,10666,6,0,L|399:321,1,120,6|8,1:1|0:2,0:0:0:0:
484,233,11381,2,0,P|508:266|445:302,1,120,14|0,0:1|1:0,0:0:0:0:
401,243,11916,2,0,P|399:210|420:183,1,60,4|0,1:3|0:0,0:0:0:0:
487,143,12274,6,0,L|356:125,1,120,8|14,0:2|0:1,0:0:0:0:
191,173,12988,1,0,3:0:0:0:
196,160,13166,2,0,L|214:97,1,60,0|8,3:0|0:1,0:0:0:0:
263,22,13524,6,0,P|260:73|194:76,1,120,6|8,1:1|1:1,0:0:0:0:
32,23,14238,2,0,P|46:55|81:61,1,60,14|2,1:2|0:1,0:0:0:0:
143,0,14773,2,0,L|157:128,1,120,4|4,1:3|1:0,0:0:0:0:
175,254,15486,5,10,2:3:0:0:
105,227,15665,1,10,0:2:0:0:
117,302,15843,1,2,1:1:0:0:
137,370,16023,6,0,L|268:352,1,120,6|8,1:1|0:2,0:0:0:0:
332,345,16558,1,0,3:0:0:0:
356,352,16737,2,0,P|337:288|390:276,1,120,14|0,3:1|1:0,0:0:0:0:
464,316,17273,2,0,P|482:290|471:258,1,60,4|0,1:3|0:0,0:0:0:0:
400,152,17630,2,0,P|407:187|447:198,1,60,8|0,0:2|0:0,0:0:0:0:
489,166,17987,6,0,L|341:187,1,150,14|2,0:1|0:1,0:0:0:0:
254,187,18523,2,0,P|233:159|234:128,2,60,2|8|2,0:1|1:1|3:1,0:0:0:0:
297,250,19058,1,2,3:1:0:0:
295,260,19237,1,6,1:2:0:0:
316,117,19594,6,0,L|326:47,1,60,12|8,1:1|0:1,0:0:0:0:
428,0,20130,2,0,B|457:34|457:34|444:123,1,120,4|2,1:3|1:2,0:0:0:0:
512,151,20665,2,0,P|489:175|456:181,1,60,2|2,0:2|0:2,0:0:0:0:
389,212,21022,2,0,P|360:196|320:202,1,60,4|0,1:2|3:0,0:0:0:0:
344,267,21380,6,0,B|309:283|307:373|448:380|489:288|447:210|395:209|392:229|350:216|318:147|358:75|433:83|474:122|450:163,1,450,4|2,1:1|0:1,0:0:0:0:
449,163,23880,5,6,1:1:0:0:
371,104,24237,2,0,L|320:113,1,44.999998626709,2|2,0:2|0:1,0:0:0:0:
215,127,24951,1,2,0:1:0:0:
215,127,25130,1,2,0:1:0:0:
231,197,25308,6,0,P|237:210|237:227,1,22.4999993133545,2|2,1:1|0:1,0:0:0:0:
307,238,25665,2,0,P|302:251|290:263,1,22.4999993133545,2|2,0:1|0:1,0:0:0:0:
278,330,26023,1,2,0:1:0:0:
278,330,26380,6,0,L|305:336,2,22.4999993133545,2|2|2,0:1|0:1|1:1,0:0:0:0:
140,378,27273,1,2,0:1:0:0:
128,379,27451,2,0,L|136:325,1,44.999998626709,2|2,0:1|0:1,0:0:0:0:
145,261,27987,1,2,0:1:0:0:
145,261,28165,1,2,1:1:0:0:
33,40,29237,5,2,0:1:0:0:
51,38,29415,1,2,0:1:0:0:
125,14,29594,2,0,P|134:31|138:60,1,44.999998626709,6|2,1:1|0:1,0:0:0:0:
115,131,30130,1,2,0:1:0:0:
116,142,30308,2,0,P|118:172|127:193,1,44.999998626709,2|2,0:1|0:1,0:0:0:0:
84,252,30844,1,2,3:1:0:0:
84,252,31023,6,0,P|109:314|188:287,1,150,2|2,1:1|0:1,0:0:0:0:
326,231,32273,1,2,0:1:0:0:
313,228,32451,2,0,L|304:182,1,44.999998626709,2|2,1:1|0:1,0:0:0:0:
281,94,32987,1,2,3:1:0:0:
270,108,33165,2,0,L|224:117,1,44.999998626709,2|2,1:1|0:1,0:0:0:0:
74,53,33880,5,6,1:1:0:0:
66,55,34058,1,0,1:0:0:0:
60,181,34415,5,8,0:2:0:0:
41,176,34594,2,0,L|-3:168,1,37.5,10|0,1:1|0:0,0:0:0:0:
132,156,34951,2,0,P|141:136|138:110,1,37.5,10|2,0:2|3:1,0:0:0:0:
74,53,35308,6,0,L|263:37,1,180,6|0,1:2|0:0,0:0:0:0:
354,14,36022,2,0,P|377:59|313:93,1,120,8|2,0:1|3:1,0:0:0:0:
177,12,36737,2,0,L|189:83,1,60,8|8,3:2|3:1,0:0:0:0:
256,94,37094,2,0,L|244:165,1,60,2|0,3:1|3:0,0:0:0:0:
224,228,37451,6,0,P|274:276|322:268,1,120,8|2,0:1|0:1,0:0:0:0:
499,249,38165,2,0,P|436:278|464:381,1,180,2|8,3:1|3:2,0:0:0:0:
382,379,38880,2,0,L|260:362,1,120,8|2,3:1|0:1,0:0:0:0:
438,252,39594,6,0,P|446:221|448:187,1,60,8|8,3:2|3:1,0:0:0:0:
372,186,39951,2,0,P|364:155|362:121,1,60,8|8,0:2|3:2,0:0:0:0:
412,73,40308,2,0,L|400:8,3,60,8|10|10|8,0:1|0:1|0:2|0:1,0:0:0:0:
481,43,41023,6,0,L|292:27,1,180,6|0,1:1|3:0,0:0:0:0:
220,21,41737,2,0,P|215:79|275:97,1,120,8|2,3:1|0:1,0:0:0:0:
397,142,42451,2,0,P|401:177|386:207,1,60,8|8,3:2|3:1,0:0:0:0:
423,269,42808,2,0,P|403:293|369:298,1,60,8|0,3:2|3:0,0:0:0:0:
296,276,43165,6,0,P|234:266|166:262,1,120,8|2,3:1|0:1,0:0:0:0:
110,359,43880,2,0,P|49:370|52:270,1,180,2|0,3:1|3:0,0:0:0:0:
102,235,44594,2,0,L|84:114,1,120,8|2,3:1|0:1,0:0:0:0:
102,235,45308,5,8,3:2:0:0:
166,283,45487,2,0,P|217:259|288:262,1,120,8|8,3:1|3:2,0:0:0:0:
340,304,46023,1,12,0:1:0:0:
355,290,46201,1,0,3:0:0:0:
326,197,46380,5,12,0:1:0:0:
326,197,46558,1,10,0:2:0:0:
326,197,46737,2,0,L|305:46,1,150,6|8,0:3|0:1,0:0:0:0:
486,29,47451,2,0,P|475:66|435:78,1,75,6|0,0:2|0:0,0:0:0:0:
365,35,47808,6,0,L|286:26,1,75,8|10,0:1|0:2,0:0:0:0:
216,20,48165,1,8,0:2:0:0:
216,20,48344,1,10,0:2:0:0:
123,74,48523,6,0,P|128:134|215:148,1,150,8|8,0:1|0:2,0:0:0:0:
273,119,49058,1,0,3:0:0:0:
296,190,49237,2,0,L|216:198,1,75,8|8,0:1|0:2,0:0:0:0:
126,186,49594,6,0,B|70:232|81:291|132:308,1,150,6|8,0:1|0:1,0:0:0:0:
231,379,50308,1,8,0:1:0:0:
281,323,50487,1,2,0:0:0:0:
209,307,50665,1,8,0:1:0:0:
232,372,50844,1,8,0:2:0:0:
324,383,51023,6,0,B|359:362|359:362|382:224,1,150,10|12,0:1|0:1,0:0:0:0:
420,165,51737,1,0,1:0:0:0:
407,168,51826,1,0,1:0:0:0:
394,171,51915,1,0,1:0:0:0:
381,174,52005,1,0,1:0:0:0:
367,178,52094,1,8,0:1:0:0:
229,229,52451,6,0,B|193:204|144:218|146:264|154:253|139:298|85:304|57:264,1,194.999991073609,6|8,0:1|0:1,0:0:0:0:
9,220,52987,1,10,0:2:0:0:
74,183,53165,2,0,L|86:75,1,97.4999955368044,6|2,0:2|0:1,0:0:0:0:
93,15,53523,1,8,1:0:0:0:
93,15,53701,1,8,0:2:0:0:
163,49,53880,6,0,B|199:24|248:38|246:84|238:73|253:118|307:124|335:84,2,194.999991073609,12|8|12,0:3|0:1|0:3,0:0:0:0:
14,120,54951,1,8,0:1:0:0:
14,120,55130,1,8,0:2:0:0:
23,197,55308,6,0,P|121:178|241:162,1,194.999991073609,4|8,1:1|0:1,0:0:0:0:
274,216,55844,1,10,0:2:0:0:
204,242,56023,2,0,P|214:288|272:312,1,97.4999955368044,6|2,0:2|0:1,0:0:0:0:
327,338,56380,1,8,0:1:0:0:
327,338,56558,1,8,0:2:0:0:
385,384,56737,6,0,P|391:297|496:286,2,194.999991073609,12|10|12,0:2|0:1|0:3,0:0:0:0:
310,243,57808,1,8,0:1:0:0:
312,229,57898,1,8,1:0:0:0:
314,215,57987,1,8,0:1:0:0:
316,201,58076,1,8,1:0:0:0:
319,189,58165,6,0,L|336:81,1,97.4999955368044,12|2,0:0|0:1,0:0:0:0:
346,21,58523,1,10,0:1:0:0:
327,21,58701,2,0,P|285:32|261:82,2,97.4999955368044,2|0|2,0:1|1:0|0:1,0:0:0:0:
403,67,59237,6,0,P|400:125|280:146,1,194.999991073609,10|2,0:1|1:1,0:0:0:0:
188,50,59951,2,0,P|104:48|143:130,1,194.999991073609,10|0,0:1|1:0,0:0:0:0:
196,213,60487,1,2,0:1:0:0:
184,222,60665,2,0,B|154:214|154:214|152:209|152:209|147:212|147:212|103:203,1,75,10|8,0:1|0:1,0:0:0:0:
68,272,61023,6,0,L|222:306,1,146.249993305207,12|0,1:1|0:0,0:0:0:0:
210,303,61380,1,8,0:1:0:0:
263,383,61558,1,2,0:1:0:0:
331,345,61737,2,0,L|306:251,1,97.4999955368044,2|0,0:1|0:0,0:0:0:0:
284,173,62094,5,8,0:1:0:0:
284,173,62273,1,8,0:3:0:0:
362,178,62451,2,0,P|396:212|454:209,1,97.4999955368044,2|0,0:1|0:0,0:0:0:0:
490,160,62808,2,0,P|493:109|457:85,1,97.4999955368044,8|8,0:1|0:2,0:0:0:0:
395,20,63165,5,0,1:0:0:0:
380,21,63255,1,0,1:0:0:0:
362,23,63344,2,0,L|299:29,2,48.7499977684022,0|0|8,1:0|1:0|0:1,0:0:0:0:
468,14,63701,1,0,1:0:0:0:
392,117,63880,6,0,B|356:92|307:106|309:152|317:141|302:186|248:192|220:152,1,194.999991073609,6|8,0:1|0:1,0:0:0:0:
161,129,64415,1,10,0:2:0:0:
162,208,64594,2,0,P|188:239|246:250,1,97.4999955368044,6|2,0:2|0:1,0:0:0:0:
332,230,64951,1,8,1:0:0:0:
332,230,65130,1,8,0:2:0:0:
404,276,65308,6,0,P|419:180|428:76,2,194.999991073609,12|8|12,0:3|0:1|0:3,0:0:0:0:
188,368,66380,1,8,0:1:0:0:
139,313,66558,1,8,0:2:0:0:
164,293,66737,6,0,B|200:268|249:282|247:328|239:317|254:362|308:368|336:328,1,194.999991073609,4|8,1:1|0:1,0:0:0:0:
302,269,67273,1,10,0:2:0:0:
247,213,67451,2,0,L|233:114,1,97.4999955368044,6|2,0:2|0:1,0:0:0:0:
225,40,67808,1,8,0:1:0:0:
223,21,67987,1,8,0:2:0:0:
150,44,68165,6,0,P|246:46|358:73,2,194.999991073609,12|12|4,0:2|0:1|0:3,0:0:0:0:
0,140,69237,1,8,0:1:0:0:
66,194,69415,1,8,0:2:0:0:
66,194,69505,1,8,0:1:0:0:
66,194,69594,6,0,L|165:179,1,97.4999955368044,12|2,0:3|0:1,0:0:0:0:
236,197,69951,2,0,P|254:269|152:285,1,194.999991073609,10|0,0:1|1:0,0:0:0:0:
83,279,70487,1,2,0:1:0:0:
80,289,70665,1,10,0:1:0:0:
69,207,71023,6,0,L|55:105,1,97.4999955368044,2|8,1:1|0:2,0:0:0:0:
50,39,71380,2,0,P|88:10|133:28,1,97.4999955368044,10|8,0:1|0:2,0:0:0:0:
175,83,71737,2,0,P|215:113|260:98,1,97.4999955368044,0|2,1:0|0:1,0:0:0:0:
321,40,72094,2,0,L|377:30,4,48.7499977684022,10|0|8|8|12,0:1|0:0|0:1|0:0|1:1,0:0:0:0:
229,35,72808,5,2,0:1:0:0:
339,163,73165,2,0,L|319:271,1,97.4999955368044,2|2,0:3|0:3,0:0:0:0:
403,297,73701,2,0,B|408:314|429:325|429:325|422:379|364:404|320:372|315:335,1,194.999991073609,14|2,0:2|0:3,0:0:0:0:
313,264,74237,2,0,L|330:168,1,97.4999955368044,2|2,0:3|0:3,0:0:0:0:
341,94,74594,2,0,P|320:62|278:55,2,75,8|8|8,0:1|0:1|0:2,0:0:0:0:
421,175,75308,6,0,L|241:190,1,180,6|0,1:2|0:0,0:0:0:0:
161,174,76023,2,0,P|138:219|202:253,1,120,8|2,3:1|0:1,0:0:0:0:
290,308,76737,2,0,P|279:342|243:360,1,60,8|8,3:2|3:2,0:0:0:0:
192,383,77094,2,0,P|156:378|132:345,1,60,2|0,3:1|3:0,0:0:0:0:
161,290,77451,6,0,L|176:150,1,120,8|2,3:1|0:1,0:0:0:0:
115,53,78165,2,0,P|131:123|237:127,1,180,2|8,3:1|3:2,0:0:0:0:
272,76,78880,2,0,P|310:35|393:46,1,120,8|2,3:1|3:1,0:0:0:0:
431,77,79415,1,0,3:0:0:0:
342,107,79594,6,0,L|330:176,1,60,8|8,3:2|3:2,0:0:0:0:
407,192,79951,2,0,L|417:251,1,60,8|8,0:2|3:2,0:0:0:0:
444,330,80308,6,0,P|422:355|283:346,1,180,8|8,0:1|0:1,0:0:0:0:
210,381,81023,6,0,L|225:201,1,180,6|0,0:1|3:0,0:0:0:0:
253,109,81737,2,0,P|260:152|190:170,1,120,8|2,0:1|0:1,0:0:0:0:
95,48,82451,2,0,P|80:70|85:110,1,60,8|8,0:2|0:2,0:0:0:0:
18,137,82808,2,0,P|37:168|71:177,1,60,8|0,0:2|3:0,0:0:0:0:
145,150,83165,6,0,P|199:135|270:129,1,120,8|2,0:1|0:1,0:0:0:0:
387,110,83880,2,0,P|424:181|349:208,1,180,2|0,3:1|3:0,0:0:0:0:
276,205,84594,2,0,L|255:323,1,120,8|2,3:1|0:1,0:0:0:0:
276,205,85308,5,8,3:2:0:0:
200,226,85487,2,0,P|149:202|78:205,1,120,8|8,3:2|3:2,0:0:0:0:
24,248,86023,1,12,1:1:0:0:
29,158,86380,5,10,0:2:0:0:
29,158,86558,1,10,0:2:0:0:
29,158,86737,2,0,L|46:8,1,150,6|8,0:3|0:1,0:0:0:0:
182,36,87451,2,0,P|210:63|256:66,1,75,6|0,0:2|3:0,0:0:0:0:
309,28,87808,6,0,L|401:18,1,75,8|10,0:1|0:2,0:0:0:0:
461,12,88165,1,8,0:2:0:0:
461,12,88344,1,10,0:2:0:0:
483,91,88523,6,0,P|478:151|391:165,1,150,8|8,0:1|0:2,0:0:0:0:
333,136,89058,1,0,3:0:0:0:
310,207,89237,2,0,L|390:215,1,75,8|8,0:1|0:2,0:0:0:0:
457,240,89594,6,0,B|477:267|477:267|460:348|460:348|424:365,1,150,6|8,0:1|0:1,0:0:0:0:
254,301,90308,1,8,0:1:0:0:
223,364,90487,1,2,0:0:0:0:
223,364,90665,2,0,B|176:374|176:374|160:332,1,75,8|8,0:1|0:2,0:0:0:0:
178,273,91023,6,0,L|164:188,1,75,10|0,0:1|0:0,0:0:0:0:
151,124,91380,1,8,0:1:0:0:
149,114,91469,1,8,0:1:0:0:
147,104,91558,1,8,0:1:0:0:
145,94,91648,1,8,0:1:0:0:
143,81,91737,2,0,L|136:43,2,37.5,8|8|8,0:1|0:1|0:1,0:0:0:0:
64,70,92094,5,8,0:1:0:0:
66,80,92184,1,8,0:1:0:0:
68,90,92273,1,8,0:1:0:0:
70,100,92362,1,8,0:1:0:0:
72,111,92451,2,0,L|84:185,1,75,8|0,0:1|1:0,0:0:0:0:
99,265,92808,1,12,1:1:0:0:
83,382,93165,6,0,P|117:366|165:360,1,75,2|2,0:1|0:2,0:0:0:0:
478,165,94951,5,10,0:1:0:0:
447,233,95130,1,2,0:2:0:0:
435,227,95308,6,0,P|418:138|403:24,2,194.999991073609,12|12|12,1:1|1:1|1:1,0:0:0:0:
465,376,96380,1,8,0:1:0:0:
465,376,96558,1,8,0:2:0:0:
397,322,96737,6,0,B|361:297|312:311|314:357|322:346|307:391|253:397|225:357,1,194.999991073609,4|8,1:1|0:1,0:0:0:0:
193,304,97273,1,10,0:2:0:0:
260,267,97451,2,0,L|271:167,1,97.4999955368044,6|2,0:2|0:1,0:0:0:0:
279,96,97808,1,8,1:0:0:0:
279,96,97987,1,8,0:2:0:0:
209,131,98165,6,0,B|196:71|124:55|79:89|79:89|81:133,2,194.999991073609,6|6|2,1:1|1:1|0:2,0:0:0:0:
109,242,99237,1,8,0:1:0:0:
123,244,99327,1,8,1:0:0:0:
137,246,99416,1,8,0:1:0:0:
151,248,99505,1,8,1:0:0:0:
163,251,99594,6,0,L|271:268,1,97.4999955368044,12|2,0:0|0:1,0:0:0:0:
334,281,99951,2,0,P|386:314|312:381,1,194.999991073609,10|2,0:1|1:0,0:0:0:0:
172,341,100665,6,0,P|89:373|66:282,1,194.999991073609,10|2,0:1|1:1,0:0:0:0:
1,217,101380,2,0,P|49:173|188:179,1,194.999991073609,10|0,0:1|1:0,0:0:0:0:
248,193,101915,1,2,0:1:0:0:
257,181,102094,2,0,B|249:151|249:151|246:147|246:147|247:144|247:144|235:99,1,75,10|8,0:1|0:1,0:0:0:0:
227,32,102451,6,0,B|266:3|312:25|314:65|302:56|306:93|358:108|389:81,1,194.999991073609,12|8,0:1|1:2,0:0:0:0:
451,25,102987,1,2,0:1:0:0:
455,41,103165,1,10,0:1:0:0:
504,174,103523,6,0,P|497:217|446:229,1,97.4999955368044,8|8,0:1|0:3,0:0:0:0:
378,203,103880,1,2,0:1:0:0:
379,220,104058,2,0,L|366:321,1,97.4999955368044,0|8,0:0|0:1,0:0:0:0:
267,367,104594,2,0,B|228:396|182:374|180:334|192:343|188:306|136:291|105:318,1,194.999991073609,0|8,1:0|0:1,0:0:0:0:
69,235,105308,6,0,P|24:250|13:296,2,97.4999955368044,2|0|12,0:1|0:0|0:1,0:0:0:0:
130,164,106023,2,0,P|99:127|53:132,2,97.4999955368044,8|0|12,1:1|0:0|0:1,0:0:0:0:
191,244,106737,2,0,P|291:224|384:211,2,194.999991073609,8|12|2,1:1|0:1|0:0,0:0:0:0:
112,183,107808,5,8,1:1:0:0:
113,170,107898,1,0,1:0:0:0:
114,157,107987,1,0,1:0:0:0:
115,144,108076,1,0,1:0:0:0:
116,130,108165,6,0,L|123:18,2,97.4999955368044,8|0|6,1:1|0:0|0:1,0:0:0:0:
211,116,108880,2,0,L|323:123,2,97.4999955368044,8|0|6,1:1|3:0|0:1,0:0:0:0:
112,222,109594,2,0,B|139:197|191:212|195:249|183:240|185:280|231:302|270:273,2,194.999991073609,8|12|12,1:1|1:1|1:1,0:0:0:0:
0,320,110665,5,8,0:1:0:0:
64,375,110844,1,8,0:2:0:0:
64,375,110933,1,8,0:1:0:0:
64,375,111023,6,0,P|152:365|265:359,1,194.999991073609,12|10,0:0|0:1,0:0:0:0:
496,377,111737,1,0,1:0:0:0:
427,350,111915,2,0,L|443:253,1,97.4999955368044,2|10,0:1|0:1,0:0:0:0:
459,128,112451,5,2,1:1:0:0:
392,178,112630,1,8,0:2:0:0:
392,178,112808,2,0,P|330:173|333:55,1,194.999991073609,10|0,0:1|1:0,0:0:0:0:
421,35,113523,2,0,L|477:25,4,48.7499977684022,10|0|8|8|12,0:1|0:0|0:1|1:0|0:1,0:0:0:0:
249,25,114237,5,2,0:1:0:0:
270,141,114594,2,0,L|290:249,1,97.4999955368044,2|2,3:3|0:3,0:0:0:0:
206,275,115130,2,0,B|201:292|180:303|180:303|187:357|245:382|289:350|294:313,1,194.999991073609,14|2,0:2|0:3,0:0:0:0:
296,242,115666,2,0,L|279:146,1,97.4999955368044,2|2,0:3|0:3,0:0:0:0:
270,70,116023,1,8,0:1:0:0:
211,24,116201,1,0,1:0:0:0:
199,98,116380,1,8,0:2:0:0:
68,28,116737,5,12,0:1:0:0:
5,172,117094,2,0,P|27:217|81:221,1,97.4999955368044,2|0,0:1|0:0,0:0:0:0:
117,163,117451,2,0,B|153:144|189:170|182:208|182:208|159:318,1,194.999991073609,2|2,3:3|0:3,0:0:0:0:
145,377,117987,1,14,0:2:0:0:
256,323,118344,5,2,3:3:0:0:
278,319,118523,1,2,0:3:0:0:
298,316,118701,1,2,0:3:0:0:
316,313,118880,1,2,0:1:0:0:
