osu file format v14

[General]
AudioFilename: audio.mp3
AudioLeadIn: 0
PreviewTime:51626
Countdown: 0
SampleSet: Soft
StackLeniency: 0.3
Mode: 0
LetterboxInBreaks: 0
WidescreenStoryboard: 0

[Editor]
Bookmarks: 23881,35309,75309,95309,116738
DistanceSpacing: 1.1
BeatDivisor: 4
GridSize: 32
TimelineZoom: 1

[Metadata]
Title:Sakimori Souka
TitleUnicode:防人想歌
Artist:onoken feat. Yoko Natsukawa
ArtistUnicode:onoken feat. 夏川陽子
Creator:Sunazuka Akira
Version:Extra
Source:pop'n music うさぎと猫と少年の夢
Tags:Saira 国忍 Kunioshi usagi to neko shounen no yume UsaNeko うさ猫 MANYOUKA guardian song ナビくんと旅をしよう!NAVI-kun tabi wo shiyou! Sengoku Retsuden jubeat Japanese Video Game Folk konami bemani Ax 防人恋歌 Sakimori Renka Original Soundtrack Dailycare Morinaga -Atri- Firis Mistlud KuranteMelodii krt mayle_5 Misure Pyo
BeatmapID:3185234
BeatmapSetID:1559358

[Difficulty]
HPDrainRate:6
CircleSize:4.5
OverallDifficulty:8.4
ApproachRate:9.3
SliderMultiplier:2
SliderTickRate:1

[Events]
//Background and Video events
0,0,"oriental.jpg",0,0
//Break Periods
//Storyboard Layer 0 (Background)
//Storyboard Layer 1 (Fail)
//Storyboard Layer 2 (Pass)
//Storyboard Layer 3 (Foreground)
//Storyboard Layer 4 (Overlay)
//Storyboard Sound Samples

[TimingPoints]
488,357.142857142857,3,2,1,50,1,0
667,357.142857142857,7,2,1,50,1,0
667,-100,4,2,1,50,0,0
1738,-333.333333333333,4,2,1,50,0,0
3166,-166.666666666667,4,2,2,50,0,0
3434,-166.666666666667,4,2,2,5,0,0
3524,-333.333333333333,4,2,1,50,0,0
4863,-333.333333333333,4,2,1,5,0,0
4952,-333.333333333333,4,2,1,50,0,0
5666,-333.333333333333,4,2,2,50,0,0
5845,-333.333333333333,4,2,1,50,0,0
8166,-166.666666666667,4,2,2,50,0,0
8434,-166.666666666667,4,2,2,5,0,0
8524,-333.333333333333,4,2,1,50,0,0
9416,-200,4,2,1,50,0,0
9684,-200,4,2,1,5,0,0
9774,-200,4,2,1,50,0,0
10666,357.142857142857,4,2,1,70,1,0
10666,-76.9230769230769,4,2,1,70,0,0
11024,-153.846153846154,4,2,1,70,0,0
11381,-50,4,2,1,70,0,0
11738,-153.846153846154,4,2,1,70,0,0
12274,-76.9230769230769,4,2,1,70,0,0
12631,-153.846153846154,4,2,1,70,0,0
13524,-76.9230769230769,4,2,1,70,0,0
13881,-153.846153846154,4,2,1,70,0,0
14774,-50,4,2,1,70,0,0
14951,357.142857142857,3,2,1,70,1,0
15129,-153.846153846154,3,2,1,70,0,0
15488,-153.846153846154,3,2,1,90,0,0
15666,-153.846153846154,3,2,1,70,0,0
16023,357.142857142857,4,2,1,70,1,0
16023,-76.9230769230769,4,2,1,70,0,0
16380,-153.846153846154,4,2,1,70,0,0
16737,-50,4,2,1,70,0,0
17094,-153.846153846154,4,2,1,70,0,0
17630,-76.9230769230769,4,2,1,70,0,0
17987,-153.846153846154,4,2,1,70,0,0
18344,-50,4,2,1,70,0,0
19237,-153.846153846154,4,2,1,70,0,0
19773,-76.9230769230769,4,2,1,70,0,0
20130,-50,4,2,1,70,0,0
20308,357.142857142857,3,2,1,70,1,0
21380,357.142857142857,7,2,1,60,1,0
21380,-222.222222222222,7,2,1,60,0,0
23523,-222.222222222222,7,2,1,50,0,0
23702,-222.222222222222,7,2,1,45,0,0
23880,357.142857142857,4,2,1,40,1,0
23880,-333.333333333333,4,2,1,40,0,0
29594,-333.333333333333,4,2,1,60,0,0
31022,-133.333333333333,4,2,1,60,0,0
31737,-333.333333333333,4,2,1,60,0,0
35308,-100,4,2,1,70,0,0
36022,-50,4,2,1,70,0,0
37451,-100,4,2,1,70,0,0
38879,-50,4,2,1,70,0,0
39594,-100,4,2,1,70,0,0
40308,-200,4,2,1,70,0,0
41022,-100,4,2,1,70,0,0
41737,-50,4,2,1,70,0,0
42094,-100,4,2,1,70,0,0
44594,-50,4,2,1,70,0,0
44951,-100,4,2,1,70,0,0
46737,-66.6666666666667,4,2,1,70,0,0
47451,-66.6666666666667,4,2,2,70,0,0
47808,-76.9230769230769,4,2,1,70,0,0
48165,-66.6666666666667,4,2,1,70,0,0
49594,-50,4,2,1,70,0,0
49951,-66.6666666666667,4,2,1,70,0,0
50487,-66.6666666666667,4,2,2,70,0,0
50576,-66.6666666666667,4,2,1,70,0,0
51022,-40,4,2,2,70,0,0
51201,-200,4,2,1,70,0,0
51379,-40,4,2,1,70,0,0
51826,-40,4,2,1,50,0,0
52094,-40,4,2,2,80,0,0
52272,-40,4,2,1,80,0,0
52451,-50,4,2,2,85,0,0
52629,-50,4,2,1,85,0,0
52808,-166.666666666667,4,2,1,85,0,0
53165,-66.6666666666667,4,2,2,85,0,0
53254,-66.6666666666667,4,2,1,85,0,0
53522,-66.6666666666667,4,2,1,65,0,0
53701,-66.6666666666667,4,2,1,85,0,0
53879,-40.8163265306122,4,2,1,85,0,1
54772,-40.8163265306122,4,2,2,85,0,0
54951,-66.6666666666667,4,2,1,85,0,0
55308,-50,4,2,1,85,0,0
56022,-50,4,2,2,85,0,0
56201,-50,4,2,1,85,0,0
56379,-66.6666666666667,4,2,1,85,0,0
56737,-40.8163265306122,4,2,1,85,0,1
57808,-40.8163265306122,4,2,1,65,0,0
58165,-50,4,2,1,85,0,0
58879,-66.6666666666667,4,2,1,85,0,0
59237,-57.1428571428571,4,2,1,85,0,0
59504,-57.1428571428571,4,2,1,5,0,0
59594,-57.1428571428571,4,2,1,85,0,0
60308,-100,4,2,1,85,0,0
60844,-100,4,2,1,65,0,0
61022,-50,4,2,1,85,0,0
62094,-66.6666666666667,4,2,1,85,0,0
62272,-166.666666666667,4,2,1,85,0,0
62451,-66.6666666666667,4,2,2,85,0,0
62808,-66.6666666666667,4,2,1,85,0,0
63254,-66.6666666666667,4,2,1,50,0,0
63522,-66.6666666666667,4,2,2,80,0,0
63612,-66.6666666666667,4,2,1,50,0,0
63879,-50,4,2,2,85,0,0
64058,-50,4,2,1,85,0,0
64237,-166.666666666667,4,2,1,85,0,0
64594,-66.6666666666667,4,2,2,85,0,0
64683,-66.6666666666667,4,2,1,85,0,0
64951,-66.6666666666667,4,2,1,65,0,0
65129,-66.6666666666667,4,2,1,85,0,0
65308,-40.8163265306122,4,2,1,85,0,1
66201,-40.8163265306122,4,2,2,85,0,1
66379,-66.6666666666667,4,2,1,85,0,0
67451,-66.6666666666667,4,2,2,85,0,0
67629,-66.6666666666667,4,2,1,85,0,0
67808,-66.6666666666667,4,2,1,85,0,0
68165,-40.8163265306122,4,2,1,85,0,1
68701,-40.8163265306122,4,2,2,85,0,1
68790,-40.8163265306122,4,2,1,85,0,1
69237,-40.8163265306122,4,2,1,85,0,0
69594,-50,4,2,1,85,0,0
70665,-66.6666666666667,4,2,1,85,0,0
71022,-57.1428571428571,4,2,1,85,0,0
72094,-50,4,2,1,85,0,0
72451,-50,4,2,2,85,0,1
72629,-50,4,2,2,85,0,0
72808,-50,4,2,2,85,0,1
72987,-50,4,2,2,85,0,0
73165,-58.8235294117647,4,2,1,85,0,1
73522,-58.8235294117647,4,2,1,85,0,0
73701,-50,4,2,2,85,0,1
74058,-50,4,2,1,85,0,0
74594,-50,4,2,2,85,0,0
74772,-50,4,2,1,85,0,0
75308,-100,4,2,1,70,0,0
76022,-50,4,2,1,70,0,0
76737,-100,4,2,1,70,0,0
78879,-50,4,2,1,70,0,0
79237,-100,4,2,1,70,0,0
80308,-200,4,2,1,70,0,0
81022,-100,4,2,1,70,0,0
81737,-50,4,2,1,70,0,0
82094,-100,4,2,1,70,0,0
84594,-50,4,2,1,70,0,0
86737,-66.6666666666667,4,2,1,70,0,0
87451,-66.6666666666667,4,2,2,70,0,0
87808,-76.9230769230769,4,2,1,70,0,0
88165,-66.6666666666667,4,2,1,70,0,0
89594,-50,4,2,1,70,0,0
89951,-66.6666666666667,4,2,1,70,0,0
90487,-66.6666666666667,4,2,2,70,0,0
90576,-66.6666666666667,4,2,1,70,0,0
90665,-40,4,2,1,70,0,0
91022,-66.6666666666667,4,2,2,70,0,0
91379,-66.6666666666667,4,2,1,35,0,0
91737,-66.6666666666667,4,2,1,45,0,0
92094,-66.6666666666667,4,2,1,55,0,0
92451,-66.6666666666667,4,2,2,85,0,0
92629,-66.6666666666667,4,2,1,85,0,0
92808,-142.857142857143,4,2,1,50,0,0
93165,-142.857142857143,4,2,1,40,0,0
93879,-142.857142857143,4,2,1,50,0,0
94237,-142.857142857143,4,2,1,30,0,0
94415,-142.857142857143,4,2,1,40,0,0
94594,-142.857142857143,4,2,1,50,0,0
94772,-142.857142857143,4,2,1,60,0,0
94951,-50,4,2,2,70,0,0
95308,-40.8163265306122,4,2,1,80,0,1
95397,-40.8163265306122,4,2,1,80,0,0
95665,-40.8163265306122,4,2,1,80,0,1
95754,-40.8163265306122,4,2,1,80,0,0
96022,-40.8163265306122,4,2,1,80,0,1
96112,-40.8163265306122,4,2,1,80,0,0
96379,-66.6666666666667,4,2,1,85,0,1
96737,-50,4,2,1,85,0,1
97451,-50,4,2,2,85,0,1
97629,-50,4,2,1,85,0,1
97808,-66.6666666666667,4,2,1,85,0,1
98165,-40.8163265306122,4,2,2,85,0,1
98522,-40.8163265306122,4,2,2,85,0,1
98701,-40.8163265306122,4,2,1,85,0,1
98879,-40.8163265306122,4,2,2,85,0,1
99237,-40.8163265306122,4,2,1,65,0,1
99594,-50,4,2,1,85,0,1
100665,-57.1428571428571,4,2,1,85,0,1
101379,-100,4,2,1,85,0,1
102272,-100,4,2,1,65,0,1
102451,-50,4,2,1,85,0,1
103522,-66.6666666666667,4,2,1,85,0,1
103701,-166.666666666667,4,2,1,85,0,1
103879,-66.6666666666667,4,2,2,85,0,1
104237,-66.6666666666667,4,2,1,85,0,1
104683,-66.6666666666667,4,2,1,50,0,1
104951,-66.6666666666667,4,2,2,80,0,1
105308,-50,4,2,2,85,0,0
105487,-50,4,2,1,85,0,0
105665,-50,4,2,1,85,0,1
106022,-50,4,2,1,85,0,0
106379,-50,4,2,1,85,0,1
106737,-40.8163265306122,4,2,2,85,0,1
106826,-40.8163265306122,4,2,2,85,0,0
107094,-40.8163265306122,4,2,1,85,0,1
107183,-40.8163265306122,4,2,1,85,0,0
107451,-40.8163265306122,4,2,2,85,0,1
107540,-40.8163265306122,4,2,2,85,0,0
107808,-40.8163265306122,4,2,1,45,0,1
108165,-200,4,2,1,85,0,0
108522,-50,4,2,2,85,0,1
108879,-200,4,2,2,85,0,0
109058,-200,4,2,1,85,0,0
109237,-50,4,2,2,85,0,1
109415,-50,4,2,1,85,0,1
109951,-40.8163265306122,4,2,1,85,0,1
111022,-50,4,2,1,85,0,1
112094,-66.6666666666667,4,2,1,85,0,1
112451,-57.1428571428571,4,2,1,85,0,1
113522,-50,4,2,1,85,0,1
113879,-45.4545454545455,4,2,2,85,0,1
114058,-45.4545454545455,4,2,2,85,0,0
114237,-45.4545454545455,4,2,2,85,0,1
114594,-50,4,2,1,85,0,1
114862,-50,4,2,1,85,0,0
115129,-45.4545454545455,4,2,2,85,0,1
115487,-57.1428571428571,4,2,1,85,0,1
116022,-57.1428571428571,4,2,2,85,0,0
116201,-57.1428571428571,4,2,1,85,0,0
116379,-57.1428571428571,4,2,1,85,0,1
116558,-57.1428571428571,4,2,1,85,0,0
116737,-45.4545454545455,4,2,2,85,0,1
116915,-45.4545454545455,4,2,2,85,0,0
117094,-45.4545454545455,4,2,2,85,0,1
117272,-45.4545454545455,4,2,2,85,0,0
117451,-45.4545454545455,4,2,1,85,0,1
117808,-45.4545454545455,4,2,1,85,0,0
117987,-45.4545454545455,4,2,2,85,0,1
118165,-45.4545454545455,4,2,2,85,0,0
118344,-57.1428571428571,4,2,1,85,0,1
118522,-200,4,2,1,85,0,0
118701,-57.1428571428571,4,2,1,85,0,1
118879,-333.333333333333,4,2,2,85,0,0
119237,-333.333333333333,4,2,2,5,0,0

[Colours]
Combo1 : 255,138,217
Combo2 : 151,255,151
Combo3 : 233,232,226

[HitObjects]
92,12,547,5,0,0:0:0:0:
92,12,607,1,0,0:0:0:0:
92,12,667,1,4,0:2:0:0:
17,27,845,1,2,0:0:0:0:
120,77,1024,1,2,0:2:0:0:
47,103,1202,1,2,0:2:0:0:
15,169,1381,1,2,0:2:0:0:
15,169,1559,1,2,0:2:0:0:
197,22,1738,6,0,L|191:63,1,29.9999990844727,2|2,0:1|0:2,0:0:0:0:
182,119,2095,1,2,0:2:0:0:
245,155,2274,1,2,0:2:0:0:
297,106,2452,2,0,L|301:76,2,29.9999990844727,2|2|2,0:2|0:2|0:2,0:0:0:0:
307,378,3166,6,0,P|321:338|373:333,1,89.9999972534181,6|0,0:2|0:0,0:0:0:0:
441,337,3524,6,0,P|437:366|404:387,1,59.9999981689454,2|2,0:2|0:2,0:0:0:0:
363,261,4238,1,2,0:2:0:0:
363,261,4416,2,0,P|366:220|371:183,1,74.9999977111817,2|0,0:1|0:0,0:0:0:0:
377,113,4952,5,2,0:2:0:0:
377,113,5131,1,2,0:2:0:0:
302,117,5309,1,2,0:2:0:0:
273,181,5488,1,2,0:2:0:0:
355,333,5666,5,6,0:2:0:0:
296,377,5845,1,2,0:2:0:0:
287,303,6024,2,0,L|252:316,1,29.9999990844727,2|2,0:2|0:2,0:0:0:0:
296,377,6381,1,2,0:2:0:0:
326,244,6559,1,2,0:2:0:0:
145,254,6738,6,0,P|160:267|168:281,1,29.9999990844727,2|2,0:1|0:2,0:0:0:0:
147,347,7095,1,2,0:2:0:0:
147,347,7274,1,2,0:2:0:0:
81,381,7452,1,2,0:2:0:0:
41,327,7631,2,0,P|26:340|18:354,2,29.9999990844727,2|2|2,0:2|0:2|0:2,0:0:0:0:
62,235,8166,6,0,P|67:187|74:136,1,89.9999972534181,2|0,0:2|0:0,0:0:0:0:
93,74,8524,6,0,P|119:85|135:122,1,59.9999981689454,2|2,0:2|0:2,0:0:0:0:
12,84,9238,1,2,0:2:0:0:
158,19,9416,2,0,P|183:46|231:51,1,75,4|0,1:2|0:0,0:0:0:0:
234,48,9774,2,0,P|257:33|269:7,1,50,0|0,1:0|0:0,0:0:0:0:
81,3,10131,5,8,0:1:0:0:
69,146,10309,1,2,3:2:0:0:
134,111,10488,1,2,3:2:0:0:
190,226,10666,6,0,P|286:209|392:202,1,194.999991073609,6|0,1:1|0:0,0:0:0:0:
451,210,11024,2,0,P|442:241|419:263,1,64.9999970245363,8|0,0:2|0:0,0:0:0:0:
242,112,11381,6,0,B|229:144|243:177|243:177|244:113|302:58|369:81|369:81|342:110|339:161,1,300,14|0,0:1|0:0,0:0:0:0:
345,122,11738,1,0,1:0:0:0:
322,271,11916,2,0,L|251:262,1,64.9999970245363,4|0,1:3|0:0,0:0:0:0:
151,316,12274,6,0,B|191:291|235:310|236:346|231:342|238:381|275:398|320:377,1,194.999991073609,8|0,0:2|0:0,0:0:0:0:
326,376,12631,2,0,P|353:353|390:347,1,64.9999970245363,14|0,0:1|0:0,0:0:0:0:
445,379,12988,1,0,3:0:0:0:
468,213,13166,1,0,3:0:0:0:
421,264,13345,2,0,P|401:273|381:272,1,32.4999985122681,8|0,0:1|0:0,0:0:0:0:
318,245,13524,6,0,L|343:38,1,194.999991073609,6|0,1:1|0:0,0:0:0:0:
343,42,13881,2,0,B|365:5|411:24|411:24|407:42|411:60,1,97.4999955368044,8|0,1:1|0:0,0:0:0:0:
392,154,14238,2,0,L|314:168,1,64.9999970245363,14|2,1:2|0:1,0:0:0:0:
406,160,14774,6,0,B|260:187|260:187|230:193|215:227|241:261|270:254|270:254|350:238,1,300,4|0,1:3|0:0,0:0:0:0:
363,295,15129,2,0,P|383:268|382:230,1,64.9999970245363,4|0,1:0|0:0,0:0:0:0:
264,115,15486,5,10,2:3:0:0:
160,131,15666,1,10,0:2:0:0:
120,34,15843,1,2,1:1:0:0:
8,126,16023,6,0,P|25:200|139:201,1,194.999991073609,6|0,1:1|0:0,0:0:0:0:
140,204,16380,2,0,P|171:215|180:247,1,64.9999970245363,8|0,0:2|3:0,0:0:0:0:
281,66,16737,6,0,B|234:104|165:69|213:37|164:-6|111:31|111:31|174:68|133:133,1,300,14|0,3:1|0:0,0:0:0:0:
143,113,17094,1,0,1:0:0:0:
28,13,17273,2,0,P|41:47|45:89,1,64.9999970245363,4|0,1:3|0:0,0:0:0:0:
64,261,17630,6,0,P|78:347|124:295,1,194.999991073609,8|0,0:2|0:0,0:0:0:0:
130,292,17987,2,0,P|163:284|196:278,1,64.9999970245363,14|0,0:1|0:0,0:0:0:0:
379,369,18344,1,2,0:1:0:0:
356,380,18523,2,0,L|373:271,1,100,2|0,0:1|0:0,0:0:0:0:
380,211,18701,1,8,1:1:0:0:
447,278,18880,5,2,3:1:0:0:
294,316,19058,1,2,3:1:0:0:
294,316,19237,2,0,P|275:288|277:256,1,64.9999970245363,6|0,1:2|0:0,0:0:0:0:
359,103,19594,1,12,1:1:0:0:
279,182,19773,6,0,P|189:155|78:153,1,194.999991073609,8|0,0:1|0:0,0:0:0:0:
13,124,20130,6,0,B|27:19|27:19|66:12|93:42|86:81|86:81|70:194|70:194|17:179|-8:225,1,400,4|2,1:3|1:2,0:0:0:0:
88,151,20665,5,2,0:2:0:0:
52,261,20844,1,2,0:2:0:0:
182,137,21022,1,4,1:2:0:0:
182,137,21201,1,0,3:0:0:0:
353,370,21380,6,0,B|346:340|312:328|290:344|278:359|278:359|219:430|66:379|78:190|273:141|336:291|282:351,1,539.999983520508,4|2,1:1|0:1,0:0:0:0:
477,293,23880,5,6,1:1:0:0:
422,235,24237,1,2,0:2:0:0:
349,247,24415,1,2,0:1:0:0:
311,310,24594,1,2,0:1:0:0:
238,180,24951,5,2,0:1:0:0:
274,243,25130,1,2,0:1:0:0:
349,247,25308,1,2,1:1:0:0:
448,172,25665,5,2,0:1:0:0:
397,127,25844,1,2,0:1:0:0:
462,105,26023,1,2,0:1:0:0:
299,70,26380,5,2,0:1:0:0:
241,108,26558,1,2,0:1:0:0:
241,180,26737,1,2,1:1:0:0:
256,376,27273,5,2,0:1:0:0:
256,376,27451,2,0,L|256:312,1,59.9999981689454,2|2,0:1|0:1,0:0:0:0:
188,284,27987,1,2,0:1:0:0:
308,256,28165,1,2,1:1:0:0:
308,256,28522,5,2,0:2:0:0:
188,284,28701,1,2,0:1:0:0:
256,376,28880,2,0,L|256:312,1,59.9999981689454,2|2,0:1|0:1,0:0:0:0:
252,184,29415,5,2,0:1:0:0:
182,207,29594,1,6,1:1:0:0:
123,160,29951,1,2,0:1:0:0:
140,87,30130,1,2,0:1:0:0:
182,207,30308,1,2,0:1:0:0:
245,33,30665,5,2,0:1:0:0:
173,18,30844,1,2,3:1:0:0:
211,131,31022,2,0,B|248:87|314:113|306:156|300:154|314:188|363:206|409:163,1,225.000008583069,2|2,1:1|0:1,0:0:0:0:
459,133,31737,1,2,0:1:0:0:
173,18,32273,5,2,0:1:0:0:
192,134,32451,1,2,1:1:0:0:
51,208,32808,5,2,0:1:0:0:
69,282,32987,1,2,3:1:0:0:
139,303,33165,1,2,1:1:0:0:
261,379,33523,5,2,0:1:0:0:
294,312,33701,1,2,0:1:0:0:
226,214,33880,1,6,1:1:0:0:
226,214,34058,1,0,1:0:0:0:
195,80,34415,6,0,L|218:75,2,14.9999995422363,8|8|10,0:2|0:3|1:1,0:0:0:0:
212,8,34773,1,10,0:2:0:0:
46,118,34951,1,10,0:2:0:0:
104,162,35130,1,2,3:1:0:0:
17,312,35308,6,0,P|131:319|176:399,1,200,6|2,1:2|3:1,0:0:0:0:
430,247,35844,1,0,0:0:0:0:
505,267,36022,2,0,B|322:308|322:308|276:319|276:319|240:324|226:368|260:394|285:387|285:387|341:373,1,400,8|2,0:1|3:1,0:0:0:0:
346,373,36558,1,0,0:0:0:0:
430,247,36737,5,8,3:2:0:0:
366,191,36915,1,8,3:1:0:0:
435,117,37094,1,2,3:1:0:0:
433,125,37273,1,0,3:0:0:0:
465,383,37451,6,0,L|436:265,1,100,8|0,0:1|0:0,0:0:0:0:
342,288,37808,2,0,L|371:170,1,100,2|0,0:1|0:0,0:0:0:0:
470,17,38165,6,0,P|446:90|336:93,1,200,2|2,3:1|0:1,0:0:0:0:
141,5,38701,1,8,3:2:0:0:
23,48,38880,2,0,B|48:18|95:41|87:76|87:76|82:118|141:138|161:93|161:93|190:51|253:71|255:121|255:121|247:174|302:190|337:156,1,400,8|2,3:1|0:1,0:0:0:0:
295,168,39415,1,0,0:0:0:0:
275,0,39594,6,0,P|284:42|225:59,1,100,8|8,3:2|3:1,0:0:0:0:
146,141,39951,2,0,P|107:160|76:107,1,100,8|8,0:2|3:2,0:0:0:0:
100,30,40308,2,0,L|108:66,1,25,8|0,0:1|0:0,0:0:0:0:
101,195,40487,2,0,L|93:231,1,25,10|0,0:1|0:0,0:0:0:0:
27,22,40665,2,0,L|35:58,1,25,10|0,0:2|0:0,0:0:0:0:
27,206,40844,2,0,L|19:242,1,25,8|0,0:1|0:0,0:0:0:0:
76,384,41023,6,0,P|114:297|100:191,1,200,6|2,1:1|3:1,0:0:0:0:
363,340,41558,1,0,3:0:0:0:
230,267,41737,2,0,B|211:329|211:329|199:367|228:393|271:388|281:354|281:354|301:288|301:288|306:256|284:237|300:202|300:202|302:199|302:199|331:129,1,400,8|2,3:1|0:1,0:0:0:0:
454,375,42451,5,8,3:2:0:0:
363,340,42630,2,0,P|370:290|386:231,1,100,8|8,3:1|3:2,0:0:0:0:
417,103,42987,1,0,3:0:0:0:
506,117,43165,6,0,P|497:161|446:184,1,100,8|0,3:1|0:0,0:0:0:0:
389,29,43523,2,0,P|346:32|342:93,1,100,2|0,0:1|0:0,0:0:0:0:
151,110,43880,6,0,B|191:87|239:116|229:152|223:141|213:186|266:211|307:187,1,200,2|2,3:1|0:1,0:0:0:0:
198,12,44415,1,0,3:0:0:0:
0,99,44594,2,0,B|231:78|231:78|276:72|260:39|313:33|313:33|388:26,1,400,8|2,3:1|0:1,0:0:0:0:
481,42,45308,5,8,3:2:0:0:
381,171,45487,1,8,3:1:0:0:
335,107,45665,1,8,0:2:0:0:
327,113,45844,1,8,3:2:0:0:
223,9,46023,2,0,L|214:69,1,50,12|0,0:1|0:0,0:0:0:0:
205,134,46201,1,0,3:0:0:0:
205,134,46380,5,12,0:1:0:0:
181,311,46558,1,10,0:2:0:0:
3,233,46737,2,0,B|3:266|28:280|50:275|50:275|223:218,1,225.000008583069,6|0,0:3|0:0,0:0:0:0:
321,240,47094,2,0,B|317:218|297:208|278:214|278:214|177:247,1,150.000005722046,8|8,0:1|0:2,0:0:0:0:
0,131,47451,6,0,P|40:134|91:141,1,75.0000028610231,6|0,0:2|0:0,0:0:0:0:
212,150,47630,1,0,0:0:0:0:
88,72,47808,6,0,B|66:34|66:34|85:6|114:-14|157:16|137:38|163:57|203:40,1,194.999991073609,8|0,0:1|0:0,0:0:0:0:
332,10,48165,2,0,P|325:52|309:106,1,75.0000028610231,8|0,0:2|0:0,0:0:0:0:
299,153,48344,1,10,0:2:0:0:
445,117,48523,6,0,B|469:161|469:161|516:154|542:105|509:41|438:49,1,225.000008583069,8|0,0:1|0:0,0:0:0:0:
253,11,48880,2,0,P|231:45|253:86,1,75.0000028610231,8|0,0:2|0:0,0:0:0:0:
173,117,49058,2,0,P|201:151|238:149,1,75.0000028610231,0|0,3:0|0:0,0:0:0:0:
375,134,49237,5,8,0:1:0:0:
138,211,49415,1,8,0:2:0:0:
309,379,49594,2,0,B|274:285|274:285|471:349,1,300,6|0,0:1|0:0,0:0:0:0:
512,291,49951,5,8,0:1:0:0:
373,357,50130,2,0,L|344:276,1,75.0000028610231
301,157,50308,5,8,0:1:0:0:
440,223,50487,2,0,L|469:142,1,75.0000028610231,2|2,0:0|0:1,0:0:0:0:
416,21,50665,6,0,P|399:58|363:63,1,75.0000028610231,8|0,0:1|0:0,0:0:0:0:
211,15,50844,1,8,0:2:0:0:
367,171,51023,6,0,L|231:194,1,125,10|0,0:1|0:0,0:0:0:0:
226,182,51201,6,0,L|232:160,2,16.6666666666667,0|0|0,3:0|3:0|0:0,0:0:0:0:
33,344,51380,6,0,B|85:294|149:316|164:364|156:358|171:405|227:417|302:365|292:321|239:328|271:258|327:253,1,375,12|0,0:1|0:0,0:0:0:0:
391,244,51737,5,0,1:0:0:0:
440,302,51826,1,0,1:0:0:0:
412,368,51915,1,0,1:0:0:0:
341,379,52005,1,0,1:0:0:0:
272,341,52094,5,8,0:1:0:0:
259,339,52183,1,0,0:0:0:0:
246,337,52273,1,0,3:0:0:0:
233,335,52362,1,0,3:0:0:0:
168,255,52451,6,0,B|186:309|186:309|137:338|78:314|65:250|84:180|166:180,1,300,6|0,0:1|0:0,0:0:0:0:
123,15,52808,6,0,P|144:39|146:79,1,59.9999981689454,8|10,0:1|0:2,0:0:0:0:
47,75,53165,6,0,L|197:87,1,150.000005722046,6|2,0:2|0:1,0:0:0:0:
270,125,53523,6,0,L|344:118,1,75.0000028610231,8|0,1:0|0:0,0:0:0:0:
224,178,53701,1,8,0:2:0:0:
298,249,53880,6,0,B|320:287|246:270|188:302|221:472|404:492|440:312|405:282|314:297|369:244,1,367.500003504753,12|0,0:3|0:0,0:0:0:0:
366,84,54237,6,0,B|411:96|365:30|373:-13|547:-72|621:95|490:208|434:174|411:101|390:140,1,367.500003504753,8|0,0:1|0:0,0:0:0:0:
244,138,54594,6,0,B|215:138|249:102|249:59|144:23|75:118|163:196|191:186|212:131|224:179,1,245.000002336502,12|2,0:3|0:2,0:0:0:0:
504,260,54951,6,0,P|462:259|441:222,1,75.0000028610231,8|0,0:1|0:0,0:0:0:0:
437,214,55130,1,8,0:2:0:0:
297,248,55308,2,0,P|356:278|434:389,1,200,4|0,1:1|0:0,0:0:0:0:
506,330,55665,5,8,0:1:0:0:
289,384,55844,1,10,0:2:0:0:
454,117,56023,2,0,P|367:196|397:290,1,200,6|2,0:2|0:1,0:0:0:0:
297,248,56380,2,0,P|261:227|280:166,1,75.0000028610231,8|0,0:1|0:0,0:0:0:0:
326,178,56558,1,8,0:2:0:0:
188,140,56737,5,12,0:2:0:0:
181,130,56826,2,0,B|178:123|165:110|165:110|192:79|191:16|191:16|217:72|253:92|253:92|249:109|249:122,1,245.000002336502,0|2,0:0|0:2,0:0:0:0:
188,259,57094,5,10,0:1:0:0:
186,271,57183,2,0,B|183:278|185:296|185:296|141:306|105:351|105:351|118:295|106:253|106:253|120:243|128:233,1,245.000002336502
331,190,57451,5,12,0:3:0:0:
339,192,57540,2,0,B|345:195|364:197|364:197|366:241|404:285|404:285|351:262|308:267|308:267|300:251|292:241,1,245.000002336502
193,18,57808,5,8,0:1:0:0:
214,59,57898,1,8,1:0:0:0:
261,79,57987,1,8,0:1:0:0:
332,59,58076,1,8,1:0:0:0:
435,11,58165,6,0,B|398:170|398:170|452:150,1,200,12|2,0:0|0:1,0:0:0:0:
512,93,58523,1,10,0:1:0:0:
494,262,58701,1,2,0:1:0:0:
482,263,58790,1,0,0:0:0:0:
463,273,58880,6,0,P|396:236|319:232,1,150.000005722046,0|2,1:0|0:1,0:0:0:0:
143,330,59237,6,0,B|168:361|156:412|75:437|9:370|75:281|81:305|117:270|86:229,1,262.500002503395,10|0,0:1|0:0,0:0:0:0:
6,260,59594,2,0,B|1:294|39:322|67:304|64:299|82:279|116:280|142:308|145:334,1,175.00000166893,2|8,1:1|0:2,0:0:0:0:
216,370,59951,1,10,0:1:0:0:
266,184,60130,1,8,0:2:0:0:
350,242,60308,6,0,B|306:250|306:250|300:248|300:248|296:252|296:252|251:260,1,100,0|2,1:0|0:1,0:0:0:0:
81,289,60665,1,10,0:1:0:0:
88,142,60844,1,8,0:1:0:0:
87,153,60933,1,8,0:0:0:0:
86,162,61023,6,0,B|82:195|82:195|36:208|36:208|-27:164|16:53|122:58|157:141|157:141|211:129,1,400,12|8,1:1|0:1,0:0:0:0:
404,101,61558,1,2,0:1:0:0:
331,84,61737,2,0,B|345:51|345:51|351:48|351:48|350:43|350:43|362:0|362:0|269:-10|232:80|286:136,1,300,2|0,0:1|0:0,0:0:0:0:
384,231,62094,6,0,P|381:262|349:295,1,75.0000028610231,8|0,0:1|0:0,0:0:0:0:
337,304,62273,2,0,P|317:298|305:283,1,29.9999990844727,8|0,0:3|0:0,0:0:0:0:
216,336,62451,6,0,P|169:245|245:258,1,225.000008583069,2|0,0:1|0:0,0:0:0:0:
241,253,62808,1,8,0:1:0:0:
297,380,62987,1,8,0:2:0:0:
273,167,63165,5,0,1:0:0:0:
278,183,63255,1,0,1:0:0:0:
298,193,63344,1,0,1:0:0:0:
317,196,63433,1,0,1:0:0:0:
389,151,63522,5,8,0:1:0:0:
452,117,63612,1,0,1:0:0:0:
512,158,63701,1,0,1:0:0:0:
498,229,63790,1,0,1:0:0:0:
476,244,63880,6,0,B|453:254|426:238|442:234|410:209|382:244|382:244|368:317|368:317|362:345|397:373|427:352|432:332|432:332|436:307,1,300,6|0,0:1|0:0,0:0:0:0:
462,115,64237,6,0,P|453:148|424:163,1,59.9999981689454,8|10,0:1|0:2,0:0:0:0:
301,22,64594,6,0,L|336:176,1,150.000005722046,6|2,0:2|0:1,0:0:0:0:
180,149,64951,6,0,L|160:237,1,75.0000028610231,8|0,1:0|0:0,0:0:0:0:
146,293,65130,1,8,0:2:0:0:
334,168,65308,6,0,B|338:185|357:197|378:192|386:175|386:175|408:179|424:165|424:142|416:125|416:125|424:105|420:80|398:74|381:81|381:81|367:65|343:67|326:82|325:100|325:100|307:111|300:135|306:150|324:156|324:156|331:172,1,367.500003504753,12|0,0:3|0:0,0:0:0:0:
176,159,65665,6,0,B|176:157|176:157|179:170|172:180|155:183|142:176|142:176|132:182|117:177|108:163|113:149|113:149|102:142|99:127|112:116|127:114|127:114|134:103|147:96|161:101|166:115|166:115|179:114|189:125|188:140|180:149,1,245.000002336502,8|0,0:1|0:0,0:0:0:0:
272,273,66023,6,0,B|257:262|234:265|222:282|227:301|227:301|208:311|204:332|219:350|236:357|236:357|243:378|262:394|282:385|291:369|291:369|311:373|329:355|332:333|321:319|321:319|328:298|318:276|304:268|286:275|286:275|270:268,1,367.500003504753,12|0,0:3|0:0,0:0:0:0:
234,39,66380,6,0,B|257:52|257:52|202:40,1,75.0000028610231,8|0,0:1|0:0,0:0:0:0:
132,32,66558,1,8,0:2:0:0:
112,177,66737,2,0,B|130:253|214:250|256:199|242:158|189:137|167:167,1,225.000008583069,4|0,1:1|0:0,0:0:0:0:
175,159,67094,5,8,0:1:0:0:
154,324,67273,1,10,0:2:0:0:
1,344,67451,2,0,P|78:322|170:309,1,150.000005722046,6|2,0:2|0:1,0:0:0:0:
288,379,67808,2,0,P|311:342|318:301,1,75.0000028610231,8|0,0:1|0:0,0:0:0:0:
313,240,67987,1,8,0:2:0:0:
237,220,68165,5,12,0:2:0:0:
232,235,68255,2,0,B|223:254|223:254|224:257|224:257|211:286|211:286|160:291|160:291|133:227|133:227|158:189|158:189|158:186|158:186|172:166,1,245.000002336502,0|2,0:0|0:2,0:0:0:0:
158,99,68523,5,12,0:1:0:0:
154,86,68612,2,0,B|148:65|148:65|145:64|145:64|137:33|137:33|173:-3|173:-3|234:28|234:28|240:73|240:73|242:75|242:75|244:100,1,245.000002336502,0|2,0:0|0:2,0:0:0:0:
344,175,68880,6,0,B|352:181|352:181|354:180|354:180|366:189|366:189|365:214|365:214|331:222|331:222|315:207|315:207|313:206|313:206|305:198,1,122.500001168251,4|0,0:3|0:0,0:0:0:0:
247,164,69058,1,0,0:0:0:0:
277,340,69237,5,8,0:1:0:0:
298,372,69326,1,0,0:0:0:0:
345,382,69415,1,8,0:2:0:0:
402,355,69505,1,8,0:1:0:0:
509,258,69594,6,0,B|492:281|492:281|343:260|343:260|323:278,1,200,12|2,0:3|0:1,0:0:0:0:
232,235,69951,1,10,0:1:0:0:
380,99,70130,6,0,B|350:77|293:90|277:158|319:193|362:192|362:192|421:187|446:254|419:319|325:312|319:251,1,400,2|2,0:1|0:1,0:0:0:0:
161,326,70665,2,0,B|142:374|201:405|237:371|237:371|221:329,1,150.000005722046,10|2,0:1|0:1,0:0:0:0:
147,187,71023,6,0,B|151:167|151:167|154:162|154:162|153:155|153:155|175:5,1,175.00000166893,2|8,1:1|0:2,0:0:0:0:
259,76,71380,2,0,B|232:88|232:88|221:158,1,87.500000834465,10|0,0:1|0:0,0:0:0:0:
297,141,71558,1,8,0:2:0:0:
38,120,71737,1,0,1:0:0:0:
141,258,71915,1,2,0:1:0:0:
87,27,72094,5,10,0:1:0:0:
109,24,72183,1,0,0:0:0:0:
129,21,72273,1,8,0:1:0:0:
148,18,72362,1,8,0:0:0:0:
246,0,72451,6,0,B|215:197,1,200,12|0,1:1|0:0,0:0:0:0:
319,316,72808,2,0,B|351:359|303:423|232:395|236:340|247:339|249:321|218:306,1,200,2|0,0:1|0:0,0:0:0:0:
34,210,73165,6,0,P|72:223|120:216,1,85.0000016212464,2|0,0:3|0:0,0:0:0:0:
155,355,73344,6,0,P|114:361|68:346,1,85.0000016212464,2|0,0:3|0:0,0:0:0:0:
285,233,73523,5,2,0:3:0:0:
285,99,73701,6,0,B|291:138|270:155|200:123|139:142|143:227|206:246|208:249|211:251|274:243|275:215|333:149|174:130|185:115|207:76,1,400,14|2,0:2|0:3,0:0:0:0:
259,31,74237,1,2,0:3:0:0:
197,296,74415,1,2,0:3:0:0:
222,363,74594,5,8,0:1:0:0:
271,313,74773,1,8,0:1:0:0:
437,296,74951,1,8,0:2:0:0:
451,304,75130,1,8,0:2:0:0:
466,190,75308,6,0,P|426:253|426:381,1,200,6|2,1:2|3:1,0:0:0:0:
355,206,75844,1,0,0:0:0:0:
413,82,76023,2,0,B|553:123|597:280|416:320|391:185|437:159|441:159|386:80,1,400,8|2,3:1|0:1,0:0:0:0:
356,30,76558,1,0,0:0:0:0:
220,19,76737,5,8,3:2:0:0:
185,153,76915,1,8,3:2:0:0:
36,83,77094,1,2,3:1:0:0:
46,81,77273,1,0,3:0:0:0:
109,4,77451,6,0,L|134:108,1,100,8|0,3:1|0:0,0:0:0:0:
43,176,77808,2,0,L|19:273,1,100,2|0,0:1|0:0,0:0:0:0:
60,381,78165,6,0,P|131:329|259:333,1,200,2|2,3:1|0:1,0:0:0:0:
373,378,78701,1,8,3:2:0:0:
359,296,78880,2,0,B|287:316|366:375|237:412|191:322|263:254|281:263|286:271|293:282|341:271|363:221|342:207|316:211|312:238,1,300,8|0,3:1|0:0,0:0:0:0:
213,146,79237,5,2,3:1:0:0:
315,82,79416,1,0,3:0:0:0:
286,145,79594,1,8,3:2:0:0:
320,207,79773,1,8,3:2:0:0:
313,215,79951,1,8,0:2:0:0:
114,242,80130,1,8,3:2:0:0:
179,284,80308,6,0,B|161:294|161:338|209:358|251:350|265:322|252:300,1,150,8|8,0:1|0:1,0:0:0:0:
358,272,81023,6,0,P|348:333|217:357,1,200,6|2,0:1|3:1,0:0:0:0:
180,316,81558,1,0,3:0:0:0:
43,379,81737,2,0,B|20:268|20:268|15:242|41:186|101:176|149:219|146:259|146:259|103:286|103:286|98:306|98:306|120:324,1,400,8|2,0:1|0:1,0:0:0:0:
9,137,82451,5,8,0:2:0:0:
70,176,82630,1,8,0:2:0:0:
121,118,82808,2,0,L|100:17,1,100,8|0,0:2|3:0,0:0:0:0:
70,176,83165,6,0,P|89:218|151:217,1,100,8|0,0:1|0:0,0:0:0:0:
257,110,83523,2,0,P|260:68|207:53,1,100,2|0,0:1|0:0,0:0:0:0:
221,326,83880,6,0,B|294:313|294:313|324:307|349:339|336:374|308:380|308:380|274:385,1,200,2|2,3:1|0:1,0:0:0:0:
418,311,84415,1,0,3:0:0:0:
447,194,84594,2,0,B|430:233|463:258|463:258|521:301|494:412|385:428|321:354|334:297|369:263,1,400,8|2,3:1|0:1,0:0:0:0:
472,48,85308,5,8,3:2:0:0:
461,118,85487,1,8,3:2:0:0:
332,72,85665,1,8,3:2:0:0:
340,65,85844,1,8,3:2:0:0:
473,38,86023,1,12,1:1:0:0:
447,194,86201,1,0,3:0:0:0:
251,146,86380,5,10,0:2:0:0:
164,181,86558,1,10,0:2:0:0:
321,182,86737,2,0,B|264:157|223:207|246:254|246:254|276:342,1,225.000008583069,6|0,0:3|0:0,0:0:0:0:
210,379,87094,2,0,B|248:392|278:361|264:325|264:325|242:262,1,150.000005722046,8|8,0:1|0:2,0:0:0:0:
366,304,87451,5,6,0:2:0:0:
512,268,87630,1,0,3:0:0:0:
511,172,87808,6,0,B|473:195|421:160|432:124|437:131|445:93|407:68|358:86,1,194.999991073609,8|0,0:1|0:0,0:0:0:0:
200,40,88165,2,0,L|288:25,1,75.0000028610231,8|0,0:2|0:0,0:0:0:0:
344,17,88344,1,10,0:2:0:0:
64,77,88523,6,0,B|68:37|108:22|108:22|27:28|21:108|78:153,1,225.000008583069,8|0,0:1|0:0,0:0:0:0:
65,321,88880,2,0,L|77:236,1,75.0000028610231,8|0,0:2|0:0,0:0:0:0:
180,170,89058,2,0,L|106:182,1,75.0000028610231,0|0,3:0|0:0,0:0:0:0:
0,198,89237,5,8,0:1:0:0:
151,377,89415,1,8,0:2:0:0:
261,305,89594,2,0,B|231:312|231:312|208:318|168:300|182:250|214:243|214:243|381:208,1,300,6|0,0:1|0:0,0:0:0:0:
473,249,89951,6,0,P|474:281|437:304,1,75.0000028610231,8|0,0:1|0:0,0:0:0:0:
370,282,90130,1,0,0:0:0:0:
196,100,90308,6,0,P|219:134|257:140,1,75.0000028610231,8|0,0:1|0:0,0:0:0:0:
316,105,90487,1,2,0:0:0:0:
454,97,90665,6,0,B|486:86|479:35|479:35|431:15|413:52,1,125,8|0,0:1|0:0,0:0:0:0:
387,88,90844,1,8,0:2:0:0:
231,19,91023,6,0,B|262:37|262:37|140:21,1,150.000005722046,10|0,0:1|0:0,0:0:0:0:
26,49,91380,5,8,0:1:0:0:
54,44,91469,1,8,0:1:0:0:
84,55,91558,1,8,0:1:0:0:
102,80,91648,1,8,0:1:0:0:
114,152,91737,5,8,0:1:0:0:
121,166,91826,1,8,0:1:0:0:
135,174,91915,1,8,0:1:0:0:
148,175,92005,1,8,0:1:0:0:
207,128,92094,5,8,0:1:0:0:
234,64,92183,1,8,0:1:0:0:
307,54,92273,1,8,0:1:0:0:
357,113,92362,1,8,0:1:0:0:
330,181,92451,5,8,0:1:0:0:
368,9,92630,1,0,1:0:0:0:
512,197,92808,2,0,P|471:232|381:250,2,139.999995727539,12|2|2,1:1|0:1|0:2,0:0:0:0:
14,194,94773,5,2,0:1:0:0:
16,204,94862,1,8,0:3:0:0:
7,224,94951,2,0,P|55:212|107:205,1,100,10|0,0:1|0:0,0:0:0:0:
174,203,95130,1,2,0:2:0:0:
184,202,95219,1,8,0:3:0:0:
248,224,95308,6,0,B|238:279|146:260|236:279|238:335|226:387|226:387|241:331|268:289|343:310|269:288|281:231,1,367.500003504753,12|0,1:1|0:0,0:0:0:0:
247,119,95665,6,0,B|204:83|265:13|204:82|155:55|115:19|115:19|157:59|179:104|124:158|180:106|223:145,1,367.500003504753,12|0,1:1|0:0,0:0:0:0:
348,149,96023,6,0,B|383:137|371:86|384:136|417:139|455:128|455:128|421:139|388:158|408:217|388:158|353:171,1,245.000002336502,12|0,1:1|0:0,0:0:0:0:
403,361,96380,6,0,B|390:377|390:377|404:318,1,75.0000028610231,8|0,0:1|0:0,0:0:0:0:
415,249,96558,1,8,0:2:0:0:
512,83,96737,2,0,B|454:27|365:75|393:140|396:132|399:178|346:213|287:190,1,300,4|0,1:1|0:0,0:0:0:0:
271,187,97094,5,8,0:1:0:0:
340,20,97273,1,10,0:2:0:0:
509,157,97451,2,0,P|405:134|312:120,1,200,6|2,0:2|0:1,0:0:0:0:
247,56,97808,2,0,P|210:56|167:63,1,75.0000028610231,8|0,1:0|0:0,0:0:0:0:
104,71,97987,1,8,0:2:0:0:
0,238,98165,5,6,1:1:0:0:
5,250,98255,2,0,B|44:290|15:370|15:370|39:297|109:288,1,245.000002336502
159,265,98523,5,6,1:1:0:0:
165,280,98612,2,0,B|171:335|244:359|244:359|166:338|118:380,1,245.000002336502,0|8,0:0|0:3,0:0:0:0:
35,156,98880,5,2,0:2:0:0:
49,153,98969,2,0,B|104:146|128:73|128:73|99:153|138:193,1,245.000002336502
43,65,99237,5,8,0:1:0:0:
51,23,99326,1,8,1:0:0:0:
85,0,99415,1,8,0:1:0:0:
144,5,99505,1,8,1:0:0:0:
200,78,99594,6,0,B|327:63|327:63|362:58|353:24|400:20|400:20|497:7,1,300,12|0,0:0|0:0,0:0:0:0:
481,89,99951,6,0,P|509:148|421:122,1,200,10|2,0:1|0:1,0:0:0:0:
346,95,100308,2,0,P|280:89|347:26,1,200,2|2,1:0|0:1,0:0:0:0:
335,246,100665,6,0,B|268:314|323:407|383:405|424:367|422:303|358:302,1,262.500002503395,10|0,0:1|0:0,0:0:0:0:
498,275,101023,2,0,P|409:268|373:193,1,175.00000166893,2|8,1:1|0:2,0:0:0:0:
115,281,101380,6,0,B|163:272|163:272|164:269|164:269|167:271|167:271|216:263,1,100,10|8,0:1|0:2,0:0:0:0:
335,246,101737,1,0,1:0:0:0:
393,381,101915,1,2,0:1:0:0:
347,272,102094,1,10,0:1:0:0:
339,302,102183,1,0,0:0:0:0:
308,318,102273,1,8,0:1:0:0:
278,316,102362,1,8,1:0:0:0:
211,279,102451,6,0,B|222:253|252:250|252:250|244:149|244:149|244:128|223:104|188:114|180:138|180:138|144:233|144:233|174:248|178:286,1,400,12|8,0:1|1:2,0:0:0:0:
226,49,102987,1,2,0:1:0:0:
43,175,103165,2,0,P|184:149|348:129,1,300,10|0,0:1|0:0,0:0:0:0:
439,61,103523,6,0,P|468:86|466:133,1,75.0000028610231,8|0,0:1|0:0,0:0:0:0:
480,134,103701,6,0,P|470:153|449:165,1,29.9999990844727,8|0,0:3|0:0,0:0:0:0:
404,120,103880,5,2,0:1:0:0:
381,290,104058,1,0,0:0:0:0:
493,220,104237,2,0,P|482:271|391:284,1,150.000005722046,8|8,0:1|0:2,0:0:0:0:
177,62,104594,6,0,B|186:103|109:108|97:38|173:-31|265:20|253:91,1,225.000008583069,0|0,1:0|1:0,0:0:0:0:
307,114,104951,6,0,B|335:118|344:82|303:49|262:74|253:111|272:141,1,150.000005722046,8|0,0:1|0:0,0:0:0:0:
181,190,105308,6,0,B|218:196|222:238|222:238|204:248|199:276,1,100,2|0,0:1|0:0,0:0:0:0:
263,301,105487,1,0,0:0:0:0:
123,306,105665,6,0,B|180:286|205:337|205:337|232:383|293:373,1,200,12|10,0:1|0:2,0:0:0:0:
428,252,106023,6,0,B|395:271|365:241|365:241|373:222|358:197,1,100,8|0,1:1|0:0,0:0:0:0:
293,219,106202,1,0,0:0:0:0:
430,71,106380,6,0,B|373:51|348:102|348:102|321:148|260:138,1,200,12|10,0:1|0:2,0:0:0:0:
54,171,106737,6,0,B|112:155|183:225|217:330|69:362|54:296|38:215|178:210,1,367.500003504753,8|0,1:1|0:0,0:0:0:0:
275,384,107094,6,0,B|232:341|257:245|331:163|432:275|383:321|321:375|246:257,1,367.500003504753,12|0,0:1|0:0,0:0:0:0:
319,86,107451,6,0,B|309:123|247:140|177:125|207:32|249:45|299:62|257:142,1,245.000002336502,2|0,0:0|0:0,0:0:0:0:
141,74,107808,5,8,1:1:0:0:
145,35,107898,1,0,1:0:0:0:
179,4,107987,1,0,1:0:0:0:
228,0,108076,1,0,1:0:0:0:
317,0,108165,6,0,L|310:40,1,25,8|0,1:1|0:0,0:0:0:0:
385,8,108344,1,0,0:0:0:0:
444,59,108523,6,0,B|438:77|438:77|277:102|277:102|257:80,1,200,6|2,0:1|0:2,0:0:0:0:
477,172,108880,6,0,L|484:212,1,25,8|0,1:1|0:0,0:0:0:0:
409,180,109059,1,0,3:0:0:0:
334,232,109237,6,0,B|340:250|340:250|357:252|357:252|360:254|360:254|364:253|364:253|477:270|477:270|480:272|480:272|485:271|485:271|498:274|498:274|521:253,1,200,6|8,0:1|0:3,0:0:0:0:
416,353,109594,5,8,1:1:0:0:
404,346,109683,1,0,0:0:0:0:
373,383,109773,1,0,0:0:0:0:
337,356,109862,1,0,0:0:0:0:
265,280,109951,6,0,B|178:297|137:404|261:444|287:351|257:329|250:327|300:292,1,245.000002336502,12|0,1:1|0:0,0:0:0:0:
296,140,110308,6,0,B|308:51|221:-22|141:81|220:136|250:115|255:109|272:168,1,245.000002336502,12|0,1:1|0:0,0:0:0:0:
310,207,110665,5,8,0:1:0:0:
340,202,110755,1,0,0:0:0:0:
367,175,110844,1,8,0:2:0:0:
368,137,110933,1,8,0:1:0:0:
352,6,111023,6,0,B|374:21|374:63|336:74|336:74|219:87,1,200,12|2,0:0|0:1,0:0:0:0:
69,98,111380,1,10,0:1:0:0:
141,77,111558,6,0,B|150:22|150:22|181:-12|214:26|214:26|197:159|197:159|227:190|261:168|261:168|272:90,1,400,2|2,0:1|0:1,0:0:0:0:
448,76,112094,2,0,B|455:38|491:33|491:33|428:6|407:67,1,150.000005722046,10|2,0:1|0:1,0:0:0:0:
355,143,112451,6,0,P|367:232|440:232,1,175.00000166893,2|8,1:1|0:2,0:0:0:0:
461,309,112808,2,0,P|434:323|419:375,1,87.500000834465,10|0,0:1|0:0,0:0:0:0:
486,374,112987,1,8,0:2:0:0:
509,181,113165,1,0,1:0:0:0:
330,244,113344,1,2,0:1:0:0:
208,221,113523,5,10,0:1:0:0:
205,207,113612,1,0,0:0:0:0:
202,193,113701,1,8,0:1:0:0:
199,179,113790,1,8,1:0:0:0:
175,107,113880,6,0,L|141:365,1,220.000006713867,12|0,0:1|0:0,0:0:0:0:
97,19,114237,2,0,L|63:277,1,220.000006713867,2|0,0:1|0:0,0:0:0:0:
65,252,114505,1,0,0:0:0:0:
0,270,114594,6,0,P|14:310|77:316,1,100,2|0,3:3|0:0,0:0:0:0:
118,382,114773,2,0,P|154:360|148:302,1,100,2|0,0:3|0:0,0:0:0:0:
0,109,115130,6,0,B|193:39|132:186|329:122,1,330.000010070801,14|0,0:2|0:0,0:0:0:0:
410,14,115487,6,0,L|396:109,1,87.500000834465,2|0,0:3|0:0,0:0:0:0:
507,227,115665,6,0,P|468:206|426:213,1,87.500000834465,2|0,0:3|0:0,0:0:0:0:
237,246,115844,6,0,P|279:236|317:256,1,87.500000834465,2|0,0:3|0:0,0:0:0:0:
396,360,116023,5,8,0:1:0:0:
353,193,116201,1,0,1:0:0:0:
245,327,116380,2,0,B|215:366|259:425|325:399|321:349|311:348|309:331|338:317,1,175.00000166893,8|2,0:2|0:3,0:0:0:0:
288,37,116737,6,0,L|316:255,1,220.000006713867,12|0,0:1|0:0,0:0:0:0:
366,0,117094,2,0,L|394:218,1,220.000006713867,2|0,0:1|0:0,0:0:0:0:
417,373,117451,5,2,3:3:0:0:
510,208,117630,1,2,0:3:0:0:
232,248,117808,1,2,0:3:0:0:
288,37,117987,6,0,L|316:255,1,220.000006713867,14|0,0:2|0:0,0:0:0:0:
32,231,118344,6,0,P|73:246|118:237,1,87.500000834465,2|0,3:3|0:0,0:0:0:0:
162,365,118523,6,0,L|164:333,1,25,2|0,0:3|0:0,0:0:0:0:
316,255,118701,6,0,P|272:263|229:246,1,87.500000834465,2|0,0:3|0:0,0:0:0:0:
186,118,118880,6,0,L|180:181,1,59.9999981689454,2|0,0:1|0:0,0:0:0:0:
