osu file format v14

[General]
AudioFilename: audio.mp3
AudioLeadIn: 0
PreviewTime: 93142
Countdown: 0
SampleSet: Soft
StackLeniency: 0.9
Mode: 0
LetterboxInBreaks: 0
WidescreenStoryboard: 1

[Editor]
Bookmarks: 10642,23496,35282,46711,52425,63853,75282,86711,93853
DistanceSpacing: 1
BeatDivisor: 4
GridSize: 8
TimelineZoom: 2.2

[Metadata]
Title:Sakimori Souka
TitleUnicode:防人想歌
Artist:onoken feat. Natsukawa Yoko
ArtistUnicode:onoken feat. 夏川陽子
Creator:ThunderBird2678
Version:Normal
Source:pop'n music うさぎと猫と少年の夢
Tags:Saira 国忍 Kunioshi usagi to neko shounen no yume UsaNeko うさ猫 sakimori renka 防人恋歌 MANYOUKA guardian song ax ナビくんと旅をしよう!NAVI-kun tabi wo shiyou! Sengoku Retsuden Japanese Video Game folk bemani konami
BeatmapID:3201614
BeatmapSetID:1359962

[Difficulty]
HPDrainRate:3
CircleSize:2.9
OverallDifficulty:4
ApproachRate:6
SliderMultiplier:1
SliderTickRate:1

[Events]
//Background and Video events
0,0,"snow.jpg",0,0
//Break Periods
2,93139,93875
//Storyboard Layer 0 (Background)
//Storyboard Layer 1 (Fail)
//Storyboard Layer 2 (Pass)
//Storyboard Layer 3 (Foreground)
Sprite,Foreground,Centre,"sb\glow.png",327,129 C,0,104568,,255,184,113 F,2,104568,105168,1,0 S,2,104568,105168,0.75,0.15 P,0,104568,105168,A
Sprite,Foreground,Centre,"sb\glow.png",338,228 C,0,104925,,255,184,113 F,2,104925,105525,1,0 S,2,104925,105525,0.75,0.15 P,0,104925,105525,A
Sprite,Foreground,Centre,"sb\glow.png",229.7658,102.2747 C,0,109035,,253,234,255 F,2,109035,110235,1,0 S,2,109035,110235,1,0.2 P,0,109035,110235,A
Sprite,Foreground,Centre,"sb\glow.png",234.8828,150.8862 C,0,108857,,253,234,255 F,2,108857,110057,1,0 S,2,108857,110057,1,0.2 P,0,108857,110057,A
Sprite,Foreground,Centre,"sb\glow.png",338,227 C,0,108142,,253,234,255 F,2,108142,109342,1,0 S,2,108142,109342,1,0.2 P,0,108142,109342,A
Sprite,Foreground,Centre,"sb\glow.png",282,406 C,0,107428,,253,234,255 F,2,107428,108628,1,0 S,2,107428,108628,1,0.2 P,0,107428,108628,A
Sprite,Foreground,Centre,"sb\glow.png",281.1693,406.125 C,0,106714,,253,234,255 F,2,106714,107914,1,0 S,2,106714,107914,1,0.2 P,0,106714,107914,A
Sprite,Foreground,Centre,"sb\glow.png",319.3257,248.0403 C,0,118853,,253,234,255 F,2,118853,120053,1,0 S,2,118853,120053,1,0.2 P,0,118853,120053,A
Sprite,Foreground,Centre,"sb\glow.png",349,327 C,0,105285,,253,234,255 F,2,105285,106485,1,0 S,2,105285,106485,1,0.2 P,0,105285,106485,A
Sprite,Foreground,Centre,"sb\glow.png",447,344 C,0,106000,,253,234,255 F,2,106000,107200,1,0 S,2,106000,107200,1,0.2 P,0,106000,107200,A
Sprite,Foreground,Centre,"sb\glow.png",316,373 C,0,63853,,255,184,113 F,2,63853,65053,1,0 S,2,63853,65053,1,0.2 P,0,63853,65053,A
Sprite,Foreground,Centre,"sb\glow.png",0,0 C,0,70103,,255,184,113 M,0,70103,70460,308,317,252.5356,235.0695 F,2,70103,71660,1,0 S,2,70103,71660,1,0.2 P,0,70103,71660,A
Sprite,Foreground,Centre,"sb\glow.png",0,0 C,0,51711,,255,119,122 M,0,51711,51800,344,252,340.9917,227.1817 F,2,51711,52668,1,0 S,2,51711,52668,0.75,0.15 P,0,51711,52668,A M,0,51800,51889,340.9917,227.1817,344.6724,202.9061 M,0,51889,51978,344.6724,202.9061,347.5217,178.6375 M,0,51978,52068,347.5217,178.6375,343.6227,153.9435
Sprite,Foreground,Centre,"sb\glow.png",259,100 C,0,52425,,255,184,113 F,2,52425,53625,1,0 S,2,52425,53625,1,0.2 P,0,52425,53625,A
Sprite,Foreground,Centre,"sb\glow.png",0,0 C,0,62068,,255,255,255 M,0,62068,62112,380,103,392.1717,100.3071 F,2,62068,62846,1,0 S,2,62068,62846,0.5,0.1 P,0,62068,62846,A M,0,62112,62157,392.1717,100.3071,404.5661,99.103 M,0,62157,62201,404.5661,99.103,417.0182,99.17434 M,0,62201,62246,417.0182,99.17434,429.2918,101.3072
Sprite,Foreground,Centre,"sb\glow.png",0,0 C,0,62425,,255,255,255 M,0,62425,62469,479,107,473.6696,118.2882 F,2,62425,63382,1,0 S,2,62425,63382,0.5,0.1 P,0,62425,63382,A M,0,62469,62514,473.6696,118.2882,469.1156,129.9145 M,0,62514,62558,469.1156,129.9145,466.0155,142.0056 M,0,62558,62603,466.0155,142.0056,463.7889,154.287 M,0,62603,62648,463.7889,154.287,463.0306,166.745 M,0,62648,62692,463.0306,166.745,463.2131,179.2212 M,0,62692,62737,463.2131,179.2212,464.8234,191.597 M,0,62737,62782,464.8234,191.597,467.407,203.8006
Sprite,Foreground,Centre,"sb\glow.png",489,250 C,0,62961,,255,255,255 F,2,62961,63561,1,0 S,2,62961,63561,0.5,0.1 P,0,62961,63561,A
Sprite,Foreground,Centre,"sb\glow.png",0,0 C,0,69568,,255,184,113 M,0,69568,69925,433,354,334.2373,360.9274 F,2,69568,71125,1,0 S,2,69568,71125,1,0.2 P,0,69568,71125,A
Sprite,Foreground,Centre,"sb\glow.png",129,222 C,0,92782,,255,119,122 F,2,92782,93782,1,0 S,2,92782,93782,0.75,0.15 P,0,92782,93782,A
Sprite,Foreground,Centre,"sb\glow.png",0,0 C,0,63139,,255,255,255 M,0,63139,63228,497,299,472.912,305.6911 F,2,63139,64096,1,0 S,2,63139,64096,0.75,0.15 P,0,63139,64096,A M,0,63228,63317,472.912,305.6911,448.3631,309 M,0,63317,63406,448.3631,309,423.3958,309.2014 M,0,63406,63496,423.3958,309.2014,399.6787,317.1071
Sprite,Foreground,Centre,"sb\glow.png",0,0 C,0,95282,,253,234,255 M,0,95282,95326,319,203,320.5193,215.4073 F,2,95282,96996,1,0 S,2,95282,96996,0.75,0.15 P,0,95282,96996,A M,0,95326,95371,320.5193,215.4073,322.0385,227.8147 M,0,95371,95415,322.0385,227.8147,323.5578,240.222 M,0,95415,95460,323.5578,240.222,324.789,252.5979 M,0,95460,95505,324.789,252.5979,320.6287,264.3853 M,0,95505,95549,320.6287,264.3853,316.4685,276.1726 M,0,95549,95594,316.4685,276.1726,312.3082,287.96 M,0,95594,95639,312.3082,287.96,308.148,299.7474 M,0,95639,95683,308.148,299.7474,312.3082,287.96 M,0,95683,95728,312.3082,287.96,316.4685,276.1726 M,0,95728,95773,316.4685,276.1726,320.6287,264.3853 M,0,95773,95817,320.6287,264.3853,324.789,252.5979 M,0,95817,95862,324.789,252.5979,323.5578,240.222 M,0,95862,95906,323.5578,240.222,322.0385,227.8147 M,0,95906,95951,322.0385,227.8147,320.5193,215.4073 M,0,95951,95996,320.5193,215.4073,319,203
Sprite,Foreground,Centre,"sb\glow.png",0,0 C,0,109568,,255,184,113 M,0,109568,109612,321,79,333.326,77.15004 F,2,109568,111282,1,0 S,2,109568,111282,0.75,0.15 P,0,109568,111282,A M,0,109612,109657,333.326,77.15004,345.7846,76.49824 M,0,109657,109701,345.7846,76.49824,358.1411,78.12 M,0,109701,109746,358.1411,78.12,370.2816,80.96506 M,0,109746,109791,370.2816,80.96506,381.71,85.93188 M,0,109791,109835,381.71,85.93188,392.5713,92.04521 M,0,109835,109880,392.5713,92.04521,402.185,99.97096 M,0,109880,109925,402.185,99.97096,410.9696,108.8222 M,0,109925,109969,410.9696,108.8222,402.185,99.97096 M,0,109969,110014,402.185,99.97096,392.5713,92.04521 M,0,110014,110059,392.5713,92.04521,381.71,85.93188 M,0,110059,110103,381.71,85.93188,370.2816,80.96506 M,0,110103,110148,370.2816,80.96506,358.1411,78.12 M,0,110148,110192,358.1411,78.12,345.7846,76.49824 M,0,110192,110237,345.7846,76.49824,333.326,77.15004 M,0,110237,110282,333.326,77.15004,321,79
Sprite,Foreground,Centre,"sb\glow.png",0,0 C,0,103496,,255,255,255 M,0,103496,103540,196,265,206.9149,259.173 F,2,103496,104274,1,0 S,2,103496,104274,0.5,0.1 P,0,103496,104274,A M,0,103540,103585,206.9149,259.173,216.1426,251.0042 M,0,103585,103629,216.1426,251.0042,223.5142,241.1461 M,0,103629,103674,223.5142,241.1461,227.4484,229.4524
Sprite,Foreground,Centre,"sb\glow.png",0,0 C,0,103853,,255,255,255 M,0,103853,103897,215,180,213.6632,167.6201 F,2,103853,104810,1,0 S,2,103853,104810,0.5,0.1 P,0,103853,104810,A M,0,103897,103942,213.6632,167.6201,213.7809,155.1622 M,0,103942,103986,213.7809,155.1622,216.4648,143.0074 M,0,103986,104031,216.4648,143.0074,220.6348,131.284 M,0,104031,104076,220.6348,131.284,227.0564,120.6248 M,0,104076,104120,227.0564,120.6248,234.815,110.9133 M,0,104120,104165,234.815,110.9133,244.3009,102.8634 M,0,104165,104210,244.3009,102.8634,254.7951,96.22012
Sprite,Foreground,Centre,"sb\glow.png",303,86 C,0,104389,,255,255,255 F,2,104389,104989,1,0 S,2,104389,104989,0.5,0.1 P,0,104389,104989,A
Sprite,Foreground,Centre,"sb\glow.png",136,198 C,0,96711,,255,184,113 F,2,96711,97911,1,0 S,2,96711,97911,1,0.2 P,0,96711,97911,A
Sprite,Foreground,Centre,"sb\glow.png",0,0 C,0,111532,,255,119,122 M,0,111532,111889,114,213,178.3886,285.6643 F,2,111532,113089,1,0 S,2,111532,113089,1,0.2 P,0,111532,113089,A
Sprite,Foreground,Centre,"sb\glow.png",0,0 C,0,110996,,255,119,122 M,0,110996,111353,145,115,164.3755,210.2644 F,2,110996,112553,1,0 S,2,110996,112553,1,0.2 P,0,110996,112553,A
//Storyboard Layer 4 (Overlay)
//Storyboard Sound Samples

[TimingPoints]
464,357.142857142857,3,2,1,65,1,0
464,-100,4,2,1,65,0,0
643,357.142857142857,7,2,1,65,1,0
643,-100,4,2,1,65,0,0
821,-100,4,2,0,65,0,0
1714,-100,4,2,1,65,0,0
2071,-100,4,2,0,65,0,0
3142,-100,4,2,1,65,0,0
3500,-100,4,2,0,65,0,0
4392,-100,4,2,1,65,0,0
4928,-100,4,2,0,65,0,0
5642,-100,4,2,1,65,0,0
6000,-100,4,2,0,65,0,0
6714,-100,4,2,1,65,0,0
7071,-100,4,2,0,65,0,0
8142,-100,4,2,1,65,0,0
8500,-100,4,2,0,65,0,0
10642,357.142857142857,4,2,1,70,1,0
10642,-100,4,2,1,70,0,0
10731,-100,4,2,1,35,0,0
10999,-100,4,2,1,70,0,0
11088,-100,4,2,1,35,0,0
11356,-100,4,2,1,70,0,0
11892,-100,4,2,1,35,0,0
12249,-100,4,2,1,70,0,0
14927,357.142857142857,3,2,1,65,1,0
15998,357.142857142857,4,2,1,65,1,0
16087,-100,4,2,1,35,0,0
16355,-100,4,2,1,70,0,0
16444,-100,4,2,1,35,0,0
16712,-100,4,2,1,70,0,0
17248,-100,4,2,1,35,0,0
17605,-100,4,2,1,70,0,0
20283,357.142857142857,3,2,1,65,1,0
21354,357.142857142857,7,2,1,65,1,0
21532,-100,4,2,1,5,0,0
23318,-100,4,2,1,55,0,0
23854,357.142857142857,4,2,1,65,1,0
23854,-100,4,2,1,65,0,0
26889,-100,4,2,1,25,0,0
27246,-100,4,2,1,50,0,0
27604,-100,4,2,1,25,0,0
27782,-100,4,2,1,50,0,0
29211,-100,4,2,1,55,0,0
29568,-100,4,2,1,60,0,0
33139,-100,4,2,1,65,0,0
33853,-100,4,2,1,70,0,0
33943,-100,4,2,1,35,0,0
34032,-100,4,2,1,70,0,0
34568,-100,4,2,1,75,0,0
35282,-100,4,2,1,70,0,0
40282,-100,4,2,1,75,0,0
40996,-100,4,2,1,70,0,0
45996,-100,4,2,1,65,0,0
46353,-100,4,2,1,75,0,0
49211,-100,4,2,1,80,0,0
50282,-100,4,2,1,85,0,0
51175,-100,4,2,1,90,0,0
51353,-100,4,2,1,90,0,0
51711,-100,4,2,1,70,0,1
51978,-100,4,2,1,35,0,0
52068,-100,4,2,1,75,0,1
52336,-100,4,2,1,35,0,0
52425,-100,4,2,1,80,0,1
52514,-100,4,2,1,25,0,1
52603,-100,4,2,1,80,0,1
52693,-100,4,2,1,25,0,1
52782,-100,4,2,1,80,0,1
53139,-100,4,2,1,85,0,1
53228,-100,4,2,1,25,0,1
53318,-100,4,2,1,85,0,1
53407,-100,4,2,1,25,0,1
53496,-100,4,2,1,85,0,1
53853,-100,4,2,1,70,0,1
54211,-100,4,2,1,90,0,1
54746,-100,4,2,1,75,0,1
54925,-100,4,2,1,75,0,1
55282,-100,4,2,1,65,0,1
55371,-100,4,2,1,25,0,1
55461,-100,4,2,1,70,0,1
55550,-100,4,2,1,25,0,1
55639,-100,4,2,1,75,0,1
55728,-100,4,2,1,25,0,1
55818,-100,4,2,1,80,0,1
55907,-100,4,2,1,45,0,1
55996,-100,4,2,1,85,0,1
56175,-100,4,2,1,80,0,1
56353,-100,4,2,1,85,0,1
56532,-100,4,2,1,80,0,1
56711,-100,4,2,1,70,0,1
57336,-100,4,2,1,25,0,1
57425,-100,4,2,1,70,0,1
57782,-100,4,2,1,85,0,1
58139,-100,4,2,1,75,0,1
59211,-100,4,2,1,70,0,1
59925,-100,4,2,1,65,0,1
60282,-100,4,2,1,60,0,1
60461,-100,4,2,1,65,0,1
60639,-100,4,2,1,70,0,1
60818,-100,4,2,1,75,0,1
62068,-100,4,2,1,70,0,1
62157,-100,4,2,1,20,0,1
62246,-100,4,2,1,70,0,1
62336,-100,4,2,1,20,0,1
62425,-100,4,2,1,70,0,1
62693,-100,4,2,1,20,0,1
62782,-100,4,2,1,70,0,1
62871,-100,4,2,1,20,0,1
62961,-100,4,2,1,70,0,1
63050,-100,4,2,1,20,0,1
63139,-100,4,2,1,65,0,1
63318,-100,4,2,1,70,0,1
63496,-100,4,2,1,75,0,1
63675,-100,4,2,1,80,0,1
63853,-100,4,2,1,85,0,1
63943,-100,4,2,1,25,0,1
64032,-100,4,2,1,85,0,1
64121,-100,4,2,1,25,0,1
64211,-100,4,2,1,85,0,1
64657,-100,4,2,1,25,0,1
64746,-100,4,2,1,85,0,1
64836,-100,4,2,1,25,0,1
64925,-100,4,2,1,85,0,1
65639,-100,4,2,1,90,0,1
65907,-100,4,2,1,20,0,1
65996,-100,4,2,1,90,0,1
66264,-100,4,2,1,20,0,1
66353,-100,4,2,1,70,0,1
66443,-100,4,2,1,25,0,1
66532,-100,4,2,1,75,0,1
66621,-100,4,2,1,25,0,1
66711,-100,4,2,1,85,0,1
67068,-100,4,2,1,75,0,1
67157,-100,4,2,1,20,0,1
67246,-100,4,2,1,80,0,1
67336,-100,4,2,1,20,0,1
67425,-100,4,2,1,85,0,1
67514,-100,4,2,1,20,0,1
67603,-100,4,2,1,90,0,1
67693,-100,4,2,1,20,0,1
67782,-100,4,2,1,95,0,1
68139,-100,4,2,1,100,0,1
68407,-100,4,2,1,20,0,1
68496,-100,4,2,1,100,0,1
68764,-100,4,2,1,20,0,1
68853,-100,4,2,1,100,0,1
69121,-100,4,2,1,85,0,1
69211,-100,4,2,1,85,0,1
69568,-100,4,2,1,80,0,1
70996,-100,4,2,1,75,0,1
71264,-100,4,2,1,20,0,1
71353,-100,4,2,1,75,0,1
71621,-100,4,2,1,20,0,1
71711,-100,4,2,1,75,0,1
71978,-100,4,2,1,20,0,1
72068,-100,4,2,1,70,0,1
72425,-100,4,2,1,80,0,1
72514,-100,4,2,1,40,0,1
72782,-100,4,2,1,80,0,1
73139,-100,4,2,1,70,0,1
73228,-100,4,2,1,40,0,1
73318,-100,4,2,1,75,0,1
73407,-100,4,2,1,40,0,1
73496,-100,4,2,1,80,0,1
73675,-100,4,2,1,90,0,1
73943,-100,4,2,1,20,0,1
74032,-100,4,2,1,85,0,1
74121,-100,4,2,1,20,0,1
74211,-100,4,2,1,80,0,1
74300,-100,4,2,1,20,0,1
74389,-100,4,2,1,75,0,1
74568,-100,4,2,1,70,0,0
79568,-100,4,2,1,75,0,0
80282,-100,4,2,1,70,0,0
85996,-100,4,2,1,65,0,0
86353,-100,4,2,1,75,0,0
89211,-100,4,2,1,80,0,0
90282,-100,4,2,1,85,0,0
90639,-100,4,2,1,80,0,0
90996,-100,4,2,1,60,0,0
91353,-100,4,2,1,65,0,0
91711,-100,4,2,1,75,0,0
91889,-100,4,2,1,85,0,0
92068,-100,4,2,1,95,0,0
92425,-100,4,2,1,100,0,0
92693,-100,4,2,1,25,0,0
92782,-100,4,2,1,100,0,0
93139,-100,4,2,0,80,0,0
93496,-100,4,2,0,70,0,0
93853,-100,4,2,1,60,0,0
94211,-100,4,2,0,60,0,0
94568,-100,4,2,1,60,0,0
94925,-100,4,2,1,65,0,0
95282,-100,4,2,1,80,0,1
95550,-100,4,2,1,20,0,0
95639,-100,4,2,1,90,0,1
95907,-100,4,2,1,20,0,0
95996,-100,4,2,1,100,0,1
96264,-100,4,2,1,20,0,1
96353,-100,4,2,1,80,0,0
96443,-100,4,2,1,25,0,0
96532,-100,4,2,1,80,0,0
96621,-100,4,2,1,25,0,0
96711,-100,4,2,1,85,0,1
96800,-100,4,2,1,40,0,1
96889,-100,4,2,1,85,0,1
96978,-100,4,2,1,40,0,1
97068,-100,4,2,1,85,0,1
97425,-100,4,2,1,90,0,1
97514,-100,4,2,1,40,0,1
97603,-100,4,2,1,90,0,1
97693,-100,4,2,1,40,0,1
97782,-100,4,2,1,90,0,1
98139,-100,4,2,1,100,0,1
98407,-100,4,2,1,25,0,1
98496,-100,4,2,1,95,0,1
98764,-100,4,2,1,25,0,1
98853,-100,4,2,1,90,0,1
99121,-100,4,2,1,25,0,1
99211,-100,4,2,1,80,0,1
99568,-100,4,2,1,70,0,1
100639,-100,4,2,1,75,0,1
102425,-100,4,2,1,85,0,1
103496,-100,4,2,1,75,0,1
103586,-100,4,2,1,25,0,1
103675,-100,4,2,1,80,0,1
103764,-100,4,2,1,25,0,1
103853,-100,4,2,1,85,0,1
104121,-100,4,2,1,25,0,1
104211,-100,4,2,1,80,0,1
104300,-100,4,2,1,25,0,1
104389,-100,4,2,1,75,0,1
104478,-100,4,2,1,25,0,1
104568,-100,4,2,1,65,0,1
104746,-100,4,2,1,70,0,1
104925,-100,4,2,1,80,0,1
105103,-100,4,2,1,90,0,1
105282,-100,4,2,1,100,0,1
105550,-100,4,2,1,60,0,1
105639,-100,4,2,1,85,0,1
105996,-100,4,2,1,100,0,1
106353,-100,4,2,1,80,0,1
106711,-100,4,2,1,100,0,1
108407,-100,4,2,1,60,0,1
108496,-100,4,2,1,100,0,1
109211,-100,4,2,1,85,0,1
109478,-100,4,2,1,45,0,1
109568,-100,4,2,1,80,0,1
109836,-100,4,2,1,40,0,1
109925,-100,4,2,1,90,0,1
110193,-100,4,2,1,40,0,1
110282,-100,4,2,1,100,0,1
110550,-100,4,2,1,40,0,1
110639,-100,4,2,1,100,0,1
112425,-100,4,2,1,90,0,1
112693,-100,4,2,1,40,0,1
112782,-100,4,2,1,95,0,1
113050,-100,4,2,1,40,0,1
113139,-100,4,2,1,95,0,1
113407,-100,4,2,1,40,0,1
113496,-100,4,2,1,100,0,1
114121,-100,4,2,1,40,0,1
114211,-100,4,2,1,100,0,1
114478,-100,4,2,1,40,0,1
114568,-100,4,2,1,90,0,1
114657,-100,4,2,1,40,0,1
114746,-100,4,2,1,95,0,1
114836,-100,4,2,1,40,0,1
114925,-100,4,2,1,100,0,1
115014,-100,4,2,1,40,0,1
115103,-100,4,2,1,100,0,1
115371,-100,4,2,1,40,0,1
115461,-100,4,2,1,80,0,1
115550,-100,4,2,1,30,0,1
115639,-100,4,2,1,90,0,1
115728,-100,4,2,1,30,0,1
115818,-100,4,2,1,80,0,1
116353,-100,4,2,1,100,0,1
117336,-100,4,2,1,45,0,1
117425,-100,4,2,1,80,0,1
117514,-100,4,2,1,45,0,1
117603,-100,4,2,1,80,0,1
117693,-100,4,2,1,45,0,1
117782,-100,4,2,1,80,0,1
117871,-100,4,2,1,45,0,1
117961,-100,4,2,1,100,0,1
118228,-100,4,2,1,50,0,1
118318,-100,4,2,1,80,0,1
118407,-100,4,2,1,50,0,1
118496,-100,4,2,1,85,0,0
118586,-100,4,2,1,50,0,0
118675,-100,4,2,1,90,0,0
118853,-100,4,2,1,100,0,0

[Colours]
Combo1 : 255,184,113
Combo2 : 217,217,217
Combo3 : 253,234,255
Combo4 : 255,119,122

[HitObjects]
334,247,643,6,0,P|342:296|322:386,2,100,4|2|2,2:0|2:0|2:0,0:0:0:0:
292,155,1714,2,0,P|284:106|304:16,2,100,2|2|2,2:0|2:0|2:0,0:0:0:0:
236,238,2785,2,0,L|187:248,2,50,2|2|4,2:0|2:0|2:0,0:0:0:0:
197,145,3500,1,2,2:0:0:0:
99,168,3857,1,2,2:0:0:0:
31,239,4214,2,0,P|30:270|35:306,1,50,2|2,2:0|2:0,0:0:0:0:
47,88,4928,6,0,B|22:98|22:98|0:96,2,50,2|0|2,2:0|2:0|2:0,0:0:0:0:
95,75,5464,1,2,2:0:0:0:
143,62,5642,38,0,P|191:49|256:54,2,100,6|2|2,2:0|2:0|2:0,0:0:0:0:
157,161,6714,2,0,P|109:174|44:169,2,100,2|2|2,2:0|2:0|2:0,0:0:0:0:
255,145,7785,2,0,B|250:175|250:175|264:219,2,50,2|2|6,2:0|2:0|2:0,0:0:0:0:
331,80,8500,5,2,2:0:0:0:
425,47,8857,1,2,2:0:0:0:
486,125,9214,2,0,L|490:184,1,50,0|8,2:0|3:0,0:0:0:0:
421,248,9750,2,0,L|366:228,2,50,8|8|0,3:0|3:0|2:0,0:0:0:0:
444,291,10285,2,0,P|445:313|434:339,1,50,2|2,3:0|3:0,0:0:0:0:
389,360,10642,38,0,L|262:383,1,100,6|2,3:0|3:0,3:0:0:0:
238,292,11356,2,0,B|172:329|171:249|95:294,1,150,8|10,3:0|3:0,3:0:0:0:
13,349,12249,1,8,3:0:0:0:
9,249,12606,2,0,P|35:192|21:131,1,100,8|0,3:0|2:0,3:0:0:0:
51,110,13141,2,0,P|47:74|61:44,1,50,8|8,3:0|3:0,3:0:0:0:
51,10,13499,6,0,P|21:14|-14:9,2,50,12|0|8,3:0|3:0|3:0,3:0:0:0:
146,41,14213,2,0,P|193:38|251:40,1,100,8|0,3:0|3:0,0:0:0:0:
289,64,14749,1,4,3:0:0:0:
221,137,15105,2,0,P|196:143|172:142,2,50,0|8|0,3:0|3:0|3:0,0:0:0:0:
265,160,15641,2,0,P|274:184|273:209,1,50,8|0,3:0|3:0,0:0:0:0:
244,249,15998,38,0,L|342:234,1,100,6|2,3:0|3:0,3:0:0:0:
434,275,16712,2,0,B|455:169|408:216|417:128,1,150,8|10,3:0|3:0,3:0:0:0:
497,70,17605,1,8,3:0:0:0:
401,41,17962,2,0,P|343:67|318:110,1,100,8|0,3:0|3:0,3:0:0:0:
315,145,18498,1,0,3:0:0:0:
216,161,18855,6,0,P|196:132|192:81,2,50,10|0|0,3:0|3:0|3:0,0:0:0:0:
233,259,19569,2,0,P|256:266|294:258,1,50,10|2,3:0|3:0,0:0:0:0:
352,333,20105,38,0,P|406:317|451:281,1,100,2|0,3:0|3:0,3:0:0:0:
466,247,20640,2,0,L|461:151,1,50,0|2,3:0|3:0,0:0:0:0:
423,166,20997,1,8,3:0:0:0:
456,71,21354,2,0,B|407:41|342:30|342:30|283:42|245:102|245:102|203:92|203:92|180:110|180:110|149:68|70:94|70:94|83:181|165:153,1,550,14|2,3:0|2:3,3:0:0:0:
166,202,23496,6,0,B|189:198|189:198|230:205,2,50,2|0|4,2:0|2:0|2:0,2:0:0:0:
81,255,24211,2,0,B|58:259|58:259|17:252,2,50,0|0|2,2:0|2:0|2:0,0:0:0:0:
171,297,24925,1,0,2:0:0:0:
209,328,25104,1,8,3:0:0:0:
256,341,25282,2,0,P|326:352|411:311,1,150,10|0,3:0|2:0,0:0:0:0:
403,272,25996,1,2,2:0:0:0:
324,204,26353,38,0,P|306:177|304:148,1,50,0|0,2:0|2:0,0:0:0:0:
315,111,26711,1,2,3:0:0:0:
424,8,27246,5,0,2:0:0:0:
424,8,27425,2,0,L|289:-2,1,100,2|0,2:0|2:0,2:0:0:0:
276,16,27961,2,0,L|188:12,1,50,0|4,3:0|3:0,0:0:0:0:
136,101,28496,2,0,P|127:78|135:55,2,50,0|0|2,2:0|2:0|2:0,0:0:0:0:
168,208,29211,38,0,B|146:213|146:213|116:205,2,50,2|2|10,2:0|2:0|3:0,0:0:0:0:
265,230,29925,2,0,B|287:225|287:225|317:233,2,50,2|2|10,2:0|2:0|3:0,0:0:0:0:
195,302,30639,1,2,2:0:0:0:
195,302,30818,2,0,P|162:312|139:309,1,50,10|10,3:0|3:0,0:0:0:0:
110,345,31175,2,0,P|66:328|29:265,1,100,0|0,2:0|2:0,2:0:0:0:
32,236,31711,1,4,2:0:0:0:
143,126,32246,5,0,2:0:0:0:
182,95,32425,2,0,P|232:106|299:80,1,100,8|0,3:0|2:0,2:0:0:0:
320,66,32961,1,0,2:0:0:0:
362,39,33139,2,0,P|387:33|423:37,2,50,8|0|8,3:0|3:0|3:0,0:0:0:0:
404,129,33853,38,0,P|433:166|436:223,1,100,4|0,3:0|0:0,2:0:0:0:
496,298,34568,2,0,L|442:305,1,50,8|8,3:0|3:0,0:0:0:0:
418,345,34925,2,0,L|364:352,1,50,8|8,3:0|3:0,0:0:0:0:
325,325,35282,6,0,P|296:288|293:231,1,100,12|0,2:0|2:0,2:0:0:0:
323,198,35818,1,8,2:0:0:0:
351,157,35996,2,0,P|333:113|285:82,1,100,12|0,2:0|2:0,2:0:0:0:
219,13,36711,38,0,B|193:16|193:16|176:33,1,50,8|0,2:0|2:0,0:0:0:0:
130,53,37068,2,0,B|123:76|123:76|134:100,1,50,8|8,2:0|2:0,0:0:0:0:
176,126,37425,1,14,2:0:0:0:
104,195,37782,6,0,L|-18:220,2,100,0|10|0,2:0|2:0|3:0,2:0:0:0:
200,222,38853,2,0,L|322:197,1,100,12|0,3:0|2:0,0:0:0:0:
395,224,39568,37,2,3:0:0:0:
414,177,39746,2,0,P|418:127|407:78,1,100,8|0,3:0|2:0,2:0:0:0:
367,48,40282,1,12,3:0:0:0:
164,15,40996,6,0,P|135:52|132:109,1,100,4|0,2:0|2:0,2:0:0:0:
171,132,41532,1,8,3:2:0:0:
206,167,41711,2,0,P|188:211|140:242,1,100,12|0,3:2|2:0,2:0:0:0:
46,236,42425,38,0,B|37:268|37:268|48:301,1,50,8|0,2:0|2:0,0:0:0:0:
19,328,42782,2,0,B|42:351|42:351|76:358,1,50,8|8,2:0|2:0,0:0:0:0:
108,360,43139,2,0,B|158:369|158:369|230:337,1,100,14|2,2:0|2:0,2:0:0:0:
198,248,43853,6,0,L|329:217,1,100,12|2,2:0|2:0,0:0:0:0:
341,136,44568,2,0,L|472:105,1,100,12|0,2:0|2:0,2:0:0:0:
510,189,45282,37,0,2:0:0:0:
510,189,45461,2,0,P|524:231|509:291,1,100,8|8,2:0|3:0,0:0:0:0:
475,317,45996,1,14,2:0:0:0:
377,335,46353,6,0,L|328:346,1,50,0|0,2:0|2:0,2:0:0:0:
279,359,46711,1,10,2:0:0:0:
294,260,47068,38,0,P|296:227|269:183,1,50,8|0,3:0|2:0,0:0:0:0:
263,169,47425,1,10,2:0:0:0:
213,82,47782,2,0,L|163:88,1,50,8|0,3:0|2:0,0:0:0:0:
115,73,48139,6,0,P|61:89|29:128,1,100,8|10,2:0|3:0,0:0:0:0:
16,168,48675,1,0,2:0:0:0:
32,215,48853,1,10,2:0:0:0:
2,310,49211,2,0,B|1:333|1:333|18:366,1,50,2|2,3:0|3:0,0:0:0:0:
63,361,49568,38,0,P|112:349|170:347,1,100,8|8,3:0|3:0,3:0:0:0:
260,361,50282,2,0,P|309:358|358:346,2,100,8|10|4,3:0|3:0|3:0,3:0:0:0:
214,271,51353,1,0,3:0:0:0:
280,196,51711,22,0,B|276:163|276:163|285:132|285:132|276:75,1,100,8|8,1:0|1:0,1:0:0:0:
195,44,52425,5,4,3:0:0:0:
100,11,52782,2,0,P|82:9|29:23,2,50,0|0|4,1:0|1:0|3:0,0:0:0:0:
117,107,53496,2,0,P|120:136|112:182,1,50,0|0,1:0|1:0,0:0:0:0:
112,206,53853,2,0,B|78:238|78:238|59:321,2,100,12|2|6,1:0|3:0|3:0,1:0:0:0:
207,177,54925,2,0,B|232:182|232:182|269:171,1,50,2|2,3:0|3:0,0:0:0:0:
286,135,55282,37,4,3:0:0:0:
334,222,55639,2,0,L|339:283,2,50,8|0|12,3:0|3:0|3:0,2:0:0:0:
249,275,56353,2,0,P|226:267|181:273,2,50,8|8|12,3:0|3:0|1:0,0:0:0:0:
294,364,57068,1,0,1:0:0:0:
392,348,57425,1,4,1:0:0:0:
491,346,57782,2,0,L|476:267,1,50,2|2,3:0|3:0,0:0:0:0:
455,254,58139,6,0,P|451:210|457:151,2,100,4|0|8,1:0|1:0|3:0,1:0:0:0:
356,233,59211,2,0,P|318:263|259:275,1,100,8|8,1:0|1:0,1:0:0:0:
199,346,59925,2,0,P|154:328|114:282,1,100,8|6,3:0|3:0,0:0:0:0:
77,200,60639,1,6,3:0:0:0:
44,106,60996,38,0,L|189:83,1,100,4|8,1:0|3:0,1:0:0:0:
180,57,61532,1,0,3:0:0:0:
219,25,61711,1,8,3:0:0:0:
316,47,62068,22,0,P|336:43|393:56,1,50,8|0,1:0|1:0,1:0:0:0:
415,51,62425,2,0,P|400:96|418:182,1,100,12|8,1:0|1:0,1:0:0:0:
425,194,62961,1,0,1:0:0:0:
433,243,63139,2,0,B|397:253|397:253|360:253|360:253|315:268,1,100,10|10,3:0|3:0,0:0:0:0:
252,317,63853,37,4,3:0:0:0:
165,366,64211,2,0,P|147:375|115:378,2,50,0|0|4,1:0|1:0|3:0,0:0:0:0:
169,266,64925,2,0,P|165:235|136:207,1,50,0|0,1:0|1:0,0:0:0:0:
116,187,65282,2,0,B|96:138|96:138|106:74,2,100,4|8|8,1:0|1:0|1:0,1:0:0:0:
206,143,66353,2,0,B|230:134|230:134|259:143,1,50,8|0,3:0|3:0,3:0:0:0:
282,181,66711,37,12,3:0:0:0:
356,114,67068,2,0,L|345:44,2,50,0|0|12,3:0|3:0|3:0,3:0:0:0:
452,88,67782,2,0,P|456:62|467:37,2,50,8|8|12,3:0|3:0|1:0,0:0:0:0:
445,187,68496,1,8,1:0:0:0:
499,271,68853,1,8,1:0:0:0:
443,354,69211,2,0,L|378:339,1,50,0|0,3:0|3:0,0:0:0:0:
369,298,69568,6,0,P|302:308|256:302,1,100,12|8,3:0|3:0,0:0:0:0:
244,261,70103,2,0,P|201:207|184:165,1,100,12|8,3:0|3:0,0:0:0:0:
210,134,70639,1,8,3:0:0:0:
117,95,70996,38,0,L|5:113,2,100,12|0|8,1:3|1:3|1:3,1:0:0:0:
188,25,72068,2,0,L|259:13,1,50,12|0,1:0|0:0,1:0:0:0:
282,38,72425,5,4,3:0:0:0:
375,1,72782,1,8,1:0:0:0:
359,99,73139,2,0,P|365:134|433:156,1,100,4|0,3:0|3:0,3:0:0:0:
461,170,73675,37,12,1:3:0:0:
438,267,74032,1,8,1:0:0:0:
389,280,74211,2,0,L|327:296,1,50,8|0,1:0|3:0,3:0:0:0:
293,310,74568,1,12,1:0:0:0:
112,367,75282,22,0,P|120:320|110:262,1,100,12|0,2:0|2:0,2:0:0:0:
47,192,75996,2,0,P|39:142|47:93,1,100,12|0,2:0|2:0,2:0:0:0:
128,36,76711,6,0,B|178:26|178:26|235:54,1,100,8|0,3:2|3:2,0:0:0:0:
266,136,77425,1,12,2:0:0:0:
362,162,77782,38,0,L|461:135,2,100,0|8|0,2:0|3:2|3:0,0:0:0:0:
374,261,78853,2,0,L|275:288,1,100,12|2,3:0|2:0,3:0:0:0:
185,247,79568,5,12,3:0:0:0:
145,277,79746,2,0,P|97:271|71:216,1,100,8|8,3:0|3:0,0:0:0:0:
21,226,80282,2,0,L|36:100,1,100,12|0,2:0|0:0,2:0:0:0:
79,38,80996,38,0,P|132:44|170:78,1,100,12|0,2:0|2:0,2:0:0:0:
192,169,81711,2,0,P|237:150|266:110,1,100,12|0,2:0|2:0,2:0:0:0:
332,34,82425,6,0,B|382:33|382:33|427:69,1,100,8|0,3:2|3:2,0:0:0:0:
365,147,83139,2,0,B|358:202|358:202|377:250,1,100,10|2,2:0|2:0,2:0:0:0:
390,342,83853,38,0,L|262:319,1,100,12|0,2:0|2:0,0:0:0:0:
264,228,84568,2,0,L|131:207,1,100,12|0,2:0|2:0,2:0:0:0:
113,297,85282,5,8,3:2:0:0:
80,258,85461,2,0,P|67:220|87:148,1,100,0|2,3:2|3:2,0:0:0:0:
111,125,85996,1,14,2:0:0:0:
32,63,86353,38,0,P|45:41|77:27,1,50,0|0,3:0|3:0,3:0:0:0:
114,16,86711,1,10,2:0:0:0:
206,53,87068,6,0,P|237:46|284:67,1,50,8|0,3:0|2:0,0:0:0:0:
297,74,87425,1,8,2:0:0:0:
395,56,87782,2,0,L|445:33,1,50,8|0,3:0|2:0,0:0:0:0:
457,82,88139,38,0,P|458:132|467:185,1,100,8|10,2:0|3:0,0:0:0:0:
488,226,88675,1,0,2:0:0:0:
483,275,88853,1,10,2:0:0:0:
404,337,89211,2,0,B|377:348|377:348|342:335,1,50,2|2,3:0|3:0,0:0:0:0:
332,297,89568,6,0,P|282:282|225:306,1,100,8|8,3:0|3:0,3:0:0:0:
156,354,90282,2,0,P|108:367|61:352,1,100,8|8,3:0|3:0,3:0:0:0:
68,306,90818,1,8,3:0:0:0:
68,306,90996,2,0,B|233:196|142:47|142:47|84:34|52:70,1,400,8|10,3:0|3:0,3:0:0:0:
65,166,92782,5,14,3:0:0:0:
248,57,94925,38,0,P|263:77|273:108,1,50,4|0,3:0|0:0,3:0:0:0:
255,147,95282,2,0,B|261:196|261:196|237:264,2,100,12|12|12,1:0|1:0|1:0,1:0:0:0:
160,112,96353,2,0,B|135:105|135:105|106:114,1,50,0|0,3:0|3:0,3:0:0:0:
72,142,96711,21,12,3:0:0:0:
38,236,97068,2,0,L|27:294,2,50,0|0|8,3:0|3:0|3:0,0:0:0:0:
118,295,97782,2,0,P|140:311|186:317,1,50,2|2,3:0|3:0,0:0:0:0:
209,332,98139,1,8,1:0:0:0:
308,301,98496,1,8,1:0:0:0:
283,203,98853,1,8,1:0:0:0:
355,133,99211,2,0,L|357:64,1,50,2|2,3:0|3:0,0:0:0:0:
350,33,99568,38,0,P|410:35|473:56,2,100,4|0|8,1:0|1:0|3:0,1:0:0:0:
270,93,100639,2,0,P|257:152|286:216,1,100,8|8,1:0|1:0,1:0:0:0:
369,198,101353,2,0,P|382:257|353:321,1,100,8|2,1:1|3:0,0:0:0:0:
316,378,102068,1,10,3:0:0:0:
231,324,102425,6,0,L|98:313,1,100,12|8,1:0|3:0,1:0:0:0:
81,314,102961,1,0,3:0:0:0:
48,275,103139,1,8,3:0:0:0:
132,209,103496,6,0,P|160:185|162:145,1,50,8|0,1:0|1:0,1:0:0:0:
151,124,103853,2,0,P|161:67|218:32,1,100,8|0,1:0|1:0,1:0:0:0:
239,30,104389,1,0,1:0:0:0:
263,73,104568,37,2,3:0:0:0:
274,172,104925,1,2,3:0:0:0:
285,271,105282,37,14,3:0:0:0:
383,288,105639,2,0,L|376:238,2,50,0|0|12,3:0|3:0|3:0,3:0:0:0:
317,364,106353,2,0,P|291:366|248:359,1,50,0|0,3:0|3:0,3:0:0:0:
218,350,106711,2,0,L|105:367,2,100,12|2|12,3:0|3:0|3:0,3:0:0:0:
285,271,107782,5,2,3:0:0:0:
280,221,107961,1,2,3:0:0:0:
274,171,108139,1,12,3:0:0:0:
176,195,108496,37,0,3:0:0:0:
171,96,108853,2,0,L|163:20,1,50,12|8,3:0|3:0,0:0:0:0:
160,0,109211,1,0,3:0:0:0:
257,23,109568,6,0,P|312:27|351:58,2,100,12|12|12,1:0|1:0|1:0,1:0:0:0:
171,96,110639,2,0,P|140:95|103:79,1,50,0|0,3:0|3:0,0:0:0:0:
81,59,110996,38,0,P|82:114|122:178,1,100,12|0,3:0|3:0,0:0:0:0:
50,157,111532,2,0,P|78:204|145:239,1,100,4|0,3:0|3:0,0:0:0:0:
159,250,112068,1,8,3:0:0:0:
99,329,112425,6,0,L|0:340,2,100,8|8|8,1:0|1:0|1:0,1:0:0:0:
198,340,113496,2,0,L|283:329,1,50,0|0,3:0|3:0,0:0:0:0:
285,300,113853,37,12,1:0:0:0:
363,362,114211,1,0,3:0:0:0:
448,310,114568,2,0,P|467:270|475:208,1,100,8|8,3:0|3:0,3:0:0:0:
451,171,115103,1,8,1:0:0:0:
466,72,115461,5,8,1:0:0:0:
427,40,115639,2,0,B|395:35|395:35|352:50,1,50,8|8,1:0|3:0,1:0:0:0:
330,57,115996,1,8,1:0:0:0:
236,87,116353,38,0,P|219:93|169:89,2,50,12|0|4,3:0|3:0|3:0,3:0:0:0:
302,162,117068,1,8,1:0:0:0:
358,244,117425,2,0,L|336:347,1,100,8|8,3:0|3:0,3:0:0:0:
295,370,117961,1,8,1:0:0:0:
206,317,118318,6,0,L|190:233,1,50,0|0,1:0|1:0,1:0:0:0:
246,241,118675,6,0,L|262:157,1,50,12|12,3:0|1:0,0:0:0:0:
