osu file format v14

[General]
AudioFilename: audio.mp3
AudioLeadIn: 0
PreviewTime: 93142
Countdown: 0
SampleSet: Soft
StackLeniency: 0.9
Mode: 0
LetterboxInBreaks: 0
WidescreenStoryboard: 1

[Editor]
Bookmarks: 10642,23496,35282,46711,52425,63853,75282,86711,93853
DistanceSpacing: 1.2
BeatDivisor: 4
GridSize: 8
TimelineZoom: 2.2

[Metadata]
Title:Sakimori Souka
TitleUnicode:防人想歌
Artist:onoken feat. Natsukawa Yoko
ArtistUnicode:onoken feat. 夏川陽子
Creator:ThunderBird2678
Version:Hyper
Source:pop'n music うさぎと猫と少年の夢
Tags:Saira 国忍 Kunioshi usagi to neko shounen no yume UsaNeko うさ猫 sakimori renka 防人恋歌 MANYOUKA guardian song ax ナビくんと旅をしよう!NAVI-kun tabi wo shiyou! Sengoku Retsuden Japanese Video Game folk bemani konami
BeatmapID:3200075
BeatmapSetID:1359962

[Difficulty]
HPDrainRate:4
CircleSize:3.2
OverallDifficulty:6
ApproachRate:8
SliderMultiplier:1.5
SliderTickRate:1

[Events]
//Background and Video events
0,0,"snow.jpg",0,0
//Break Periods
//Storyboard Layer 0 (Background)
//Storyboard Layer 1 (Fail)
//Storyboard Layer 2 (Pass)
//Storyboard Layer 3 (Foreground)
Sprite,Foreground,Centre,"sb\glow.png",0,0 C,0,104568,,255,184,113 M,0,104568,104657,269,440,285.1985,392.1177 F,2,104568,105435,1,0 S,2,104568,105435,0.75,0.15 P,0,104568,105435,A M,0,104657,104746,285.1985,392.1177,269,440 M,0,104746,104835,269,440,285.1985,392.1177
Sprite,Foreground,Centre,"sb\glow.png",0,0 C,0,104925,,255,184,113 M,0,104925,105014,273,346,239.1723,307.988 F,2,104925,105792,1,0 S,2,104925,105792,0.75,0.15 P,0,104925,105792,A M,0,105014,105103,239.1723,307.988,273,346 M,0,105103,105192,273,346,239.1723,307.988
Sprite,Foreground,Centre,"sb\glow.png",258,220 C,0,109035,,253,234,255 F,2,109035,110235,1,0 S,2,109035,110235,1,0.2 P,0,109035,110235,A
Sprite,Foreground,Centre,"sb\glow.png",258,220 C,0,108857,,253,234,255 F,2,108857,110057,1,0 S,2,108857,110057,1,0.2 P,0,108857,110057,A
Sprite,Foreground,Centre,"sb\glow.png",240,125 C,0,108142,,253,234,255 F,2,108142,109342,1,0 S,2,108142,109342,1,0.2 P,0,108142,109342,A
Sprite,Foreground,Centre,"sb\glow.png",370,184 C,0,107607,,253,234,255 F,2,107607,108807,1,0 S,2,107607,108807,1,0.2 P,0,107607,108807,A
Sprite,Foreground,Centre,"sb\glow.png",442,113 C,0,107428,,253,234,255 F,2,107428,108628,1,0 S,2,107428,108628,1,0.2 P,0,107428,108628,A
Sprite,Foreground,Centre,"sb\glow.png",527.3117,343.6422 C,0,106714,,253,234,255 F,2,106714,107914,1,0 S,2,106714,107914,1,0.2 P,0,106714,107914,A
Sprite,Foreground,Centre,"sb\glow.png",320,248 C,0,118853,,253,234,255 F,2,118853,120053,1,0 S,2,118853,120053,1,0.2 P,0,118853,120053,A
Sprite,Foreground,Centre,"sb\glow.png",192,299 C,0,105285,,253,234,255 F,2,105285,106485,1,0 S,2,105285,106485,1,0.2 P,0,105285,106485,A
Sprite,Foreground,Centre,"sb\glow.png",261,210 C,0,106000,,253,234,255 F,2,106000,107200,1,0 S,2,106000,107200,1,0.2 P,0,106000,107200,A
Sprite,Foreground,Centre,"sb\glow.png",125,143 C,0,63853,,255,119,122 F,2,63853,65053,1,0 S,2,63853,65053,1,0.2 P,0,63853,65053,A
Sprite,Foreground,Centre,"sb\glow.png",0,0 C,0,70103,,255,119,122 M,0,70103,70281,433,239,483.0001,154.0033 F,2,70103,71481,1,0 S,2,70103,71481,1,0.2 P,0,70103,71481,A
Sprite,Foreground,Centre,"sb\glow.png",0,0 C,0,51711,,255,119,122 M,0,51711,51800,426,392,447.7392,344.5747 F,2,51711,52578,1,0 S,2,51711,52578,0.75,0.15 P,0,51711,52578,A M,0,51800,51889,447.7392,344.5747,451.0756,292.5469 M,0,51889,51978,451.0756,292.5469,435.5944,242.7697
Sprite,Foreground,Centre,"sb\glow.png",0,0 C,0,52068,,255,119,122 M,0,52068,52157,471,220,433.4448,184.0256 F,2,52068,52935,1,0 S,2,52068,52935,0.75,0.15 P,0,52068,52935,A M,0,52157,52246,433.4448,184.0256,384.0961,167.6116 M,0,52246,52335,384.0961,167.6116,332.5822,174.6868
Sprite,Foreground,Centre,"sb\glow.png",304,206 C,0,52425,,255,184,113 F,2,52425,53625,1,0 S,2,52425,53625,1,0.2 P,0,52425,53625,A
Sprite,Foreground,Centre,"sb\glow.png",518,369 C,0,62068,,255,255,255 F,2,62068,62668,1,0 S,2,62068,62668,0.5,0.1 P,0,62068,62668,A
Sprite,Foreground,Centre,"sb\glow.png",573,267 C,0,62246,,255,255,255 F,2,62246,62846,1,0 S,2,62246,62846,0.5,0.1 P,0,62246,62846,A
Sprite,Foreground,Centre,"sb\glow.png",0,0 C,0,62425,,255,255,255 M,0,62425,62469,494,182,468.5528,187.6724 F,2,62425,63292,1,0 S,2,62425,63292,0.5,0.1 P,0,62425,63292,A M,0,62469,62514,468.5528,187.6724,446.6618,201.7444 M,0,62514,62558,446.6618,201.7444,430.9863,222.4753 M,0,62558,62603,430.9863,222.4753,423.4277,247.3221 M,0,62603,62648,423.4277,247.3221,424.6055,273.3042 M,0,62648,62692,424.6055,273.3042,435.1392,297.1153
Sprite,Foreground,Centre,"sb\glow.png",435,297 C,0,62782,,255,255,255 F,2,62782,63382,1,0 S,2,62782,63382,0.5,0.1 P,0,62782,63382,A
Sprite,Foreground,Centre,"sb\glow.png",332,242 C,0,62961,,255,255,255 F,2,62961,63561,1,0 S,2,62961,63561,0.5,0.1 P,0,62961,63561,A
Sprite,Foreground,Centre,"sb\glow.png",0,0 C,0,69568,,255,119,122 M,0,69568,69746,227,131,277.1803,214.954 F,2,69568,70946,1,0 S,2,69568,70946,1,0.2 P,0,69568,70946,A
Sprite,Foreground,Centre,"sb\glow.png",260,117 C,0,92782,,255,119,122 F,2,92782,93782,1,0 S,2,92782,93782,0.75,0.15 P,0,92782,93782,A
Sprite,Foreground,Centre,"sb\glow.png",0,0 C,0,63139,,255,184,113 M,0,63139,63228,232,273,180.0947,278.0184 F,2,63139,64006,1,0 S,2,63139,64006,0.75,0.15 P,0,63139,64006,A M,0,63228,63317,180.0947,278.0184,232,273 M,0,63317,63406,232,273,180.0947,278.0184
Sprite,Foreground,Centre,"sb\glow.png",0,0 C,0,63496,,255,184,113 M,0,63496,63585,144,238,113.8714,195.3618 F,2,63496,64363,1,0 S,2,63496,64363,0.75,0.15 P,0,63496,64363,A M,0,63585,63674,113.8714,195.3618,144,238 M,0,63674,63763,144,238,113.8714,195.3618
Sprite,Foreground,Centre,"sb\glow.png",0,0 C,0,95282,,255,119,122 M,0,95282,95326,442,379,465.2461,367.1113 F,2,95282,96549,1,0 S,2,95282,96549,0.75,0.15 P,0,95282,96549,A M,0,95326,95371,465.2461,367.1113,481.1841,346.5929 M,0,95371,95415,481.1841,346.5929,486.5834,321.0658 M,0,95415,95460,486.5834,321.0658,475.4377,302.4212 M,0,95460,95505,475.4377,302.4212,449.5247,302.1906 M,0,95505,95549,449.5247,302.1906,428.5788,317.302
Sprite,Foreground,Centre,"sb\glow.png",0,0 C,0,95639,,255,184,113 M,0,95639,95683,383,300,395.6749,277.1208 F,2,95639,96906,1,0 S,2,95639,96906,0.75,0.15 P,0,95639,96906,A M,0,95683,95728,395.6749,277.1208,402.2317,251.8279 M,0,95728,95772,402.2317,251.8279,402.2673,225.7152 M,0,95772,95817,402.2673,225.7152,396.007,200.3431 M,0,95817,95862,396.007,200.3431,383.2505,177.5236 M,0,95862,95906,383.2505,177.5236,365.2172,158.6264
Sprite,Foreground,Centre,"sb\glow.png",0,0 C,0,95996,,255,119,122 M,0,95996,96040,399,124,373.0462,120.0676 F,2,95996,97263,1,0 S,2,95996,97263,0.75,0.15 P,0,95996,97263,A M,0,96040,96085,373.0462,120.0676,347.0924,116.1352 M,0,96085,96129,347.0924,116.1352,322.1636,119.1473 M,0,96129,96174,322.1636,119.1473,298.4526,130.41 M,0,96174,96219,298.4526,130.41,272.9343,130.5596 M,0,96219,96263,272.9343,130.5596,246.8763,127.3904
Sprite,Foreground,Centre,"sb\glow.png",0,0 C,0,109568,,255,119,122 M,0,109568,109612,180,393,201.1855,374.5981 F,2,109568,110835,1,0 S,2,109568,110835,0.75,0.15 P,0,109568,110835,A M,0,109612,109657,201.1855,374.5981,225.482,360.5917 M,0,109657,109701,225.482,360.5917,251.9833,351.4232 M,0,109701,109746,251.9833,351.4232,279.7899,347.7581 M,0,109746,109791,279.7899,347.7581,307.7913,349.3626 M,0,109791,109835,307.7913,349.3626,334.8927,356.5968
Sprite,Foreground,Centre,"sb\glow.png",0,0 C,0,109925,,255,184,113 M,0,109925,109969,371,392,398.1656,399.0235 F,2,109925,111192,1,0 S,2,109925,111192,0.75,0.15 P,0,109925,111192,A M,0,109969,110014,398.1656,399.0235,426.1681,400.8734 M,0,110014,110058,426.1681,400.8734,453.9332,396.8325 M,0,110058,110103,453.9332,396.8325,480.4621,387.6865 M,0,110103,110148,480.4621,387.6865,504.4966,373.2123 M,0,110148,110192,504.4966,373.2123,525,355
Sprite,Foreground,Centre,"sb\glow.png",0,0 C,0,110282,,255,119,122 M,0,110282,110326,565,322,537.6669,316.0272 F,2,110282,111460,1,0 S,2,110282,111460,0.75,0.15 P,0,110282,111460,A M,0,110326,110371,537.6669,316.0272,509.8091,318.1685 M,0,110371,110415,509.8091,318.1685,483.7336,328.177 M,0,110415,110460,483.7336,328.177,461.6393,345.3633
Sprite,Foreground,Centre,"sb\glow.png",145,128 C,0,103496,,255,255,255 F,2,103496,104096,1,0 S,2,103496,104096,0.5,0.1 P,0,103496,104096,A
Sprite,Foreground,Centre,"sb\glow.png",235,57 C,0,103675,,255,255,255 F,2,103675,104275,1,0 S,2,103675,104275,0.5,0.1 P,0,103675,104275,A
Sprite,Foreground,Centre,"sb\glow.png",0,0 C,0,103853,,255,255,255 M,0,103853,103897,130,221,123.9277,246.5138 F,2,103853,104720,1,0 S,2,103853,104720,0.5,0.1 P,0,103853,104720,A M,0,103897,103942,123.9277,246.5138,121.2048,272.5925 M,0,103942,103986,121.2048,272.5925,121.8755,298.7999 M,0,103986,104031,121.8755,298.7999,125.9277,324.6976 M,0,104031,104076,125.9277,324.6976,133.2931,349.8526 M,0,104076,104120,133.2931,349.8526,143.7228,373.9085
Sprite,Foreground,Centre,"sb\glow.png",143,373 C,0,104211,,255,255,255 F,2,104211,104811,1,0 S,2,104211,104811,0.5,0.1 P,0,104211,104811,A
Sprite,Foreground,Centre,"sb\glow.png",239,307 C,0,104389,,255,255,255 F,2,104389,104989,1,0 S,2,104389,104989,0.5,0.1 P,0,104389,104989,A
Sprite,Foreground,Centre,"sb\glow.png",0,0 C,0,96711,,255,119,122 M,0,96711,96889,168,254,76,219 F,2,96711,98089,1,0 S,2,96711,98089,1,0.2 P,0,96711,98089,A
Sprite,Foreground,Centre,"sb\glow.png",0,0 C,0,111532,,255,119,122 M,0,111532,111889,277,228 F,2,111532,113089,1,0 S,2,111532,113089,1,0.2 P,0,111532,113089,A
Sprite,Foreground,Centre,"sb\glow.png",0,0 C,0,110996,,255,119,122 M,0,110996,111353,364,176 F,2,110996,112553,1,0 S,2,110996,112553,1,0.2 P,0,110996,112553,A
//Storyboard Layer 4 (Overlay)
//Storyboard Sound Samples

[TimingPoints]
464,357.142857142857,3,2,1,65,1,0
464,-125,4,2,1,65,0,0
643,357.142857142857,7,2,1,65,1,0
643,-125,4,2,1,65,0,0
821,-125,4,2,0,65,0,0
1714,-125,4,2,1,65,0,0
2071,-125,4,2,0,65,0,0
3142,-125,4,2,1,65,0,0
3500,-125,4,2,0,65,0,0
4392,-125,4,2,1,65,0,0
4928,-125,4,2,0,65,0,0
5642,-125,4,2,1,65,0,0
6000,-125,4,2,0,65,0,0
6714,-125,4,2,1,65,0,0
7071,-125,4,2,0,65,0,0
8142,-125,4,2,1,65,0,0
8500,-125,4,2,0,65,0,0
9392,-100,4,2,0,65,0,0
10642,357.142857142857,4,2,1,70,1,0
10642,-100,4,2,1,70,0,0
10731,-100,4,2,1,35,0,0
10999,-100,4,2,1,70,0,0
11088,-100,4,2,1,35,0,0
11356,-100,4,2,1,70,0,0
11892,-100,4,2,1,35,0,0
12249,-100,4,2,1,70,0,0
14927,357.142857142857,3,2,1,65,1,0
15998,357.142857142857,4,2,1,65,1,0
16087,-100,4,2,1,35,0,0
16355,-100,4,2,1,70,0,0
16444,-100,4,2,1,35,0,0
16712,-100,4,2,1,70,0,0
17248,-100,4,2,1,35,0,0
17605,-100,4,2,1,70,0,0
20283,357.142857142857,3,2,1,65,1,0
21354,357.142857142857,7,2,1,65,1,0
22604,-100,4,2,1,65,0,0
23318,-100,4,2,1,55,0,0
23854,357.142857142857,4,2,1,65,1,0
23854,-100,4,2,1,65,0,0
26889,-100,4,2,1,25,0,0
27246,-100,4,2,1,50,0,0
27604,-100,4,2,1,25,0,0
27782,-100,4,2,1,50,0,0
29211,-100,4,2,1,55,0,0
29568,-100,4,2,1,60,0,0
33139,-100,4,2,1,65,0,0
33853,-100,4,2,1,70,0,0
33943,-100,4,2,1,35,0,0
34032,-100,4,2,1,70,0,0
34568,-100,4,2,1,75,0,0
35282,-100,4,2,1,70,0,0
40282,-100,4,2,1,75,0,0
40996,-100,4,2,1,70,0,0
45996,-100,4,2,1,65,0,0
46353,-100,4,2,1,75,0,0
49211,-100,4,2,1,80,0,0
49568,-83.3333333333333,4,2,1,80,0,0
50282,-83.3333333333333,4,2,1,85,0,0
51175,-83.3333333333333,4,2,1,90,0,0
51711,-71.4285714285714,4,2,1,70,0,1
51978,-71.4285714285714,4,2,1,35,0,0
52068,-71.4285714285714,4,2,1,75,0,1
52336,-71.4285714285714,4,2,1,35,0,0
52425,-71.4285714285714,4,2,1,80,0,1
52514,-71.4285714285714,4,2,1,25,0,1
52603,-71.4285714285714,4,2,1,80,0,1
52693,-71.4285714285714,4,2,1,25,0,1
52782,-71.4285714285714,4,2,1,80,0,1
53139,-71.4285714285714,4,2,1,85,0,1
53228,-71.4285714285714,4,2,1,25,0,1
53318,-71.4285714285714,4,2,1,85,0,1
53407,-71.4285714285714,4,2,1,25,0,1
53496,-71.4285714285714,4,2,1,85,0,1
53853,-71.4285714285714,4,2,1,70,0,1
54211,-71.4285714285714,4,2,1,90,0,1
54746,-71.4285714285714,4,2,1,75,0,1
55282,-71.4285714285714,4,2,1,65,0,1
55371,-71.4285714285714,4,2,1,25,0,1
55461,-71.4285714285714,4,2,1,70,0,1
55550,-71.4285714285714,4,2,1,25,0,1
55639,-71.4285714285714,4,2,1,75,0,1
55728,-71.4285714285714,4,2,1,25,0,1
55818,-71.4285714285714,4,2,1,80,0,1
55907,-71.4285714285714,4,2,1,45,0,1
55996,-71.4285714285714,4,2,1,85,0,1
56175,-71.4285714285714,4,2,1,80,0,1
56353,-71.4285714285714,4,2,1,85,0,1
56532,-71.4285714285714,4,2,1,80,0,1
56711,-71.4285714285714,4,2,1,70,0,1
57336,-71.4285714285714,4,2,1,25,0,1
57425,-71.4285714285714,4,2,1,70,0,1
57782,-71.4285714285714,4,2,1,85,0,1
58139,-71.4285714285714,4,2,1,75,0,1
59211,-71.4285714285714,4,2,1,70,0,1
59925,-71.4285714285714,4,2,1,65,0,1
60282,-71.4285714285714,4,2,1,60,0,1
60461,-71.4285714285714,4,2,1,65,0,1
60639,-71.4285714285714,4,2,1,70,0,1
60818,-71.4285714285714,4,2,1,75,0,1
62068,-71.4285714285714,4,2,1,70,0,1
62157,-71.4285714285714,4,2,1,20,0,1
62246,-71.4285714285714,4,2,1,70,0,1
62336,-71.4285714285714,4,2,1,20,0,1
62425,-71.4285714285714,4,2,1,70,0,1
62693,-71.4285714285714,4,2,1,20,0,1
62782,-71.4285714285714,4,2,1,70,0,1
62871,-71.4285714285714,4,2,1,20,0,1
62961,-71.4285714285714,4,2,1,70,0,1
63050,-71.4285714285714,4,2,1,20,0,1
63139,-71.4285714285714,4,2,1,65,0,1
63318,-71.4285714285714,4,2,1,70,0,1
63496,-71.4285714285714,4,2,1,75,0,1
63675,-71.4285714285714,4,2,1,80,0,1
63853,-71.4285714285714,4,2,1,85,0,1
63943,-71.4285714285714,4,2,1,25,0,1
64032,-71.4285714285714,4,2,1,85,0,1
64121,-71.4285714285714,4,2,1,25,0,1
64211,-71.4285714285714,4,2,1,85,0,1
64657,-71.4285714285714,4,2,1,25,0,1
64746,-71.4285714285714,4,2,1,85,0,1
64836,-71.4285714285714,4,2,1,25,0,1
64925,-71.4285714285714,4,2,1,85,0,1
65639,-71.4285714285714,4,2,1,90,0,1
65907,-71.4285714285714,4,2,1,20,0,1
65996,-71.4285714285714,4,2,1,90,0,1
66264,-71.4285714285714,4,2,1,20,0,1
66353,-71.4285714285714,4,2,1,70,0,1
66443,-71.4285714285714,4,2,1,25,0,1
66532,-71.4285714285714,4,2,1,75,0,1
66621,-71.4285714285714,4,2,1,25,0,1
66711,-71.4285714285714,4,2,1,85,0,1
67068,-71.4285714285714,4,2,1,75,0,1
67157,-71.4285714285714,4,2,1,20,0,1
67246,-71.4285714285714,4,2,1,80,0,1
67336,-71.4285714285714,4,2,1,20,0,1
67425,-71.4285714285714,4,2,1,85,0,1
67514,-71.4285714285714,4,2,1,20,0,1
67603,-71.4285714285714,4,2,1,90,0,1
67693,-71.4285714285714,4,2,1,20,0,1
67782,-71.4285714285714,4,2,1,95,0,1
68139,-71.4285714285714,4,2,1,100,0,1
68407,-71.4285714285714,4,2,1,20,0,1
68496,-71.4285714285714,4,2,1,100,0,1
68764,-71.4285714285714,4,2,1,20,0,1
68853,-71.4285714285714,4,2,1,100,0,1
69121,-71.4285714285714,4,2,1,85,0,1
69211,-71.4285714285714,4,2,1,85,0,1
69568,-71.4285714285714,4,2,1,80,0,1
70996,-71.4285714285714,4,2,1,75,0,1
71264,-71.4285714285714,4,2,1,20,0,1
71353,-71.4285714285714,4,2,1,75,0,1
71621,-71.4285714285714,4,2,1,20,0,1
71711,-71.4285714285714,4,2,1,75,0,1
71978,-71.4285714285714,4,2,1,20,0,1
72068,-71.4285714285714,4,2,1,70,0,1
72425,-71.4285714285714,4,2,1,80,0,1
72514,-71.4285714285714,4,2,1,40,0,1
72782,-71.4285714285714,4,2,1,80,0,1
73139,-71.4285714285714,4,2,1,70,0,1
73228,-71.4285714285714,4,2,1,40,0,1
73318,-71.4285714285714,4,2,1,75,0,1
73407,-71.4285714285714,4,2,1,40,0,1
73496,-71.4285714285714,4,2,1,80,0,1
73675,-71.4285714285714,4,2,1,90,0,1
73943,-71.4285714285714,4,2,1,20,0,1
74032,-71.4285714285714,4,2,1,85,0,1
74121,-71.4285714285714,4,2,1,20,0,1
74211,-71.4285714285714,4,2,1,80,0,1
74300,-71.4285714285714,4,2,1,20,0,1
74389,-71.4285714285714,4,2,1,75,0,1
74568,-71.4285714285714,4,2,1,70,0,1
75282,-100,4,2,1,70,0,0
79568,-100,4,2,1,75,0,0
80282,-100,4,2,1,70,0,0
85996,-100,4,2,1,65,0,0
86353,-100,4,2,1,75,0,0
89211,-100,4,2,1,80,0,0
89568,-83.3333333333333,4,2,1,80,0,0
90282,-83.3333333333333,4,2,1,85,0,0
90639,-83.3333333333333,4,2,1,80,0,0
90996,-83.3333333333333,4,2,1,60,0,0
91353,-83.3333333333333,4,2,1,65,0,0
91711,-83.3333333333333,4,2,1,75,0,0
91889,-83.3333333333333,4,2,1,85,0,0
92068,-83.3333333333333,4,2,1,95,0,0
92425,-83.3333333333333,4,2,1,100,0,0
92693,-83.3333333333333,4,2,1,25,0,0
92782,-83.3333333333333,4,2,1,100,0,0
93139,-125,4,2,0,80,0,0
93496,-125,4,2,0,70,0,0
93853,-125,4,2,1,60,0,0
94211,-125,4,2,0,60,0,0
94568,-125,4,2,1,60,0,0
94925,-83.3333333333333,4,2,1,65,0,0
95282,-71.4285714285714,4,2,1,80,0,1
95550,-71.4285714285714,4,2,1,20,0,0
95639,-71.4285714285714,4,2,1,90,0,1
95907,-71.4285714285714,4,2,1,20,0,0
95996,-71.4285714285714,4,2,1,100,0,1
96264,-71.4285714285714,4,2,1,20,0,0
96353,-71.4285714285714,4,2,1,80,0,0
96443,-71.4285714285714,4,2,1,25,0,0
96532,-71.4285714285714,4,2,1,80,0,0
96621,-71.4285714285714,4,2,1,25,0,0
96711,-71.4285714285714,4,2,1,85,0,1
96800,-71.4285714285714,4,2,1,40,0,1
96889,-71.4285714285714,4,2,1,85,0,1
96978,-71.4285714285714,4,2,1,40,0,1
97068,-71.4285714285714,4,2,1,85,0,1
97425,-71.4285714285714,4,2,1,90,0,1
97514,-71.4285714285714,4,2,1,40,0,1
97603,-71.4285714285714,4,2,1,90,0,1
97693,-71.4285714285714,4,2,1,40,0,1
97782,-71.4285714285714,4,2,1,90,0,1
98139,-71.4285714285714,4,2,1,100,0,1
98496,-71.4285714285714,4,2,1,95,0,1
98764,-71.4285714285714,4,2,1,25,0,1
98853,-71.4285714285714,4,2,1,90,0,1
99121,-71.4285714285714,4,2,1,25,0,1
99211,-71.4285714285714,4,2,1,80,0,1
99568,-71.4285714285714,4,2,1,70,0,1
100639,-71.4285714285714,4,2,1,75,0,1
102425,-71.4285714285714,4,2,1,85,0,1
103496,-71.4285714285714,4,2,1,75,0,1
103586,-71.4285714285714,4,2,1,25,0,1
103675,-71.4285714285714,4,2,1,80,0,1
103764,-71.4285714285714,4,2,1,25,0,1
103853,-71.4285714285714,4,2,1,85,0,1
104121,-71.4285714285714,4,2,1,25,0,1
104211,-71.4285714285714,4,2,1,80,0,1
104300,-71.4285714285714,4,2,1,25,0,1
104389,-71.4285714285714,4,2,1,75,0,1
104478,-71.4285714285714,4,2,1,25,0,1
104568,-71.4285714285714,4,2,1,65,0,1
104746,-71.4285714285714,4,2,1,70,0,1
104925,-71.4285714285714,4,2,1,80,0,1
105103,-71.4285714285714,4,2,1,90,0,1
105282,-71.4285714285714,4,2,1,100,0,1
105550,-71.4285714285714,4,2,1,60,0,1
105639,-66.6666666666667,4,2,1,85,0,1
105996,-66.6666666666667,4,2,1,100,0,1
106353,-66.6666666666667,4,2,1,80,0,1
106711,-66.6666666666667,4,2,1,100,0,1
108407,-66.6666666666667,4,2,1,60,0,1
108496,-66.6666666666667,4,2,1,100,0,1
109211,-66.6666666666667,4,2,1,85,0,1
109478,-66.6666666666667,4,2,1,45,0,1
109568,-66.6666666666667,4,2,1,80,0,1
109836,-66.6666666666667,4,2,1,40,0,1
109925,-66.6666666666667,4,2,1,90,0,1
110193,-66.6666666666667,4,2,1,40,0,1
110282,-66.6666666666667,4,2,1,100,0,1
110550,-66.6666666666667,4,2,1,40,0,1
110639,-66.6666666666667,4,2,1,100,0,1
112425,-66.6666666666667,4,2,1,90,0,1
112693,-66.6666666666667,4,2,1,40,0,1
112782,-66.6666666666667,4,2,1,95,0,1
113050,-66.6666666666667,4,2,1,40,0,1
113139,-66.6666666666667,4,2,1,95,0,1
113407,-66.6666666666667,4,2,1,40,0,1
113496,-66.6666666666667,4,2,1,100,0,1
114121,-66.6666666666667,4,2,1,40,0,1
114211,-66.6666666666667,4,2,1,100,0,1
114478,-66.6666666666667,4,2,1,40,0,1
114568,-80,4,2,1,90,0,1
114657,-80,4,2,1,40,0,1
114746,-80,4,2,1,95,0,1
114836,-80,4,2,1,40,0,1
114925,-80,4,2,1,100,0,1
115014,-80,4,2,1,40,0,1
115103,-80,4,2,1,100,0,1
115371,-80,4,2,1,40,0,1
115461,-80,4,2,1,80,0,1
115550,-80,4,2,1,30,0,1
115639,-80,4,2,1,90,0,1
115728,-80,4,2,1,30,0,1
115818,-80,4,2,1,80,0,1
116353,-66.6666666666667,4,2,1,100,0,1
117336,-66.6666666666667,4,2,1,45,0,1
117425,-66.6666666666667,4,2,1,80,0,1
117514,-66.6666666666667,4,2,1,45,0,1
117603,-66.6666666666667,4,2,1,80,0,1
117693,-66.6666666666667,4,2,1,45,0,1
117782,-66.6666666666667,4,2,1,80,0,1
117871,-66.6666666666667,4,2,1,45,0,1
117961,-66.6666666666667,4,2,1,100,0,1
118228,-66.6666666666667,4,2,1,50,0,1
118318,-66.6666666666667,4,2,1,80,0,1
118407,-66.6666666666667,4,2,1,50,0,1
118496,-66.6666666666667,4,2,1,85,0,0
118586,-66.6666666666667,4,2,1,50,0,0
118675,-66.6666666666667,4,2,1,90,0,0
118853,-66.6666666666667,4,2,1,100,0,0

[Colours]
Combo1 : 255,184,113
Combo2 : 217,217,217
Combo3 : 253,234,255
Combo4 : 255,119,122

[HitObjects]
368,135,643,6,0,P|378:162|375:216,1,60,4|0,2:0|2:0,0:0:0:0:
336,272,1000,2,0,L|262:280,1,60,2|0,2:0|2:0,0:0:0:0:
232,200,1357,2,0,L|316:189,1,60,2|0,2:0|2:0,0:0:0:0:
201,336,1714,6,0,P|193:314|197:255,1,60,2|2,2:0|2:0,0:0:0:0:
131,147,2071,2,0,P|139:175|142:205,1,60,2|0,2:0|2:0,0:0:0:0:
64,252,2428,2,0,P|56:230|60:171,1,60,2|2,2:0|2:0,0:0:0:0:
131,147,2785,1,2,2:0:0:0:
131,147,2964,1,2,2:0:0:0:
59,92,3142,37,4,2:0:0:0:
210,113,3500,1,2,2:0:0:0:
356,28,3857,1,2,2:0:0:0:
364,207,4214,1,2,2:0:0:0:
364,207,4392,6,0,P|366:278|451:322,1,150,2|0,2:0|0:0,0:0:0:0:
425,321,4928,2,0,P|390:316|367:323,1,60,2|0,2:0|2:0,0:0:0:0:
278,342,5285,2,0,P|247:344|218:337,1,60,2|2,2:0|2:0,0:0:0:0:
167,264,5642,37,6,2:0:0:0:
136,348,5821,2,0,L|57:361,2,60,0|2|0,2:0|2:0|2:0,0:0:0:0:
255,263,6357,2,0,P|248:228|232:205,1,60,2|0,2:0|2:0,0:0:0:0:
156,176,6714,5,2,2:0:0:0:
224,127,6892,2,0,L|294:114,2,60,2|2|0,2:0|2:0|2:0,0:0:0:0:
147,91,7428,38,0,L|88:101,1,60,2|2,2:0|2:0,0:0:0:0:
71,184,7785,1,2,2:0:0:0:
71,184,7964,1,2,2:0:0:0:
116,253,8142,5,6,2:0:0:0:
242,345,8500,1,2,2:0:0:0:
285,185,8857,2,0,P|305:217|291:277,1,90,2|0,2:0|0:0,0:0:0:0:
299,266,9214,1,0,2:0:0:0:
333,364,9392,38,0,L|497:343,1,150,8|8,3:0|3:0,2:0:0:0:
242,345,9928,2,0,L|165:356,1,75,8|0,3:0|2:0,2:0:0:0:
164,265,10285,2,0,L|87:276,1,75,2|2,3:0|3:0,0:0:0:0:
101,186,10642,5,6,3:0:0:0:
215,24,10999,1,2,3:0:0:0:
376,103,11356,2,0,P|432:102|486:87,1,112.5,8|0,3:0|2:0,3:0:0:0:
462,126,11713,2,0,P|458:164|464:216,1,75,2|10,3:0|3:0,3:0:0:0:
355,337,12249,37,8,3:0:0:0:
355,337,12606,2,0,P|368:262|337:183,1,150,8|0,3:0|2:0,3:0:0:0:
313,172,13052,1,8,3:0:0:0:
276,165,13141,2,0,P|272:215|283:246,1,75,8|8,3:0|3:0,3:0:0:0:
324,76,13499,6,0,P|288:67|234:75,1,75,12|0,3:0|3:0,3:0:0:0:
180,126,13856,1,8,3:0:0:0:
180,126,14213,37,8,3:0:0:0:
250,69,14391,1,0,3:0:0:0:
166,36,14570,1,0,3:0:0:0:
93,89,14749,2,0,L|104:215,1,112.5,4|0,3:0|0:0,3:0:0:0:
119,243,15105,2,0,B|82:228|82:228|46:231,1,75,0|8,3:0|3:0,0:0:0:0:
71,317,15462,1,0,3:0:0:0:
159,329,15641,2,0,B|190:304|190:304|205:271,1,75,8|0,3:0|3:0,0:0:0:0:
187,183,15998,5,6,3:0:0:0:
459,235,16355,2,0,P|455:272|465:308,1,75,2|0,3:0|0:0,3:0:0:0:
503,155,16712,2,0,P|450:143|388:176,1,112.5,8|0,3:0|3:0,3:0:0:0:
368,199,17069,2,0,P|372:161|362:125,1,75,2|10,3:0|3:0,3:0:0:0:
60,142,17605,37,8,3:0:0:0:
60,142,17962,2,0,P|138:151|228:128,1,150,8|0,3:0|3:0,3:0:0:0:
239,118,18408,1,8,3:0:0:0:
271,98,18498,2,0,P|267:135|277:171,1,75,0|0,3:0|3:0,3:0:0:0:
362,125,18855,5,10,3:0:0:0:
437,76,19033,1,0,3:0:0:0:
355,36,19212,1,0,3:0:0:0:
348,217,19569,37,10,3:0:0:0:
276,170,19748,1,2,3:0:0:0:
344,311,20105,6,0,P|381:304|419:301,1,75,2|0,3:0|3:0,3:0:0:0:
257,342,20461,1,2,3:0:0:0:
169,363,20640,1,0,3:0:0:0:
91,316,20818,1,2,3:0:0:0:
68,228,20997,2,0,L|87:110,1,112.5,8|0,3:0|0:0,0:0:0:0:
70,74,21354,37,14,3:0:0:0:
155,250,21711,1,0,0:0:0:0:
309,197,22068,5,0,2:0:0:0:
220,181,22246,1,2,2:3:0:0:
346,53,22604,37,2,2:3:0:0:
220,181,22961,1,2,2:3:0:0:
250,265,23139,1,0,0:0:0:0:
309,197,23318,1,2,2:3:0:0:
337,282,23496,6,0,L|328:371,1,75,2|0,2:0|2:0,2:0:0:0:
220,181,23854,1,4,2:0:0:0:
346,53,24211,2,0,L|429:43,2,75,0|0|2,2:0|2:0|2:0,0:0:0:0:
172,3,24925,37,0,2:0:0:0:
196,93,25104,1,8,3:0:0:0:
196,93,25282,1,10,3:0:0:0:
143,228,25461,2,0,P|132:193|129:155,1,75,0|0,2:0|2:0,0:0:0:0:
186,310,25818,2,0,B|152:321|152:321|113:314,1,75,0|2,2:0|2:0,0:0:0:0:
309,197,26354,6,0,L|392:187,1,75,0|0,2:0|2:0,0:0:0:0:
472,173,26711,1,2,3:0:0:0:
309,197,27246,37,0,2:0:0:0:
328,109,27425,2,0,P|332:69|327:17,1,75,2|0,2:0|2:0,2:0:0:0:
245,65,27782,1,0,2:0:0:0:
231,157,27961,1,0,3:0:0:0:
231,157,28139,1,4,3:0:0:0:
309,197,28496,5,0,2:0:0:0:
231,157,28675,1,0,2:0:0:0:
141,144,28853,2,0,B|101:148|101:148|61:164,1,75,2|0,2:0|2:0,2:0:0:0:
38,245,29211,37,2,2:0:0:0:
68,160,29389,1,2,2:0:0:0:
122,231,29568,2,0,P|145:302|126:365,1,112.5,10|0,3:0|0:0,2:0:0:0:
138,337,29925,5,2,2:0:0:0:
218,376,30103,1,2,2:0:0:0:
293,326,30282,2,0,P|368:313|424:316,1,112.5,10|0,3:0|0:0,2:0:0:0:
427,352,30639,37,2,2:0:0:0:
484,283,30818,1,10,3:0:0:0:
484,283,30996,1,10,3:0:0:0:
410,231,31175,2,0,L|399:110,1,112.5,0|0,2:0|0:0,2:0:0:0:
421,79,31532,1,0,2:0:0:0:
331,44,31711,2,0,P|302:116|324:184,1,150,4|0,2:0|0:0,0:0:0:0:
399,118,32246,1,0,2:0:0:0:
224,47,32425,6,0,L|92:67,1,112.5,8|0,3:0|0:0,2:0:0:0:
77,92,32782,2,0,B|66:135|66:135|77:176,1,75,0|0,2:0|2:0,0:0:0:0:
216,178,33139,2,0,B|184:146|184:146|143:136,1,75,8|0,3:0|3:0,0:0:0:0:
74,256,33496,2,0,B|116:244|116:244|146:213,1,75,8|0,3:0|3:0,0:0:0:0:
210,276,33853,38,0,L|202:340,1,37.5,4|0,3:0|2:0,2:0:0:0:
200,357,34032,1,0,2:0:0:0:
389,219,34389,1,0,3:0:0:0:
344,210,34478,1,0,3:0:0:0:
300,220,34568,2,0,P|308:290|331:313,1,75,8|8,3:0|3:0,0:0:0:0:
480,241,34925,2,0,P|472:171|449:148,1,75,8|8,3:0|3:0,0:0:0:0:
421,321,35282,6,0,L|264:340,1,150,12|0,2:0|2:0,2:0:0:0:
210,276,35818,1,8,2:0:0:0:
156,202,35996,2,0,P|168:276|174:351,1,150,12|0,2:0|2:0,2:0:0:0:
211,132,36711,37,8,2:0:0:0:
156,202,36889,1,0,2:0:0:0:
121,118,37068,2,0,L|46:128,1,75,8|8,2:0|2:0,0:0:0:0:
176,47,37425,2,0,P|243:45|290:79,1,112.5,14|0,2:0|0:0,2:0:0:0:
318,92,37782,6,0,B|354:105|354:105|397:90,1,75,0|0,2:0|2:0,2:0:0:0:
473,61,38139,1,10,2:0:0:0:
457,149,38496,37,0,3:0:0:0:
473,61,38675,1,8,3:0:0:0:
457,149,38853,2,0,B|470:187|470:187|463:236,1,75,12|0,3:0|0:0,0:0:0:0:
388,269,39211,2,0,B|375:231|375:231|382:182,1,75,0|0,2:0|2:0,0:0:0:0:
475,312,39568,5,2,3:0:0:0:
475,312,39746,2,0,L|320:328,1,150,8|0,3:0|2:0,2:0:0:0:
267,259,40282,1,12,3:0:0:0:
191,308,40461,1,8,3:0:0:0:
126,245,40639,2,0,P|110:207|111:167,1,75,8|8,3:0|3:0,0:0:0:0:
194,29,40996,38,0,L|210:185,1,150,4|0,2:0|2:0,2:0:0:0:
267,259,41532,1,8,3:2:0:0:
300,175,41711,2,0,P|376:165|430:116,1,150,12|0,3:2|2:0,2:0:0:0:
398,202,42425,5,8,2:0:0:0:
428,117,42603,1,0,2:0:0:0:
483,188,42782,2,0,L|492:270,1,75,8|8,2:0|2:0,0:0:0:0:
428,117,43139,2,0,B|411:80|411:80|419:35,1,75,14|0,2:0|2:0,2:0:0:0:
495,1,43496,2,0,B|512:38|512:38|504:83,1,75,2|0,2:0|2:0,2:0:0:0:
333,119,43853,1,12,2:0:0:0:
249,86,44211,37,2,2:0:0:0:
333,119,44389,1,8,2:0:0:0:
249,86,44568,2,0,P|190:86|158:101,1,75,12|0,2:0|2:0,2:0:0:0:
158,2,44925,2,0,P|124:16|97:42,1,75,0|0,2:0|2:0,2:0:0:0:
91,132,45282,5,0,2:0:0:0:
91,132,45461,2,0,L|101:281,1,150,8|8,2:0|3:0,0:0:0:0:
54,358,45996,2,0,P|26:330|17:290,1,75,14|0,2:0|2:0,2:0:0:0:
101,281,46353,37,0,2:0:0:0:
189,263,46532,1,0,2:0:0:0:
272,298,46711,2,0,L|363:293,1,75,10|0,2:0|0:0,0:0:0:0:
429,343,47068,5,8,3:0:0:0:
429,343,47246,1,0,2:0:0:0:
423,253,47425,2,8,P|433:210|426:158,1,75,10|8,2:0|2:0,2:0:0:0:
392,98,47782,37,8,3:0:0:0:
341,173,47961,1,0,2:0:0:0:
431,179,48139,5,8,2:0:0:0:
431,179,48318,1,2,2:0:0:0:
299,89,48496,2,0,L|208:84,1,75,10|0,3:0|2:0,0:0:0:0:
176,166,48853,2,8,L|267:171,1,75,10|8,2:0|2:0,2:0:0:0:
140,77,49211,2,0,P|126:63|119:36,3,37.5,2|2|2|2,3:0|3:0|3:0|3:0,0:0:0:0:
89,12,49568,38,0,P|95:57|68:131,1,90,8|0,3:0|3:0,3:0:0:0:
176,166,49925,2,0,P|140:193|62:207,1,90,8|0,3:0|3:0,3:0:0:0:
9,162,50282,5,8,3:0:0:0:
97,206,50461,2,0,L|91:258,2,45,0|0|10,3:0|3:0|3:0,0:0:0:0:
6,253,50818,1,2,3:0:0:0:
62,346,50996,38,0,L|185:326,1,90,4|0,3:0|3:0,0:0:0:0:
189,345,51264,1,0,3:0:0:0:
189,345,51353,2,0,L|338:320,1,135,0|0,3:0|3:0,3:0:0:0:
362,336,51711,22,0,P|386:279|356:163,1,157.5,8|0,1:0|2:0,1:0:0:0:
407,164,52068,2,0,P|346:117|258:123,1,157.5,8|0,1:0|2:0,1:0:0:0:
240,150,52425,5,4,3:0:0:0:
67,92,52782,2,0,L|170:70,1,105,0|0,1:0|1:0,0:0:0:0:
240,150,53139,2,0,L|47:193,1,157.5,4|0,3:0|2:0,3:0:0:0:
52,225,53496,1,0,1:0:0:0:
122,302,53675,1,0,1:0:0:0:
176,211,53853,38,0,P|173:284|210:357,1,157.5,12|0,1:0|1:0,1:0:0:0:
258,334,54211,2,0,P|284:329|330:334,3,52.5,2|2|2|2,3:0|3:0|3:0|3:0,0:0:0:0:
358,350,54568,1,6,3:0:0:0:
456,313,54746,1,0,3:0:0:0:
475,210,54925,2,0,L|461:92,1,105,2|2,3:0|3:0,0:0:0:0:
377,44,55282,6,0,P|356:89|376:147,1,105,4|0,3:0|3:0,2:0:0:0:
274,184,55639,2,0,P|304:225|354:237,1,105,8|0,3:0|3:0,2:0:0:0:
257,79,55996,2,0,P|188:85|92:123,1,157.5,12|0,3:0|0:0,0:0:0:0:
74,157,56353,2,0,B|82:101|82:101|64:55,1,105,8|8,3:0|3:0,0:0:0:0:
29,252,56711,37,12,1:0:0:0:
126,289,56889,2,0,P|130:263|126:237,2,52.5,0|0|0,1:0|1:0|1:0,0:0:0:0:
40,353,57246,1,0,0:0:0:0:
40,353,57425,1,4,1:0:0:0:
245,337,57782,6,0,L|315:319,3,52.5,2|2|2|2,3:0|3:0|3:0|3:0,0:0:0:0:
348,329,58139,2,0,B|398:319|398:319|465:333,2,105,4|0|0,1:0|1:0|1:0,1:0:0:0:
373,226,58675,2,0,B|323:236|323:236|256:222,2,105,8|8|8,3:0|3:0|3:0,0:0:0:0:
476,246,59211,2,0,P|468:177|396:125,1,157.5,8|0,1:0|0:0,1:0:0:0:
351,98,59568,38,0,L|467:81,1,105,8|0,1:0|1:0,1:0:0:0:
392,0,59925,2,0,L|276:17,1,105,8|0,3:0|3:0,0:0:0:0:
249,113,60282,1,6,3:0:0:0:
249,113,60461,1,2,3:0:0:0:
190,26,60639,1,6,3:0:0:0:
146,121,60818,2,0,L|154:186,1,52.5,2|2,3:0|3:0,0:0:0:0:
131,221,60996,6,0,B|145:281|145:281|109:383,1,157.5,4|0,1:0|3:0,1:0:0:0:
155,339,61353,1,8,3:0:0:0:
261,365,61532,1,0,3:0:0:0:
261,365,61711,2,0,L|436:350,1,157.5,8|0,3:0|0:0,0:0:0:0:
454,313,62068,5,8,1:0:0:0:
509,211,62246,1,0,1:0:0:0:
430,126,62425,2,0,P|364:172|385:257,1,157.499995193482,12|0,1:0|2:0,1:0:0:0:
371,241,62782,1,8,1:0:0:0:
268,186,62961,1,0,1:0:0:0:
168,217,63139,38,0,P|143:222|89:217,3,52.5,10|2|2|0,3:0|3:0|3:0|3:0,0:0:0:0:
80,182,63496,2,0,P|63:162|40:113,3,52.5,10|2|2|2,3:0|3:0|3:0|3:0,0:0:0:0:
61,87,63853,37,4,3:0:0:0:
261,36,64211,2,0,L|157:26,1,105,0|0,1:0|1:0,0:0:0:0:
183,128,64568,2,0,L|358:144,1,157.5,4|0,3:0|2:0,1:0:0:0:
378,106,64925,1,0,1:0:0:0:
449,183,65103,1,0,1:0:0:0:
390,269,65282,6,0,B|395:293|395:293|389:327,2,52.5,4|0|0,1:0|1:0|3:0,1:0:0:0:
299,295,65639,2,0,L|247:302,2,52.5,8|0|0,1:0|0:0|0:0,1:0:0:0:
245,203,65996,1,8,1:0:0:0:
149,245,66175,1,0,0:0:0:0:
168,140,66353,2,0,L|156:24,1,105,8|0,3:0|3:0,3:0:0:0:
256,70,66711,38,0,P|319:94|446:64,1,157.5,12|0,3:0|0:0,0:0:0:0:
445,121,67068,1,0,3:0:0:0:
477,20,67246,1,0,3:0:0:0:
445,121,67425,2,0,B|438:175|441:244,1,105,12|0,3:0|3:0,3:0:0:0:
485,320,67782,1,8,3:0:0:0:
440,225,67961,1,8,3:0:0:0:
335,232,68139,6,0,P|306:237|289:272,2,52.5,12|0|0,1:0|0:0|0:0,1:0:0:0:
349,336,68496,2,0,P|309:356|233:345,1,105,8|0,1:0|0:0,1:0:0:0:
193,270,68853,1,8,1:0:0:0:
193,270,69032,1,0,0:0:0:0:
141,178,69211,2,0,L|148:107,3,52.5,0|0|0|0,3:0|3:0|3:0|3:0,0:0:0:0:
163,75,69568,38,0,P|167:110|224:163,1,105,12|0,3:0|3:0,0:0:0:0:
302,102,69925,1,8,3:0:0:0:
369,183,70103,2,0,P|407:149|419:98,1,105,12|0,3:0|3:0,0:0:0:0:
360,10,70461,1,8,3:0:0:0:
302,102,70639,2,0,L|323:268,1,157.5,8|0,3:0|0:0,1:0:0:0:
321,258,70996,6,0,B|272:243|272:243|193:266,1,105,12|0,1:3|0:0,1:0:0:0:
157,342,71353,2,0,B|206:357|206:357|257:341,1,105,0|0,1:3|0:0,1:0:0:0:
123,236,71711,1,8,1:3:0:0:
58,318,71889,1,0,0:0:0:0:
18,220,72068,2,0,P|36:136|12:32,1,157.5,12|0,1:0|1:0,1:0:0:0:
2,30,72425,37,4,3:0:0:0:
246,0,72782,5,8,1:0:0:0:
438,97,73139,38,0,L|323:130,1,105,4|0,3:0|3:0,3:0:0:0:
262,200,73496,1,0,3:0:0:0:
262,199,73675,2,0,P|287:126|274:49,1,157.5,12|0,1:3|2:0,3:0:0:0:
251,4,74032,5,8,1:0:0:0:
146,10,74211,2,0,P|153:62|189:99,2,105,8|0|12,1:0|3:0|1:0,3:0:0:0:
68,125,74746,37,0,3:0:0:0:
14,215,74925,1,0,3:0:0:0:
69,303,75103,1,0,3:0:0:0:
113,216,75282,22,0,L|264:198,1,150,12|0,2:0|2:0,2:0:0:0:
323,132,75818,1,8,2:0:0:0:
366,212,75996,2,0,P|355:283|382:391,1,150,12|0,2:0|2:0,2:0:0:0:
366,212,76711,5,8,3:2:0:0:
323,132,76889,1,0,3:2:0:0:
413,132,77068,2,0,L|433:53,1,75,0|8,3:2|3:2,0:0:0:0:
342,44,77425,2,0,P|283:45|246:85,1,112.5,12|0,2:0|0:0,2:0:0:0:
226,121,77782,38,0,B|191:133|191:133|155:120,1,75,0|0,2:0|3:0,0:0:0:0:
110,41,78139,1,8,3:2:0:0:
64,118,78496,5,0,3:0:0:0:
110,41,78675,1,8,3:0:0:0:
64,118,78853,2,0,B|57:160|57:160|70:205,1,75,12|0,3:0|3:0,3:0:0:0:
144,235,79211,2,0,B|121:258|121:258|81:273,1,75,2|0,2:0|3:0,0:0:0:0:
7,323,79568,37,12,3:0:0:0:
7,323,79746,2,0,L|161:340,1,150,8|8,3:0|3:0,0:0:0:0:
232,291,80282,2,0,B|334:259|334:259|458:286,1,225,12|0,2:0|2:0,2:0:0:0:
365,26,80996,6,0,L|381:182,1,150,12|0,2:0|2:0,2:0:0:0:
290,173,81532,1,8,2:0:0:0:
449,284,81711,2,0,P|479:236|477:142,1,150,12|0,2:0|2:0,2:0:0:0:
270,53,82425,37,8,3:2:0:0:
365,26,82603,1,0,3:2:0:0:
270,53,82782,2,0,L|192:36,1,75,0|8,3:2|3:2,0:0:0:0:
120,84,83139,2,0,B|103:47|103:47|109:13,1,75,10|0,2:0|2:0,2:0:0:0:
196,37,83496,2,0,B|213:74|213:74|205:119,1,75,2|0,2:0|2:0,2:0:0:0:
142,170,83853,1,12,2:0:0:0:
174,253,84211,5,0,2:0:0:0:
142,170,84389,1,8,2:0:0:0:
84,239,84568,2,0,P|94:292|125:322,1,75,12|0,2:0|2:0,2:0:0:0:
174,253,84925,2,0,P|224:270|266:258,1,75,0|0,2:0|2:0,2:0:0:0:
379,149,85282,37,8,3:2:0:0:
379,149,85461,2,0,L|232:182,1,150,0|2,3:2|3:2,0:0:0:0:
435,79,85996,2,0,P|461:114|463:174,1,75,14|0,2:0|3:0,3:0:0:0:
379,149,86353,5,0,3:0:0:0:
422,219,86532,1,0,3:0:0:0:
346,253,86711,2,0,L|343:337,1,75,10|0,2:0|0:0,0:0:0:0:
423,364,87068,37,8,3:0:0:0:
423,364,87246,1,0,2:0:0:0:
343,327,87425,2,8,P|298:320|246:325,1,75,8|8,2:0|2:0,2:0:0:0:
184,272,87782,1,8,3:0:0:0:
102,326,87961,1,0,2:0:0:0:
24,266,88139,6,0,P|18:218|25:186,1,75,8|0,2:0|2:0,2:0:0:0:
88,119,88496,1,10,3:0:0:0:
163,181,88675,1,0,2:0:0:0:
254,151,88853,2,8,P|314:146|374:155,1,112.5,10|0,2:0|0:0,2:0:0:0:
409,164,89211,2,0,P|431:168|456:158,3,37.5,2|2|2|2,3:0|3:0|3:0|3:0,0:0:0:0:
484,125,89568,38,0,P|493:172|474:229,1,90,8|0,3:0|3:0,3:0:0:0:
444,293,89925,2,0,P|407:324|348:336,1,90,8|0,3:0|3:0,3:0:0:0:
277,336,90282,2,0,P|207:311|146:243,1,135,8|0,3:0|0:0,3:0:0:0:
120,256,90639,1,8,3:0:0:0:
172,182,90818,1,8,3:0:0:0:
254,219,90996,6,0,P|276:210|300:191,3,45,8|0|0|0,3:0|0:0|3:0|0:0,3:0:0:0:
337,207,91353,2,0,P|351:188|362:159,3,45,10|2|2|2,3:0|3:0|3:0|3:0,0:0:0:0:
401,150,91711,2,0,P|404:126|399:96,3,45,10|2|2|2,3:0|3:0|3:0|3:0,0:0:0:0:
436,75,92068,2,0,P|427:53|407:28,3,45,10|2|2|2,3:0|3:0|3:0|3:0,0:0:0:0:
372,20,92425,38,0,L|248:47,1,90,10|0,3:0|0:0,3:0:0:0:
196,61,92782,21,14,3:0:0:0:
147,257,93139,38,0,P|142:198|146:138,1,120,2|2,2:0|2:0,2:0:0:0:
94,323,93853,1,6,2:0:0:0:
94,323,94211,38,0,L|34:333,2,60,2|2|4,2:0|2:0|2:0,0:0:0:0:
185,338,94746,5,10,3:0:0:0:
185,338,94836,1,0,3:0:0:0:
185,338,94925,2,0,P|228:327|302:331,1,90,4|0,3:0|0:0,3:0:0:0:
378,323,95282,6,0,B|428:307|422:250|422:250|371:229|351:288,1,157.5,12|0,1:0|2:0,1:0:0:0:
319,244,95639,6,0,P|339:191|286:92,1,157.5,12|0,1:0|2:0,1:0:0:0:
335,68,95996,38,0,B|269:58|269:58|229:77|229:77|155:68,1,157.5,12|0,1:0|2:0,1:0:0:0:
155,32,96353,5,0,3:0:0:0:
94,104,96532,1,0,3:0:0:0:
104,198,96711,38,0,P|52:194|12:163,1,105,12|0,3:0|3:0,3:0:0:0:
181,159,97068,2,0,P|191:204|164:265,1,105,0|0,3:0|3:0,0:0:0:0:
92,311,97425,2,0,P|148:290|280:290,1,157.5,8|0,3:0|2:0,3:0:0:0:
283,311,97782,2,0,B|274:258|274:258|297:212,1,105,2|2,3:0|3:0,0:0:0:0:
373,268,98139,6,0,L|493:240,1,105,8|0,1:0|0:0,1:0:0:0:
484,200,98407,1,0,2:0:0:0:
484,200,98496,2,0,P|485:135|448:45,1,157.499995193482,8|0,1:0|2:0,1:0:0:0:
402,29,98853,1,8,1:0:0:0:
300,160,99211,38,0,L|247:165,3,52.4999983978272,2|2|2|2,3:0|3:0|3:0|3:0,0:0:0:0:
212,142,99568,2,0,B|165:159|165:159|111:147,2,105,4|0|0,1:0|1:0|1:0,1:0:0:0:
48,67,100103,2,0,B|95:50|95:50|149:62,2,105,8|8|8,3:0|3:0|3:0,0:0:0:0:
9,152,100639,2,0,P|39:206|46:308,1,157.5,8|0,1:0|0:0,1:0:0:0:
23,341,100996,6,0,L|145:324,1,105,8|0,1:0|1:0,1:0:0:0:
242,223,101353,2,0,L|120:240,1,105,8|2,1:1|3:0,0:0:0:0:
217,319,101711,1,2,3:0:0:0:
217,319,101889,1,0,3:0:0:0:
306,350,102068,1,10,3:0:0:0:
348,265,102246,2,0,L|338:202,1,52.5,2|2,3:0|3:0,0:0:0:0:
355,168,102425,38,0,B|376:91|376:91|350:15,1,157.5,12|0,1:0|1:0,1:0:0:0:
393,37,102782,1,8,3:0:0:0:
281,96,102961,1,0,3:0:0:0:
281,96,103139,2,0,L|112:95,1,157.5,8|0,3:0|0:0,1:0:0:0:
81,72,103496,21,8,1:0:0:0:
171,1,103675,1,0,1:0:0:0:
66,165,103853,2,0,P|57:230|83:324,1,157.5,8|0,1:0|2:0,1:0:0:0:
79,317,104211,1,0,1:0:0:0:
175,251,104389,1,0,1:0:0:0:
205,384,104568,38,0,P|220:358|216:317,3,52.5,2|2|2|0,3:0|3:0|3:0|3:0,0:0:0:0:
209,290,104925,2,0,P|193:264|156:246,3,52.5,2|2|2|2,3:0|3:0|3:0|3:0,0:0:0:0:
128,243,105282,37,14,3:0:0:0:
128,243,105461,1,0,0:0:0:0:
197,154,105639,2,0,L|329:123,2,112.5,0|0|12,3:0|3:0|3:0,3:0:0:0:
280,229,106175,1,0,0:0:0:0:
280,229,106353,2,0,L|412:198,1,112.5,0|0,3:0|3:0,3:0:0:0:
462,289,106711,6,0,P|494:235|472:147,1,112.5,12|0,3:0|3:0,3:0:0:0:
508,132,106978,1,0,0:0:0:0:
508,132,107068,2,0,P|477:77|390:52,1,112.5,2|2,3:0|3:0,0:0:0:0:
378,57,107336,1,0,3:0:0:0:
378,57,107425,1,12,3:0:0:0:
306,128,107603,1,8,3:0:0:0:
277,31,107782,2,0,L|217:52,3,56.25,2|2|2|2,3:0|3:0|3:0|3:0,0:0:0:0:
176,69,108139,37,12,3:0:0:0:
82,28,108318,1,0,0:0:0:0:
100,127,108496,2,0,L|106:239,1,112.5,0|0,3:0|3:0,3:0:0:0:
194,164,108853,5,12,3:0:0:0:
194,164,109032,1,8,3:0:0:0:
203,265,109211,2,0,L|209:377,1,112.5,0|0,3:0|0:0,3:0:0:0:
116,337,109568,38,0,P|175:299|288:308,1,168.75,12|0,1:0|2:0,1:0:0:0:
307,336,109925,6,0,P|390:341|461:299,1,168.75,12|0,1:0|2:0,1:0:0:0:
501,266,110282,38,0,P|445:262|397:290,1,112.5,12|0,1:0|0:0,1:0:0:0:
324,220,110639,6,0,P|329:198|326:163,3,56.25,0|0|0|0,3:0|3:0|3:0|3:0,0:0:0:0:
300,120,110996,38,0,B|287:62|287:62|300:6,2,112.5,12|0|0,3:0|3:0|3:0,0:0:0:0:
213,172,111532,2,0,B|226:230|226:230|214:281,2,112.5,4|0|0,3:0|3:0|3:0,0:0:0:0:
201,71,112068,2,0,P|130:102|120:191,1,168.75,8|0,3:0|0:0,3:0:0:0:
130,228,112425,6,0,P|84:216|10:250,1,112.5,8|0,1:0|0:0,1:0:0:0:
87,314,112782,2,0,P|133:326|207:292,1,112.5,8|0,1:0|0:0,1:0:0:0:
224,220,113139,1,8,1:0:0:0:
280,290,113318,1,0,0:0:0:0:
369,302,113496,2,0,B|397:296|397:296|433:308,3,56.25,0|0|0|0,3:0|0:0|3:0|0:0,0:0:0:0:
453,327,113853,37,12,1:0:0:0:
436,177,114211,5,0,3:0:0:0:
273,133,114568,38,0,L|365:115,1,93.75,8|8,3:0|3:0,3:0:0:0:
452,81,114925,1,8,3:0:0:0:
382,17,115103,2,0,L|228:47,1,140.625,8|0,1:0|2:0,1:0:0:0:
197,55,115461,1,8,1:0:0:0:
112,94,115639,2,0,P|137:130|191:145,1,93.75,8|8,1:0|3:0,1:0:0:0:
273,133,115996,5,8,1:0:0:0:
238,219,116175,1,0,3:0:0:0:
148,249,116353,2,0,L|31:229,2,112.5,12|0|4,3:0|3:0|3:0,3:0:0:0:
218,309,117068,38,0,L|412:342,1,168.75,8|0,1:0|2:0,3:0:0:0:
428,373,117425,1,8,3:0:0:0:
428,373,117603,1,8,3:0:0:0:
477,284,117782,1,8,3:0:0:0:
385,239,117961,2,0,P|354:173|382:84,1,168.75,8|0,1:0|2:0,1:0:0:0:
419,51,118318,1,0,1:0:0:0:
317,3,118496,2,0,P|281:33|262:111,1,112.500004291535,0|12,1:0|3:0,1:0:0:0:
256,192,118853,21,12,1:0:0:0:
