osu file format v14

[General]
AudioFilename: audio.mp3
AudioLeadIn: 0
PreviewTime: 51598
Countdown: 0
SampleSet: Soft
StackLeniency: 0.5
Mode: 0
LetterboxInBreaks: 0
WidescreenStoryboard: 1

[Editor]
DistanceSpacing: 1
BeatDivisor: 2
GridSize: 32
TimelineZoom: 2

[Metadata]
Title:Sakimori Souka
TitleUnicode:防人想歌
Artist:onoken feat. Natsukawa Yoko
ArtistUnicode:onoken feat. 夏川陽子
Creator:09kami
Version:Normal
Source:pop'n music うさぎと猫と少年の夢
Tags:yusomi jubeat japanese video game Ax 防人恋歌 Sakimori Renka Setu ShiratamaMyWife Original Soundtrack
BeatmapID:2838471
BeatmapSetID:1368487

[Difficulty]
HPDrainRate:2
CircleSize:3.3
OverallDifficulty:4
ApproachRate:5.5
SliderMultiplier:1
SliderTickRate:0.5

[Events]
//Background and Video events
0,0,"66567380_p0.png",0,0
//Break Periods
2,75666,85256
//Storyboard Layer 0 (Background)
//Storyboard Layer 1 (Fail)
//Storyboard Layer 2 (Pass)
//Storyboard Layer 3 (Foreground)
//Storyboard Layer 4 (Overlay)
//Storyboard Sound Samples

[TimingPoints]
667,357.142857142857,4,2,1,60,1,0
94952,-100,4,2,1,60,0,1
118881,-100,4,2,1,60,0,0

[Colours]
Combo1 : 0,85,0
Combo2 : 255,98,98
Combo3 : 11,73,176
Combo4 : 200,0,200

[HitObjects]
65,48,667,6,0,P|29:147|84:229,1,200,2|0,3:2|0:0,0:0:0:0:
168,255,1738,2,0,L|282:237,1,100,2|0,3:2|0:0,0:0:0:0:
364,220,2452,2,0,L|351:282,2,50,2|2|2,3:2|0:1|0:1,0:0:0:0:
457,255,3166,6,0,P|489:195|414:94,1,200,2|0,3:2|0:0,0:0:0:0:
325,67,4238,5,0,3:2:0:0:
300,111,4416,2,0,B|234:173|181:108|98:67|49:114,1,250,2|0,0:0|0:1,0:0:0:0:
51,202,5666,6,0,P|22:241|32:288,2,100,2|0|0,3:2|0:0|0:0,0:0:0:0:
134,257,6738,2,0,P|141:305|181:331,2,100,2|0|2,3:2|0:0|0:1,0:0:0:0:
226,219,7809,1,0,3:0:0:0:
295,290,8166,2,0,B|359:265|392:292|429:329|491:284,1,200,2|0,3:2|0:1,0:0:0:0:
497,168,9238,5,0,3:0:0:0:
477,122,9416,2,0,L|488:23,2,100,4|0|0,3:2|3:0|3:0,0:0:0:0:
447,162,10309,2,0,L|391:144,1,50,2|0,0:2|0:0,0:0:0:0:
349,144,10666,6,0,P|310:174|300:222,2,100,4|2|0,0:0|0:1|0:0,0:0:0:0:
447,162,11738,2,0,P|491:242|457:301,1,150
387,346,12631,2,0,B|317:320|287:356|223:329,1,150,8|2,0:3|0:2,0:0:0:0:
142,363,13524,5,4,0:0:0:0:
70,292,13881,1,2,0:1:0:0:
106,198,14238,2,0,L|86:123,2,50,0|2|2,0:0|0:1|0:1,0:0:0:0:
152,215,14774,2,0,L|299:231,1,100,4|8,0:1|0:3,0:0:0:0:
350,215,15488,6,0,L|330:290,2,50,2|2|2,0:1|0:0|0:1,0:0:0:0:
395,193,16024,2,0,L|373:88,2,100,4|2|0,0:0|0:1|0:0,0:0:0:0:
464,264,17095,2,0,P|415:280|365:368,1,150
265,366,17988,2,0,B|237:318|170:331|125:278,1,150,8|2,0:3|0:2,0:0:0:0:
105,196,18881,5,4,0:0:0:0:
164,116,19238,1,2,0:1:0:0:
261,138,19595,2,0,L|241:213,2,50,2|0|0,0:0|0:0|0:0,0:0:0:0:
251,88,20131,2,0,B|319:109|351:62|394:5|489:28,1,250,2|8,0:1|0:3,0:0:0:0:
473,126,21381,6,0,B|499:194|466:212|424:241|459:320,2,200,8|0|0,3:0|0:0|0:0,0:0:0:0:
287,200,23524,1,0,0:0:0:0:
235,114,23881,5,0,3:0:0:0:
22,118,25131,6,0,L|37:187,1,50,0|0,3:0|3:0,0:0:0:0:
77,344,26738,5,0,3:0:0:0:
235,114,27988,2,0,L|220:183,1,50,0|0,3:0|3:0,0:0:0:0:
315,322,29238,6,0,L|381:321,1,50,0|0,0:0|0:0,0:0:0:0:
409,344,29595,6,0,B|376:300|463:233|426:177,1,150,0|0,0:0|0:0,0:0:0:0:
453,154,30309,2,0,L|260:135,1,150,0|0,0:0|0:0,0:0:0:0:
261,111,31024,6,0,L|111:125,1,150
84,167,31738,2,0,B|55:198|142:265|112:306,1,150
90,351,32452,5,0,0:0:0:0:
15,284,32809,1,0,0:0:0:0:
42,187,33166,1,0,0:0:0:0:
142,184,33524,1,0,0:0:0:0:
200,265,33881,6,0,B|260:226|348:288|416:341|495:256,1,300,2|2,0:0|0:0,0:0:0:0:
494,168,35309,6,0,P|476:97|450:67,1,100,0|2,0:0|0:0,0:0:0:0:
364,45,36024,2,0,L|239:63,1,100,2|0,0:1|0:0,0:0:0:0:
169,29,36738,6,0,L|168:146,1,100,0|2,3:0|0:0,0:0:0:0:
81,179,37452,2,0,P|59:244|79:297,1,100,2|0,0:1|0:0,0:0:0:0:
146,331,38166,6,0,L|256:314,1,100,0|2,3:0|0:0,0:0:0:0:
342,337,38881,2,0,L|306:211,1,100,2|0,0:1|0:0,0:0:0:0:
328,141,39595,1,2,1:3:0:0:
328,141,40309,5,2,0:1:0:0:
278,150,40488,1,0,0:0:0:0:
228,157,40666,1,0,0:0:0:0:
178,163,40845,1,0,0:0:0:0:
133,140,41024,6,0,P|124:74|139:43,1,100,4|2,3:2|0:0,0:0:0:0:
237,27,41738,2,0,L|345:46,1,100,2|0,0:1|0:0,0:0:0:0:
430,13,42452,6,0,L|446:139,1,100,0|2,3:0|0:0,0:0:0:0:
470,208,43166,2,0,P|412:228|354:202,1,100,2|0,0:1|0:0,0:0:0:0:
288,170,43881,6,0,P|239:161|194:180,1,100,0|2,3:0|0:0,0:0:0:0:
119,247,44595,2,0,L|131:346,1,100,2|0,0:1|0:0,0:0:0:0:
231,352,45309,6,0,B|286:313|327:341|383:377|438:335,1,200,2|2,3:2|0:0,0:0:0:0:
482,263,46381,5,2,0:0:0:0:
464,164,46738,2,0,P|354:167|301:253,1,200,2|2,0:0|0:0,0:0:0:0:
261,323,47809,5,2,0:1:0:0:
164,347,48166,2,0,B|158:276|89:275|29:270|54:179,1,200,2|2,0:0|0:3,0:0:0:0:
116,127,49238,5,2,0:0:0:0:
201,178,49595,2,0,B|259:151|296:178|350:224|414:173,1,200,2|2,0:1|0:1,0:0:0:0:
472,123,50666,5,2,0:0:0:0:
406,47,51024,2,0,P|380:40|340:49,1,50,6|4,0:1|0:3,0:0:0:0:
309,58,51381,2,0,P|288:75|272:113,1,50,6|4,0:1|0:3,0:0:0:0:
259,141,51738,6,0,L|273:264,1,100,2|2,3:2|3:2,0:0:0:0:
317,328,52452,2,0,B|243:343|213:312|173:280|95:338,1,200,2|2,0:1|0:1,0:0:0:0:
42,262,53524,5,2,0:0:0:0:
95,177,53881,2,0,L|308:216,1,200,2|2,3:1|3:1,0:0:0:0:
383,174,54952,5,2,0:0:0:0:
376,223,55131,1,0,0:0:0:0:
401,266,55309,1,2,0:1:0:0:
476,200,55666,5,2,0:0:0:0:
470,151,55845,1,0,0:0:0:0:
435,116,56023,1,2,0:1:0:0:
336,99,56381,6,0,L|264:88,1,50,2|2,0:0|0:1,0:0:0:0:
249,58,56738,2,0,B|198:144|296:200|241:285,1,200,2|2,3:1|3:1,0:0:0:0:
196,332,57809,5,2,0:0:0:0:
102,368,58166,1,2,0:1:0:0:
19,311,58524,1,2,0:2:0:0:
24,211,58881,1,2,0:1:0:0:
105,153,59238,1,2,0:0:0:0:
193,199,59595,6,0,B|225:184|248:199|265:214|296:191,1,100,2|2,0:1|0:0,0:0:0:0:
377,146,60309,2,0,B|358:170|372:186|388:210|373:242,1,100,2|2,0:1|0:0,0:0:0:0:
410,335,61024,6,0,B|385:353|369:339|345:323|313:338,1,100,2|2,0:0|0:1,0:0:0:0:
221,376,61738,1,6,0:0:0:0:
134,326,62095,2,0,B|86:237|173:212|159:135,1,200,2|2,0:1|0:1,0:0:0:0:
92,62,63166,6,0,P|58:115|69:157,1,100,2|2,3:2|3:2,0:0:0:0:
152,185,63881,2,0,B|225:213|247:191|303:156|357:185,1,200,2|2,0:1|0:1,0:0:0:0:
401,96,64952,1,2,0:0:0:0:
472,165,65309,2,0,B|470:234|430:267|379:276|366:352,1,200,2|2,3:1|3:1,0:0:0:0:
276,361,66381,5,2,0:0:0:0:
228,376,66559,1,2,0:1:0:0:
179,364,66738,1,2,0:1:0:0:
122,281,67095,5,2,0:0:0:0:
170,266,67273,1,2,0:1:0:0:
219,278,67452,1,2,0:1:0:0:
300,219,67809,6,0,L|310:159,1,50,2|2,0:0|0:1,0:0:0:0:
328,123,68166,2,0,B|242:174|186:76|101:131,1,200,2|2,3:1|3:1,0:0:0:0:
41,154,69237,5,2,0:0:0:0:
9,249,69594,1,2,0:1:0:0:
43,343,69952,1,2,0:1:0:0:
139,367,70309,1,2,0:2:0:0:
222,312,70666,1,2,0:1:0:0:
213,212,71024,6,0,L|70:223,2,100,2|2|2,0:0|0:1|0:0,0:0:0:0:
268,128,72095,1,2,0:1:0:0:
365,148,72452,2,0,P|386:211|382:254,2,100,4|4|2,3:1|1:0|0:0,0:0:0:0:
405,56,73524,5,0,0:0:0:0:
415,32,73702,2,0,B|319:12|291:38|236:69|131:38,1,250,2|2,0:1|0:1,0:0:0:0:
210,242,75309,5,6,0:0:0:0:
168,46,86381,5,2,0:1:0:0:
168,46,86738,2,0,P|101:100|149:206,1,200,2|2,0:0|0:0,0:0:0:0:
166,290,87809,1,2,0:1:0:0:
255,245,88166,2,0,B|326:223|348:239|401:290|459:250,1,200,2|2,0:0|0:0,0:0:0:0:
488,164,89238,1,2,0:1:0:0:
451,70,89595,6,0,B|386:38|330:121|235:63,1,200,2|2,0:0|0:0,0:0:0:0:
165,31,90666,1,2,0:1:0:0:
256,192,91024,12,2,92452,0:0:0:0:
256,73,94952,6,0,L|263:154,1,50,6|0,0:0|0:0,0:0:0:0:
265,172,95309,2,0,L|130:161,2,100,6|6|6,3:1|3:1|3:1,0:0:0:0:
302,264,96381,5,2,0:0:0:0:
254,279,96559,1,2,0:1:0:0:
205,267,96738,1,2,0:1:0:0:
154,353,97095,5,2,0:0:0:0:
106,338,97273,1,2,0:1:0:0:
57,350,97452,1,2,0:1:0:0:
34,253,97809,6,0,L|45:195,1,50,2|2,0:0|0:1,0:0:0:0:
79,169,98166,2,0,L|61:48,2,100,2|2|2,3:1|3:2|3:1,0:0:0:0:
136,251,99238,5,2,0:0:0:0:
235,240,99595,1,2,0:1:0:0:
281,151,99952,1,2,0:0:0:0:
371,107,100309,1,2,0:1:0:0:
468,127,100666,1,2,0:0:0:0:
494,223,101024,6,0,P|489:273|446:335,1,100,2|2,0:1|0:0,0:0:0:0:
386,255,101738,2,0,P|347:286|272:300,1,100,2|2,0:1|0:0,0:0:0:0:
256,210,102452,2,0,B|192:235|152:202|108:175|41:221,2,200,2|6|2,0:1|0:1|0:1,0:0:0:0:
301,120,104238,1,2,0:0:0:0:
258,29,104595,6,0,L|122:47,1,100,2|2,3:2|3:2,0:0:0:0:
59,56,105310,2,0,B|31:129|53:151|88:207|59:261,1,200,6|2,0:1|0:1,0:0:0:0:
22,342,106381,1,2,0:0:0:0:
118,367,106738,2,0,B|172:324|223:333|262:366|329:327,1,200,6|2,3:1|3:1,0:0:0:0:
407,356,107809,5,2,0:0:0:0:
438,317,107988,1,0,0:0:0:0:
433,267,108166,1,2,0:1:0:0:
463,171,108524,5,2,0:0:0:0:
437,127,108702,1,0,0:0:0:0:
387,119,108881,1,2,0:1:0:0:
359,215,109238,6,0,L|299:225,1,50,2|2,0:0|0:1,0:0:0:0:
266,249,109595,2,0,B|274:149|161:141|173:41,1,200,2|2,3:1|3:1,0:0:0:0:
77,54,110666,5,2,0:0:0:0:
63,153,111024,2,0,L|-1:131,2,50,2|2|2,0:0|0:1|0:1,0:0:0:0:
80,272,111738,2,0,L|170:224,1,100,2|2,0:0|0:1,0:0:0:0:
199,130,112453,6,0,L|86:60,2,100,2|2|0,0:0|0:1|0:0,0:0:0:0:
272,62,113524,1,2,0:1:0:0:
374,83,113881,2,0,P|395:146|391:189,2,100,6|6|6,3:1|3:1|3:1,0:0:0:0:
296,146,114953,5,2,0:0:0:0:
250,165,115131,2,0,B|194:124|144:176|88:261|10:160,1,250,2|2,0:1|0:0,0:0:0:0:
15,75,116381,5,2,0:0:0:0:
103,26,116738,2,0,L|223:51,2,100,6|6|6,0:1|0:1|0:1,0:0:0:0:
115,125,117809,5,2,0:0:0:0:
65,133,117988,2,0,B|27:215|182:234|96:374,1,250,0|2,0:0|3:1,0:0:0:0:
