osu file format v14

[General]
AudioFilename: audio.mp3
AudioLeadIn: 0
PreviewTime: 60549
Countdown: 0
SampleSet: Soft
StackLeniency: 0.7
Mode: 0
LetterboxInBreaks: 0
EpilepsyWarning: 1
WidescreenStoryboard: 1

[Editor]
Bookmarks: 12425,32425,49925,61175,81175,101175,111175,128675,139925,159925,179925,189925,199925,211591,221591,231591,251591,274091
DistanceSpacing: 1.2
BeatDivisor: 4
GridSize: 16
TimelineZoom: 1.7

[Metadata]
Title:Mayoi Zuki
TitleUnicode:まよいづき
Artist:onoken feat. Misaki
ArtistUnicode:onoken feat. 実咲
Creator:Firika
Version:wyrinn's Collab Insane
Source:DEEMO -Reborn-
Tags:Testimony 2 Cytus Rin wyrio sinn japanese electronic piano Mayoizuki Golden Sheet Collection video game Rayark pop jpop
BeatmapID:2273790
BeatmapSetID:1087208

[Difficulty]
HPDrainRate:4
CircleSize:4.7
OverallDifficulty:7
ApproachRate:7.5
SliderMultiplier:1.6
SliderTickRate:1

[Events]
//Background and Video events
0,0,"68445.jpg",0,0
//Break Periods
2,180125,187850
2,211791,220766
//Storyboard Layer 0 (Background)
//Storyboard Layer 1 (Fail)
//Storyboard Layer 2 (Pass)
//Storyboard Layer 3 (Foreground)
//Storyboard Layer 4 (Overlay)
//Storyboard Sound Samples

[TimingPoints]
2425,416.666666666667,6,2,2,20,1,0
2425,-133.333333333333,4,2,2,20,0,0
6175,-125,4,2,2,20,0,0
8466,-133.333333333333,4,2,2,20,0,0
11175,-250,4,2,2,20,0,0
11591,-250,4,2,2,5,0,0
12008,-250,4,2,2,20,0,0
12841,-133.333333333333,4,2,2,20,0,0
13675,-125,4,2,2,20,0,0
14925,-166.666666666667,4,2,2,20,0,0
17841,-133.333333333333,4,2,2,20,0,0
18675,-125,4,2,2,20,0,0
19925,-166.666666666667,4,2,2,20,0,0
23675,-133.333333333333,4,2,2,20,0,0
24925,-117.647058823529,4,2,2,20,0,0
26175,-250,4,2,2,20,0,0
27425,-117.647058823529,4,2,2,20,0,0
28675,-105.263157894737,4,2,2,20,0,0
29925,-100,4,2,2,20,0,0
31175,-250,4,2,2,20,0,0
32841,-133.333333333333,4,2,2,20,0,0
33675,-125,4,2,2,20,0,0
34925,-166.666666666667,4,2,2,20,0,0
37841,-133.333333333333,4,2,2,20,0,0
38675,-125,4,2,2,20,0,0
39925,-166.666666666667,4,2,2,20,0,0
43258,-133.333333333333,4,2,2,20,0,0
43675,-111.111111111111,4,2,2,20,0,0
44925,-100,4,2,2,20,0,0
46175,-90.9090909090909,4,2,2,20,0,0
47425,-250,4,2,2,20,0,0
50341,-133.333333333333,4,2,2,20,0,0
50758,-100,4,2,2,20,0,0
51175,-83.3333333333333,4,2,2,20,0,0
52425,-133.333333333333,4,2,2,20,0,0
53675,-76.9230769230769,4,2,2,20,0,0
54300,-133.333333333333,4,2,2,20,0,0
54925,-90.9090909090909,4,2,2,20,0,0
55758,-133.333333333333,4,2,2,20,0,0
57841,-100,4,2,2,20,0,0
58258,-80,4,2,2,20,0,0
58675,-166.666666666667,4,2,2,20,0,0
61175,416.666666666667,6,2,2,50,1,1
61175,-80,6,2,2,50,0,1
62008,-133.333333333333,6,2,2,50,0,1
62425,-80,6,2,2,50,0,1
65758,-133.333333333333,6,2,2,50,0,1
66175,-80,6,2,2,50,0,1
67008,-133.333333333333,6,2,2,50,0,1
67425,-80,6,2,2,50,0,1
68570,-80,6,2,2,5,0,1
68675,-80,6,2,2,50,0,1
69091,-66.6666666666667,6,2,2,50,0,1
69508,-57.1428571428571,6,2,2,50,0,1
70237,-57.1428571428571,6,2,2,5,0,1
70341,-57.1428571428571,6,2,2,50,0,1
71175,-80,6,2,2,50,0,1
73570,-80,6,2,2,5,0,1
73675,-80,6,2,2,50,0,1
76487,-80,6,2,2,5,0,1
76591,-80,6,2,2,50,0,1
77841,-66.6666666666667,6,2,2,50,0,1
78258,-57.1428571428571,6,2,2,50,0,1
79091,-80,6,2,2,50,0,1
80966,-80,6,2,2,50,0,0
81175,-80,6,2,2,50,0,1
82008,-133.333333333333,6,2,2,50,0,1
82425,-80,6,2,2,50,0,1
87008,-133.333333333333,6,2,2,50,0,1
87425,-80,6,2,2,50,0,1
89508,-66.6666666666667,6,2,2,50,0,1
89925,-57.1428571428571,6,2,2,50,0,1
91175,-80,6,2,2,50,0,1
93570,-80,6,2,2,5,0,1
93675,-80,6,2,2,50,0,1
96487,-80,6,2,2,5,0,1
96591,-80,6,2,2,50,0,1
100341,-133.333333333333,6,2,2,50,0,1
101175,-133.333333333333,6,2,2,20,0,0
104925,-125,6,2,2,20,0,0
105550,-133.333333333333,6,2,2,20,0,0
109508,-166.666666666667,6,2,2,20,0,0
109977,-250.000000000001,6,2,2,20,0,0
110341,-250.000000000001,6,2,2,5,0,0
111175,-133.333333333333,6,2,2,20,0,0
112425,-125,6,2,2,20,0,0
113570,-125,6,2,2,5,0,0
113675,-166.666666666667,6,2,2,20,0,0
115758,-133.333333333333,6,2,2,20,0,0
117425,-125,6,2,2,20,0,0
118675,-166.666666666667,6,2,2,20,0,0
122008,-133.333333333333,6,2,2,20,0,0
126070,-133.333333333333,6,2,2,5,0,0
126175,-133.333333333333,6,2,2,20,0,0
129925,-100,6,2,2,20,0,0
130758,-133.333333333333,6,2,2,20,0,0
132008,-100,6,2,2,20,0,0
132425,-76.9230769230769,6,2,2,20,0,0
133050,-133.333333333333,6,2,2,20,0,0
136591,-100,6,2,2,20,0,0
137008,-80,6,2,2,20,0,0
137425,-166.666666666667,6,2,2,20,0,0
139925,416.666666666667,6,2,2,50,1,1
139925,-76.9230769230769,6,2,2,50,0,1
141591,-71.4285714285714,6,2,2,50,0,1
142425,-166.666666666667,6,2,2,50,0,1
143675,-66.6666666666667,6,2,2,50,0,1
144925,-76.9230769230769,6,2,2,50,0,1
146591,-71.4285714285714,6,2,2,50,0,1
147425,-100,6,2,2,50,0,1
148675,-66.6666666666667,6,2,2,50,0,1
149925,-76.9230769230769,6,2,2,50,0,1
150341,-100,6,2,2,50,0,1
150758,-133.333333333333,6,2,2,50,0,1
151175,-100,6,2,2,50,0,1
151591,-133.333333333333,6,2,2,50,0,1
152008,-200,6,2,2,50,0,1
152425,-71.4285714285714,6,2,2,50,0,1
153675,-83.3333333333333,6,2,2,50,0,1
154925,-76.9230769230769,6,2,2,50,0,1
155237,-76.9230769230769,6,2,2,5,0,1
155341,-133.333333333333,6,2,2,50,0,1
156175,-76.9230769230769,6,2,2,50,0,1
156487,-76.9230769230769,6,2,2,5,0,1
156591,-133.333333333333,6,2,2,50,0,1
158050,-100,6,2,2,50,0,1
159716,-76.9230769230769,6,2,2,50,0,0
159925,-76.9230769230769,6,2,2,50,0,1
161591,-71.4285714285714,6,2,2,50,0,1
162425,-166.666666666667,6,2,2,50,0,1
163675,-66.6666666666667,6,2,2,50,0,1
164925,-76.9230769230769,6,2,2,50,0,1
166591,-69.4444444444444,6,2,2,50,0,1
167425,-100,6,2,2,50,0,1
168675,-71.4285714285714,6,2,2,50,0,1
169925,-76.9230769230769,6,2,2,50,0,1
170341,-100,6,2,2,50,0,1
170758,-133.333333333333,6,2,2,50,0,1
171175,-100,6,2,2,50,0,1
171591,-133.333333333333,6,2,2,50,0,1
172008,-200,6,2,2,50,0,1
172425,-76.9230769230769,6,2,2,50,0,1
173675,-100,6,2,2,50,0,1
174925,-76.9230769230769,6,2,2,50,0,1
175237,-76.9230769230769,6,2,2,5,0,1
175341,-133.333333333333,6,2,2,50,0,1
176175,-76.9230769230769,6,2,2,50,0,1
176487,-76.9230769230769,6,2,2,5,0,1
176591,-133.333333333333,6,2,2,50,0,1
179925,-166.666666666667,6,2,2,20,0,0
191175,-166.666666666667,6,2,2,20,0,0
192425,-100,6,2,2,20,0,0
196175,-166.666666666667,6,2,2,20,0,0
197425,-100,6,2,2,20,0,0
199925,-100,6,2,2,50,0,0
201175,-83.3333333333333,6,2,2,50,0,0
202008,-100,6,2,2,50,0,0
203675,-83.3333333333333,6,2,2,50,0,0
205758,-133.333333333333,6,2,2,50,0,0
206175,-100,6,2,2,50,0,0
206800,-100,6,2,2,50,0,0
209508,-250,6,2,2,50,0,0
209716,-250,6,2,2,20,0,0
211591,416.666666666667,6,2,2,20,1,0
221591,-166.666666666667,6,2,2,20,0,0
228257,-133.333333333333,6,2,2,20,0,0
228674,-111.111111111111,6,2,2,20,0,0
228986,-111.111111111111,6,2,2,5,0,0
229091,-111.111111111111,6,2,2,20,0,0
229507,-111.111111111111,6,2,2,35,0,0
231591,-76.9230769230769,6,2,2,50,0,1
233257,-71.4285714285714,6,2,2,50,0,1
234091,-166.666666666667,6,2,2,50,0,1
235341,-66.6666666666667,6,2,2,50,0,1
236591,-76.9230769230769,6,2,2,50,0,1
238257,-71.4285714285714,6,2,2,50,0,1
238986,-71.4285714285714,6,2,2,5,0,1
239091,-100,6,2,2,50,0,1
240341,-66.6666666666667,6,2,2,50,0,1
241486,-66.6666666666667,6,2,2,5,0,1
241591,-76.9230769230769,6,2,2,50,0,1
242007,-100,6,2,2,50,0,1
242424,-133.333333333333,6,2,2,50,0,1
242841,-100,6,2,2,50,0,1
243257,-133.333333333333,6,2,2,50,0,1
243674,-200,6,2,2,50,0,1
244091,-71.4285714285714,6,2,2,50,0,1
245341,-83.3333333333333,6,2,2,50,0,1
246591,-76.9230769230769,6,2,2,50,0,1
246903,-76.9230769230769,6,2,2,5,0,1
247007,-133.333333333333,6,2,2,50,0,1
247841,-76.9230769230769,6,2,2,50,0,1
248153,-76.9230769230769,6,2,2,5,0,1
248257,-133.333333333333,6,2,2,50,0,1
249924,-100,6,2,2,50,0,1
250236,-100,6,2,2,5,0,1
250341,-100,6,2,2,50,0,1
251382,-100,6,2,2,50,0,0
251591,-100,6,2,2,50,0,0
260757,-83.3333333333333,6,2,2,50,0,0
261174,-71.4285714285714,6,2,2,50,0,0
261591,-100,6,2,2,50,0,0
269091,-200,6,2,2,20,0,0
270445,-1000,6,2,2,20,0,0
270549,-1000,6,2,2,5,0,0

[Colours]
Combo1 : 0,159,255
Combo2 : 243,181,75
Combo3 : 127,127,127
Combo4 : 103,202,148
Combo5 : 191,191,191
Combo6 : 228,69,69
Combo7 : 219,100,159
Combo8 : 244,186,11

[HitObjects]
77,88,2425,21,0,3:0:0:0:
88,91,2841,1,2,0:0:0:0:
210,61,3258,1,2,0:0:0:0:
280,100,3675,22,0,P|265:154|235:283,1,180.000006866455,2|0,0:0|0:0,0:0:0:0:
295,337,4508,1,2,0:0:0:0:
410,209,4925,85,0,3:0:0:0:
426,218,5341,1,2,0:0:0:0:
297,127,5758,1,2,0:0:0:0:
350,38,6175,22,0,P|441:26|498:51,1,128,2|0,0:0|0:0,0:0:0:0:
501,153,6800,1,2,0:0:0:0:
497,178,7008,1,2,0:0:0:0:
378,306,7425,85,0,3:0:0:0:
384,316,7841,1,2,0:0:0:0:
492,291,8258,1,2,0:0:0:0:
454,360,8675,22,0,B|345:385|368:312|273:342,1,180.000006866455,2|0,0:0|0:0,0:0:0:0:
204,351,9508,1,2,0:0:0:0:
204,351,9925,86,0,P|158:336|144:335,1,60.0000022888184,2|0,0:0|0:0,0:0:0:0:
269,237,10341,2,0,P|307:218|329:216,1,60.0000022888184,2|0,0:0|0:0,0:0:0:0:
136,175,10758,2,0,P|91:161|62:159,1,60.0000022888184,2|0,0:0|0:0,0:0:0:0:
241,31,11227,22,0,P|269:17|294:12,1,56,2|0,0:0|0:0,0:0:0:0:
347,53,12008,1,0,0:0:0:0:
48,2,12425,85,2,3:1:0:0:
276,111,12841,6,0,P|308:205|319:252,1,120.000004577637,2|2,3:2|3:2,0:0:0:0:
287,311,13466,1,2,3:2:0:0:
411,365,13675,2,0,P|466:349|460:212,1,192,2|2,3:2|3:2,0:0:0:0:
411,177,14508,1,2,3:2:0:0:
41,144,14925,2,0,P|76:92|100:13,2,143.999995605469,2|2|2,3:2|3:2|3:2,0:0:0:0:
134,384,17425,1,2,0:1:0:0:
356,304,17841,102,0,P|357:267|337:222,1,60.0000022888184,2|0,3:2|0:0,0:0:0:0:
462,250,18258,2,0,L|481:182,1,60.0000022888184,2|0,3:2|0:0,0:0:0:0:
360,157,18675,2,0,B|241:170|320:242|165:223,1,192,2|2,3:2|3:2,0:0:0:0:
133,171,19508,1,2,3:2:0:0:
360,15,19925,2,0,B|458:39|396:61|486:77,2,143.999995605469,2|2|2,3:2|3:2|3:2,0:0:0:0:
90,114,22425,1,2,3:1:0:0:
248,352,23466,5,0,3:0:0:0:
329,356,23675,2,0,P|349:307|256:245,1,180.000006866455,2|0,3:2|3:0,0:0:0:0:
139,365,24508,2,0,P|113:326|104:288,1,60.0000022888184,2|0,3:2|0:0,0:0:0:0:
186,169,24925,2,0,B|212:204|195:275|62:299|28:197|88:59|140:180|194:67,1,340.000006484985,2|2,3:2|3:2,0:0:0:0:
255,55,26175,102,0,P|241:18|221:-5,2,64,2|2|2,3:2|3:2|3:2,0:0:0:0:
367,247,27425,6,0,P|410:234|317:126,1,272.000005187988,2|2,3:2|3:2,0:0:0:0:
88,323,28675,2,0,P|13:298|136:219,1,303.999991882324,2|2,3:2|3:2,0:0:0:0:
412,376,29925,2,0,B|494:373|520:310|520:310|541:258|519:188|471:174|471:174|412:221|435:277,1,400,2|2,3:2|0:0,0:0:0:0:
412,376,31175,102,0,P|454:388|478:383,2,64,2|2|2,0:0|0:0|0:0,0:0:0:0:
219,153,32425,1,2,0:1:0:0:
154,208,32841,6,0,P|99:190|28:176,1,120.000004577637,2|2,3:2|3:2,0:0:0:0:
22,94,33466,1,2,0:0:0:0:
156,15,33675,2,0,P|228:54|205:164,1,192,2|2,3:2|3:2,0:0:0:0:
154,208,34508,1,2,3:2:0:0:
477,298,34925,2,0,P|416:321|334:371,2,143.999995605469,2|2|2,3:2|3:2|3:2,0:0:0:0:
408,95,37008,1,2,0:0:0:0:
366,29,37216,1,2,0:0:0:0:
443,24,37425,1,2,3:1:0:0:
297,66,37841,102,0,L|282:139,1,60.0000022888184,2|0,3:2|0:0,0:0:0:0:
355,245,38258,2,0,P|364:278|371:311,1,60.0000022888184,2|2,3:2|0:0,0:0:0:0:
512,291,38675,2,0,B|403:317|477:375|349:385,1,192,2|2,3:2|3:2,0:0:0:0:
295,338,39508,1,2,3:2:0:0:
40,94,39925,2,0,B|138:108|66:135|172:148,2,143.999995605469,2|2|2,3:2|3:2|3:2,0:0:0:0:
218,360,42008,1,2,0:0:0:0:
218,360,42216,1,0,0:1:0:0:
218,360,42425,1,2,0:1:0:0:
367,84,43050,1,2,0:0:0:0:
439,67,43258,6,0,P|435:27|424:-7,1,60.0000022888184,2|2,3:2|0:0,0:0:0:0:
393,223,43675,2,0,P|382:143|321:249,1,287.999991210938,2|2,3:2|0:0,0:0:0:0:
237,336,44716,1,2,3:2:0:0:
82,346,44925,102,0,B|90:302|77:267|77:267|37:242|-14:258,1,160,2|0,3:2|0:0,0:0:0:0:
36,148,45550,2,0,B|70:176|106:183|106:183|148:161|160:108,1,160,2|0,3:2|0:0,0:0:0:0:
221,192,46175,2,0,P|192:247|196:280,1,88.000002685547,2|0,3:2|0:0,0:0:0:0:
383,253,46591,2,0,B|444:240|444:144|359:146|314:167|355:216|328:252|252:251,1,264.000008056641,2|2,3:2|3:2,0:0:0:0:
245,325,47425,6,0,P|260:360|271:397,2,64,2|2|2,3:2|3:2|3:2,0:0:0:0:
277,136,48675,1,2,3:2:0:0:
316,71,49091,1,2,3:2:0:0:
390,91,49508,1,2,0:0:0:0:
478,99,49925,2,0,L|493:58,1,32,2|0,0:1|0:0,0:0:0:0:
406,178,50341,102,0,P|391:137|367:106,1,60.0000022888184,2|0,3:2|0:0,0:0:0:0:
380,314,50758,2,0,P|337:289|294:284,1,80,2|2,3:2|0:0,0:0:0:0:
56,270,51175,2,0,P|34:190|160:254,1,287.999991210938,2|2,3:2|3:2,0:0:0:0:
197,314,52008,1,2,3:2:0:0:
431,148,52425,6,0,P|457:22|461:10,2,120.000004577637,2|2|2,3:2|3:2|3:2,0:0:0:0:
293,288,53675,2,0,B|231:282|200:311|200:311|156:353|75:335,1,207.999990478516,2|2,3:2|0:0,0:0:0:0:
34,282,54300,2,0,P|56:232|58:201,1,60.0000022888184,2|0,3:2|0:0,0:0:0:0:
150,173,54716,1,2,3:2:0:0:
0,42,54925,102,0,B|52:49|89:76|89:76|150:90|191:67|191:67|172:38|134:41,1,264.000008056641,2|2,3:2|0:0,0:0:0:0:
67,148,55758,2,0,P|85:199|92:232,1,60.0000022888184,2|2,3:2|3:2,0:0:0:0:
264,125,56175,2,0,P|283:60|301:9,1,120.000004577637,2|0,3:2|0:0,0:0:0:0:
369,47,56800,1,2,3:2:0:0:
464,113,57008,2,0,L|440:46,1,60.0000022888184,2|0,3:2|0:0,0:0:0:0:
342,253,57425,6,0,P|361:200|363:172,1,60.0000022888184,2|0,3:2|0:0,0:0:0:0:
247,290,57841,2,0,P|282:340|323:360,1,80,2|0,3:2|0:0,0:0:0:0:
264,188,58258,2,0,P|209:178|147:219,1,100,2|0,3:2|0:0,0:0:0:0:
297,349,58675,102,0,B|435:345|348:293|476:296,1,191.999994140625,2|0,3:2|0:0,0:0:0:0:
507,370,59820,1,2,0:3:0:0:
507,370,59925,21,0,1:0:0:0:
417,229,60133,1,2,0:3:0:0:
421,214,60550,85,0,3:0:0:0:
482,96,60758,1,2,0:2:0:0:
415,33,60966,1,2,0:2:0:0:
332,120,61175,38,0,B|268:88|212:111|212:111|194:147|125:151,1,200,6|2,1:2|3:2,0:0:0:0:
35,94,61800,1,0,0:0:0:0:
93,161,62008,2,0,P|117:162|156:141,1,60.0000022888184,2|0,3:2|1:0,0:0:0:0:
267,177,62425,102,0,P|237:218|241:272,1,100,8|0,0:3|0:0,0:0:0:0:
385,298,62841,2,0,B|253:294|331:358|195:360,1,200,2|0,3:2|3:0,0:0:0:0:
131,325,63466,1,8,0:1:0:0:
31,226,63675,6,0,B|5:166|47:108|47:108|98:125|89:171,1,200,2|2,1:2|1:2,0:0:0:0:
31,226,64300,1,8,0:1:0:0:
179,185,64508,2,0,P|131:190|87:156,1,100,2|8,0:1|0:1,0:0:0:0:
207,65,64925,102,0,B|266:120|234:196|234:196|168:182,1,200,8|0,0:3|3:0,0:0:0:0:
91,161,65550,1,2,0:1:0:0:
207,65,65758,2,0,L|275:52,1,60.0000022888184,2|2,3:2|0:2,0:0:0:0:
487,54,66175,6,0,B|363:82|363:82|348:119|296:131,1,200,2|2,1:2|3:2,0:0:0:0:
202,218,66800,1,0,0:0:0:0:
252,145,67008,2,0,L|310:127,1,60.0000022888184,2|2,3:2|0:1,0:0:0:0:
435,177,67425,102,0,P|403:160|423:198,1,100,8|0,0:3|0:0,0:0:0:0:
484,272,67841,2,0,P|438:267|387:294,1,100,2|0,3:2|0:0,0:0:0:0:
301,282,68258,2,0,B|348:333|328:398|268:391|290:336,1,150,0|0,3:0|0:0,0:0:0:0:
301,282,68675,6,0,B|317:247|304:212|304:212|301:228|291:239,1,100,2|0,1:2|0:0,0:0:0:0:
166,147,69091,2,0,B|188:178|230:185|230:185|212:174|201:148,1,120.000004577637,2|8,3:0|1:0,0:0:0:0:
347,87,69508,2,0,B|308:90|272:127|272:127|300:114|335:117,1,140.000001335144,2|8,3:2|0:1,0:0:0:0:
419,190,69925,102,0,B|475:240|463:314|420:327|365:308|385:248,1,210.000002002716,8|0,0:3|0:0,0:0:0:0:
382,258,70341,1,2,0:1:0:0:
315,283,70550,1,0,3:0:0:0:
261,180,70758,1,0,1:0:0:0:
328,205,70967,1,2,0:2:0:0:
416,116,71175,6,0,B|355:102|355:102|321:122,1,100,2|0,1:2|0:0,0:0:0:0:
162,185,71591,2,0,B|222:198|222:198|256:178,1,100,2|8,3:2|0:1,0:0:0:0:
239,84,72008,1,2,1:2:0:0:
239,84,72216,1,0,0:0:0:0:
255,179,72425,102,0,B|222:198|222:198|162:185,1,100,8|0,0:3|0:0,0:0:0:0:
322,121,72841,2,0,B|355:102|355:102|416:116,1,100,2|8,3:2|0:1,0:0:0:0:
297,235,73258,2,0,B|253:264|253:264|275:359,1,150,2|0,3:2|0:0,0:0:0:0:
338,303,73675,6,0,B|295:303|266:285|266:285|226:306|226:306|187:290|133:303,1,200,2|0,1:2|3:0,0:0:0:0:
148,300,74300,1,2,1:2:0:0:
199,202,74508,1,2,0:1:0:0:
135,95,74716,1,2,0:2:0:0:
188,217,74925,102,0,B|313:208|232:151|373:147,1,200,8|0,0:3|3:0,0:0:0:0:
367,147,75550,1,2,0:1:0:0:
507,248,75758,2,0,P|476:217|420:213,1,100,0|2,1:0|0:2,0:0:0:0:
306,289,76175,6,0,P|327:349|370:299,1,150,2|0,1:2|0:0,0:0:0:0:
306,289,76591,2,0,B|171:278|248:351|122:347,1,200,2|0,1:2|3:0,0:0:0:0:
124,347,77216,1,2,0:1:0:0:
7,274,77425,102,0,B|34:256|58:259|58:259|80:274|106:271,1,100,8|0,0:3|0:0,0:0:0:0:
158,96,77841,2,0,B|160:133|143:156|143:156|115:169|103:197,1,120.000004577637,2|8,3:2|0:1,0:0:0:0:
244,336,78258,2,0,B|199:314|185:280|185:280|188:240|165:208,1,140.000001335144,2|8,3:2|0:1,0:0:0:0:
158,96,78675,6,0,B|211:136|299:128|303:31|303:31|277:61|228:69,1,280.000002670288,2|2,1:2|3:0,0:0:0:0:
236,67,79300,1,8,1:0:0:0:
280,188,79508,1,2,3:0:0:0:
403,209,79716,1,8,0:1:0:0:
486,115,79925,102,0,B|505:84|493:55|493:55|449:43,1,100,10|0,3:0|1:0,0:0:0:0:
388,84,80341,1,2,0:0:0:0:
480,126,80550,1,8,0:0:0:0:
445,220,80758,37,2,1:2:0:0:
384,71,80967,1,2,1:2:0:0:
491,268,81175,86,0,B|415:252|415:252|372:270|372:270|293:254,1,200,6|2,1:2|3:2,0:0:0:0:
182,312,81800,1,8,0:1:0:0:
240,261,82008,2,0,P|266:252|304:257,1,60.0000022888184,2|0,3:2|1:0,0:0:0:0:
417,346,82425,102,0,B|389:321|389:321|397:252,1,100,8|0,0:3|0:0,0:0:0:0:
506,190,82841,2,0,B|386:188|440:129|317:126,1,200,2|0,3:2|3:0,0:0:0:0:
251,182,83466,1,8,0:1:0:0:
89,32,83675,6,0,P|175:25|223:136,1,200,2|2,1:2|1:2,0:0:0:0:
171,230,84300,1,8,0:1:0:0:
47,137,84508,2,0,P|84:111|140:108,1,100,2|8,0:1|0:1,0:0:0:0:
171,230,84925,102,0,B|218:280|218:280|347:313,1,200,8|0,0:3|3:0,0:0:0:0:
345,312,85550,1,2,0:1:0:0:
487,259,85758,2,0,L|387:236,1,100,2|2,3:2|0:2,0:0:0:0:
221,172,86175,6,0,B|363:158|363:158|336:170|318:198,1,200,2|2,1:2|3:2,0:0:0:0:
259,310,86800,1,0,0:0:0:0:
308,251,87008,2,0,P|321:225|319:192,1,60.0000022888184,2|2,3:2|0:1,0:0:0:0:
237,102,87425,102,0,B|297:96|297:96|330:66,1,100,8|0,0:3|0:0,0:0:0:0:
505,49,87841,2,0,B|441:40|441:40|387:83|417:165,1,200,2|0,3:2|3:0,0:0:0:0:
460,242,88466,1,8,0:1:0:0:
243,190,88675,6,0,B|294:173|335:211|335:211|354:165|422:163,1,200,2|2,1:2|3:0,0:0:0:0:
319,117,89300,1,8,1:0:0:0:
271,275,89508,2,0,P|236:319|260:374,1,120.000004577637,2|8,3:2|0:1,0:0:0:0:
243,190,89925,102,0,P|171:83|62:157,1,280.000002670288,8|2,0:3|0:1,0:0:0:0:
64,148,90550,1,8,0:1:0:0:
100,214,90758,1,0,1:0:0:0:
25,299,90966,1,2,0:2:0:0:
73,355,91175,6,0,L|171:330,1,100,2|0,1:2|0:0,0:0:0:0:
349,148,91591,2,0,L|251:173,1,100,2|2,3:2|0:1,0:0:0:0:
206,262,92008,1,2,1:2:0:0:
206,262,92216,1,0,0:0:0:0:
252,172,92425,102,0,L|349:148,1,100,8|0,0:3|0:0,0:0:0:0:
169,330,92841,2,0,L|73:355,1,100,2|0,3:2|0:0,0:0:0:0:
98,155,93258,2,0,B|139:127|139:127|119:230,1,150,2|0,3:2|0:0,0:0:0:0:
37,283,93675,6,0,B|106:263|106:263|141:228|141:228|223:208,1,200,2|0,1:2|3:0,0:0:0:0:
217,209,94300,1,2,1:2:0:0:
326,251,94508,1,2,0:1:0:0:
427,177,94716,1,8,0:1:0:0:
326,266,94925,102,0,B|196:273|271:335|116:343,1,200,8|0,0:3|3:0,0:0:0:0:
146,340,95550,1,2,0:1:0:0:
61,230,95758,2,0,P|98:252|158:257,1,100,0|2,1:0|0:2,0:0:0:0:
254,145,96175,6,0,P|195:170|242:211,1,150,2|0,1:2|0:0,0:0:0:0:
254,145,96591,2,0,P|200:75|110:128,1,200,2|0,1:2|3:0,0:0:0:0:
113,117,97216,1,2,0:1:0:0:
186,224,97425,102,0,P|136:223|85:260,1,100,8|0,0:3|0:0,0:0:0:0:
212,384,97841,2,0,P|237:341|231:278,1,100,2|8,3:2|0:1,0:0:0:0:
338,121,98258,2,0,P|312:163|318:226,1,100,2|8,3:2|0:1,0:0:0:0:
464,322,98675,6,0,B|450:261|450:261|516:203|458:120,1,200,2|2,1:2|3:0,0:0:0:0:
469,138,99300,1,8,1:0:0:0:
396,190,99508,1,2,3:0:0:0:
289,134,99716,1,8,0:1:0:0:
207,271,99924,101,10,0:3:0:0:
207,271,100341,2,0,L|192:197,1,60.0000022888184,2|0,0:2|0:0,0:0:0:0:
128,262,100758,1,2,0:2:0:0:
128,262,101175,85,0,3:0:0:0:
137,269,101591,1,2,0:0:0:0:
265,230,102008,1,2,0:0:0:0:
345,272,102425,2,0,P|351:183|376:80,1,180.000006866455,2|0,0:0|0:0,0:0:0:0:
432,34,103258,1,2,0:0:0:0:
281,115,103675,21,0,3:0:0:0:
267,105,104091,1,2,0:0:0:0:
125,179,104508,1,2,0:0:0:0:
198,253,104925,2,0,P|258:268|312:233,1,128,2|0,0:0|0:0,0:0:0:0:
371,130,105550,1,2,0:0:0:0:
392,141,105758,1,2,0:0:0:0:
246,196,106175,85,0,3:0:0:0:
237,189,106591,1,2,0:0:0:0:
116,246,107008,1,2,0:0:0:0:
78,183,107425,2,0,P|98:114|101:-17,1,180.000006866455,2|0,0:0|0:0,0:0:0:0:
180,56,108258,1,2,0:0:0:0:
180,56,108675,22,0,P|228:89|289:95,1,120.000004577637,2|2,0:0|0:0,0:0:0:0:
388,152,109300,1,0,0:0:0:0:
388,152,109508,2,0,P|362:156|333:172,1,47.9999985351563,2|0,0:0|0:0,0:0:0:0:
286,248,109977,86,0,P|266:235|231:229,1,56,2|0,0:0|0:0,0:0:0:0:
184,147,111175,1,2,0:1:0:0:
377,238,111591,6,0,P|320:208|265:202,1,120.000004577637,2|2,3:2|3:2,0:0:0:0:
201,235,112216,1,2,0:2:0:0:
104,329,112425,2,0,P|41:315|26:187,1,192,2|2,3:2|3:2,0:0:0:0:
83,149,113258,1,2,3:2:0:0:
398,349,113675,2,0,P|418:285|421:204,2,143.999995605469,2|2|2,3:2|3:2|3:2,0:0:0:0:
398,349,115758,1,2,0:0:0:0:
329,313,115966,1,2,0:0:0:0:
216,366,116175,1,2,0:1:0:0:
216,366,116591,102,0,P|219:335|211:300,1,60.0000022888184,2|2,3:2|0:2,0:0:0:0:
280,253,117008,2,0,L|291:193,1,60.0000022888184,2|2,3:2|0:2,0:0:0:0:
345,83,117425,2,0,B|219:93|292:145|169:155,1,192,2|2,3:2|3:2,0:0:0:0:
91,127,118258,1,2,3:2:0:0:
372,370,118675,2,0,P|419:355|518:357,2,143.999995605469,2|2|2,3:2|3:2|3:2,0:0:0:0:
83,225,121175,1,2,0:1:0:0:
231,137,121800,1,2,0:0:0:0:
291,177,122008,6,0,L|358:161,1,60.0000022888184,2|2,3:2|3:2,0:0:0:0:
221,229,122425,2,0,B|182:297|219:354|219:354|243:309,1,180.000006866455,2|2,3:2|3:2,0:0:0:0:
311,277,123258,2,0,P|339:294|371:300,1,60.0000022888184,2|0,3:2|0:0,0:0:0:0:
491,169,123675,2,0,P|435:158|371:199,1,120.000004577637,2|2,3:2|0:0,0:0:0:0:
325,115,124300,2,0,P|278:114|206:81,1,120.000004577637,2|0,3:2|0:0,0:0:0:0:
163,9,124925,1,2,3:2:0:0:
160,7,125758,102,0,P|145:52|108:82,1,90.0000034332277,0|0,3:0|0:0,0:0:0:0:
44,97,126175,1,2,3:2:0:0:
44,97,127008,1,2,3:2:0:0:
75,162,127216,1,2,3:2:0:0:
20,234,127425,2,0,P|5:296|4:359,2,120.000004577637,2|2|2,3:2|0:2|0:2,0:0:0:0:
168,313,128675,1,2,0:1:0:0:
168,313,129091,6,0,P|205:275|276:280,1,120.000004577637,2|2,3:2|3:2,0:0:0:0:
319,340,129716,1,2,0:0:0:0:
451,264,129925,2,0,B|516:273|527:143|350:181|428:251|326:234,1,240,2|2,3:2|3:2,0:0:0:0:
261,216,130758,1,2,3:2:0:0:
135,345,131175,102,0,P|118:321|85:299,1,60.0000022888184,2|0,3:2|0:0,0:0:0:0:
186,218,131591,2,0,P|157:213|118:220,1,60.0000022888184,2|0,3:2|0:0,0:0:0:0:
153,70,132008,2,0,P|124:90|97:130,1,80,2|0,3:2|0:0,0:0:0:0:
186,218,132425,6,0,B|317:205|234:153|370:138,1,207.999990478516,2|2,3:2|0:2,0:0:0:0:
342,249,133050,2,0,P|333:283|328:324,1,60.0000022888184,2|0,3:2|0:0,0:0:0:0:
266,274,133466,1,2,3:2:0:0:
384,365,133675,2,0,P|429:334|507:342,1,120.000004577637,2|0,3:2|0:0,0:0:0:0:
492,335,134508,102,0,P|461:325|434:300,1,60.0000022888184,2|2,3:2|3:2,0:0:0:0:
362,172,134925,2,0,P|349:233|315:295,1,120.000004577637,2|0,3:2|0:0,0:0:0:0:
276,339,135550,1,2,3:2:0:0:
229,286,135758,2,0,L|167:270,1,60.0000022888184,2|2,3:2|0:0,0:0:0:0:
21,178,136175,6,0,P|51:168|78:144,1,60.0000022888184,2|0,3:2|0:0,0:0:0:0:
88,315,136591,2,0,P|57:287|12:272,1,80,2|2,3:2|0:2,0:0:0:0:
170,173,137008,2,0,P|160:219|171:271,1,100,2|0,3:2|0:0,0:0:0:0:
77,132,137425,6,0,B|126:79|79:23|79:23|36:30|33:75,1,191.999994140625,2|0,3:2|0:0,0:0:0:0:
28,84,138518,2,0,P|18:89|8:92,2,11.9999996337891,2|2|2,0:3|0:3|0:3,0:0:0:0:
14,105,138675,85,2,1:2:0:0:
90,227,138883,1,2,0:3:0:0:
85,242,139300,21,0,3:0:0:0:
190,323,139508,2,0,P|196:300|209:268,1,47.9999985351563,2|2,0:2|0:2,0:0:0:0:
367,134,139925,22,0,P|452:159|412:273,1,207.999990478516,6|2,1:2|3:2,0:0:0:0:
253,381,140550,1,0,0:0:0:0:
329,279,140758,1,2,3:2:0:0:
204,277,140966,1,0,1:0:0:0:
124,384,141175,86,0,B|155:387|175:372|175:372|197:354|231:357,1,103.999995239258,8|0,0:3|0:0,0:0:0:0:
428,291,141591,2,0,B|275:270|387:229|217:194,1,223.999993164063,2|0,3:2|3:0,0:0:0:0:
189,116,142216,1,8,0:1:0:0:
443,85,142425,22,0,P|421:13|397:-42,2,95.9999970703126,2|2|2,1:2|1:2|0:1,0:0:0:0:
367,134,143466,1,8,0:1:0:0:
189,116,143675,86,0,B|166:92|194:46|194:46|252:39|293:105|252:190,1,240.000009155274,8|0,0:3|3:0,0:0:0:0:
181,295,144300,1,2,0:1:0:0:
86,251,144508,1,2,3:2:0:0:
99,343,144716,1,2,0:2:0:0:
184,384,144925,22,0,P|201:291|242:164,1,207.999990478516,2|2,1:2|3:2,0:0:0:0:
105,144,145550,1,8,0:1:0:0:
191,58,145758,1,2,3:2:0:0:
84,26,145966,1,2,0:1:0:0:
66,177,146175,86,0,B|118:159|118:159|158:127,1,103.999995239258,8|0,0:3|0:0,0:0:0:0:
443,82,146591,2,0,B|403:44|338:53|338:53|286:117|312:179,1,223.999993164063,2|0,3:2|3:0,0:0:0:0:
402,225,147216,1,8,0:1:0:0:
462,350,147425,22,0,P|408:329|287:301,1,160,2|2,1:2|3:0,0:0:0:0:
232,340,148050,1,8,1:0:0:0:
162,259,148258,1,2,3:2:0:0:
159,384,148466,1,8,0:1:0:0:
45,349,148675,86,0,P|-6:263|96:200,1,240.000009155274,8|2,0:3|0:1,0:0:0:0:
162,259,149300,1,0,3:0:0:0:
210,193,149508,1,0,1:0:0:0:
98,81,149716,1,2,0:2:0:0:
300,27,149925,22,0,L|328:141,1,103.999995239258,2|8,1:2|0:1,0:0:0:0:
395,240,150341,2,0,L|411:141,1,80,2|8,3:2|0:1,0:0:0:0:
476,83,150758,2,0,L|496:145,1,60.0000022888184,2|0,1:2|0:0,0:0:0:0:
199,211,151175,86,0,L|293:190,1,80,8|0,0:3|0:0,0:0:0:0:
348,296,151591,2,0,L|282:287,1,60.0000022888184,2|8,3:2|0:1,0:0:0:0:
255,384,152008,2,0,L|309:371,1,40,2|8,3:2|0:1,0:0:0:0:
512,182,152425,22,0,B|378:168|437:257|275:214,1,223.999993164063,2|0,1:2|3:0,0:0:0:0:
250,129,153050,1,2,1:2:0:0:
212,18,153258,1,2,0:1:0:0:
149,188,153466,1,2,0:2:0:0:
0,115,153675,86,0,B|60:125|94:110|94:110|130:80|189:94,1,191.999994140625,8|0,0:3|3:0,0:0:0:0:
243,170,154300,1,2,0:1:0:0:
227,331,154508,1,0,1:0:0:0:
149,188,154716,1,2,0:2:0:0:
302,259,154925,22,0,B|377:277|377:277|383:273|383:273|490:299,1,155.999992858887,2|0,1:2|0:0,0:0:0:0:
464,266,155341,2,0,L|492:398,1,120.000004577637,2|0,1:2|3:0,0:0:0:0:
308,384,155966,1,2,0:1:0:0:
207,340,156175,86,0,P|169:254|187:199,1,155.999992858887,8|0,0:3|0:0,0:0:0:0:
205,212,156591,2,0,P|227:297|211:330,1,120.000004577637,2|2,3:2|3:2,0:0:0:0:
67,246,157216,1,8,0:1:0:0:
46,167,157425,22,0,L|64:103,1,60.0000022888184,2|0,1:2|0:0,0:0:0:0:
93,14,157841,1,2,3:0:0:0:
277,134,158050,2,0,L|258:24,1,80,8|2,1:0|3:0,0:0:0:0:
290,218,158466,1,8,0:1:0:0:
452,192,158675,85,10,3:0:0:0:
372,107,158883,1,0,1:0:0:0:
484,119,159091,1,2,0:1:0:0:
508,242,159300,1,8,0:0:0:0:
364,262,159508,37,2,1:2:0:0:
277,134,159716,1,2,1:2:0:0:
364,262,159925,102,0,P|328:333|183:309,1,207.999990478516,6|2,1:2|3:2,0:0:0:0:
157,114,160550,1,8,0:1:0:0:
225,182,160758,1,2,3:2:0:0:
280,43,160966,1,0,1:0:0:0:
424,58,161175,86,0,B|381:73|381:73|372:87|372:87|287:113,1,103.999995239258,8|0,0:3|0:0,0:0:0:0:
69,190,161591,2,0,B|148:204|148:204|188:248|188:248|292:270,1,223.999993164063,2|0,3:2|3:0,0:0:0:0:
319,200,162216,1,8,0:1:0:0:
478,285,162425,22,0,B|488:319|488:319|479:393,2,95.9999970703126,2|2|2,1:2|1:2|0:1,0:0:0:0:
440,212,163466,1,8,0:1:0:0:
238,182,163675,86,0,B|165:255|238:333|238:333|303:325|298:267,1,240.000009155274,8|0,0:3|3:0,0:0:0:0:
398,115,164300,1,2,0:1:0:0:
304,74,164508,1,2,3:2:0:0:
349,5,164716,1,2,0:2:0:0:
440,12,164925,22,0,P|416:98|395:227,1,207.999990478516,2|2,1:2|3:2,0:0:0:0:
237,263,165550,1,8,0:1:0:0:
200,164,165758,1,2,3:2:0:0:
135,246,165966,1,2,0:1:0:0:
261,280,166175,86,0,B|211:297|211:297|123:273,1,103.999995239258,8|0,0:3|0:0,0:0:0:0:
12,125,166591,2,0,B|18:49|100:27|100:27|156:54|156:143,1,230.400005625,2|0,3:2|3:0,0:0:0:0:
310,177,167216,1,8,0:1:0:0:
183,293,167425,22,0,P|205:339|336:322,1,160,2|0,1:0|3:0,0:0:0:0:
415,303,168050,1,8,1:0:0:0:
375,229,168258,1,2,3:2:0:0:
488,212,168466,1,8,0:1:0:0:
475,22,168675,86,0,B|409:17|371:55|371:55|317:110|226:84,1,223.999993164063,8|2,0:3|0:1,0:0:0:0:
127,71,169300,1,8,0:1:0:0:
85,146,169508,1,0,1:0:0:0:
179,198,169716,1,2,0:2:0:0:
71,357,169925,22,0,L|16:233,1,103.999995239258,2|0,1:2|0:0,0:0:0:0:
201,280,170341,2,0,L|179:395,1,80,2|2,3:2|0:1,0:0:0:0:
301,362,170758,2,0,L|344:284,1,60.0000022888184,2|0,1:2|0:0,0:0:0:0:
462,107,171175,86,0,L|488:213,1,80,8|0,0:3|0:0,0:0:0:0:
343,191,171591,2,0,L|362:97,1,60.0000022888184,2|8,3:2|0:1,0:0:0:0:
248,98,172008,2,0,L|219:155,1,40,2|8,3:2|0:1,0:0:0:0:
25,177,172425,22,0,P|-22:68|59:10,1,207.999990478516,2|0,1:2|3:0,0:0:0:0:
201,45,173050,1,2,1:2:0:0:
112,133,173258,1,2,0:1:0:0:
133,0,173466,1,8,0:1:0:0:
229,181,173675,86,0,L|243:284,1,80,8|0,0:3|3:0,0:0:0:0:
197,348,174091,1,0,3:0:0:0:
197,348,174300,1,2,0:1:0:0:
332,370,174508,2,0,P|356:277|357:254,1,80,0|2,1:0|0:2,0:0:0:0:
301,147,174925,22,0,B|361:164|361:164|378:183|378:183|476:213,1,155.999992858887,2|0,1:2|0:0,0:0:0:0:
458,197,175341,2,0,B|470:139|470:139|437:77,1,120.000004577637,2|0,1:2|3:0,0:0:0:0:
225,176,175966,1,2,0:1:0:0:
252,4,176175,86,0,B|153:3|208:62|92:40,1,155.999992858887,8|0,0:3|0:0,0:0:0:0:
96,39,176591,2,0,L|119:171,1,120.000004577637,2|2,3:2|3:2,0:0:0:0:
213,257,177216,1,8,0:1:0:0:
357,179,177425,21,2,1:2:0:0:
434,30,177633,1,0,3:0:0:0:
441,180,177841,1,2,3:0:0:0:
351,31,178050,1,8,1:0:0:0:
487,99,178258,1,2,3:0:0:0:
306,111,178466,1,8,0:1:0:0:
496,84,178675,85,10,0:3:0:0:
64,187,179091,2,0,P|58:154|42:125,2,60.0000022888184,2|0|2,0:1|3:0|1:2,0:0:0:0:
180,384,179925,85,2,3:2:0:0:
83,182,188675,69,8,0:3:0:0:
76,318,189091,21,2,1:0:0:0:
133,277,189300,1,8,0:3:0:0:
137,346,189508,1,2,1:2:0:0:
293,237,189925,37,2,1:2:0:0:
256,92,190341,1,2,0:2:0:0:
185,73,190550,1,8,0:1:0:0:
237,16,190758,1,0,3:0:0:0:
237,16,190966,1,8,0:1:0:0:
314,36,191175,22,0,P|378:18|411:12,2,95.9999970703126,8|8|2,0:3|0:1|1:2,0:0:0:0:
93,194,192425,86,0,L|74:296,1,80,2|8,1:2|0:1,0:0:0:0:
140,320,192841,1,0,1:0:0:0:
140,320,193050,1,8,0:1:0:0:
220,350,193258,2,0,L|206:239,1,80,2|0,3:2|3:0,0:0:0:0:
320,164,193675,22,0,B|362:167|395:195|395:195|426:232|495:223,2,160,8|0|0,0:3|3:0|3:0,0:0:0:0:
95,59,194925,85,2,1:2:0:0:
170,289,195341,1,2,1:2:0:0:
210,228,195550,1,8,0:1:0:0:
142,224,195758,1,0,3:0:0:0:
142,224,195966,1,8,0:1:0:0:
96,283,196175,22,0,P|39:271|-12:252,2,95.9999970703126,8|2|2,0:3|1:2|3:2,0:0:0:0:
349,202,197425,86,0,P|413:183|445:179,1,80,2|0,1:2|0:0,0:0:0:0:
483,125,197841,1,2,3:0:0:0:
483,125,198050,1,0,0:0:0:0:
366,86,198258,2,0,L|251:63,1,80,0|0,3:2|0:0,0:0:0:0:
95,82,198675,22,0,B|158:60|158:60|177:35|177:35|257:8,1,160,2|0,3:0|3:0,0:0:0:0:
254,171,199300,5,8,0:3:0:0:
239,239,199508,1,0,1:0:0:0:
200,127,199716,1,8,0:3:0:0:
182,196,199925,2,0,B|143:213|143:213|75:202,1,80,4|0,1:2|0:0,0:0:0:0:
20,345,200341,22,0,B|104:325|104:325|217:388,1,160,2|2,3:2|3:2,0:0:0:0:
259,350,200966,1,8,0:1:0:0:
446,331,201175,2,0,P|475:211|425:171,1,191.999994140625,8|0,0:3|3:0,0:0:0:0:
326,116,201800,1,8,0:1:0:0:
317,254,202008,2,0,B|372:254|431:260,1,80,2|0,1:2|0:0,0:0:0:0:
412,82,202425,86,0,B|368:103|334:88|334:88|289:65|236:98,1,160,2|2,1:2|3:2,0:0:0:0:
123,142,203050,1,0,1:0:0:0:
194,20,203258,1,2,3:2:0:0:
207,165,203466,1,8,0:1:0:0:
37,170,203675,22,0,P|71:244|104:361,1,191.999994140625,8|0,0:3|3:0,0:0:0:0:
246,231,204300,1,2,0:1:0:0:
43,268,204508,1,0,1:0:0:0:
144,231,204716,1,2,0:2:0:0:
251,347,204925,86,0,P|326:376|421:302,1,191.999994140625,2|0,1:2|3:0,0:0:0:0:
380,217,205550,1,8,1:0:0:0:
505,198,205758,2,0,P|488:113|480:104,1,60.0000022888184,2|2,0:2|0:1,0:0:0:0:
410,57,206175,22,0,P|336:95|245:110,1,160,8|0,0:3|3:0,0:0:0:0:
185,30,206800,1,2,0:2:0:0:
64,192,207008,2,0,P|99:280|100:301,1,80,8|0,0:1|0:0,0:0:0:0:
264,370,207425,86,0,P|287:337|317:311,1,80,2|0,1:2|3:0,0:0:0:0:
329,147,207842,2,0,P|346:182|360:220,1,80,2|2,3:0|0:1,0:0:0:0:
495,308,208258,2,0,P|455:310|415:299,1,80,2|0,3:0|0:0,0:0:0:0:
241,118,208675,21,8,0:1:0:0:
168,120,208883,1,2,3:0:0:0:
109,171,209091,1,2,1:0:0:0:
89,243,209299,1,8,0:3:0:0:
177,286,209508,85,0,1:0:0:0:
99,237,209716,1,0,0:0:0:0:
48,343,209977,70,0,B|95:327|135:347|135:347|163:370|232:350,1,184
303,287,211383,101,0,0:0:0:0:
318,384,211591,101,0,0:0:0:0:
340,313,221591,6,0,P|380:296|433:297,2,95.9999970703126,2|2|2,3:2|3:2|3:2,0:0:0:0:
345,187,222632,1,0,0:0:0:0:
290,242,222841,2,0,P|306:201|344:164,2,95.9999970703126,2|2|2,3:2|3:2|3:2,0:0:0:0:
208,146,223882,1,0,0:0:0:0:
208,223,224091,102,0,P|190:182|191:129,1,95.9999970703126,2|0,3:2|0:0,0:0:0:0:
244,66,224716,1,0,3:2:0:0:
244,66,224924,2,0,P|266:75|294:77,1,47.9999985351563,2|2,3:2|0:0,0:0:0:0:
432,109,225341,2,0,B|391:100|363:116|363:116|342:149|303:154,1,143.999995605469,2|2,3:2|0:0,0:0:0:0:
230,136,226174,1,2,0:0:0:0:
303,225,226382,1,2,3:0:0:0:
303,225,226591,6,0,P|297:253|295:283,1,47.9999985351563,2|0,3:2|0:0,0:0:0:0:
217,281,227007,2,0,P|222:233|232:186,1,95.9999970703126,2|2,3:2|0:0,0:0:0:0:
281,121,227632,1,2,3:2:0:0:
281,121,227841,102,0,P|256:115|232:102,1,47.9999985351563,2|0,3:2|0:0,0:0:0:0:
347,157,228257,2,0,P|321:186|284:198,1,60.0000022888184,2|0,3:2|0:0,0:0:0:0:
387,90,228674,2,0,P|421:139|413:191,1,107.999996704102,2|0,3:2|0:0,0:0:0:0:
417,314,229091,6,0,B|388:277|388:277|418:178,1,143.999995605469,2|0,3:2|3:0,0:0:0:0:
508,134,229716,1,0,3:0:0:0:
508,134,229924,2,0,L|487:209,1,71.9999978027344,2|0,0:3|0:0,0:0:0:0:
416,314,230341,101,8,1:2:0:0:
298,222,230549,1,2,0:3:0:0:
276,235,230653,1,2,0:3:0:0:
251,236,230757,1,2,0:3:0:0:
255,165,230966,21,8,3:2:0:0:
356,264,231174,1,2,0:2:0:0:
257,365,231382,1,2,0:2:0:0:
149,267,231591,54,0,P|94:195|162:111,1,207.999990478516,6|2,1:2|3:2,0:0:0:0:
342,76,232216,1,0,0:0:0:0:
255,165,232424,1,2,3:2:0:0:
209,49,232632,1,0,1:0:0:0:
269,1,232841,54,0,B|283:56|283:56|259:105,1,103.999995239258,8|0,0:3|0:0,0:0:0:0:
43,145,233257,2,0,B|117:162|117:162|159:208|159:208|264:228,1,223.999993164063,2|0,3:2|3:0,0:0:0:0:
310,285,233882,1,8,0:1:0:0:
486,111,234091,54,0,P|496:66|498:13,2,95.9999970703126,2|2|2,1:2|1:2|0:1,0:0:0:0:
412,160,235132,1,8,0:1:0:0:
310,11,235341,54,0,B|247:5|217:71|217:71|176:15|108:36,1,240.000009155274,8|0,0:3|3:0,0:0:0:0:
8,151,235966,1,2,0:1:0:0:
109,119,236174,1,2,3:2:0:0:
90,208,236382,1,2,0:2:0:0:
0,259,236591,54,0,P|86:233|204:233,1,207.999990478516,2|2,1:2|3:2,0:0:0:0:
290,129,237216,1,0,0:0:0:0:
387,201,237424,1,2,3:2:0:0:
432,88,237632,1,2,0:1:0:0:
277,108,237841,54,0,B|262:160|262:160|276:216,1,103.999995239258,8|0,0:3|0:0,0:0:0:0:
487,354,238257,2,0,B|473:321|466:287|466:287|424:303|424:303|396:269|396:269|373:293|346:312,1,223.999993164063,2|2,3:2|3:2,0:0:0:0:
252,228,238882,1,0,0:0:0:0:
129,331,239091,54,0,P|109:267|117:174,1,160,2|2,1:2|3:0,0:0:0:0:
157,79,239716,1,8,1:0:0:0:
225,166,239924,1,2,3:2:0:0:
268,33,240132,1,8,0:1:0:0:
375,103,240341,54,0,P|417:202|327:286,1,240.000009155274,8|2,0:3|0:1,0:0:0:0:
230,196,240966,1,0,3:0:0:0:
158,235,241174,1,0,1:0:0:0:
25,135,241382,1,2,0:2:0:0:
199,20,241591,54,0,P|217:66|223:139,1,103.999995239258,2|0,1:2|0:0,0:0:0:0:
320,122,242007,2,0,P|301:163|258:214,1,80,2|8,3:2|0:1,0:0:0:0:
330,252,242424,2,0,P|301:263|272:268,1,60.0000022888184,2|0,1:2|0:0,0:0:0:0:
65,149,242841,54,0,P|109:143|175:155,1,80,8|0,0:3|0:0,0:0:0:0:
180,78,243257,2,0,P|206:99|235:141,1,60.0000022888184,2|8,3:2|0:1,0:0:0:0:
294,143,243674,2,0,P|296:123|294:104,1,40,2|8,3:2|0:1,0:0:0:0:
157,218,244091,54,0,B|260:189|246:313|362:276,1,223.999993164063,2|0,1:2|3:0,0:0:0:0:
431,148,244716,1,2,1:2:0:0:
329,200,244924,1,2,0:1:0:0:
210,81,245132,1,2,0:2:0:0:
84,168,245341,54,0,P|73:248|156:308,1,191.999994140625,8|0,0:3|3:0,0:0:0:0:
241,264,245966,1,2,0:1:0:0:
273,104,246174,1,0,1:0:0:0:
157,218,246382,1,2,0:2:0:0:
331,183,246591,54,0,B|399:197|399:197|413:192|413:192|484:206,1,155.999992858887,2|0,1:2|0:0,0:0:0:0:
511,240,247007,2,0,B|430:223|430:223|390:241,1,120.000004577637,2|0,1:2|3:0,0:0:0:0:
267,365,247632,1,2,0:1:0:0:
197,291,247841,54,0,B|147:241|90:252|90:252|106:269|129:273,1,155.999992858887,8|0,0:3|0:0,0:0:0:0:
163,228,248257,2,0,B|236:226|202:199|281:196,1,120.000004577637,2|2,3:2|3:2,0:0:0:0:
417,274,248882,1,8,0:1:0:0:
391,108,249091,54,0,P|378:140|373:174,1,60.0000022888184,2|0,1:2|0:0,0:0:0:0:
497,275,249507,1,2,3:0:0:0:
447,209,249716,1,8,1:0:0:0:
366,305,249924,2,0,P|315:338|251:342,1,120,2|0,3:0|0:0,0:0:0:0:
230,333,250341,2,0,L|216:254,1,80,10|0,3:0|1:0,0:0:0:0:
193,137,250757,5,2,0:1:0:0:
292,237,250966,1,8,0:0:0:0:
143,266,251174,1,2,1:2:0:0:
41,154,251382,1,0,1:0:0:0:
137,293,251591,101,6,1:2:0:0:
256,192,251695,12,2,256591,1:2:0:0:
198,246,257007,102,0,L|111:268,1,80,2|8,3:2|0:1,0:0:0:0:
99,123,257424,2,0,P|132:151|144:197,1,80,0|2,3:0|0:1,0:0:0:0:
133,363,257841,2,0,P|133:286|207:245,1,160,8|2,0:3|3:2,0:0:0:0:
262,334,258466,1,8,0:1:0:0:
262,334,258674,2,0,P|294:356|337:358,1,80,2|8,3:2|0:1,0:0:0:0:
412,237,259091,6,0,P|425:165|397:64,2,160,2|2|0,1:2|3:0|3:0,0:0:0:0:
330,181,260132,1,8,0:1:0:0:
330,181,260341,2,0,P|294:161|248:158,1,80,8|0,0:3|0:0,0:0:0:0:
99,283,260757,2,0,P|142:256|174:209,1,95.9999970703126,2|8,0:1|0:1,0:0:0:0:
104,29,261174,2,0,P|104:83|132:138,1,111.999996582031,2|0,1:2|0:0,0:0:0:0:
154,155,261486,1,0,0:0:0:0:
154,155,261591,102,0,B|211:138|211:138|236:106|236:106|300:88,1,160,2|2,1:2|3:2,0:0:0:0:
359,166,262216,1,2,0:1:0:0:
313,302,262424,2,0,P|294:267|296:224,1,80,0|2,1:0|3:2,0:0:0:0:
506,113,262841,2,0,B|408:115|457:162|344:166,1,160,8|2,0:3|3:2,0:0:0:0:
273,109,263466,1,8,0:1:0:0:
273,109,263674,2,0,P|237:130|197:137,1,80,2|8,3:2|0:1,0:0:0:0:
57,112,264091,6,0,B|102:141|102:141|119:248,1,160,2|0,1:2|3:0,0:0:0:0:
21,353,264716,1,8,0:1:0:0:
21,353,264924,2,0,L|38:265,1,80,2|8,0:1|0:1,0:0:0:0:
188,223,265341,2,0,P|202:286|297:307,1,160,8|0,0:3|3:0,0:0:0:0:
355,245,265966,1,2,0:1:0:0:
355,245,266174,2,0,P|388:231|437:235,1,80,0|0,1:0|0:0,0:0:0:0:
341,121,266591,102,0,L|186:81,1,160,2|2,1:2|1:2,0:0:0:0:
53,183,267216,1,8,0:1:0:0:
53,183,267424,2,0,P|93:185|135:164,1,80,0|2,3:0|0:1,0:0:0:0:
317,317,267841,2,0,P|284:259|194:236,1,160,8|2,0:3|3:2,0:0:0:0:
124,308,268466,1,8,0:1:0:0:
124,308,268674,2,0,P|86:333|37:333,1,80,2|8,3:2|0:1,0:0:0:0:
90,191,269091,70,0,B|161:194|128:232|203:235,1,120,2|0,1:2|0:0,0:0:0:0:
256,192,269924,1,2,0:2:0:0:
256,192,270445,86,0,B|261:160|261:160|245:133|245:133|249:97|249:97|276:68,1,140,2|0,0:0|0:0,0:0:0:0:
