osu file format v14

[General]
AudioFilename: audio.mp3
AudioLeadIn: 0
PreviewTime: 29592
Countdown: 0
SampleSet: Soft
StackLeniency: 0.7
Mode: 0
LetterboxInBreaks: 0
WidescreenStoryboard: 1

[Editor]
Bookmarks: 13654,43654,76381
DistanceSpacing: 1
BeatDivisor: 4
GridSize: 32
TimelineZoom: 1

[Metadata]
Title:Gokuaku no Hana
TitleUnicode:極悪の華
Artist:onoken feat. Misaki
ArtistUnicode:onoken feat. 実咲
Creator:milr_
Version:Normal
Source:pop'n music 解明リドルズ
Tags:Kaimei Riddles acnozei mystycute mysty Rin KIKYO video game pop japanese electronic konami bemani
BeatmapID:4024255
BeatmapSetID:1941899

[Difficulty]
HPDrainRate:4
CircleSize:3
OverallDifficulty:4.5
ApproachRate:5.5
SliderMultiplier:1.2
SliderTickRate:1

[Events]
//Background and Video events
0,0,"99465183_p0.jpg",0,0
//Break Periods
2,8400,12529
2,19308,23438
2,68400,69802
2,90218,94347
//Storyboard Layer 0 (Background)
//Storyboard Layer 1 (Fail)
//Storyboard Layer 2 (Pass)
//Storyboard Layer 3 (Foreground)
//Storyboard Layer 4 (Overlay)
//Storyboard Sound Samples

[TimingPoints]
297,359.281437125748,4,2,1,40,1,0
1015,359.281437125748,4,2,1,40,1,0
8200,340.909090909091,4,2,1,70,1,0
19109,-100,4,2,1,50,0,0
24222,-100,4,2,1,70,0,0
29762,-100,4,2,1,40,0,0
30018,-100,4,2,1,80,0,0
31722,-100,4,2,1,80,0,0
32063,-100,4,2,1,80,0,0
32234,-100,4,2,1,80,0,0
32489,-100,4,2,1,40,0,0
32745,-100,4,2,1,80,0,0
34450,-100,4,2,1,80,0,0
34790,-100,4,2,1,80,0,0
34961,-100,4,2,1,80,0,0
43995,-100,4,2,1,80,0,0
44336,-100,4,2,1,80,0,0
44506,-100,4,2,1,80,0,0
46722,-100,4,2,1,80,0,0
47063,-100,4,2,1,80,0,0
47234,-100,4,2,1,80,0,0
54904,-100,4,2,1,80,0,0
55245,-100,4,2,1,80,0,0
55415,-100,4,2,1,80,0,0
57631,-100,4,2,1,80,0,0
57972,-100,4,2,1,80,0,0
58143,-100,4,2,1,80,0,0
65472,-100,4,2,1,70,0,0
76126,-100,4,2,1,40,0,0
76381,-100,4,2,1,80,0,0
78086,-100,4,2,1,80,0,0
78427,-100,4,2,1,80,0,0
78597,-100,4,2,1,80,0,0
78853,-100,4,2,1,40,0,0
79109,-100,4,2,1,80,0,0
80813,-100,4,2,1,80,0,0
81154,-100,4,2,1,80,0,0
81325,-100,4,2,1,80,0,0
89336,-100,4,2,1,40,0,0
90018,-100,4,2,1,70,0,0
101609,-100,4,2,1,80,0,0
103995,-100,4,2,1,80,0,0
104336,-100,4,2,1,80,0,0
104506,-100,4,2,1,80,0,0
111836,-100,4,2,1,70,0,0
118995,-100,4,2,1,5,0,0

[Colours]
Combo1 : 183,103,214
Combo2 : 171,191,91
Combo3 : 216,101,67
Combo4 : 117,204,113

[HitObjects]
206,175,1015,6,0,P|143:160|85:146,2,120,2|2|2,0:3|0:0|0:0,0:0:0:0:
269,278,2092,1,2,0:0:0:0:
385,248,2452,2,0,P|419:214|406:148,2,120,2|2|2,0:3|0:0|0:0,0:0:0:0:
269,278,3529,1,2,0:0:0:0:
154,315,3889,6,0,P|97:299|39:283,1,120,2|2,0:3|0:0,0:0:0:0:
8,166,4607,1,2,0:0:0:0:
123,134,4967,1,2,0:0:0:0:
239,104,5326,2,0,P|257:50|217:10,2,120,2|2|2,0:3|0:0|0:3,0:0:0:0:
256,192,6224,12,4,8200,1:2:0:0:
306,80,13654,6,0,P|242:64|178:46,1,120,4|8,1:2|0:0,0:0:0:0:
146,91,14165,1,2,0:0:0:0:
146,91,14336,2,0,P|157:135|165:168,1,60,2|0,0:1|1:2,0:0:0:0:
209,183,14677,1,8,0:1:0:0:
316,237,15018,6,0,P|321:280|295:300,1,60,0|0,1:2|1:2,0:0:0:0:
278,340,15359,2,0,P|229:326|203:318,1,60,8|2,0:1|0:0,0:0:0:0:
176,282,15700,1,2,0:1:0:0:
63,323,16040,1,8,0:0:0:0:
11,214,16381,6,0,P|24:151|36:92,1,120,0|12,1:2|0:0,0:0:0:0:
79,55,16893,1,2,1:2:0:0:
79,55,17063,2,0,P|106:61|140:68,1,60,8|2,0:0|1:2,0:0:0:0:
172,116,17404,2,0,P|224:103|256:97,1,60,12|2,0:0|1:2,0:0:0:0:
270,56,17745,6,0,P|291:16|382:25,2,120,4|2|0,1:2|1:0|1:0,0:0:0:0:
354,141,18768,2,0,P|370:199|387:267,1,120,8|4,0:0|1:2,0:0:0:0:
317,306,24563,6,0,P|238:286|201:276,1,120,4|8,1:2|0:0,0:0:0:0:
128,179,25245,2,0,P|112:142|166:81,1,120,2|2,0:1|0:1,0:0:0:0:
190,34,25756,1,0,1:1:0:0:
248,50,25927,1,2,1:1:0:0:
303,156,26268,6,0,P|348:142|377:132,1,60,8|0,0:0|0:0,0:0:0:0:
390,85,26609,1,2,0:1:0:0:
499,134,26950,1,2,0:1:0:0:
444,240,27290,6,0,P|452:272|460:303,1,60,2|2,1:1|1:1,0:0:0:0:
358,363,27802,1,2,1:1:0:0:
306,332,27972,2,0,P|320:264|332:198,1,120,8|2,0:0|1:1,0:0:0:0:
283,174,28484,1,2,1:1:0:0:
184,241,28825,5,2,1:1:0:0:
184,241,28995,2,0,P|154:233|125:226,1,60,2|8,1:1|0:0,0:0:0:0:
80,186,29336,2,0,P|19:158|21:106,1,120,8|8,0:0|0:0,0:0:0:0:
101,25,30018,6,0,P|151:37|176:42,1,60,2|2,1:0|1:0,0:0:0:0:
209,72,30359,1,8,1:0:0:0:
326,49,30700,2,0,P|356:40|402:29,1,60,2|2,1:0|1:0,0:0:0:0:
435,2,31040,1,8,1:0:0:0:
510,95,31381,5,2,1:0:0:0:
412,165,31722,1,2,1:0:0:0:
319,241,32063,2,0,P|331:279|338:307,2,60,2|2|10,1:0|1:2|0:0,0:0:0:0:
205,201,32745,6,0,P|212:160|218:128,1,60,2|2,1:0|1:0,0:0:0:0:
258,99,33086,2,0,P|246:55|239:29,1,60,8|2,1:0|0:1,0:0:0:0:
190,10,33427,2,0,P|137:23|66:39,1,120,2|8,1:0|1:0,0:0:0:0:
22,69,33938,1,2,0:1:0:0:
47,123,34109,5,2,1:0:0:0:
144,192,34450,1,2,1:0:0:0:
77,291,34790,2,0,P|86:345|157:357,1,120,2|8,1:0|0:0,0:0:0:0:
250,309,35472,6,0,P|234:241|221:186,1,120,4|0,1:2|1:0,0:0:0:0:
164,173,35984,1,2,0:1:0:0:
164,173,36154,2,0,P|177:108|190:43,1,120,0|0,1:0|1:0,0:0:0:0:
298,9,36836,6,0,P|340:7|381:71,1,120,0|0,1:0|1:0,0:0:0:0:
342,112,37347,1,2,0:0:0:0:
283,96,37518,1,0,1:0:0:0:
168,59,37859,1,0,1:0:0:0:
104,160,38200,6,0,P|117:203|138:282,1,120,4|2,1:2|1:0,0:0:0:0:
192,297,38711,1,2,1:2:0:0:
192,297,38881,2,0,P|255:278|320:259,1,120,2|2,1:0|1:0,0:0:0:0:
398,340,39563,6,0,P|466:322|456:267,1,120,2|2,1:0|1:0,0:0:0:0:
438,235,40075,1,2,1:2:0:0:
438,235,40245,2,0,P|450:167|461:102,1,120,2|2,1:0|1:0,0:0:0:0:
407,85,40756,1,2,1:2:0:0:
369,132,40927,6,0,P|324:120|302:115,1,60,2|2,1:0|1:2,0:0:0:0:
279,65,41268,2,0,P|233:76|198:85,1,60,2|2,1:0|1:2,0:0:0:0:
180,123,41609,1,2,1:0:0:0:
116,21,41950,1,2,1:0:0:0:
12,81,42290,6,0,P|28:139|46:217,2,120,0|2|2,1:0|0:1|0:0,0:0:0:0:
241,8,43654,5,4,1:2:0:0:
309,106,43995,1,2,1:0:0:0:
208,170,44336,2,0,P|222:217|231:253,1,60,2|0,1:0|1:0,0:0:0:0:
275,260,44677,1,8,0:0:0:0:
370,187,45018,6,0,P|407:198|435:205,1,60,2|0,1:0|0:1,0:0:0:0:
477,169,45359,2,0,P|468:128|463:98,1,60,8|2,0:0|0:0,0:0:0:0:
492,56,45700,1,2,1:1:0:0:
380,11,46040,1,8,0:0:0:0:
325,117,46381,5,4,1:2:0:0:
215,165,46722,1,2,1:0:0:0:
160,57,47063,2,0,P|146:29|100:28,1,60,2|0,1:0|1:0,0:0:0:0:
63,40,47404,1,8,0:0:0:0:
5,145,47745,6,0,P|19:188|29:214,1,60,2|0,1:0|0:1,0:0:0:0:
79,224,48086,2,0,P|133:206|155:197,1,60,8|2,0:0|0:0,0:0:0:0:
166,153,48427,1,2,1:2:0:0:
280,187,48768,1,8,0:0:0:0:
229,295,49109,6,0,P|242:325|272:326,1,60,4|2,1:2|0:1,0:0:0:0:
321,353,49450,1,8,0:0:0:0:
423,291,49790,2,0,P|436:229|453:160,1,120,2|8,0:1|0:0,0:0:0:0:
403,134,50302,1,2,0:0:0:0:
403,134,50472,6,0,P|353:150|284:172,1,120,2|8,1:0|0:0,0:0:0:0:
222,69,51154,2,0,P|181:56|152:46,1,60,2|0,0:1|1:0,0:0:0:0:
117,87,51495,1,8,0:0:0:0:
17,151,51836,5,0,0:0:0:0:
17,151,52006,2,0,P|1:100|-7:73,2,60,2|12|2,1:0|0:0|1:2,0:0:0:0:
72,174,52518,2,0,P|59:225|51:253,1,60,2|2,1:0|1:2,0:0:0:0:
10,270,52859,1,12,0:0:0:0:
80,367,53200,5,12,0:0:0:0:
191,323,53540,2,0,P|230:333|261:343,1,60,12|2,0:0|1:2,0:0:0:0:
302,365,53881,2,0,P|350:355|368:290,1,120,12|0,0:0|1:0,0:0:0:0:
281,209,54563,5,4,1:2:0:0:
333,101,54904,1,2,1:0:0:0:
445,143,55245,2,0,P|460:191|467:216,1,60,2|0,1:0|1:0,0:0:0:0:
420,243,55586,1,8,0:0:0:0:
362,348,55927,6,0,P|325:360|300:368,1,60,2|0,1:0|0:1,0:0:0:0:
258,327,56268,2,0,P|226:317|189:306,1,60,8|2,0:0|0:0,0:0:0:0:
159,352,56609,1,2,1:1:0:0:
55,290,56950,1,8,0:0:0:0:
108,182,57290,5,4,1:2:0:0:
4,121,57631,1,2,1:0:0:0:
63,16,57972,2,0,P|108:27|141:35,1,60,2|0,1:0|1:0,0:0:0:0:
161,75,58313,1,8,0:0:0:0:
275,38,58654,6,0,P|292:82|302:112,1,60,2|0,1:0|0:1,0:0:0:0:
351,117,58995,2,0,P|340:163|334:189,1,60,8|2,0:0|0:0,0:0:0:0:
285,206,59336,1,2,1:2:0:0:
177,259,59677,1,8,0:0:0:0:
177,259,59847,6,0,P|165:314|220:353,1,120,4|2,1:2|0:1,0:0:0:0:
264,377,60359,2,0,P|309:364|339:354,1,60,8|0,0:0|1:0,0:0:0:0:
355,309,60700,1,2,0:1:0:0:
468,347,61040,1,8,0:0:0:0:
468,347,61211,6,0,P|479:280|490:226,1,120,4|2,1:2|0:1,0:0:0:0:
444,188,61722,2,0,P|408:197|371:207,1,60,8|0,0:0|1:0,0:0:0:0:
333,232,62063,1,2,0:1:0:0:
221,188,62404,1,8,0:0:0:0:
272,79,62745,5,0,1:0:0:0:
272,79,62915,2,0,P|259:27|255:6,2,60,2|12|0,1:0|1:2|1:0,0:0:0:0:
325,107,63427,2,0,P|370:96|393:90,1,60,2|2,1:0|1:0,0:0:0:0:
430,55,63768,1,12,1:2:0:0:
495,155,64109,5,12,0:2:0:0:
398,226,64450,1,12,0:2:0:0:
297,290,64790,2,0,P|256:275|227:264,1,60,12|0,0:2|1:0,0:0:0:0:
193,231,65131,2,0,P|206:179|214:152,1,60,12|0,0:2|1:0,0:0:0:0:
257,139,65472,5,4,1:2:0:0:
256,192,65813,12,2,68200,1:0:0:0:
196,95,70927,6,0,P|265:75|315:58,1,120,4|8,1:2|0:0,0:0:0:0:
362,99,71438,1,2,0:0:0:0:
362,99,71609,2,0,P|349:143|342:174,1,60,2|0,0:1|1:2,0:0:0:0:
292,184,71950,1,8,0:1:0:0:
202,263,72290,6,0,P|197:303|228:318,1,60,0|0,1:2|1:2,0:0:0:0:
257,349,72631,2,0,P|303:337|329:330,1,60,8|2,0:1|0:0,0:0:0:0:
350,285,72972,1,2,0:1:0:0:
464,319,73313,1,8,0:0:0:0:
505,206,73654,6,0,P|492:165|465:82,1,120,0|12,1:2|0:0,0:0:0:0:
415,63,74165,1,2,1:2:0:0:
415,63,74336,2,0,P|372:77|347:86,1,60,8|2,0:1|1:2,0:0:0:0:
333,136,74677,2,0,P|291:126|266:118,1,60,12|2,0:0|1:2,0:0:0:0:
230,80,75018,6,0,P|227:38|158:17,2,120,4|2|2,1:2|1:0|1:0,0:0:0:0:
130,147,76040,1,8,0:0:0:0:
25,205,76381,6,0,P|36:252|42:284,1,60,2|2,1:0|1:0,0:0:0:0:
89,294,76722,1,8,1:0:0:0:
192,233,77063,2,0,P|241:245|273:253,1,60,2|2,1:0|1:0,0:0:0:0:
298,211,77404,1,8,1:0:0:0:
408,256,77745,5,2,1:0:0:0:
467,151,78086,1,2,1:0:0:0:
366,85,78427,2,0,P|377:43|384:17,2,60,2|2|10,1:0|1:2|0:0,0:0:0:0:
257,136,79109,6,0,P|270:186|278:221,1,60,2|2,1:0|1:0,0:0:0:0:
325,221,79450,2,0,P|315:268|308:300,1,60,8|2,1:0|0:1,0:0:0:0:
257,303,79790,2,0,P|197:287|131:270,1,120,2|8,1:0|1:0,0:0:0:0:
89,240,80302,1,2,0:1:0:0:
112,185,80472,5,2,1:0:0:0:
220,133,80813,1,2,1:0:0:0:
173,22,81154,2,0,P|115:38|54:55,1,120,2|8,1:0|0:0,0:0:0:0:
15,166,81836,6,0,P|29:207|106:208,1,120,0|0,1:0|1:0,0:0:0:0:
150,186,82347,1,2,0:1:0:0:
150,186,82518,2,0,P|227:207|284:222,1,120,0|0,1:0|1:0,0:0:0:0:
327,320,83200,6,0,P|381:339|422:274,1,120,0|0,1:0|1:0,0:0:0:0:
471,265,83711,1,2,0:0:0:0:
448,209,83881,1,0,1:0:0:0:
346,145,84222,1,0,1:0:0:0:
396,36,84563,6,0,P|330:52|261:67,1,120,4|2,1:2|1:0,0:0:0:0:
228,29,85075,1,2,1:2:0:0:
228,29,85245,2,0,P|164:17|131:81,1,120,2|2,1:0|1:0,0:0:0:0:
61,151,85927,6,0,P|77:215|92:276,1,120,2|2,1:0|1:0,0:0:0:0:
143,295,86438,1,2,1:2:0:0:
143,295,86609,2,0,P|193:306|227:240,1,120,2|2,1:0|1:0,0:0:0:0:
265,207,87120,1,2,1:2:0:0:
315,238,87290,6,0,P|363:226|383:221,1,60,2|2,1:0|1:2,0:0:0:0:
415,180,87631,2,0,P|401:138|393:108,1,60,2|2,1:0|1:2,0:0:0:0:
422,68,87972,1,2,1:0:0:0:
314,14,88313,1,2,1:0:0:0:
256,119,88654,6,0,P|197:119|170:64,2,120,0|2|2,1:0|0:1|0:0,0:0:0:0:
331,347,90018,1,4,1:2:0:0:
256,192,95472,12,2,98200,0:0:0:0:
286,137,99563,5,2,1:0:0:0:
224,33,99904,1,2,1:0:0:0:
113,79,100245,2,0,P|72:104|89:180,1,120,2|8,1:0|0:0,0:0:0:0:
186,219,100927,5,2,0:1:0:0:
299,258,101268,2,0,P|314:190|330:129,1,120,4|2,1:2|0:1,0:0:0:0:
391,40,101950,1,4,1:2:0:0:
499,90,102290,6,0,P|521:117|503:154,1,60,8|0,0:0|1:0,0:0:0:0:
473,181,102631,2,0,P|429:168|402:160,1,60,8|0,0:0|1:0,0:0:0:0:
367,127,102972,1,10,0:0:0:0:
255,171,103313,1,8,0:0:0:0:
303,280,103654,5,0,0:2:0:0:
228,374,103995,1,4,1:2:0:0:
118,325,104336,2,0,P|106:277|97:243,1,60,4|0,1:2|1:0,0:0:0:0:
133,214,104677,1,8,0:0:0:0:
24,162,105018,6,0,P|32:131|40:98,1,60,4|0,1:2|0:1,0:0:0:0:
91,74,105359,2,0,P|132:84|170:93,1,60,8|2,0:0|0:0,0:0:0:0:
195,126,105700,1,2,1:2:0:0:
283,45,106040,1,8,0:0:0:0:
283,45,106211,6,0,P|319:5|387:27,1,120,6|2,1:2|0:1,0:0:0:0:
430,46,106722,2,0,P|419:87|410:120,1,60,8|0,0:0|1:0,0:0:0:0:
369,143,107063,1,2,0:1:0:0:
259,191,107404,1,8,0:0:0:0:
259,191,107575,6,0,P|276:249|295:322,1,120,4|2,1:2|0:1,0:0:0:0:
343,336,108086,2,0,P|389:324|414:318,1,60,8|0,0:0|1:0,0:0:0:0:
440,275,108427,1,2,0:1:0:0:
505,174,108768,1,8,0:0:0:0:
394,126,109109,5,0,1:0:0:0:
394,126,109279,2,0,P|382:78|375:52,2,60,2|12|0,1:0|1:2|1:0,0:0:0:0:
346,163,109790,2,0,P|336:209|331:232,1,60,2|2,1:0|1:0,0:0:0:0:
368,270,110131,1,12,1:2:0:0:
255,312,110472,5,12,0:2:0:0:
183,215,110813,1,12,0:2:0:0:
277,140,111154,2,0,P|266:95|261:73,1,60,12|0,0:2|1:0,0:0:0:0:
216,43,111495,2,0,P|171:54|144:60,1,60,12|0,0:2|1:0,0:0:0:0:
118,103,111836,6,0,P|71:94|32:160,1,120,4|8,1:2|0:0,0:0:0:0:
75,194,112347,1,2,0:0:0:0:
75,194,112518,2,0,P|62:252|59:276,1,60,2|0,0:1|1:2,0:0:0:0:
18,294,112859,1,8,0:1:0:0:
119,358,113200,6,0,P|156:347|193:335,1,60,0|0,1:2|1:2,0:0:0:0:
209,290,113540,2,0,P|261:302|290:309,1,60,8|2,0:1|0:0,0:0:0:0:
314,341,113881,1,2,0:1:0:0:
392,250,114222,1,8,0:0:0:0:
284,195,114563,6,0,P|240:168|248:98,1,120,0|12,1:2|0:0,0:0:0:0:
284,62,115075,1,2,1:2:0:0:
284,62,115245,2,0,P|326:71|351:77,1,60,8|2,0:0|1:2,0:0:0:0:
372,126,115586,2,0,P|409:118|441:111,1,60,12|2,0:0|1:2,0:0:0:0:
481,80,115927,6,0,P|484:43|408:6,2,120,4|8|2,1:2|1:0|1:0,0:0:0:0:
508,197,116950,2,0,P|450:210|388:224,1,120,4|8,1:2|1:2,0:0:0:0:
297,147,117631,1,2,1:0:0:0:
196,212,117972,5,4,1:2:0:0:
150,322,118313,1,2,1:0:0:0:
35,285,118654,2,0,P|17:229|61:188,1,120,2|0,1:0|0:0,0:0:0:0:
